Search found 42 matches

Author Message

admin

Post 28-Apr-2022 01:09

[Quote]

Название: Песни Давида Тухманова
Исполнитель: Электроклуб
Год: 1987-1989
Страна-производитель: СССР
Аудио кодек: FLAC
Тип рипа: Image+.cue
Жанр: Pop
Разрядность: 24 Bit/192 kHz
Продолжительность: 01:12:28
Код класса состояния винила: EX
Устройство воспроизведения: Technics - SL2000
Головка звукоснимателя: Audio-Technica AT440MLa
Предварительный усилитель: Clearaudio Phonostage Basic+
АЦП: M-Audio ProFire 610
Программа-оцифровщик: RME HDSP 9632
Обработка: iZotope RX

Трек-лист

1987 - Электроклуб 1 (Мелодия - С60 25863 005 ТЗГ)
A1. Нервы, нервы, нервы (Д.Тухманов - М.Рябинин) 3:50
A2. Воздушные замки (Д.Тухманов - Л.Фадеев) 4:15
A3. Чистые пруды (Д.Тухманов - Л.Фадеев) 6:00
A4. Но все-таки лето (Д.Тухманов - В.Харитонов) 4:33
B1. Экстрасенс (Д.Тухманов - С.Осиашвили) 4:07
B2. Прощальный день (Д.Тухманов - А.Саед-Шах) 4:48
B3. Старое зеркало (Д.Тухманов - С.Осиашвили) 5:12
B4. Темная лошадка (Д.Тухманов - Л.Рубальская) 4:18
1989 - Электроклуб 2 (Мелодия - С60 28539 007 АОЛЗГ)
A1. Темная лошадка (Д.Тухманов - Л.Рубальская) 3:15
A2. Схожу с ума (Д.Тухманов - С.Романов) 4:40
A3. Дай мне слово (Д.Тухманов - С.Романов) 3:35
A4. Последнее свидание (Д.Тухманов - С.Романов) 3:33
B1. Ты замуж за него не выходи (Д.Тухманов - И.Шаферан) 3:21
B2. Ветер задремал (Д.Тухманов - М.Рябинин) 4:43
B3. Синяя роза (Д.Тухманов - А.Поперечный)3:26
B4. Кони в яблоках (Д.Тухманов - М.Танич) 3:30
B5. Ты помнишь Москву? (Д.Тухманов - В.Харитонов) 4:05

admin

Post 26-Apr-2022 01:29

[Quote]

Название: Коллекция
Исполнитель: Синяя Птица
Год: 1995-1996
Жанр: Pop, Estrada
Страна: Россия
Продолжительность: 05:54:47
Формат/Кодек: FLAC
Тип рипа: Tracks
Битрейт аудио: Lossless
Носитель: CD

Коллекция:

1995 - Ты мне не снишься (RDM - CDRDM 508093)

01. Клён
02. Ты мне не снишься
03. Задумчивая грусть
04. Не оставляй любовь
05. Слова
06. Знаешь ты
07. Первая любовь
08. Не обещай меня любить
09. Не уходи
10. Ушло наше лето
11. Записка
12. На перепутье
13. Так вот какая ты
14. Детство
15. Здравствуй, как ты живёшь?
16. Радуга
17. На закате в среду

Лог проверки качества
-----------------------
DON'T MODIFY THIS FILE
-----------------------
PERFORMER: auCDtect Task Manager, ver. 1.6.0 RC1 build 1.6.0.1
Copyright (c) 2008-2010 y-soft. All rights reserved
http://y-soft.org
ANALYZER: auCDtect: CD records authenticity detector, version 0.8.2
Copyright (c) 2004 Oleg Berngardt. All rights reserved.
Copyright (c) 2004 Alexander Djourik. All rights reserved.
FILE: 01. Клён.flac
Size: 19062791 Hash: 26AF74FD72DFD1E02998CEB2EBDF6FFA Accuracy: -m8
Conclusion: CDDA 100%
Signature: E691F8AD960347FE54351577F4A2CCB0ECBDFD33
FILE: 02. Ты мне не снишься.flac
Size: 19859931 Hash: E1788E2147477BC65141B48A333D41CF Accuracy: -m8
Conclusion: CDDA 99%
Signature: 7B553B61DB9CB321D10ED3C3712708DCDF609497
FILE: 03. Задумчивая грусть.flac
Size: 21473487 Hash: 9FE46D2C85EB3B4ADFC187F4D42FB857 Accuracy: -m8
Conclusion: CDDA 100%
Signature: F4661F224A5C470471A723A6CD07E2D1ECA667F2
FILE: 04. Не оставляй любовь.flac
Size: 24346992 Hash: 09D4156E4D1A0083C2CF2338781E9FC3 Accuracy: -m8
Conclusion: CDDA 99%
Signature: 93FCAD3B161D46F69BF62F78E8E493686DDE8F16
FILE: 05. Слова.flac
Size: 21445880 Hash: 52FA1FAF19B3187C18007C638F583C32 Accuracy: -m8
Conclusion: CDDA 100%
Signature: 92723D0527082AFAA55BF04763E121E3BF51E0B6
FILE: 06. Знаешь ты.flac
Size: 19431805 Hash: 3F2EFF5791EE3C5B63E1A22B57FF67F6 Accuracy: -m8
Conclusion: CDDA 100%
Signature: E08D7E7407420303D85557D6F78123756D6390AB
FILE: 07. Первая любовь.flac
Size: 26134286 Hash: 7D79F2F0512F834482284F70D73AB8DF Accuracy: -m8
Conclusion: CDDA 100%
Signature: CA92368D83B869FC57154655E36055BD50B6CE9C
FILE: 08. Не обещай меня любить.flac
Size: 19974434 Hash: DC6C28E8061EADBD4960FC894332A7D3 Accuracy: -m8
Conclusion: CDDA 100%
Signature: 68E17C92AE710C429F9F8F05634A7D6AA65451F4
FILE: 09. Не уходи.flac
Size: 27279722 Hash: 32BE84E33C975862BDC16241D04EAAAD Accuracy: -m8
Conclusion: CDDA 100%
Signature: 77A5F056E426D11E36910D979D59F42EDEDD0D8B
FILE: 10. Ушло наше лето.flac
Size: 23130142 Hash: 3C8E5210ED7AA7BA753E1C65A5DBC23B Accuracy: -m8
Conclusion: CDDA 100%
Signature: D85CDD2BC3FF86ED811EDF5E95541C3B23982E38
FILE: 11. Записка.flac
Size: 31543658 Hash: 2982E53D73F7FB4064B5B1002F21D8EC Accuracy: -m8
Conclusion: CDDA 100%
Signature: 74F842CF472BF094C68E6AD9281DAEBA23A7E2D8
FILE: 12. На перепутье.flac
Size: 21295292 Hash: 08C5D58FCDC114B0C0B5EC4EDEF116B5 Accuracy: -m8
Conclusion: CDDA 99%
Signature: C737C5FA09E7484C9343B7F7DBDE430722CC9CC1
FILE: 13. Так вот какая ты.flac
Size: 22219351 Hash: 079D84E56D74FCEC742F4541448286BA Accuracy: -m8
Conclusion: CDDA 99%
Signature: 8DA3ADC5F736817BE1E803CD9D676108CCA3F67B
FILE: 14. Детство.flac
Size: 21796511 Hash: E87AD0FF9F68F431F41E196EA69AD817 Accuracy: -m8
Conclusion: CDDA 100%
Signature: F9A5ADBFC6A5C83DB038A172D2699222A9E4F1EC
FILE: 15. Здравствуй, как ты живёшь.flac
Size: 28692765 Hash: F0F198326990882BC390DEB0893F2F35 Accuracy: -m8
Conclusion: CDDA 100%
Signature: 848EF3ADCBFD737F62795A5763F9EDE466BC9DA5
FILE: 16. Радуга.flac
Size: 27288855 Hash: 9DEC17ED36218A6F6E8A178F87B87E80 Accuracy: -m8
Conclusion: CDDA 99%
Signature: 9E48F219D660441074CBEA1E6872AC14028348B5
FILE: 17. На закате в среду.flac
Size: 27305677 Hash: 04F82DB68AC0F35CF65EB0BAF56C6144 Accuracy: -m8
Conclusion: CDDA 100%
Signature: 189AFA834F22FA2F97F95414CF7565C7D9523965

1995 - Белый теплоход (RDM - CDRDM 601117)

01. Белый теплоход
02. В семь часов у Никитских ворот
03. Я иду тебе навстречу
04. В море ходят пароходы
05. Не узнаешь
06. Дождь за окном
07. Пусть я ошибусь
08. Белый причал
09. Осенний этюд
10. Когда-нибудь
11. Подорожник
12. Цветные звуки
13. Не обижайся
14. Шаги
15. Наедине с собой
16. Зачем ты вернулся?

Лог проверки качества
-----------------------
DON'T MODIFY THIS FILE
-----------------------
PERFORMER: auCDtect Task Manager, ver. 1.6.0 RC1 build 1.6.0.1
Copyright (c) 2008-2010 y-soft. All rights reserved
http://y-soft.org
ANALYZER: auCDtect: CD records authenticity detector, version 0.8.2
Copyright (c) 2004 Oleg Berngardt. All rights reserved.
Copyright (c) 2004 Alexander Djourik. All rights reserved.
FILE: 01. Белый теплоход.flac
Size: 25297459 Hash: B9B974DC70D762F26049E8AA81CB275F Accuracy: -m8
Conclusion: CDDA 99%
Signature: BDB9C7E2E6ED0D3A47F899E80697C8D9A2C25186
FILE: 02. В семь часов у Никитских ворот.flac
Size: 25026952 Hash: FD45DD19FD17E7DC600C867B1F534E55 Accuracy: -m8
Conclusion: CDDA 100%
Signature: BF9803D26FFDB6A8135173BFF1C7A53D7989AE5C
FILE: 03. Я иду тебе навстречу.flac
Size: 27000980 Hash: 87E790025C6F9D73AD5C28B0EAA983AC Accuracy: -m8
Conclusion: CDDA 99%
Signature: 37D646293AC5DAA77E5E21FC9A064704E6D2A25B
FILE: 04. В море ходят пароходы.flac
Size: 25259666 Hash: BE8F854E9D5569E67AB3F791A26564FB Accuracy: -m8
Conclusion: CDDA 100%
Signature: FDD8AE5A555FFB41350BB5867254F067A66274D3
FILE: 05. Не узнаешь.flac
Size: 17943907 Hash: C8419999AC9D5C094569A6BD51950D00 Accuracy: -m8
Conclusion: CDDA 100%
Signature: BCA7400BD93AB2CA1FE2D721C36646A00F8D9D00
FILE: 06. Дождь за окном.flac
Size: 26900642 Hash: 7F8C92A2F2B7ECAF6D4CDDC93D13EA49 Accuracy: -m8
Conclusion: CDDA 100%
Signature: 42754979788236D9945950D3C742D1CB66265601
FILE: 07. Пусть я ошибусь.flac
Size: 22655576 Hash: 7F9926BBB499B7F0282CA66828927D80 Accuracy: -m8
Conclusion: CDDA 99%
Signature: 283B56A6DFCAEDF710CF26377324D5FCB39A8916
FILE: 08. Белый причал.flac
Size: 22475835 Hash: D1FE6BAC0E24D69DA616ACFB0DC06DC7 Accuracy: -m8
Conclusion: CDDA 100%
Signature: 644157DC8F2AB5AD873E60F57F807C9A70834860
FILE: 09. Осенний этюд.flac
Size: 19772604 Hash: 2A1A78C235125CB6D99365F28651C2BD Accuracy: -m8
Conclusion: CDDA 100%
Signature: C6D8F1C0636B3C7BD125DFECD78A9AFAA43A7E74
FILE: 10. Когда-нибудь.flac
Size: 27948386 Hash: 0891FF71A69F5F6C567A384BAE5752C8 Accuracy: -m8
Conclusion: CDDA 99%
Signature: A7D74B7B23176D114291258C5735B1D41368DE25
FILE: 11. Подорожник.flac
Size: 28008520 Hash: 82189A509632EE4A2C8DC7ECC8BD9FE1 Accuracy: -m8
Conclusion: CDDA 100%
Signature: DF1AAB896763C380104FB8410E6766DE15D818D1
FILE: 12. Цветные звуки.flac
Size: 25040118 Hash: C2E62A4BAB6348D146F927E609723B90 Accuracy: -m8
Conclusion: CDDA 100%
Signature: A8C98B1BBB747F7D67814770387326405C1B5B8D
FILE: 13. Не обижайся.flac
Size: 21697168 Hash: B197F37AF46D093264F31683674E0436 Accuracy: -m8
Conclusion: CDDA 99%
Signature: ABEDFCFAAD332F6AC3745F316085BEDA38FEC38A
FILE: 14. Шаги.flac
Size: 26436704 Hash: 83613EE869F6F457C2903FA475A03CA0 Accuracy: -m8
Conclusion: CDDA 100%
Signature: 198FB9B9ABBF4C6EBC0C569E70FA45AA232E11ED
FILE: 15. Наедине с собой.flac
Size: 33382368 Hash: A978158BD7F00B2B63289606407A3663 Accuracy: -m8
Conclusion: CDDA 100%
Signature: DDD3EFA5754C5BF22AA7E31C8AD51298315FD5CF
FILE: 16. Зачем ты вернулся.flac
Size: 21351423 Hash: 6CC11FF4752FD5027166F0AE524AF478 Accuracy: -m8
Conclusion: CDDA 100%
Signature: 24E1209B539DB54A17EB708E24622E3395E5F26A

1996 - Мамина пластинка (RDM - CDRDM 601116)

01. Мамина пластинка
02. Последнее письмо
03. Горько
04. Нелётная погода
05. Подземный переход
06. Моя любовь жива
07. Осень настала
08. Хочешь, я стану дождиком
09. Что же ты молчишь?
10. Три аккорда
11. Твой сон
12. День рождения лета
13. Полевая улица
14. Прости
15. От крутого бережка

Лог проверки качества
-----------------------
DON'T MODIFY THIS FILE
-----------------------
PERFORMER: auCDtect Task Manager, ver. 1.6.0 RC1 build 1.6.0.1
Copyright (c) 2008-2010 y-soft. All rights reserved
http://y-soft.org
ANALYZER: auCDtect: CD records authenticity detector, version 0.8.2
Copyright (c) 2004 Oleg Berngardt. All rights reserved.
Copyright (c) 2004 Alexander Djourik. All rights reserved.
FILE: 01. Мамина пластинка.flac
Size: 19471354 Hash: 7E9B51BD6C41B811A8EA8AF93B851D92 Accuracy: -m8
Conclusion: CDDA 100%
Signature: 9664162E5D199C9A131174F1EA54C3BBB8783DAC
FILE: 02. Последнее письмо.flac
Size: 17412803 Hash: 2B20C70CDA9B5C6C8D9A45D89CF4EA61 Accuracy: -m8
Conclusion: CDDA 99%
Signature: 011842E2AF95CB556D1D875FD6A7D9CEE33C010E
FILE: 03. Горько.flac
Size: 17175327 Hash: 08B0F036BDDCBD0636F2EA412CB98126 Accuracy: -m8
Conclusion: CDDA 100%
Signature: FD3A9F6D70E51BAEE3389DC38FF98E59C528088C
FILE: 04. Нелётная погода.flac
Size: 18861008 Hash: AB0330EE1FD4E74F3E5AB2817199820F Accuracy: -m8
Conclusion: CDDA 100%
Signature: D71D228FD2967FEDFFE675629D94A5771F631929
FILE: 05. Подземный переход.flac
Size: 33966812 Hash: 349F258FB798751CF22B7D430373925D Accuracy: -m8
Conclusion: CDDA 99%
Signature: 525DA850667F33594422BF057CC19CF00E855B25
FILE: 06. Моя любовь жива.flac
Size: 24970703 Hash: 2BCDCEA59118F7599C07906BEF295EF6 Accuracy: -m8
Conclusion: CDDA 100%
Signature: 4141E3F9FA59D03D319857EEF8EF55CF561C20CE
FILE: 07. Осень настала.flac
Size: 23296192 Hash: 5087B2EE725905A50CE02057E9CB6F38 Accuracy: -m8
Conclusion: CDDA 100%
Signature: 305D5C10F977FB94DFAD27E8754E336733175A0B
FILE: 08. Хочешь, я стану дождиком.flac
Size: 25245126 Hash: 9765008A3C771E86FDA3C552F0B80402 Accuracy: -m8
Conclusion: CDDA 100%
Signature: F0154DC0A3D73526A93F42D88B3FCA9F1546AF0D
FILE: 09. Что же ты молчишь.flac
Size: 25458952 Hash: C880DED5E2531582472B5E3BA55265CC Accuracy: -m8
Conclusion: CDDA 100%
Signature: 528AACB381C558B5C6788B83529AA92A97D91F58
FILE: 10. Три аккорда.flac
Size: 25914433 Hash: 2F83C28975B362C806D666995894F97D Accuracy: -m8
Conclusion: CDDA 99%
Signature: 436D99E89BA8C5379B5C75FD5130635FFB46F866
FILE: 11. Твой сон.flac
Size: 27354540 Hash: B4557EF68F96D6BC0DA3DB8887BD6D46 Accuracy: -m8
Conclusion: CDDA 100%
Signature: 1D048543773BB53DD2AE28830CFC7277F295D75D
FILE: 12. День рождения лета.flac
Size: 33316425 Hash: 5769598D4695E9D79358B4A4947BCBF9 Accuracy: -m8
Conclusion: CDDA 100%
Signature: 163E78688F8BBD6E627729F2BB12E13BC879A971
FILE: 13. Полевая улица.flac
Size: 18481676 Hash: E3360E5DD83EC49429ED47170C0EB71F Accuracy: -m8
Conclusion: CDDA 100%
Signature: 6E90919A4EED9B956DB3FE578D8544A736B4E438
FILE: 14. Прости.flac
Size: 19654205 Hash: CE14DBB203BC3111622CC16C3F7F01CA Accuracy: -m8
Conclusion: CDDA 100%
Signature: 1775B12A705E1B29DF9695AC0287548C9AACCDEB
FILE: 15. От крутого бережка.flac
Size: 24743849 Hash: D2C8CA84B834DC43C97A71DDC66AF435 Accuracy: -m8
Conclusion: CDDA 99%
Signature: B4D620B05DBFB0180FDEEA38FFD988222FC796FB

1996 - Когда с тобой любовь (Moroz Records - MR 96134 CD)

01. Когда с тобой любовь
02. Лишь увижу я тебя
03. И вас прошу об этом
04. Марья
05. Урок сольфеджио
06. Неужели
07. Видеомагнитофон
08. Пол-дороги
09. Мальчик с одуванчиками
10. Со скоростью света
11. Цветы последние
12. Всё как у взрослых
13. Первая любовь моя
14. То не зорька ясная
15. Жасмин
16. Мне помнится
17. Памяти Эдит Пиаф

Лог проверки качества
-----------------------
DON'T MODIFY THIS FILE
-----------------------
PERFORMER: auCDtect Task Manager, ver. 1.6.0 RC1 build 1.6.0.1
Copyright (c) 2008-2010 y-soft. All rights reserved
http://y-soft.org
ANALYZER: auCDtect: CD records authenticity detector, version 0.8.2
Copyright (c) 2004 Oleg Berngardt. All rights reserved.
Copyright (c) 2004 Alexander Djourik. All rights reserved.
FILE: 01. Когда с тобой любовь.flac
Size: 18709078 Hash: 1010DD0D5995547D74E95B1CD91C7B3D Accuracy: -m8
Conclusion: CDDA 100%
Signature: E2FF7D31E493D3E3ABC235E3D5269B2B6D06B0AF
FILE: 02. Лишь увижу я тебя.flac
Size: 15730115 Hash: 8A7359B531A64991D16D26FCEFFB3A12 Accuracy: -m8
Conclusion: CDDA 100%
Signature: 536DAD50331015EE9746184692E11B494841E0F7
FILE: 03. И вас прошу об этом.flac
Size: 25166812 Hash: 469FACAF2AB0F45855938068A31E75D9 Accuracy: -m8
Conclusion: CDDA 100%
Signature: 808A3100D04F690D72B7ECD180C6CB8C4D6EE49E
FILE: 04. Марья.flac
Size: 27223250 Hash: 3D5B4AFC49B546F2D0F329C15ABFCB09 Accuracy: -m8
Conclusion: CDDA 100%
Signature: 5F456513A2C767011F4973F3ED9476C23BC68BCA
FILE: 05. Урок сольфеджио.flac
Size: 18471474 Hash: F3A0DE7AB2F7D7F21D43FF15AEFE76FD Accuracy: -m8
Conclusion: CDDA 100%
Signature: 4D993A90D3E9983BA489DBA28F2B0F18BDAF9056
FILE: 06. Неужели.flac
Size: 19119638 Hash: E37D65B02E3C4A053BECBD7767C94E76 Accuracy: -m8
Conclusion: CDDA 100%
Signature: 90494A988F19F1D5A46D521F9C5D46EB82B674A1
FILE: 07. Видеомагнитофон.flac
Size: 21136968 Hash: 80E31B69AF65B2478EAA9ADA5F3A1BF2 Accuracy: -m8
Conclusion: CDDA 100%
Signature: 6414A8EB9F4D0D9E21665B46A624F0468077E00C
FILE: 08. Пол-дороги.flac
Size: 21521743 Hash: D7E56056F1B76BD46D91C28E71B1FAED Accuracy: -m8
Conclusion: CDDA 100%
Signature: 6F3B351F5B3D27E42482BBAEECB99AEF0CA23AEF
FILE: 09. Мальчик с одуванчиками.flac
Size: 23855925 Hash: 36D34429FF64B03A5BEBFB8B8383F103 Accuracy: -m8
Conclusion: CDDA 100%
Signature: D8CCD289144175BEE8EE16DF01698C992C796EA9
FILE: 10. Со скоростью света.flac
Size: 19768106 Hash: 2545F75D31C0E239A5162B3AAD013B82 Accuracy: -m8
Conclusion: CDDA 100%
Signature: F6E1C41129C3EE0CF11B1EB1C77B26EE9955A9D7
FILE: 11. Цветы последние.flac
Size: 20779053 Hash: 59A170C257A69743A96C57B06F253F3C Accuracy: -m8
Conclusion: CDDA 100%
Signature: 8C69819D215269E4A1E5BDB7D60313DBEF8251CE
FILE: 12. Всё как у взрослых.flac
Size: 12302999 Hash: 7C1EFBD14C85E641C8662FC2D27E6F9C Accuracy: -m8
Conclusion: CDDA 100%
Signature: FB4E4C0D5CA9B0475C12157705960FB5C3560AB0
FILE: 13. Первая любовь моя.flac
Size: 15354547 Hash: 3F525C028CA7172F5C1F806D7F4E5313 Accuracy: -m8
Conclusion: CDDA 100%
Signature: 4A9241F6E304DD60D34748F352E4768996F36315
FILE: 14. То не зорька ясная.flac
Size: 21319041 Hash: A5202A6C90539A6C86B5B53E731951A0 Accuracy: -m8
Conclusion: CDDA 100%
Signature: 9E51A095335268AB979830C1A917560CD10FF24B
FILE: 15. Жасмин.flac
Size: 21686494 Hash: E48C388E0282A4878B44B3B0B881AA0C Accuracy: -m8
Conclusion: CDDA 100%
Signature: 4F0EDAB0734B176505E726F428E11002515471F4
FILE: 16. Мне помнится.flac
Size: 17183297 Hash: D012EAF79219C89FA8A0A2E890378526 Accuracy: -m8
Conclusion: CDDA 100%
Signature: 6641D244A388DC75B588422A6BE7EB55A4DD916D
FILE: 17. Памяти Эдит Пиаф.flac
Size: 24700431 Hash: C92FD3D7DC95C1428BAC9B4DDE82B944 Accuracy: -m8
Conclusion: CDDA 100%
Signature: 4A6F620664E9AB8041CDD5632BBE59B3A648B8A1

1996 - Мир на холсте (Moroz Records - MR 96135 CD)

01. Между мною и тобою
02. Мир на холсте
03. Юля
04. Я буду ждать весну
05. Ты сказала 'Нет'
06. Восьмое чудо
07. От любви не убегай
08. Купи мне шарик
09. Синий туман твоих глаз
10. День открытых дверей
11. Родина моя
12. Жёлтый зонтик
13. Я тебя не прощу
14. Любовь прекрасна
15. Ты одна
16. Только море

Лог проверки качества
-----------------------
DON'T MODIFY THIS FILE
-----------------------
PERFORMER: auCDtect Task Manager, ver. 1.6.0 RC1 build 1.6.0.1
Copyright (c) 2008-2010 y-soft. All rights reserved
http://y-soft.org
ANALYZER: auCDtect: CD records authenticity detector, version 0.8.2
Copyright (c) 2004 Oleg Berngardt. All rights reserved.
Copyright (c) 2004 Alexander Djourik. All rights reserved.
FILE: 01. Между мною и тобою.flac
Size: 21456147 Hash: A5569FBE7C4D9572A40CB4CFD189B26B Accuracy: -m8
Conclusion: CDDA 100%
Signature: BCD5DC6440D03A38FB991A598ACC6255D744B227
FILE: 02. Мир на холсте.flac
Size: 28298774 Hash: BD836E9A50CA7F6C2CAB395AF6BB1743 Accuracy: -m8
Conclusion: CDDA 100%
Signature: 6579046CEF75C1ACE97C60FDFB957769867C4E72
FILE: 03. Юля.flac
Size: 23562276 Hash: F2A517910416FBA60C4F6623583E06CD Accuracy: -m8
Conclusion: CDDA 99%
Signature: 980122247D6589221D3C9708BFA2E9B73E1F6781
FILE: 04. Я буду ждать весну.flac
Size: 26384885 Hash: ECD4B0AB9E52328FB7E86A946DF220CA Accuracy: -m8
Conclusion: CDDA 100%
Signature: 25E6F60EBEC4AB6B0627E76B613A59BDE8DE0338
FILE: 05. Ты сказала 'Нет'.flac
Size: 25730673 Hash: 3A64D10B8DC9BB81E51E92C678E1247A Accuracy: -m8
Conclusion: CDDA 100%
Signature: 9F678E1DDE190FFA59A4984E30C69FE2218D1612
FILE: 06. Восьмое чудо.flac
Size: 21965080 Hash: DCDF1E2E157FB5FF853DB45DF82B1135 Accuracy: -m8
Conclusion: CDDA 100%
Signature: 1CF71682AC72BC50A5E005BCF4920371F8B54089
FILE: 07. От любви не убегай.flac
Size: 28164448 Hash: EA11F212894A7B03C5B5B3342ED4EEF2 Accuracy: -m8
Conclusion: CDDA 100%
Signature: 281DDF926060279064E62CE9FFCD7D2387A1DDF9
FILE: 08. Купи мне шарик.flac
Size: 28902246 Hash: D41CF8195F6285B095CF36294237CE32 Accuracy: -m8
Conclusion: CDDA 100%
Signature: 0820A9926F807E55BBA6A2F3197E9F8C45A2B1AE
FILE: 09. Синий туман твоих глаз.flac
Size: 21942970 Hash: 5475EBAF502D27E20841F9DB6D9E3E71 Accuracy: -m8
Conclusion: CDDA 99%
Signature: 7F27F8834D51E545DED541DFCCA8CAE0FBE68BFC
FILE: 10. День открытых дверей.flac
Size: 31447133 Hash: D873120C2EF5FAB6C222DA97695E599F Accuracy: -m8
Conclusion: CDDA 100%
Signature: 236F416C110318CCD122DA2274A08570D11CCCDD
FILE: 11. Родина моя.flac
Size: 19607167 Hash: C87197723DBA2A2413145B96F0F05D93 Accuracy: -m8
Conclusion: CDDA 100%
Signature: 17E789F2A00AF72E11B930E1CDCA5AAF270F7113
FILE: 12. Жёлтый зонтик.flac
Size: 23649430 Hash: 8F7F68268206F4729850A3145F56B02D Accuracy: -m8
Conclusion: CDDA 100%
Signature: 144AED06AF196E3565163984FB8B7ACB6A28694C
FILE: 13. Я тебя не прощу.flac
Size: 28396482 Hash: 28D787359DB57A5D0BFE666A11FE6C24 Accuracy: -m8
Conclusion: CDDA 100%
Signature: 77B1F6F3A340D94B0409B3CA92517BA56463F66F
FILE: 14. Любовь прекрасна.flac
Size: 22983649 Hash: FB11D72C33CD44353889943FFCE07B1F Accuracy: -m8
Conclusion: CDDA 100%
Signature: 70EFB8C360EF0FBE52C51FAB61DFEC8E99D9ED5A
FILE: 15. Ты одна.flac
Size: 32982340 Hash: 37E1A5A779905C913766ABD7EB33891F Accuracy: -m8
Conclusion: CDDA 100%
Signature: 62ED0B2B8F3988AC6DF167B12D1381DB9DD83D16
FILE: 16. Только море.flac
Size: 14122274 Hash: BAAE6B097F07408FFF96661C3E06B220 Accuracy: -m8
Conclusion: CDDA 100%
Signature: 0E08993266FA3EA56D7A39E0E234CE20F54FEFCF

1996 - Здравствуй и прощай (Moroz Records - MR 96136 CD)

01. Карусельная лошадка
02. Прощай, прощай
03. Здравствуй и прощай
04. Уезжают соседи
05. Тебе на завтра
06. Пустой трамвай
07. Путешествие по карте
08. Амазонка
09. Приезжай поскорей
10. Аттракцион
11. Только ты
12. Главный приз
13. Корабли
14. Эй, парень

Лог проверки качества
-----------------------
DON'T MODIFY THIS FILE
-----------------------
PERFORMER: auCDtect Task Manager, ver. 1.6.0 RC1 build 1.6.0.1
Copyright (c) 2008-2010 y-soft. All rights reserved
http://y-soft.org
ANALYZER: auCDtect: CD records authenticity detector, version 0.8.2
Copyright (c) 2004 Oleg Berngardt. All rights reserved.
Copyright (c) 2004 Alexander Djourik. All rights reserved.
FILE: 01. Карусельная лошадка.flac
Size: 25522554 Hash: D5B935D7F5DE14F6D247CB261BD2352A Accuracy: -m8
Conclusion: CDDA 100%
Signature: E1B46BB60FD9BDE2DC41B6235747FAFD176B2ECB
FILE: 02. Прощай, прощай.flac
Size: 31046307 Hash: 2697BF2601C6F936D461988D18BF6967 Accuracy: -m8
Conclusion: CDDA 100%
Signature: 55DB0C31D4D6B49896739E85A1764FF4BB63570B
FILE: 03. Здравствуй и прощай.flac
Size: 31321139 Hash: 7A3B2B38EF0F853E020AA24F005CFC0A Accuracy: -m8
Conclusion: CDDA 100%
Signature: C669F086210CF3EACED5A022FC0ECA050C0D3A75
FILE: 04. Уезжают соседи.flac
Size: 24886233 Hash: 22378111656D4149252B9051DAE2ED45 Accuracy: -m8
Conclusion: CDDA 99%
Signature: F12F657F6FE153CD23490A56053A1935778C559D
FILE: 05. Тебе на завтра.flac
Size: 28857527 Hash: AC6C2AB202ED1677F6963D87157F9059 Accuracy: -m8
Conclusion: CDDA 100%
Signature: 046E6C1F421A480CF2E21F20312F1B59AC2C34CA
FILE: 06. Пустой трамвай.flac
Size: 30482410 Hash: 86FF91BC4760EFA4FC33846B0B86D69D Accuracy: -m8
Conclusion: CDDA 100%
Signature: 3C210E89CBFFDCEC76254F69901D67B448B7B625
FILE: 07. Путешествие по карте.flac
Size: 30646189 Hash: 32B0880BBFFC57F3DF57C7B5585478D5 Accuracy: -m8
Conclusion: CDDA 100%
Signature: 018A4D98EAE55459F4800447542DADD610AE5C1C
FILE: 08. Амазонка.flac
Size: 20154880 Hash: A4587B1DE2629CCD1928A9C453044E5D Accuracy: -m8
Conclusion: CDDA 100%
Signature: CE33FB9E6156855DFDEE5525B3FD15C19715ED94
FILE: 09. Приезжай поскорей.flac
Size: 25200962 Hash: F26F204A7D27F00B5912C128405FBC38 Accuracy: -m8
Conclusion: CDDA 100%
Signature: AA12B855AA0465A503A1C72B1A0311E1189CAE12
FILE: 10. Аттракцион.flac
Size: 21711399 Hash: E057149688B1D5A5991191379E4725F5 Accuracy: -m8
Conclusion: CDDA 100%
Signature: CBD80A649405220F7ECC7FFF0491F0D7B98F8433
FILE: 11. Только ты.flac
Size: 20363670 Hash: 79562078A73614E7069938D9EA47E787 Accuracy: -m8
Conclusion: CDDA 100%
Signature: D20353228ED2A4CB0BD98EFBF42F50F34EF8130E
FILE: 12. Главный приз.flac
Size: 26794562 Hash: 6F18FF4487E94080042C01910C69483B Accuracy: -m8
Conclusion: CDDA 100%
Signature: DC14BB7C42BD3767779CF35AC306B3546542F86A
FILE: 13. Корабли.flac
Size: 36020841 Hash: 1DF6590F0F5E2F05FC0BC6E566080F04 Accuracy: -m8
Conclusion: CDDA 100%
Signature: BF84230801575AC8555CB60FD2EAF28C074F3D3D
FILE: 14. Эй, парень.flac
Size: 32732933 Hash: E278971A28F8765FBDE7EE6996830BDE Accuracy: -m8
Conclusion: CDDA 100%
Signature: FF8E98E42534FB7B4B65BF31A9A31CBFD6AB7A3E

Борисыч

Post 15-Apr-2022 12:59

[Quote]

Шаинский - супер.

admin

Post 15-Apr-2022 12:56

[Quote]

Название: Владимир Шаинский: Любви негромкие слова
Исполнитель: Various Artists
Год: 1997
Жанр: Pop, Эстрада
Страна: СССР, Россия
Продолжительность: 01:11:25
Формат/Кодек: FLAC
Тип рипа: Image+.cue
Битрейт аудио: Lossless
Носитель: CD

Трек-лист

01. Владимир Шаинский - Две звезды (4:31)
02. Лев Лещенко - Родительский дом (3:43)
03. Геннадий Белов - Травы, травы (4:18)
04. ВИА "Пламя" - На дальней станции сойду (3:43)
05. Геннадий Белов - Дрозды (4:37)
06. Анна Герман - Когда цвели сады (4:54)
07. Татьяна Анциферова - Назови меня красавицей (3:14)
08. София Ротару - Рябина (3:10)
09. Алла Пугачёва - Цыганский хор (4:41)
10. ВИА "Лейся песня" - Обручальное кольцо (5:00)
11. Андрей Миронов - Ну почему ко мне ты равнодушна (3:33)
12. ВИА "Самоцветы" - Через две зимы (4:00)
13. Лев Лещенко - Старые качели (4:30)
14. Эдуард Хиль - Не плачь, девчонка (4:05)
15. Анна Герман - А он мне нравится (3:10)
16. Аида Ведищева - Смешной паренек (3:02)
17. ВИА "Пламя" - Идет солдат по городу (3:14)
18. Анна Герман - Любви негромкие слова (3:53)

admin

Post 14-Apr-2022 13:51

[Quote]

Название: Это песня для близких друзей
Исполнитель: Андрей Миронов
Год: 1987/2016
Жанр: Эстрада, Шансон
Страна: СССР
Продолжительность: 00:32:25
Формат/Кодек: FLAC
Тип рипа: Tracks
Битрейт аудио: Lossless
Носитель: WEB

Трек-лист

01. Я выхожу на сцену (3:16)
02. Так повелось... (3:09)
03. Он и она (3:40) (дуэт с Ларисой Голубкиной)
04. Евпатория (2:50)
05. Дальняя песня (3:13)
06. Замечательное средство (2:23)
07. А может быть... (2:40)
08. Страдание (2:24)
09. Недалеко от Москвы (2:17)
10. Воскресная прогулка (3:04)
11. Я дома (3:31)

DRM + Лог проверки качества
foobar2000 1.3.8 / Dynamic Range Meter 1.1.1
--------------------------------------------------------------------------------
Analyzed: Андрей Миронов / Лариса Голубкина / Ян Френкель: Это песня для близких друзей... (Мелодия, Digital Release) (1)
Андрей Миронов / Ян Френкель: Это песня для близких друзей... (Мелодия, Digital Release) (2-11)
--------------------------------------------------------------------------------
DR Peak RMS Duration Track
--------------------------------------------------------------------------------
DR13 -4.89 dB -24.53 dB 3:16 01-Я выхожу на сцену
DR13 -6.86 dB -23.95 dB 3:09 02-Так повелось...
DR13 -6.85 dB -24.01 dB 3:40 03-Он и она
DR13 -6.24 dB -21.85 dB 2:50 04-Евпатория
DR14 -7.53 dB -25.18 dB 3:13 05-Дальняя песня
DR13 -6.37 dB -22.97 dB 2:23 06-Замечательное средство
DR14 -8.55 dB -25.56 dB 2:40 07-А может быть...
DR14 -7.02 dB -24.72 dB 2:24 08-Страдание
DR12 -10.97 dB -28.07 dB 2:17 09-Недалеко от Москвы
DR13 -6.49 dB -22.67 dB 3:04 10-Воскресная прогулка
DR15 -10.39 dB -30.13 dB 3:31 11-Я дома
--------------------------------------------------------------------------------
Number of tracks: 11
Official DR value: DR14
Samplerate: 44100 Hz
Channels: 2
Bits per sample: 16
Bitrate: 612 kbps
Codec: FLAC
================================================================================
-----------------------
DON'T MODIFY THIS FILE
-----------------------
PERFORMER: auCDtect Task Manager, ver. 1.6.0 RC1 build 1.6.0.1
Copyright (c) 2008-2010 y-soft. All rights reserved
http://y-soft.org
ANALYZER: auCDtect: CD records authenticity detector, version 0.8.2
Copyright (c) 2004 Oleg Berngardt. All rights reserved.
Copyright (c) 2004 Alexander Djourik. All rights reserved.
FILE: 11 Я дома.flac
Size: 16155214 Hash: 4DB6B2AA1AA79572A14E985BB0B030B5 Accuracy: -m0
Conclusion: CDDA 100%
Signature: AAF854C2B9A49C7FF69E900C709193FD2305509E
FILE: 10 Воскресная прогулка.flac
Size: 16609462 Hash: 157115A074427BA0413958E4E104A346 Accuracy: -m0
Conclusion: CDDA 99%
Signature: 73D56E4DE7FD4CC5C570E3D725C167C905CD33FC
FILE: 09 Недалеко от Москвы.flac
Size: 10291544 Hash: DBD90687562A1A16B0665DCCF4239054 Accuracy: -m0
Conclusion: CDDA 99%
Signature: 9923037169F972EB6EA62F367B6084684B7C9332
FILE: 08 Страдание.flac
Size: 12613880 Hash: DFC1DEBFDA32688C0820EF537EABFA3D Accuracy: -m0
Conclusion: CDDA 100%
Signature: 3D00DAE53C9EFFAFFB100CD26DA44B3701107D08
FILE: 07 А может быть.flac
Size: 13647869 Hash: 4E9C2D133607CC19D95ECEF16DF5F00A Accuracy: -m0
Conclusion: CDDA 100%
Signature: 90B55669AF326F223C1EE777BDFF71748D052BA5
FILE: 06 Замечательное средство.flac
Size: 12889216 Hash: 49F7834752B4767ACC27552A17489742 Accuracy: -m0
Conclusion: CDDA 100%
Signature: 9AB057B6E41E744FE2625BF1748C840B6D1C11B6
FILE: 05 Дальняя песня.flac
Size: 16102713 Hash: 5BCEDB2CC4953B42153467C829F5C5B0 Accuracy: -m0
Conclusion: CDDA 100%
Signature: 9A83441EBB8D1B2116E59E81C987200B5F7C4BA7
FILE: 04 Евпатория.flac
Size: 16934668 Hash: FEE3AE7B4C3E08F35D463C9FEA492341 Accuracy: -m0
Conclusion: CDDA 100%
Signature: 5FCFAFF6B314622BBE703DC11A19AFE4B2B3B591
FILE: 03 Он и она.flac
Size: 20033835 Hash: CAFA779838A26EC2C349AA3ECEA469CB Accuracy: -m0
Conclusion: CDDA 100%
Signature: C153ECF8C0FA0A8CA017CD4B75DD88460CC63EE4
FILE: 02 Так повелось.flac
Size: 16778054 Hash: 226353CBBE4C7FC2F3DFC58D49E3693E Accuracy: -m0
Conclusion: CDDA 100%
Signature: 2919FA517F57B04A000C75B5170D885749B5E0B9
FILE: 01 Я выхожу на сцену.flac
Size: 18385849 Hash: 8DAC343078FBC64B42E4ABB7CCF6128A Accuracy: -m0
Conclusion: CDDA 100%
Signature: 8BA8B96450BB20F6897C1DCA11500210092EA3A7

admin

Post 12-Apr-2022 17:18

[Quote]

Название: Леонид Дербенёв: Плоская планета
Исполнитель: Various Artists
Год: 1983
Жанр: Pop
Страна: СССР
Продолжительность: 00:37:52
Формат/Кодек: FLAC
Тип рипа: Image+.cue
Битрейт аудио: Lossless
Носитель: LP

Трек-лист

01. Жанна Рождественская и ансамбль 'Фестиваль' - Гадалка
02. Тынис Мяги - Сердце не спит
03. Ирина Отиева - Ведьма-речка
04. Михаил Боярский и ансамбль 'Фестиваль' - Городские цветы
05. Алла Пугачёва - Ты на свете есть
06. Добры Молодцы - Кентавры
07. Михаил Боярский и ансамбль 'Фестиваль' - Всё пройдёт
08. Красные Маки - Если ты уйдёшь
09. Михаил Боярский и ансамбль Фестиваль - Сивка-бурка
10. Лейся, Песня - Плоская планета

admin

Post 08-Apr-2022 03:44

[Quote]

Название: Поёт Людмила Сенчина
Исполнитель: Людмила Сенчина
Год: 1974/2020
Жанр: Estrada, Pop
Страна: СССР, Россия
Продолжительность: 00:38:28
Формат/Кодек: FLAC
Битрейт аудио: Lossless

Трек-лист

01. Золушка (Игорь Цветков - Илья Резник)
02. Ты дождись меня (Виктор Лебедев - Леонид Лучкин)
03. Я к тебе не вернусь (Андрей Петров - Илья Резник)
04. Ты (Валентин Соснов - Михаил Ромм)
05. Песня из кинофильма «Мой добрый папа» (Андрей Петров - Яков Голяков)
06. На кургане (Андрей Петров - Юлия Друнина)
07. Романс Лиды (Из спектакля «Свадьба Кречинского») (Александр Колкер - Ким Рыжов)
08. Нелюбимая (Александр Морозов - Михаил Рябинин)
09. А сердце ждёт (Георгий Портнов - Леонтий Шишко)
10. Это было не со мной (Александр Морозов - Михаил Рябинин)
11. Песня о нежности (Станислав Пожлаков - Леонид Лучкин)
12. Люблю (Яков Дубравин - Виктор Гин)

DRM + Лог проверки качества
foobar2000 1.3.8 / Dynamic Range Meter 1.1.1
--------------------------------------------------------------------------------
Analyzed: Людмила Сенчина / Поёт Людмила Сенчина (Мелодия, MEL CO 0499)
--------------------------------------------------------------------------------
DR Peak RMS Duration Track
--------------------------------------------------------------------------------
DR11 -2.78 dB -17.98 dB 3:48 01-Золушка
DR11 -2.16 dB -17.81 dB 3:14 02-Ты дождись меня
DR9 -2.52 dB -16.28 dB 3:47 03-Я к тебе не вернусь
DR10 -1.67 dB -16.83 dB 3:05 04-Ты
DR10 -2.38 dB -15.84 dB 1:50 05-Песня из кинофильма «Мой добрый папа»
DR10 -4.19 dB -19.08 dB 3:35 06-На кургане
DR10 -1.04 dB -15.57 dB 4:33 07-Романс Лиды (Из спектакля «Свадьба Кречинского»)
DR9 -3.34 dB -16.00 dB 2:51 08-Нелюбимая
DR10 -2.24 dB -16.90 dB 3:16 09-А сердце ждёт
DR9 -1.94 dB -14.85 dB 2:47 10-Это было не со мной
DR10 -2.04 dB -17.55 dB 2:54 11-Песня о нежности
DR9 -2.51 dB -14.65 dB 2:49 12-Люблю
--------------------------------------------------------------------------------
Number of tracks: 12
Official DR value: DR10
Samplerate: 44100 Hz
Channels: 2
Bits per sample: 16
Bitrate: 795 kbps
Codec: FLAC
================================================================================
-----------------------
DON'T MODIFY THIS FILE
-----------------------
PERFORMER: auCDtect Task Manager, ver. 1.6.0 RC1 build 1.6.0.1
Copyright (c) 2008-2010 y-soft. All rights reserved
http://y-soft.org
ANALYZER: auCDtect: CD records authenticity detector, version 0.8.2
Copyright (c) 2004 Oleg Berngardt. All rights reserved.
Copyright (c) 2004 Alexander Djourik. All rights reserved.
FILE: 12 Люблю.flac
Size: 16756250 Hash: FDC03D290327D5701AA72C8A391A26A6 Accuracy: -m0
Conclusion: CDDA 100%
Signature: C4129639AFAB00F98B6E41BEF54E9C0993FF24D0
FILE: 11 Песня о нежности.flac
Size: 15084576 Hash: E7BAF2788287E1AADA6A535A4B3ABAEF Accuracy: -m0
Conclusion: CDDA 100%
Signature: C1E6DE2211A27DAEC1AAB79D8F778BB65AB22539
FILE: 10 Это было не со мной.flac
Size: 16724870 Hash: 24D72B1CD0288C6C63196CAA8D1C9F93 Accuracy: -m0
Conclusion: CDDA 100%
Signature: CFDAB706F8AF20A61304FF1EE92D0011AA030542
FILE: 09 А сердце ждёт.flac
Size: 16540697 Hash: BCFC3A6159EC77BA9DDBBFC2063E2313 Accuracy: -m0
Conclusion: CDDA 92%
Signature: 3A7708CE27C2BE3EBFE45A703F2F834E57783435
FILE: 08 Нелюбимая.flac
Size: 17001635 Hash: E51F3D779C9085D6F820E1B73B3EBECD Accuracy: -m0
Conclusion: CDDA 100%
Signature: CB251479E475115DA1C1DEA76775E2CCB7AB6099
FILE: 07 Романс Лиды (Из спектакля «Свадьба Кречинского»).flac
Size: 23755482 Hash: F1E32347886F68EC669A3D498105D621 Accuracy: -m0
Conclusion: CDDA 87%
Signature: C960F2BC5BF0A31C0BD04A9AD8497224EEC75D04
FILE: 06 На кургане.flac
Size: 18788065 Hash: 18850747E2C4247FAFC57E7F1257AA7F Accuracy: -m0
Conclusion: CDDA 100%
Signature: AD8BFDF518C05D6AF0D51BFC8A77986DA49EE588
FILE: 05 Песня из кинофильма «Мой добрый папа».flac
Size: 10481614 Hash: A8A8EF8C083BD8699F74E881F96116E0 Accuracy: -m0
Conclusion: CDDA 100%
Signature: 1775E86238E917715BCB25B3B88F21576B58E82F
FILE: 04 Ты.flac
Size: 16990720 Hash: 6519E282088BC8585CE450C31C725A9B Accuracy: -m0
Conclusion: CDDA 100%
Signature: 85F284F5DD2EB58AD70177D9E950DEAD0304C9ED
FILE: 03 Я к тебе не вернусь.flac
Size: 23370552 Hash: FE19995A36C01096928ED5A9319ACCA7 Accuracy: -m0
Conclusion: CDDA 100%
Signature: AC7BEFC03522D0A56B32D21761E9D550E7D494FA
FILE: 02 Ты дождись меня.flac
Size: 18114171 Hash: 100C32696EBABFB48D2D837385B95DB4 Accuracy: -m0
Conclusion: CDDA 100%
Signature: 5FCD4205659708357358328C6E71547D9E82B67F
FILE: 01 Золушка.flac
Size: 20276447 Hash: B6A175567883519CA6F81875FA71B0B1 Accuracy: -m0
Conclusion: CDDA 100%
Signature: 7778E8132A3CDFC750A16AD79B7755BFAD683A25

admin

Post 08-Apr-2022 03:43

[Quote]

Название: Любовь и разлука
Исполнитель: Людмила Сенчина
Год: 1984/2016
Жанр: Estrada, Pop
Страна: СССР, Россия
Продолжительность: 00:36:53
Формат/Кодек: FLAC
Битрейт аудио: Lossless

Трек-лист

01. Страна детства (Яков Дубравин - Игорь Тальков)
02. Колесница жизни (Лора Доброва - Людмила Западинская)
03. Радость моя (Лора Доброва - Илья Резник)
04. Полевые цветы (Раймонд Паулс - Анатолий Ковалёв)
05. Час до рассвета (Яков Дубравин - Игорь Тальков)
06. Три дня (Лора Доброва - Николай Денисов)
07. Всё позабудь (Валерий Севастьянов - Алексей Римицан)
08. Любовь и разлука (Исаак Шварц - Булат Окуджава)

DRM + Лог проверки качества
foobar2000 1.3.8 / Dynamic Range Meter 1.1.1
--------------------------------------------------------------------------------
Analyzed: Людмила Сенчина / Группа Игоря Талькова / Любовь и разлука (Мелодия, Digital Release)
--------------------------------------------------------------------------------
DR Peak RMS Duration Track
--------------------------------------------------------------------------------
DR11 -6.17 dB -22.28 dB 6:04 01-Страна детства
DR13 -5.88 dB -24.27 dB 4:35 02-Колесница жизни
DR12 -6.79 dB -22.34 dB 4:05 03-Радость моя
DR11 -6.95 dB -21.69 dB 3:39 04-Полевые цветы
DR11 -6.83 dB -21.54 dB 5:30 05-Час до рассвета
DR11 -5.77 dB -18.85 dB 3:27 06-Три дня
DR14 -6.13 dB -24.78 dB 5:04 07-Всё позабудь
DR10 -7.33 dB -20.87 dB 4:29 08-Любовь и разлука
--------------------------------------------------------------------------------
Number of tracks: 8
Official DR value: DR12
Samplerate: 44100 Hz
Channels: 2
Bits per sample: 16
Bitrate: 718 kbps
Codec: FLAC
================================================================================
-----------------------
DON'T MODIFY THIS FILE
-----------------------
PERFORMER: auCDtect Task Manager, ver. 1.6.0 RC1 build 1.6.0.1
Copyright (c) 2008-2010 y-soft. All rights reserved
http://y-soft.org
ANALYZER: auCDtect: CD records authenticity detector, version 0.8.2
Copyright (c) 2004 Oleg Berngardt. All rights reserved.
Copyright (c) 2004 Alexander Djourik. All rights reserved.
FILE: 8 Любовь и разлука.flac
Size: 24143173 Hash: 5EBFFC54BDBAFEC12F97F616C67134A3 Accuracy: -m0
Conclusion: CDDA 100%
Signature: 1979592B4B876D161651815F3C28A7DC77FA94BC
FILE: 7 Всё позабудь.flac
Size: 25212169 Hash: DF2299AC2807DEF680037FF2FACF502A Accuracy: -m0
Conclusion: CDDA 100%
Signature: 2EE4345D24CFEE03C1298BED8273B31AD79D237F
FILE: 6 Три дня.flac
Size: 19357985 Hash: BC54E131226C8F5E807F3C347CCD6010 Accuracy: -m0
Conclusion: CDDA 100%
Signature: 8F3F469ED7CE422FE534C073B1BB4B6F893D288D
FILE: 5 Час до рассвета.flac
Size: 27552893 Hash: CE00296CE06AA2D5C9E9BA6A3A6AB488 Accuracy: -m0
Conclusion: CDDA 100%
Signature: C2C3D3D01CCA83FD9556FD4FF594B08E13CAFAF5
FILE: 4 Полевые цветы.flac
Size: 19616078 Hash: 61A91DD09C0C8E111AAF5D23D45D8B18 Accuracy: -m0
Conclusion: CDDA 100%
Signature: 317A44BB1F496C373D92E84A816022FBDFD316FD
FILE: 3 Радость моя.flac
Size: 21411782 Hash: 83E13C2C869DA921AAED998767F3DC24 Accuracy: -m0
Conclusion: CDDA 99%
Signature: 34C6541A2D1020BB1C5593C2CA2B7AE8DB5569DC
FILE: 2 Колесница жизни.flac
Size: 21932821 Hash: 87C7329CBA19CC625F6D42A1E7925754 Accuracy: -m0
Conclusion: CDDA 100%
Signature: C561BB3DF00951D99E0FF3F4DDD02792CEE817AB
FILE: 1 Страна детства.flac
Size: 33077452 Hash: 7AD318A6D1A2E4438B21DECDBB28A4C9 Accuracy: -m0
Conclusion: CDDA 100%
Signature: 677C07B24434970A36BE6E405D1509C964706E1A

admin

Post 08-Apr-2022 03:43

[Quote]

Название: Камушки и другие песни
Исполнитель: Людмила Сенчина
Год: 1981/2020
Жанр: Estrada, Pop
Страна: СССР, Россия
Продолжительность: 00:35:17
Формат/Кодек: FLAC
Битрейт аудио: Lossless

Трек-лист

01. Дети спят (Юрий Саульский - Игорь Шаферан)
02. Черёмуха (Валерий Гаврилин - Ольга Фокина)
03. Шутка (Валерий Гаврилин - Альбина Шульгина)
04. Полынь (Александра Пахмутова - Роберт Рождественский)
05. Камушки (Александр Морозов - Михаил Рябинин)
06. Прощальный вальс (Игорь Цветков - Ким Рыжов)
07. Любовь настала (Раймонд Паулс - Роберт Рождественский)
08. Всегда и снова (Марк Фрадкин - Евгений Долматовский)
09. Ты меня не зови (Сергей Гринберг - Виталий Коротаев)
10. Прощание с морем (Андрей Медведев - Даля Саукайтите)

DRM + Лог проверки качества
foobar2000 1.3.8 / Dynamic Range Meter 1.1.1
--------------------------------------------------------------------------------
Analyzed: Людмила Сенчина / «Камушки» и другие песни (Мелодия, MEL CO 0636)
--------------------------------------------------------------------------------
DR Peak RMS Duration Track
--------------------------------------------------------------------------------
DR13 -1.00 dB -17.76 dB 2:46 01-Дети спят
DR12 -2.38 dB -20.72 dB 3:59 02-Черёмуха
DR12 -2.06 dB -17.05 dB 2:35 03-Шутка
DR10 -3.93 dB -17.98 dB 2:29 04-Полынь
DR11 -1.00 dB -14.97 dB 2:40 05-Камушки
DR13 -2.24 dB -20.43 dB 3:18 06-Прощальный вальс
DR13 -0.95 dB -18.74 dB 3:57 07-Любовь настала
DR12 -1.19 dB -16.53 dB 4:02 08-Всегда и снова
DR12 -0.96 dB -17.56 dB 3:38 09-Ты меня не зови
DR12 -1.92 dB -17.69 dB 5:53 10-Прощание с морем
--------------------------------------------------------------------------------
Number of tracks: 10
Official DR value: DR12
Samplerate: 44100 Hz
Channels: 2
Bits per sample: 16
Bitrate: 822 kbps
Codec: FLAC
================================================================================
-----------------------
DON'T MODIFY THIS FILE
-----------------------
PERFORMER: auCDtect Task Manager, ver. 1.6.0 RC1 build 1.6.0.1
Copyright (c) 2008-2010 y-soft. All rights reserved
http://y-soft.org
ANALYZER: auCDtect: CD records authenticity detector, version 0.8.2
Copyright (c) 2004 Oleg Berngardt. All rights reserved.
Copyright (c) 2004 Alexander Djourik. All rights reserved.
FILE: 10 Прощание с морем.flac
Size: 36262353 Hash: CA34C7976245E5243F8306DF5A729F01 Accuracy: -m0
Conclusion: CDDA 100%
Signature: D31BE74DA3D2C0DB41E4C1054BBA70BE272B9BB1
FILE: 09 Ты меня не зови.flac
Size: 18956212 Hash: EAC44396383270A21157461B6EF15631 Accuracy: -m0
Conclusion: CDDA 100%
Signature: 15569C613D3291B429E222A73F59195817D858BE
FILE: 08 Всегда и снова.flac
Size: 21606307 Hash: 2D5E2D47E85988E2473DD4A8282F6077 Accuracy: -m0
Conclusion: CDDA 100%
Signature: B4F286954E60F8A3CC84F7CF05F52B46A786EDA6
FILE: 07 Любовь настала.flac
Size: 21309429 Hash: A792E2CE9C21A35CAA41BDA3105F853F Accuracy: -m0
Conclusion: CDDA 76%
Signature: EE4A1031D1CC36D56C6366A904D1E583B0AF0FD9
FILE: 06 Прощальный вальс.flac
Size: 17090167 Hash: 87558C3861BC307706A018926B877D50 Accuracy: -m0
Conclusion: CDDA 99%
Signature: 34039B366DA814D9775EFD949AFB86791F13E9FE
FILE: 05 Камушки.flac
Size: 15175171 Hash: 4BF5CAC396CAC6F56F0EF4CD08C6DB54 Accuracy: -m0
Conclusion: CDDA 100%
Signature: 9A931B1DB30662EC61DD3C1539405F1B5A13A773
FILE: 04 Полынь.flac
Size: 12479505 Hash: 6DE4A0B8D7F0620E699CD4C4737341D3 Accuracy: -m0
Conclusion: CDDA 100%
Signature: F5793A6319285B75D200C3B1B79133056C6AA2C1
FILE: 03 Шутка.flac
Size: 15875991 Hash: 688B2075C4E8DC5BB76E4407E37DCB0E Accuracy: -m0
Conclusion: CDDA 100%
Signature: 3D9D6F1B352B379EAFB164E4B485A73A3E05EFE9
FILE: 02 Черёмуха.flac
Size: 19875243 Hash: 213020B66E25491CFF355E70D82B0E65 Accuracy: -m0
Conclusion: CDDA 62%
Signature: 3F826A3759AB36E06961C46494741319E7C0E2EE
FILE: 01 Дети спят.flac
Size: 15357104 Hash: 990E403CA572F7D6972863E72152D19B Accuracy: -m0
Conclusion: CDDA 100%
Signature: 339E02BA35A6EFA1A6D02C51D5D6E6582CC06083

admin

Post 18-Mar-2022 05:25

[Quote]

Название: Надежда
Исполнитель: Анна Герман
Год: 1965-1980/2008
Жанр: Pop, Estrada
Страна: СССР, Польша
Продолжительность: 01:06:34
Формат/Кодек: FLAC
Тип рипа: Tracks
Битрейт аудио: Lossless

Трек-лист

01. Весна [02:25]
02. Белая черёмуха [02:44]
03. Кажется [02:47]
04. Вы хотели мне что-то сказать [03:37]
05. Мой бубен [03:03]
06. Снежана [03:26]
07. Катюша [02:27]
08. Ночной разговор [03:15]
09. Случайность [04:05]
10. Ты, только ты [03:01]
11. Когда цвели сады [04:57]
12. Не спеши [03:35]
13. Сумерки [03:25]
14. Эхо любви [03:25]
15. Надежда [03:49]
16. А он мне нравится [03:14]
17. Я помню всё [02:55]
18. Реченька туманная [03:20]
19. По грибы [02:06]
20. Возвращение романса [04:59]

DRM + Лог проверки качества
foobar2000 1.3.8 / Dynamic Range Meter 1.1.1
log date: 2021-01-16 10:39:30
--------------------------------------------------------------------------------
Analyzed: Анна Герман / Ирма Сохадзе / Надежда (Мелодия, Digital Release) (1)
Анна Герман / Стахан Рахимов / Надежда (Мелодия, Digital Release) (2)
Анна Герман / Надежда (Мелодия, Digital Release) (3-20)
--------------------------------------------------------------------------------
DR Peak RMS Duration Track
--------------------------------------------------------------------------------
DR11 -2.61 dB -16.28 dB 2:25 01-Весеннее танго
DR13 -0.84 dB -15.77 dB 2:44 02-Белая черёмуха
DR12 -1.16 dB -18.27 dB 2:47 03-Кажется
DR12 -0.23 dB -18.93 dB 3:37 04-Вы хотели мне что-то сказать
DR11 -0.74 dB -14.93 dB 3:03 05-Мой бубен
DR10 -0.29 dB -15.82 dB 3:26 06-Снежана
DR11 -0.22 dB -15.33 dB 2:27 07-Катюша
DR10 -1.24 dB -16.36 dB 3:15 08-Ночной разговор
DR10 -3.62 dB -15.54 dB 4:05 09-Случайность
DR11 -0.61 dB -15.86 dB 3:01 10-Ты, только ты
DR11 -0.14 dB -14.71 dB 4:57 11-Когда цвели сады
DR9 -0.96 dB -15.04 dB 3:35 12-Не спеши
DR12 -3.62 dB -19.01 dB 3:25 13-Сумерки
DR12 -0.18 dB -16.04 dB 3:25 14-Эхо любви
DR11 -3.60 dB -17.06 dB 3:49 15-Надежда
DR12 -1.23 dB -16.22 dB 3:14 16-А он мне нравится
DR12 -0.12 dB -14.95 dB 2:55 17-Я помню всё
DR10 -1.09 dB -14.63 dB 3:20 18-Реченька туманная
DR11 -0.45 dB -15.79 dB 2:06 19-По грибы
DR13 -0.62 dB -19.36 dB 4:59 20-Возвращение романса
--------------------------------------------------------------------------------
Number of tracks: 20
Official DR value: DR11
Samplerate: 44100 Hz
Channels: 2
Bits per sample: 16
Bitrate: 627 kbps
Codec: FLAC
================================================================================
-----------------------
DON'T MODIFY THIS FILE
-----------------------
PERFORMER: auCDtect Task Manager, ver. 1.6.0 RC1 build 1.6.0.1
Copyright (c) 2008-2010 y-soft. All rights reserved
http://y-soft.org
ANALYZER: auCDtect: CD records authenticity detector, version 0.8.2
Copyright (c) 2004 Oleg Berngardt. All rights reserved.
Copyright (c) 2004 Alexander Djourik. All rights reserved.
FILE: 20 Возвращение романса.flac
Size: 23451402 Hash: 61193E63651CC33E6FFE9CC86B954B12 Accuracy: -m0
Conclusion: CDDA 100%
Signature: 496C0935595599D596153AD9DAE58B76D0E03130
FILE: 19 По грибы.flac
Size: 12117051 Hash: 3B6093ABEC734CF04A98B39351A6FA24 Accuracy: -m0
Conclusion: CDDA 92%
Signature: 05199ECA34AE7E0324E4F32C133A23F5337CC3D1
FILE: 18 Реченька туманная.flac
Size: 19598589 Hash: 6148E98D1070AB90F20D0398FF61C5AD Accuracy: -m0
Conclusion: CDDA 100%
Signature: 50018621AF9630577E9481D919D283F27E75FBDE
FILE: 17 Я помню всё.flac
Size: 18849822 Hash: 5BE95406658603F58106F2DD22B22B0C Accuracy: -m0
Conclusion: CDDA 100%
Signature: 30557982D06756A35FEEFA0895D0D1BDE5F1146E
FILE: 16 А он мне нравится.flac
Size: 18472091 Hash: 1EFBA7AA75A3512D4083A5EE23F72DB7 Accuracy: -m0
Conclusion: CDDA 100%
Signature: 1A0EE74254AA8BE159C266A0F250F6B5B22EEB51
FILE: 15 Надежда.flac
Size: 21647683 Hash: 389CCBB602CD0CAC8ED23DCABA4A9E87 Accuracy: -m0
Conclusion: CDDA 100%
Signature: 2D128B3F67E1D926713976F221D23367146810EA
FILE: 14 Эхо любви.flac
Size: 18615082 Hash: 1C9F8936DBBA45EEF67719B0A7BA1FF5 Accuracy: -m0
Conclusion: CDDA 100%
Signature: 0F77C7AFD06F4F8DF05C56AFC10371E5EBF14A1B
FILE: 13 Сумерки.flac
Size: 18117106 Hash: A9BEF9B47D285417113A240C2B13C913 Accuracy: -m0
Conclusion: CDDA 100%
Signature: 074EF982F13DDC14D0912F4E26B5E602A9A263CD
FILE: 12 Не спеши.flac
Size: 20210803 Hash: 91D63455F1F5E514C5934618785DD5DB Accuracy: -m0
Conclusion: CDDA 54%
Signature: E85914F643A5F70F48837DA19FD6345F9A1F5880
FILE: 11 Когда цвели сады.flac
Size: 29861469 Hash: 9366AA5BDFC3D8D00B6E0B5000BB643D Accuracy: -m0
Conclusion: CDDA 100%
Signature: C1117F9057CC5D885ACF800E87FABCE9ED8B4768
FILE: 10 Ты, только ты.flac
Size: 18130269 Hash: FE7F4DE6FC24974B1D709C3A5E6E5220 Accuracy: -m0
Conclusion: CDDA 100%
Signature: F7FA637B064BCC8FCF221D3DCDA8B180E0A7AD1C
FILE: 09 Случайность.flac
Size: 24627068 Hash: BB00E0C4AD2FC44A892ED92618CE6A35 Accuracy: -m0
Conclusion: CDDA 99%
Signature: 557CAF35FE76D9108EA69502BCEBE69EF0E7C99F
FILE: 08 Ночной разговор.flac
Size: 16005049 Hash: F614AC010C80C1026B7E69B5954443FA Accuracy: -m0
Conclusion: CDDA 58%
Signature: F731BA094A22B1E56E9879EE9F202280B019C25E
FILE: 07 Катюша.flac
Size: 13316182 Hash: FFAE0FD60CB8F0AEBA15CFC6628C2274 Accuracy: -m0
Conclusion: CDDA 100%
Signature: 72554346A31BA0DDD0FBDC77827A355D93F579FE
FILE: 06 Снежана.flac
Size: 18851717 Hash: 771D635E6A15582D0922114CA158B0DC Accuracy: -m0
Conclusion: CDDA 87%
Signature: 5A1E50AB00F607DFE541820B1466BEB9583E226E
FILE: 05 Мой бубен.flac
Size: 18721588 Hash: E945F566D77CE8D603580A768942F305 Accuracy: -m0
Conclusion: CDDA 86%
Signature: 035F4EDE4064E8A5E7F868A46AD6BD0D80D892DB
FILE: 04 Вы хотели мне что-то сказать.flac
Size: 16100624 Hash: 7F45A79107C2095534AB6220E43C7CCB Accuracy: -m0
Conclusion: CDDA 85%
Signature: DD042C21C305F4210BD7D9CC8C77F4A656EDE6CF
FILE: 03 Кажется.flac
Size: 14065875 Hash: 20C206221F47A0DD8212DA3622BCCCEF Accuracy: -m0
Conclusion: CDDA 100%
Signature: 74D50D5A873220855BD423D6ADA76E7CFB5DA48F
FILE: 02 Белая черёмуха.flac
Size: 16366376 Hash: 6F8B891B2113CA0DF8BA94833ADD9238 Accuracy: -m0
Conclusion: CDDA 100%
Signature: 7947A2974B57B90A9CB8DA3607C09E86D14D6E5E
FILE: 01 Весеннее танго.flac
Size: 14269556 Hash: AC9F56F8021C8272AD4D6F6844864936 Accuracy: -m0
Conclusion: CDDA 100%
Signature: CECC13141998AC92DF88B5C21141E85088F213C8

admin

Post 18-Mar-2022 05:23

[Quote]

Название: Лучшее
Исполнитель: Анна Герман
Год: 2011
Жанр: Retro, Pop
Страна: СССР, Польша
Продолжительность: 02:39:34
Формат/Кодек: FLAC
Битрейт аудио: Lossless
Носитель: CD

Трек-лист

CD 1:
01. Надежда
02. Когда цвели сады
03. А он мне нравится
04. Белая черёмуха
05. Эхо любви
06. Весна
07. Дождик
08. Случайность
09. Сумерки
10. Давняя игра
11. Я люблю танцевать
12. По грибы
13. Осенняя песня
14. Не спеши
15. Всё, что было
16. Последняя встреча
17. Кажется
18. Незабытый мотив
19. Я жду весну
20. Письмо Шопену
21. Вы хотели мне что-то сказать
22. Выхожу один я на дорогу
23. Гори, гори моя звезда
CD 2:
01. Колыбельная
02. Мой бубен
03. Я помню всё
04. Город влюбленных
05. Снежана
06. Ты, только ты
07. Реченька туманная
08. Люблю тебя
09. Возвращение романса
10. Ночной разговор
11. Катюша
12. Без тебя
13. Русская раздольная
14. Грошики фантазий
15. Найду тебя
16. Небо голубое
17. Невеста
18. Идёт ребёнок по земле
19. Вдоль по улице метелица метёт
20. Останься
21. Ты только осень не вини
22. Дубрава
23. Костыль

DRM + Лог проверки качества
foobar2000 1.5.5 / Замер динамического диапазона (DR) 1.1.1
--------------------------------------------------------------------------------
Анализ: Анна Герман / Лучшее CD1
--------------------------------------------------------------------------------
DR Пики RMS Продолжительность трека
--------------------------------------------------------------------------------
DR11 -3.60 дБ -16.94 дБ 3:43 01-Надежда
DR11 -0.14 дБ -14.67 дБ 4:53 02-Когда цвели сады
DR12 -1.23 дБ -16.15 дБ 3:10 03-А он мне нравится
DR13 -0.84 дБ -15.69 дБ 2:40 04-Белая черёмуха
DR12 -0.18 дБ -15.92 дБ 3:21 05-Эхо любви
DR11 -2.61 дБ -16.10 дБ 2:20 06-Весна
DR9 -0.10 дБ -12.13 дБ 2:48 07-Дождик
DR10 -4.06 дБ -16.73 дБ 4:00 08-Случайность
DR12 -3.62 дБ -18.88 дБ 3:21 09-Сумерки
DR9 -1.59 дБ -11.77 дБ 3:03 10-Давняя игра
DR12 -0.91 дБ -13.24 дБ 2:42 11-Я люблю танцевать
DR11 -0.45 дБ -15.58 дБ 2:00 12-По грибы
DR6 -0.10 дБ -10.04 дБ 3:44 13-Осенняя песня
DR9 -1.53 дБ -12.65 дБ 3:26 14-Не спеши
DR9 -0.10 дБ -12.12 дБ 2:55 15-Всё, что было
DR10 -2.76 дБ -17.51 дБ 3:59 16-Последняя встреча
DR12 -1.16 дБ -18.19 дБ 2:43 17-Кажется
DR9 -5.67 дБ -17.79 дБ 2:57 18-Незабытый мотив
DR10 -5.42 дБ -18.38 дБ 3:25 19-Я жду весну
DR11 -5.22 дБ -19.75 дБ 4:04 20-Письмо Шопену
DR12 -4.78 дБ -21.98 дБ 3:30 21-Вы хотели мне что-то сказать
DR7 -2.00 дБ -14.05 дБ 4:36 22-Выхожу один я на дорогу
DR11 -2.01 дБ -17.64 дБ 4:42 23-Гори, гори моя звезда
--------------------------------------------------------------------------------
Количество треков: 23
Реальные значения DR: DR10
Частота: 44100 Гц
Каналов: 2
Разрядность: 16
Битрейт: 644 кбит/с
Кодек: FLAC
================================================================================
-----------------------
DON'T MODIFY THIS FILE
-----------------------
PERFORMER: auCDtect Task Manager, ver. 1.6.0 RC1 build 1.6.0.1
Copyright (c) 2008-2010 y-soft. All rights reserved
http://y-soft.org
ANALYZER: auCDtect: CD records authenticity detector, version 0.8.2
Copyright (c) 2004 Oleg Berngardt. All rights reserved.
Copyright (c) 2004 Alexander Djourik. All rights reserved.
FILE: 01. Надежда.flac
Size: 23765345 Hash: 3349EC2EF80D5F1442DAC087FD5980FF Accuracy: -m8
Conclusion: CDDA 100%
Signature: 686F349E21DAE84851052CC0CFD5D9CA1BA50D36
FILE: 02. Когда цвели сады.flac
Size: 31887399 Hash: D960BA6546D0F3C30B50AEFF73D39170 Accuracy: -m8
Conclusion: CDDA 100%
Signature: 4F96084521E3FAF7644E6AAAFCCC35FEE8604003
FILE: 03. А он мне нравится.flac
Size: 20501750 Hash: 972612D3498594DCF2960A2F6E979017 Accuracy: -m8
Conclusion: CDDA 100%
Signature: 152B0BF52113AC793879A05972E88B6BCC9DC5ED
FILE: 04. Белая черёмуха.flac
Size: 18376450 Hash: DA744F1B0DE508A4B982940BD8F1D2B3 Accuracy: -m8
Conclusion: CDDA 100%
Signature: 787B3BFA4FF0F6FCBAC0C76BB0FC7C3488BA7D9D
FILE: 05. Эхо любви.flac
Size: 20635023 Hash: 1869B1568BEADF13F7112CFBD04ECBE1 Accuracy: -m8
Conclusion: CDDA 100%
Signature: 84BD6F4B82EF522E3970F642027AED8891F402FF
FILE: 06. Весна.flac
Size: 16284601 Hash: 42D46CE20462CA3A0DE3628E3422D52A Accuracy: -m8
Conclusion: CDDA 100%
Signature: EA622E2DA5401576DF417799EF8DD544D67C4A18
FILE: 07. Дождик.flac
Size: 21468782 Hash: F2E54DA68436C0C1578B36530BF74B5D Accuracy: -m8
Conclusion: CDDA 100%
Signature: 19D0B33456753E971FF613AAD453EE5D5F7F41F3
FILE: 08. Случайность.flac
Size: 26033785 Hash: 9E5B87D32B6A046A9E3462B597A4EBDF Accuracy: -m8
Conclusion: CDDA 100%
Signature: 072CA7623435408709DEDD01D5FE76D29EFE2CEE
FILE: 09. Сумерки.flac
Size: 20197326 Hash: F464C01C7333B5846B960DA5F6C7F764 Accuracy: -m8
Conclusion: CDDA 100%
Signature: B9CDB092D86F60ACCC5E33335DEADD09D3592AA6
FILE: 10. Давняя игра.flac
Size: 22474890 Hash: 4AD24BCE72B6A3700621DF3147BE626B Accuracy: -m8
Conclusion: CDDA 100%
Signature: 2E8F283005EDC4AA0658CC9E6369A4F560574C3D
FILE: 11. Я люблю танцевать.flac
Size: 20598270 Hash: 74827039F0FF4A9828FF41F6DB9E27C5 Accuracy: -m8
Conclusion: CDDA 100%
Signature: 44A7B9988266E8F0FD815609DEF9D88F6F7F1132
FILE: 12. По грибы.flac
Size: 14159125 Hash: 465B9442A0BB388F0538D8EE5F0869BC Accuracy: -m8
Conclusion: CDDA 99%
Signature: 2AD2C4FBA5289A6A19646616F4E8BF475904F35F
FILE: 13. Осенняя песня.flac
Size: 22564748 Hash: 24426C4F367D7CF23AC6968224EDE071 Accuracy: -m8
Conclusion: CDDA 100%
Signature: 386FE1062B42E6CD074B9A33DE756150EFBF3ECB
FILE: 14. Не спеши.flac
Size: 21523044 Hash: D0173F15A395C321D730120263F81BBA Accuracy: -m8
Conclusion: CDDA 100%
Signature: B92248EDA0DC63F6C23D3F23210DFBF314860344
FILE: 15. Всё, что было.flac
Size: 21857731 Hash: 60C78085956B67C5419FAB6A4FE5680B Accuracy: -m8
Conclusion: CDDA 100%
Signature: 36EA0DE8354B9ADB6CCAEE25D2CA3B0BC08DF68A
FILE: 16. Последняя встреча.flac
Size: 22844654 Hash: F717E2255272D36BE2A260F0C653209B Accuracy: -m8
Conclusion: CDDA 100%
Signature: 199629088446EE5A25D9E796CEDD30544F24E000
FILE: 17. Кажется.flac
Size: 16088000 Hash: 62AE522ADA199FF53631171149549143 Accuracy: -m8
Conclusion: CDDA 99%
Signature: 74F6377D0C40D72878DD49D1AEFF82725A0FE35C
FILE: 18. Незабытый мотив.flac
Size: 17363873 Hash: 94D4F799083F9C2E9C584C416FA584B5 Accuracy: -m8
Conclusion: CDDA 99%
Signature: A713DA5253EFCC260375873318EA527D2394632E
FILE: 19. Я жду весну.flac
Size: 19936474 Hash: A03C75CED4378769A0BA8BF146463511 Accuracy: -m8
Conclusion: CDDA 100%
Signature: D8D42C3FA1ABBB086C5BC2052FCD9EA2276CA6A7
FILE: 20. Письмо Шопену.flac
Size: 21620258 Hash: C8C706EBFCB0A67BD66D5E9802376EAE Accuracy: -m8
Conclusion: CDDA 100%
Signature: 1C0DCDEAA165B36AB090B64EF25B20466ED54CBE
FILE: 21. Вы хотели мне что-то сказать.flac
Size: 17234908 Hash: 539B30E01F8A80C59F501436D186814A Accuracy: -m8
Conclusion: CDDA 99%
Signature: B4A38847FF27AB0E4A19DA6598B6D26D9BFAF824
FILE: 22. Выхожу один я на дорогу.flac
Size: 26036215 Hash: B74AEA33767C082525A74729523BC4C5 Accuracy: -m8
Conclusion: CDDA 100%
Signature: F1BB6A318650A6D75D29B0422B09A2DEFB27B952
FILE: 23. Гори, гори моя звезда.flac
Size: 24704301 Hash: E26C8C1FC8CACDB024EC3EFDB302990C Accuracy: -m8
Conclusion: CDDA 100%
Signature: 2FF0022784507834162F67C7E670EAEA58E62BB4
foobar2000 1.5.5 / Замер динамического диапазона (DR) 1.1.1
--------------------------------------------------------------------------------
Анализ: Анна Герман / Лучшее CD2
--------------------------------------------------------------------------------
DR Пики RMS Продолжительность трека
--------------------------------------------------------------------------------
DR6 -0.10 дБ -9.49 дБ 4:44 01-Колыбельная
DR11 -0.74 дБ -14.86 дБ 2:59 02-Мой бубен
DR12 -0.12 дБ -14.80 дБ 2:50 03-Я помню всё
DR8 -1.33 дБ -13.01 дБ 5:05 04-Город влюбленных
DR11 -0.29 дБ -15.76 дБ 3:22 05-Снежана
DR11 -0.61 дБ -15.72 дБ 2:56 06-Ты, только ты
DR10 -1.09 дБ -14.56 дБ 3:16 07-Реченька туманная
DR8 -1.60 дБ -12.81 дБ 4:06 08-Люблю тебя
DR13 -0.62 дБ -19.36 дБ 4:59 09-Возвращение романса
DR10 -1.24 дБ -16.29 дБ 3:11 10-Ночной разговор
DR11 -0.22 дБ -15.24 дБ 2:23 11-Катюша
DR9 -0.58 дБ -12.71 дБ 3:24 12-Без тебя
DR7 -1.10 дБ -9.84 дБ 3:09 13-Русская раздольная
DR9 -0.92 дБ -12.04 дБ 2:06 14-Грошики фантазий
DR7 -0.10 дБ -8.53 дБ 3:57 15-Найду тебя
DR8 -1.94 дБ -13.11 дБ 3:20 16-Небо голубое
DR7 -0.10 дБ -9.82 дБ 3:12 17-Невеста
DR10 -0.35 дБ -13.31 дБ 3:35 18-Идёт ребёнок по земле
DR10 -0.31 дБ -13.15 дБ 2:10 19-Вдоль по улице метелица метёт
DR10 -0.10 дБ -11.63 дБ 2:54 20-Останься
DR8 -0.10 дБ -10.50 дБ 2:26 21-Ты только осень не вини
DR10 -4.83 дБ -19.83 дБ 4:48 22-Дубрава
DR9 -0.09 дБ -13.04 дБ 3:14 23-Костыль
--------------------------------------------------------------------------------
Количество треков: 23
Реальные значения DR: DR9
Частота: 44100 Гц
Каналов: 2
Разрядность: 16
Битрейт: 679 кбит/с
Кодек: FLAC
================================================================================
-----------------------
DON'T MODIFY THIS FILE
-----------------------
PERFORMER: auCDtect Task Manager, ver. 1.6.0 RC1 build 1.6.0.1
Copyright (c) 2008-2010 y-soft. All rights reserved
http://y-soft.org
ANALYZER: auCDtect: CD records authenticity detector, version 0.8.2
Copyright (c) 2004 Oleg Berngardt. All rights reserved.
Copyright (c) 2004 Alexander Djourik. All rights reserved.
FILE: 01. Колыбельная.flac
Size: 28280050 Hash: DFB821818993A9CB1C6FD88CFDA075A6 Accuracy: -m8
Conclusion: CDDA 94%
Signature: 3006EE4119025A1CC99DF8BA41B50E7724BE9C9D
FILE: 02. Мой бубен.flac
Size: 20762643 Hash: 905481021703F965A8A4D721A90FFD93 Accuracy: -m8
Conclusion: CDDA 100%
Signature: 51833C99E39A7431CD90DC0F8B137AE836677396
FILE: 03. Я помню всё.flac
Size: 20904355 Hash: FAD1D8AFB95EB35C4E0E50253E96F52A Accuracy: -m8
Conclusion: CDDA 100%
Signature: C0223C88A95F3AB028B79B815C1777568ADD065C
FILE: 04. Город влюбленных.flac
Size: 28492483 Hash: 894A902F257C514C99150BE0686D230D Accuracy: -m8
Conclusion: CDDA 100%
Signature: 5209FE371F7C545DE7F4F31E55C695FAB4E74848
FILE: 05. Снежана.flac
Size: 20890291 Hash: 35F235F004E1217615F9B01F6965B7CA Accuracy: -m8
Conclusion: CDDA 92%
Signature: 06896A4883C8EAA172FF932317F797DDC803CEC0
FILE: 06. Ты, только ты.flac
Size: 20155712 Hash: 4CF6240CB65F8F19B2B3DD71B81437D6 Accuracy: -m8
Conclusion: CDDA 100%
Signature: F840B5E570500D11CFC4735F9980E9D6077B948F
FILE: 07. Реченька туманная.flac
Size: 21634989 Hash: F3FD6E5040C9C45C8FF091E1DFE0CF89 Accuracy: -m8
Conclusion: CDDA 100%
Signature: 48F2AE69465313C3BF9346DECD7C84CC250FC870
FILE: 08. Люблю тебя.flac
Size: 26946707 Hash: F3B280948FB27032B107C807C1B64607 Accuracy: -m8
Conclusion: CDDA 100%
Signature: 704776242E7B042D97FE908265EE24686649D7ED
FILE: 09. Возвращение романса.flac
Size: 25512288 Hash: FCC2AB8A35CD1134AD2B21413AE93E5D Accuracy: -m8
Conclusion: CDDA 100%
Signature: 1022F74F79341B2FA7C0E4D16A06E27351AA8EF0
FILE: 10. Ночной разговор.flac
Size: 18058732 Hash: D7D31C5C7C5F8BC9BE5F2E027F2CAE5D Accuracy: -m8
Conclusion: CDDA 85%
Signature: 879A976D3622E29122AA53C218F446981D598B2F
FILE: 11. Катюша.flac
Size: 15358303 Hash: 0EA3CD6DD9DD5B90DF56DD6D5C6DA4D9 Accuracy: -m8
Conclusion: CDDA 100%
Signature: 62B0F3CB1387FB61A59E3682D050944C1223E7FE
FILE: 12. Без тебя.flac
Size: 22524443 Hash: 73E29EFAF3C0D3B5D38FF74E78CE7D8A Accuracy: -m8
Conclusion: CDDA 100%
Signature: 781F5174AF70367879918C3FF07E70A3723429A1
FILE: 13. Русская раздольная.flac
Size: 22145763 Hash: 7204F637A374A3B43CAC0C93223EDB5A Accuracy: -m8
Conclusion: CDDA 100%
Signature: C5FF94FCEDAC506E49100E3BA7606B30F81808BF
FILE: 14. Грошики фантазий.flac
Size: 15155477 Hash: 01C5F42207FFE0557D000C9DA285DBC3 Accuracy: -m8
Conclusion: CDDA 86%
Signature: 42480B3907FC92DDBCE6C5BEC46B84E29A8B6243
FILE: 15. Найду тебя.flac
Size: 18080419 Hash: 4608A06F0B465E222C3EB8C6C29B0351 Accuracy: -m8
Conclusion: CDDA 100%
Signature: 86A0D5E702C759029145809802221D4519843836
FILE: 16. Небо голубое.flac
Size: 18040403 Hash: EC7580140FEE5AA9A2F203C559FB34CA Accuracy: -m8
Conclusion: CDDA 100%
Signature: CB8F3BC4A7F9DE75EED44C474A91A90A40C67568
FILE: 17. Невеста.flac
Size: 25406986 Hash: 13FD57457CB15795FE766BFB110CD981 Accuracy: -m8
Conclusion: CDDA 100%
Signature: 11051E7034FCD10B335A350BC2D8EC4049A2863A
FILE: 18. Идёт ребёнок по земле.flac
Size: 24843997 Hash: 0F86690B06BFFF8F00F0B1A98B91D8D7 Accuracy: -m8
Conclusion: CDDA 100%
Signature: 4D0B984EDF2F773A259617D76E4061B1B6C1F12E
FILE: 19. Вдоль по улице метелица метёт.flac
Size: 16298949 Hash: 4D273547749CFE00C666AE16D6DF1BD5 Accuracy: -m8
Conclusion: CDDA 100%
Signature: F89A2FA37E7FD685CB0A7B72D5EAF19A4CB2257D
FILE: 20. Останься.flac
Size: 16701075 Hash: 9922A7DD7C74A421CAA878EDA6C382E3 Accuracy: -m8
Conclusion: CDDA 100%
Signature: 95C0808DD04CA2CA2C320806F86B7174741E8161
FILE: 21. Ты только осень не вини.flac
Size: 16836642 Hash: AE1EBE1FD1C68F8C1479ACFAE6831C2B Accuracy: -m8
Conclusion: CDDA 100%
Signature: 59B28ADC6F4C24A5EA0D1C29C09592D1D209BC64
FILE: 22. Дубрава.flac
Size: 25064792 Hash: 9AC95C850382160CE157EA6C780F425D Accuracy: -m8
Conclusion: CDDA 99%
Signature: 537A07A00865EC38CB50E125F8C8E1BD41F37376
FILE: 23. Костыль.flac
Size: 18500788 Hash: 520A1E3A9C6AA7C6E66070C5B202618A Accuracy: -m8
Conclusion: CDDA 100%
Signature: FC0C0DF96FE4C1580FAC0FAB0BFFD77B164437C0

admin

Post 05-Feb-2022 04:45

[Quote]

Название: Grand Collection
Исполнитель: Ярослав Евдокимов
Год: 2003
Жанр: Pop, Retro
Страна: Россия
Продолжительность: 01:11:36
Формат/Кодек: APE
Тип рипа: Image + .cue
Битрейт аудио: Lossless
Носитель: CD

Трек-лист

01. За Дунаем
02. Стоп, душа
03. За друзей
04. Солнышко
05. Слёзы капают
06. Куст калины
07. Белые лилии
08. Туман
09. Кафе у моря
10. Целую твою ладонь
11. Фантазёр
12. Наливай
13. Только ночь
14. Хорошо
15. Полина
16. Огни вокзала
17. Между двух огней
18. Роза
19. Последний поезд
20. Майский вальс

admin

Post 03-Feb-2022 03:45

[Quote]

Название: Эти глаза напротив
Исполнитель: Валерий Ободзинский
Год: 1992
Страна-производитель: Россия
Аудио кодек: FLAC
Тип рипа: Image+.cue
Жанр: Pop, Estrada, Retro
Разрядность: 24 Bit/192 kHz
Продолжительность: 00:41:49
Код класса состояния винила: Near Mint
Устройство воспроизведения: Thorens TD320mk2
Головка звукоснимателя: Audio Technica AT440MLa
Предварительный усилитель: HOLFI Ellipse (Phono Battery)
АЦП: E-MU 0404 USB
Программа-оцифровщик: Adobe Audition
Обработка: Щелчки и шум в паузах

1992 - Эти глаза напротив (Russian Disc - R60 01067)

01. Эти глаза напротив (Д.Тухманов - Т.Сашко)
02. Анджела (Паоли - Л.Дербенев)
03. Олеандр (С.Влавианос - О.Гаджикасимов)
04. Настоящая любовь (Кроуэлл - О.Гаджикасимов)
05. Листопад (Д.Тухманов - В.Харитонов)
06. Белые крылья (В.Шаинский - В.Харитонов)
07. Вечная весна (Д.Тухманов - В.Харитонов)
08. Что-то случилось (Т.Попа - Д.Иванов)
09. Восточная песня (Д.Тухманов - О.Гаджикасимов)
10. Первое апреля (В.Мигуля - И.Шаферан)
11. Неотправленное письмо (С.Мелик - О.Гаджикасимов)
12. Все сбудется (Рид - О.Гаджикасимов)

admin

Post 03-Feb-2022 03:43

[Quote]

Название: Любовь моя-песня
Исполнитель: Валерий Ободзинский
Год: 1975
Страна-производитель: СССР
Аудио кодек: FLAC
Тип рипа: Image+.cue
Жанр: Pop, Estrada, Retro
Разрядность: 24 Bit/96 kHz
Продолжительность: 00:37:09
Код класса состояния винила: Near Mint
Устройство воспроизведения: Электроника ЭП-017С-1
Головка звукоснимателя: Nagaoka MP-200
Предварительный усилитель: Встроенный
АЦП: FireWire Audiophile
Программа-оцифровщик: Sound Forge Pro 10
Обработка: Не производилась

1975 - Любовь моя-песня (ВСГ Мелодия - С60-05847-8)

01. Мечтается людям
02. Мелодия
03. Пойми меня
04. Я ревную тебя
05. Одно и то же
06. Сколько девчонок на свете
07. Листопад
08. Засыпят листья
09. Спасибо тебе за любовь
10. Лишь вчера
11. Вечный вальс

admin

Post 03-Feb-2022 03:42

[Quote]

Название: Поёт Валерий Ободзинский
Исполнитель: Валерий Ободзинский
Год: 1970
Страна-производитель: СССР
Аудио кодек: FLAC
Тип рипа: Image+.cue
Жанр: Pop, Estrada, Retro
Разрядность: 24 Bit/96 kHz
Продолжительность: 00:49:18
Код класса состояния винила: Near Mint
Устройство воспроизведения: Электроника ЭП-017С-1
Головка звукоснимателя: Nagaoka MP-200
Предварительный усилитель: Встроенный
АЦП: FireWire Audiophile
Программа-оцифровщик: Sony Sound Forge 7
Обработка: Нормализация, DC

1970 - Поёт Валерий Ободзинский (ВСГ Мелодия - Д 028841-2)

01. Карнавал
02. Восточная песня
03. Я возвращаюсь домой
04. Только да
05. Заблудились, видно, соловьи
06. Эти глаза напротив
07. Любовь возвратится к тебе
08. Что-то случилось
09. Встреча
10. Неотправленное письмо
11. Так и будет
12. Анджела
13. Играет орган
14. Всё сбудется
 

Current time is: 26-May 07:04

All times are UTC + 3