Search found 47 matches

Author Message

admin

Post 28-May-2022 03:51

[Quote]

Название: Трон: Наследие / TRON: Legacy
Исполнитель: Daft Punk
Год: 2010/2020
Жанр: Score
Страна: France
Продолжительность: 01:23:10
Формат/Кодек: FLAC
Тип рипа: Tracks
Битрейт аудио: Lossless
Разрядность: 24 Bit/44.1 kHz
Носитель: WEB

Трек-лист

01. Overture (02:28)
02. The Grid (01:37)
03. The Son of Flynn (01:35)
04. Recognizer (02:38)
05. Armory (02:03)
06. Arena (01:33)
07. Rinzler (02:18)
08. The Game Has Changed (03:25)
09. Outlands (02:43)
10. Adagio for TRON (04:11)
11. Nocturne (01:42)
12. End of Line (02:36)
13. Derezzed (01:44)
14. Fall (01:23)
15. Solar Sailer (02:42)
16. Rectifier (02:14)
17. Disc Wars (04:11)
18. C.L.U. (04:39)
19. Arrival (02:00)
20. Flynn Lives (03:22)
21. TRON Legacy (End Titles) (03:18)
22. Finale (04:23)
23. Sea of Simulation (02:41)
24. Encom, Pt. II (02:17)
25. Encom, Pt. I (03:52)
26. Round One (01:40)
27. Castor (02:19)
28. Reflections (02:41)
29. Sunrise Prelude (02:51)
30. Father and Son (03:10)
31. Outlands, Pt. II (02:54)

DRM
foobar2000 1.6.11 / Dynamic Range Meter 1.1.1
--------------------------------------------------------------------------------
Analyzed: Daft Punk / TRON: Legacy - The Complete Edition (Original Motion Picture Soundtrack)
--------------------------------------------------------------------------------
DR Peak RMS Duration Track
--------------------------------------------------------------------------------
DR10 -0.17 dB -15.30 dB 2:28 01-Overture
DR6 -0.48 dB -10.84 dB 1:37 02-The Grid
DR10 -2.56 dB -15.45 dB 1:35 03-The Son of Flynn
DR7 -0.04 dB -11.37 dB 2:38 04-Recognizer
DR7 -2.71 dB -12.73 dB 2:03 05-Armory
DR7 -0.47 dB -11.93 dB 1:33 06-Arena
DR6 -1.10 dB -11.27 dB 2:18 07-Rinzler
DR8 -0.24 dB -9.46 dB 3:25 08-The Game Has Changed
DR10 -0.36 dB -15.23 dB 2:43 09-Outlands
DR11 -0.06 dB -16.89 dB 4:11 10-Adagio for TRON
DR9 -3.43 dB -15.10 dB 1:42 11-Nocturne
DR8 -0.25 dB -10.10 dB 2:36 12-End of Line
DR9 -0.12 dB -10.68 dB 1:44 13-Derezzed
DR7 -0.40 dB -8.45 dB 1:23 14-Fall
DR9 -0.46 dB -11.71 dB 2:42 15-Solar Sailer
DR7 -0.47 dB -12.76 dB 2:14 16-Rectifier
DR8 -0.03 dB -11.07 dB 4:11 17-Disc Wars
DR8 -0.45 dB -12.19 dB 4:39 18-C.L.U.
DR10 -0.50 dB -14.15 dB 2:00 19-Arrival
DR8 -0.11 dB -13.32 dB 3:22 20-Flynn Lives
DR7 -0.40 dB -8.30 dB 3:18 21-TRON Legacy (End Titles)
DR9 -0.09 dB -15.10 dB 4:23 22-Finale
DR8 -0.43 dB -9.79 dB 2:41 23-Sea of Simulation
DR6 -0.43 dB -9.07 dB 2:17 24-Encom, Pt. II
DR12 -0.49 dB -17.22 dB 3:52 25-Encom, Pt. I
DR6 -1.26 dB -10.76 dB 1:40 26-Round One
DR7 -0.77 dB -9.12 dB 2:19 27-Castor
DR9 -0.43 dB -14.32 dB 2:41 28-Reflections
DR10 -0.50 dB -13.92 dB 2:51 29-Sunrise Prelude
DR14 -1.42 dB -21.40 dB 3:10 30-Father and Son
DR7 -0.49 dB -10.35 dB 2:54 31-Outlands, Pt. II
--------------------------------------------------------------------------------
Number of tracks: 31
Official DR value: DR8
Samplerate: 44100 Hz
Channels: 2
Bits per sample: 24
Bitrate: 1395 kbps
Codec: FLAC
================================================================================
Дополнительная информация: Новое издание саундтрека французского дуэта к фильму «Трон: Наследие» (Tron: Legacy) включает девять ранее не вошедших в оригинальный саундтрек произведений. Это не новая или ранее не издававшаяся музыка - большинство треков были доступны в других форматах, таких как винил или эксклюзивы для iTunes. Релиз под названием Complete Edition впервые собрал всю музыку из фильма воедино и приурочен к десятилетию выхода фильма в прокат.

admin

Post 23-Apr-2022 01:53

[Quote]

Название: Миротворец / Peacemaker [Unofficial]
Исполнитель: VA
Год: 2022
Жанр: Soundtrack
Страна: USA
Продолжительность: 02:44:43
Формат/Кодек: MP3
Битрейт аудио: 320 kbps

Tрек-лист:

01. Wig Wam - Do Ya Wanna Taste It
02. Foxy Shazam - Welcome To The Church Of Rock And Roll
03. Nashville Pussy - Come On Come On
04. Y&T - Summertime Girls
05. The Poodles - Night Of Passion
06. The Quireboys - I Don't Love You Anymore
07. Tigertailz - Love Bomb Baby
08. The Quireboys - 7 O'Clock
09. The Cruel Intentions - Borderline Crazy
10. Firehouse - Don't Treat Me Bad
11. Santa Cruz - Drag Me Down
12. Dust Bowl Jokies - Boots On Rocks Off
13. John Murphy, Ralph Saenz - Pumped Up Kicks
14. Enemies Swe - Powertrain
15. Sister - Would You Love A Creature
16. Kissin' Dynamite - Six Feet Under
17. Band-Maid - Choose Me
18. Bang Camaro - Push Push (Lady Lightning)
19. Vain - Beat The Bullet
20. Pretty Boy Floyd - I Wanna Be With You
21. The Cruel Intentions - Jawbreaker
22. Faster Pussycat - House Of Pain
23. Vains Of Jenna - Enemy In Me
24. Sister Sin - Fight Song
25. The Cruel Intentions - Sick Adrenaline
26. Hanoi Rocks - 11th Street Kids
27. House Of Lords - The Both Of Us
28. The Dogs D'Amour - How Come It Never Rains
29. Hanoi Rocks - Fallen Star
30. Dynazty - The Human Paradox
31. Enuff Z'nuff - New Thing
32. Reckless Love - Monster
33. John Cena - Home Sweet Home
34. Lita Ford - Kiss Me Deadly
35. Mötley Crüe - Home Sweet Home
36. Wig Wam - In My Dreams
37. Kix - Don't Close Your Eyes
38. Hardline - Hot Cherie
39. The Hellacopters - By The Grace Of God
40. Pretty Boy Floyd - Rock & Roll (Is Gonna Set The Night On Fire)
41. Steel Panther - If You Really Really Love Me
42. The Last Vegas - Apologize
43. Hardcore Superstar - You Can't Kill My Rock 'n Roll
Автор сборки: Soloid
***собраны только те песни, которые есть в треклисте Джеймса Ганна на Спотифай.

admin

Post 14-Feb-2022 04:52

[Quote]

Название: Бешеные собачки
Оригинальное название: Reservoir Dogs
Исполнитель: VA, Stephen Wright,
Год: 1992
Жанр: Film OST, Soundtrack
Страна: United States
Продолжительность: 00:30:47
Формат/Кодек: FLAC
Битрейт аудио: Lossless (image+cue) + Scans

Трек-лист

01. Stephen Wright - And Now Little Green Bag...
02. The George Baker Selection - Little Green Bag
03. Stephen Wright - Rock Flock Of Five
04. Blue Suede - Hooked On A Feeling
05. Stephen Wright - Bohemiath
06. Joe Tex - I Gotcha
07. Bedlam - Magic Carget Ride
08. Quentin Tarantino, Harvey Keitel, Steve Buscemi, Lawrence Tiern - Madonna Speech
09. Sandy Rogers - Fool For Love
10. Stephen Wright - Super Sounds
11. Stealers Wheel - Stuck In The Middle With You
12. Bedlam - Harvest Moon
13. Havey Keitel And Tim Roth - Let's Get A Taco
14. Stephen Wright - Keep On Truckin'
15. Harry Nilsson - Coconut
16. Steven Wright - Home Of Rock

Posters:


admin

Post 14-Feb-2022 04:14

[Quote]

Название: Дом Gucci
Оригинальное название: House Of Gucci
Исполнитель: Various Artists
Год: 2021
Жанр: Score
Страна: USA
Продолжительность: 01:13:21
Формат/Кодек: FLAC
Тип рипа: Tracks
Битрейт аудио: Lossless
Разрядность: 24 Bit/44.1 kHz
Носитель: WEB

Трек-лист

01. George Michael - Faith (3:17)
02. Pino Donaggio - La Ragazza Col Maglione (Remaster 2004) (2:43)
03. Donna Summer - On The Radio (4:05)
04. Miguel Bosé - Anna (Ana) (4:40)
05. Donna Summer - Love To Love You Baby (Single Edit) (3:23)
06. Caterina Caselli - Sono bugiarda (I'm A Believer) (2:53)
07. Luciano Pavarotti - Libiamo ne'lieti calici (Brindisi) (2:50)
08. Alice - Una Notte Speciale (2005 Remaster) (4:18)
09. Bruno Lauzi - Ritornerai (2:43)
10. Eurythmics - Here Comes the Rain Again (Remastered Version) (4:54)
11. Donna Summer - I Feel Love (3:12)
12. New Order - Blue Monday (12" Version) (7:30)
13. Eric B. & Rakim - Paid In Full (3:39)
14. Walter Murphy - A Fifth Of Beethoven (3:03)
15. Blondie - Heart Of Glass (4:11)
16. David Bowie - Ashes To Ashes (Single Version [2014 Remaster]) (3:38)
17. Black Machine - How Gee (4:27)
18. Harry Gregson-Williams - House Of Gucci Score Suite (8:01)

DRM
foobar2000 1.6.6 / Dynamic Range Meter 1.1.1
--------------------------------------------------------------------------------
Analyzed: Alice / House Of Gucci (Music from the Motion Picture) (1)
Black Machine / House Of Gucci (Music from the Motion Picture) (2)
Blondie / House Of Gucci (Music from the Motion Picture) (3)
Bruno Lauzi / House Of Gucci (Music from the Motion Picture) (4)
Caterina Caselli / House Of Gucci (Music from the Motion Picture) (5)
David Bowie / House Of Gucci (Music from the Motion Picture) (6)
Donna Summer / House Of Gucci (Music from the Motion Picture) (7-9)
Eric B. & Rakim / House Of Gucci (Music from the Motion Picture) (10)
Eurythmics / House Of Gucci (Music from the Motion Picture) (11)
George Michael / House Of Gucci (Music from the Motion Picture) (12)
Harry Gregson-Williams / House Of Gucci (Music from the Motion Picture) (13)
Luciano Pavarotti / House Of Gucci (Music from the Motion Picture) (14)
Miguel Bosé / House Of Gucci (Music from the Motion Picture) (15)
New Order / House Of Gucci (Music from the Motion Picture) (16)
Pino Donaggio / House Of Gucci (Music from the Motion Picture) (17)
Walter Murphy / House Of Gucci (Music from the Motion Picture) (18)
--------------------------------------------------------------------------------
DR Peak RMS Duration Track
--------------------------------------------------------------------------------
DR9 -0.82 dB -11.06 dB 4:18 08-Una Notte Speciale (2005 Remaster)
DR14 -0.40 dB -15.15 dB 4:27 17-How Gee
DR9 -0.88 dB -11.37 dB 4:11 15-Heart Of Glass
DR10 -1.40 dB -15.35 dB 2:43 09-Ritornerai
DR10 -1.44 dB -12.64 dB 2:53 06-Sono bugiarda (I'm A Believer)
DR9 -1.40 dB -11.96 dB 3:38 16-Ashes To Ashes (Single Version [2014 Remaster])
DR11 -0.40 dB -13.66 dB 4:05 03-On The Radio
DR12 -0.40 dB -14.90 dB 3:23 05-Love To Love You Baby (Single Edit)
DR10 -1.37 dB -12.93 dB 3:12 11-I Feel Love
DR9 -0.90 dB -11.19 dB 3:39 13-Paid In Full
DR9 -0.40 dB -11.61 dB 4:54 10-Here Comes the Rain Again (Remastered Version)
DR11 -0.94 dB -14.30 dB 3:17 01-Faith
DR7 -0.40 dB -11.25 dB 8:01 18-House Of Gucci Score Suite
DR9 -0.40 dB -14.13 dB 2:50 07-Libiamo ne'lieti calici (Brindisi)
DR9 -0.40 dB -10.33 dB 4:40 04-Anna (Ana)
DR11 -0.40 dB -13.24 dB 7:30 12-Blue Monday (12" Version)
DR10 -0.90 dB -12.67 dB 2:43 02-La Ragazza Col Maglione (Remaster 2004)
DR10 -0.45 dB -12.51 dB 3:03 14-A Fifth Of Beethoven
--------------------------------------------------------------------------------
Number of tracks: 18
Official DR value: DR10
Samplerate: 44100 Hz
Channels: 2
Bits per sample: 24
Bitrate: 1647 kbps
Codec: FLAC
================================================================================

admin

Post 11-Feb-2022 03:40

[Quote]

Название: Benedetta
Исполнитель: Anne Dudley
Год выпуска фильма: 2021
Год выпуска диска: 2022
Жанр: Score
Страна: Европейский союз
Продолжительность: 00:30:39
Формат/Кодек: MP3
Битрейт аудио: 320 kbps

Трек-лист

01. Beata Viscera
02. A Bride of Christ
03. Flames Will Not Burn Me
04. A False Prophet
05. Immodest Acts
06. The Comet
07. The Convent at Pescia
08. Confession and Penance
09. Stigmata
10. Extraordinary Accusations
11. Plague Stalks the Land

admin

Post 04-Jan-2022 00:10

[Quote]

Название: Hands of Steel
Исполнитель: Claudio Simonetti
Год выпуска фильма: 1986
Год выпуска диска: 2021
Жанр: OST, Score
Страна: Италия
Продолжительность: 00:35:00
Формат/Кодек: MP3
Битрейт аудио: 320 kbps

Трек-лист

01. Hands Of Steel
02. Paco Querak
03. Atomic Cyborg
04. Arms Of Steel
05. Arizona
06. Linda’s Theme
07. The House In Arizona
08. Paco’s Escape
09. Atomic Arm
10.Psychedelic World
11. Dr.Mosley
12. Hot Desert
13. Paco's Suspence
14. Crazy Turner
15. The Final Match
16. Hands Of Steel (Solo Piano)

admin

Post 29-Dec-2021 00:29

[Quote]

Название: Острые козырьки / Peaky Blinders [Original Music From The TV Series]
Исполнитель: VA
Год: 2019
Жанр: Soundtrack
Издатель (лейбл): Universal Music
Продолжительность: 01:08:59 + 01:06:48
Формат/Кодек: MP3
Битрейт аудио: 320 kbps

Tрек-лист:

CD 1
01. Cillian Murphy - Tommy: 'It’s Not A Good Idea…'
02. Nick Cave & The Bad Seeds - Red Right Hand
03. The White Stripes - St. James Infirmary Blues
04. Martin Phipps - Truce (From 'Peaky Blinders' Original Soundtrack Series 1)
05. Cillian Murphy - Tommy: 'Right I Have Bought You Hear Today…'
06. Dan Auerbach - The Prowl
07. Helen McCrory - Polly: 'There’s Only One Thing…'
08. Jack White - Love Is Blindness
09. PJ Harvey - To Bring You My Love
10. Tom Hardy - Alfie: 'I’ve Heard Very Bad, Bad, Bad Things…'
11. Black Rebel Motorcycle Club - River Styx
12. Paul Hartnoll - Post Irish Meeting (From 'Peaky Blinders' Original Soundtrack Series 2)
13. PJ Harvey - Red Right Hand
14. Laura Marling - What He Wrote
15. Paul Anderson - Arthur: 'Do You Wanna Tell ‘Em…'
16. Royal Blood - Come On Over
17. Arctic Monkeys - Do I Wanna Know?
18. Cillian Murphy - Tommy: 'I Love You…'
19. Nick Cave & The Bad Seeds - Breathless
20. Radiohead - You And Whose Army?
21. Helen McCrory - Polly: 'A Woman Of Substance…'
22. PJ Harvey - This Is Love
23. Dickon Hinchliffe - Sons (From 'Peaky Blinders' Original Soundtrack Series 3)
24. Cillian Murphy - Tommy: 'You Can Change What You Do…'
25. Queens of the Stone Age - Burn The Witch
26. The Last Shadow Puppets - Bad Habits
27. David Bowie – Lazarus
CD 2
01. Cillian Murphy - Tommy: 'Sex, Freedom, Whiskey Sours…'
02. Savages - Adore
03. Nick Cave & The Bad Seeds - The Mercy Seat
04. Rachel Unthank & The Winterset - I Wish
05. Anthony Genn & Martin Slattery - Ballad Of Polly Gray (From 'Peaky Blinders' Original Soundtrack Series 4)
06. Cillian Murphy - Tommy: 'I’m Not A Traitor To My Class…'
07. Frank Carter & The Rattlesnakes - Devil Inside Me
08. Foals - Snake Oil
09. Helen McCrory - Polly: 'It's In Our Gypsy Blood…'
10. Radiohead - Pyramid Song
11. Laura Marling - A Hard Rain's A-Gonna Fall
12. Sophie Rundle - Ada: 'So, Tommy Shelby, MP…'
13. Black Sabbath - The Wizard
14. Anna Calvi - Papi Pacify
15. Joy Division - Atmosphere
16. Cillian Murphy - Tommy: 'You Need To Understand…'
17. Anna Calvi - You’re Not God (From 'Peaky Blinders' Original Soundtrack Series 5)
18. Paul Anderson - Arthur: 'There’s A Bentley Outside…'
19. Jehnny Beth - I'm The Man
20. Idles - Never Fight A Man With A Perm
21. Cillian Murphy - Tommy: 'I Will Continue…'
22. Richard Hawley - Ballad Of A Thin Man

admin

Post 08-Dec-2021 03:34

[Quote]

Название: Довод / Tenet
Исполнитель: Ludwig Göransson
Год: 2020
Жанр: Score
Страна: США
Продолжительность: 01:26:35
Формат/Кодек: MP3
Битрейт аудио: 320 Кбит/сек

Треклист:

1 RAINY NIGHT IN TALLINN
2 WINDMILLS
3 MEETING NEIL
4 PRIYA
5 BETRAYAL
6 FREEPORT
7 747
8 FROM MUMBAI TO AMALFI
9 FOILS
10 SATOR
11 TRUCKS IN PLACE
12 RED ROOM BLUE ROOM
13 INVERSION
14 RETRIEVING THE CASE
15 THE ALGORITHM
16 POSTERITY
17 THE PROTAGONIST
18 THE PLAN

admin

Post 01-Dec-2021 04:49

[Quote]

Название: Обитель зла: Раккун-Сити / Resident Evil: Welcome To Raccoon City
Композитор: Mark Korven
Год: 2021
Жанр: Score
Страна: USA
Продолжительность: 00:59:21
Формат/Кодек: MP3
Битрейт аудио: 320 kbps

Tрек-лист:

01. Opening
02. Highway Accident
03. Chasing Lisa
04. The Crow
05. Claire & the Neighbours
06. Rpd
07. Runaway Truck
08. Helicopter - Dog Attack
09. Mansion Search
10. Library - Ben in Jail
11. Breach - Orphanage
12. Nursery - Battle
13. Experiments - Shoot Out
14. The Train

admin

Post 12-Jul-2021 04:30

[Quote]

Название: Чёрная Вдова / Black Widow
Композитор: Lorne Balfe
Год: 2021
Жанр: Score
Издатель (лейбл): Marvel
Страна: USA
Продолжительность: 01:20:02
Формат/Кодек: MP3
Битрейт аудио: 320 kbps

Tрек-лист:

01. Natasha's Lullaby
02. Latrodectus
03. Fireflies
04. The Pursuit
05. The First Bite Is The Deepest
06. Last Glimmer
07. Dreykov
08. You Don't Know Me
09. Yelena Belova
10. From The Shadows
11. Hand In Hand
12. Blood Ties
13. Whirlwind
14. Arise
15. Natasha's Fragments
16. A Sister Says Goodbye
17. I Can't Save Us
18. Red Rising
19. The Betrayed
20. The Descent
21. Faces To The Sun
22. Natasha Soars
23. Last Love
24. Into The Past
25. Broken Free
26. A Calling

admin

Post 03-Jun-2021 01:51

[Quote]

Название: Круэлла / Cruella
Композитор: VA
Год: 2021
Жанр: Soundtrack
Издатель (лейбл) : Walt Disney Records
Продолжительность: 00: 54:52
Формат/Кодек: MP3
Битрейт аудио: 320 kbps

Tрек-лист:

01. Florence + The Machine - Call me
02. Supertramp - Bloody Well Right (Remastered 2010)
03. Bee Gees - Whisper Whisper
04. The Doors — Five to One
05. Nina Simone - Feeling Good
06. Ohio Players - Fire
07. Ike & Tina Turner - Whole Lotta Love (2002 Remaster)
08. ELO - Livin' Thing
09. Queen - Stone Cold Crazy (2011 Remaster)
10. Deep Purple - Hush
11. Blondie - One Way or Another
12. Georgia Gibbs - I Love Paris
13. Ken Dodd - Love Is Like A Violin
14. John McCrea - I Wanna Be Your Dog
15. Ike & Tina Turner - Come Together (Remastered 1994)

admin

Post 23-May-2021 03:12

[Quote]

Название: Первому игроку приготовиться / Ready Player One
Исполнитель: Various Artists
Год: 2018
Жанр: Soundtrack, Score
Продолжительность: 00:46:01
Формат/Кодек: FLAC
Битрейт аудио: Lossless

Трек-лист

01. Prince – I Wanna Be Your Lover (5:48)
02. Tears For Fears – Everybody Wants To Rule the World (4:12)
03. The Temptations – Just My Imagination (Running Away with Me) (3:49)
04. Bruce Springsteen – Stand On It (3:06)
05. Blondie – One Way or Another (3:27)
06. Earth, Wind & Fire – Can’t Hide Love (4:09)
07. New Order – Blue Monday (7:24)
08. Bee Gees – Stayin’ Alive (4:45)
09. Twisted Sister – We’re Not Gonna Take It (3:38)
10. Daryl Hall & John Oates – You Make My Dreams (3:11)
11. Bryan Nguyen – Pure Imagination (Feat. Merethe Soltvedt) (2:33)

admin

Post 21-May-2021 04:24

[Quote]


Название: Армия мертвецов
Оригинальное название:Army of the Dead
Исполнитель: Tom Holkenborg
Год: 2021
Страна: Nederlands
Жанр: Score
Продолжительность: 00:48:35
Битрейт аудио: Lossless
Формат/Кодек: FLAC
Разрядность: 24/48
Количество каналов: 2.0
Тип рипа: tracks

Треклист

01. Richard Cheese - Viva Las Vegas (From "Army of the Dead" Soundtrack) (05:55)
02. Junkie XL - Scott and Kate Part 1 (05:24)
03. Junkie XL - Scott and Kate Part 2 (02:49)
04. Junkie XL - Scott and Kate Part 3 (04:42)
05. Junkie XL - Toten Hosen (03:56)
06. Junkie XL - Swimming Pool (01:05)
07. Junkie XL - Not Here (01:50)
08. Junkie XL - 3 Flares (04:42)
09. Junkie XL - Battle Hallway Part 1 (04:00)
10. Junkie XL - Battle Hallway Part 2 (06:41)
11. Junkie XL - Zeus and Athena Part 1 (03:17)
12. Junkie XL - Zeus and Athena Part 2 (04:14)

DR

foobar2000 1.4.8 / Dynamic Range Meter 1.1.1
log date: 2021-05-20 17:48:27
--------------------------------------------------------------------------------
Analyzed: Junkie XL / Army of the Dead (Music From the Netflix Film) (1-11)
Richard Cheese / Army of the Dead (Music From the Netflix Film) (12)
--------------------------------------------------------------------------------
DR Peak RMS Duration Track
--------------------------------------------------------------------------------
DR9 -0.96 dB -13.20 dB 5:25 02-Scott and Kate Part 1
DR11 -0.29 dB -15.31 dB 2:50 03-Scott and Kate Part 2
DR7 -0.28 dB -11.15 dB 4:43 04-Scott and Kate Part 3
DR8 -0.28 dB -12.79 dB 3:56 05-Toten Hosen
DR5 -4.70 dB -11.53 dB 1:05 06-Swimming Pool
DR6 -0.28 dB -9.08 dB 1:50 07-Not Here
DR8 -0.28 dB -12.22 dB 4:42 08-3 Flares
DR6 -0.28 dB -11.09 dB 4:00 09-Battle Hallway Part 1
DR6 -0.28 dB -11.23 dB 6:42 10-Battle Hallway Part 2
DR6 -0.28 dB -11.32 dB 3:18 11-Zeus and Athena Part 1
DR5 -0.28 dB -9.58 dB 4:15 12-Zeus and Athena Part 2
DR11 -0.28 dB -14.70 dB 5:56 01-Viva Las Vegas (From "Army of the Dead" Soundtrack)
--------------------------------------------------------------------------------
Number of tracks: 12
Official DR value: DR7
Samplerate: 48000 Hz
Channels: 2
Bits per sample: 24
Bitrate: 1665 kbps
Codec: FLAC
================================================================================

admin

Post 18-May-2021 03:32

[Quote]

Название: Alien: Covenant
Исполнитель: Jed Kurzel
Год выпуска: 2017
Жанр: Score
Страна: США
Продолжительность: 00:59:08
Формат/Кодек: MP3
Битрейт аудио: 320 kbps

Треклист

01. Incubation
02. The Covenant
03. Neutrino Burst
04. A Cabin On The Lake
05. Sails
06. Planet 4 (Main Theme)
07. Launcher Landing
08. Wheat Field
09. Spores
10. The Med Bay
11. Grass Attack
12. Dead Civilization
13. Survivors
14. Payload Deployment
15. Command Override
16. Face Hugger
17. Chest Burster
18. Lonely Perfection
19. Cargo Lift
20. Bring It To My Turf
21. Terraforming Bay
22. Alien Covenant Theme

admin

Post 22-Apr-2021 22:46

[Quote]

Название: Мортал Комбат / Mortal Kombat
Композитор: Benjamin Wallfisch
Страна: UK | Жанр: Score
Год: 2021 | Продолжительность: 01:19:37
Битрейт аудио: 320 kbps
Формат/Кодек: MP3

Треклист

01. Techno Syndrome 2021 (Mortal Kombat)
02. Hanzo Hasashi
03. Lord Raiden
04. Bi-Han
05. Shang Tsung
06. Cole Young
07. Birthmark
08. Sonya Blade
09. Kano v Reptile
10. Liu Kang
11. The Great Protector
12. Sub-Zero
13. Kung Lao
14. Origins
15. Kabal
16. Goro
17. Arcana
18. Jax Briggs
19. The Void
20. The Tournament
21. Sub-Zero v Cole Young
22. I Am Scorpion
23. We Fight as One
24. Get Over Here
 

Current time is: 25-Jun 10:26

All times are UTC + 3