Search found 254 matches

Author Message

admin

Post Yesterday 06:28

[Quote]

Информация о фильме
Название: Двое
«Жизнь даётся на время»
Год выхода: 2018
Жанр: Драма
Режиссер: Тимофей Жалнин
В ролях: Антон Момот, Татьяна Полосина, Андрей Щепочкин, Александра Мареева, Андрей Астраханцев, Андрей Толшин, Сергей Доможаков, Валентин Ульчугаев
О фильме:
Отчаявшись поправить здоровье путём традиционной медицины, Надя уговаривает своего мужа Андрея отправиться в поход к целебным озерам. Андрей соглашается. В этом походе, вдали от сурового тестя, он планирует сообщить Наде о разводе. Но природа вмешивается в планы героев. Из-за начавшихся дождей, вода в реке поднимается, отрезая путь домой. В поисках переправы, Андрей и Надя теряются в глухой сибирской тайге. С этого момента начинается их сложный путь борьбы со своими страхами и работы над ошибками прошлого. Только здесь, оказавшись на грани жизни и смерти, они по-настоящему узнают себя и друг друга.

Страна: Россия
Студия: АРТЛАЙТ, Инвада фильм
Продолжительность: 01:36:12
Перевод: Не требуется
Файл
Качество: WEB-DLRip
Формат: AVI
Кодек: XviD
Видео: 720x304 (2,35:1), 24 fps, XviD ~ 1781 Кbps avg, 0.339 bit/pixel
Аудио: AC3, 48 kHz, 6 ch, ~384.00 kbps avg | русский | iTunes

Скриншоты

admin

Post 02-Dec-2019 20:48

[Quote]

23586i am from Italy hello. Can you help me translate? /rardor
Здравствуйте.Что именно Вам нужно перевести?Если фильм,то он только на русском.На другие языки перевода еще нет!

rardartet

Post 02-Dec-2019 17:13

[Quote]

i am from Italy hello. Can you help me translate? /rardor

admin

Post 03-Oct-2019 01:49

[Quote]

Информация о фильме
Название: Трудности выживания
Год выхода: 2019
Жанр: комедия, мелодрама
Режиссер: Евгений Торрес
В ролях: Василий Бриченко, Елизавета Кононова, Ян Цапник, Артем Маркарьян, Анна Ардова, Александр Самойленко, Николай Фоменко, Надежда Сысоева, Александр Носков, Максим Важов
О фильме:
Начинающая журналистка Нина в погоне за сенсацией отправляется на необитаемый остров, где, по слухам, живет миллионер-затворник. Баркас со съёмочной группой попадает в жуткий шторм, и Нина приходит в сознание уже на пустынном берегу. К счастью, это именно тот остров, который ей был нужен, а значит, она оказалась в надежных руках молодого и симпатичного героя своего репортажа. Но только Нина еще не подозревает, что на самом деле это ее коллега, местный журналист, которому просто нужна была горячая тема, и он её выдумал. А ещё он ничего не смыслит в выживании...

Страна: Россия
Студия: 2Д Целлулоид
Продолжительность: 01:29:50
Перевод: Не требуется | iTunes
Файл
Формат: AVI
Качество: WEB-DLRip
Источник: |WEB-DL 1080p|
Видео: 720x304 (2.37:1), 24 fps, XviD build 73 ~1934 kbps avg, 0.37 bit/pixel
Звук: 48 kHz, AC3 Dolby Digital, 3/2 (L,C,R,l,r) + LFE ch, ~384 kbps
Субтитры: Нет

Скриншоты

admin

Post 21-Nov-2019 20:42

[Quote]

Информация о фильме
Название: Девушки бывают разные
Год выпуска: 2019
Жанр: Комедия
Режиссёр: Сарик Андреасян
В ролях: Дмитрий Нагиев, Роман Попов, Артем Сучков, Дмитрий Власкин, Владимир Яглыч, Зоя Бербер, Елизавета Моряк, Алена Чехова
Описание:
Это история о трёх друзьях, решивших покататься на серфе в Мексике. Все как полагается: океан, девушки и золотой песок. История не предвещает неожиданностей. Но не для наших героев, которые первым делом как следует отметили свой приезд. С трудом проснувшись наутро, парни обнаруживают себя посреди пляжа, они в замешательстве — не помнят, что же произошло накануне. Но вскоре появляются люди, которые освежают им память: оказывается, прошлой ночью парни страшно навредили международному криминальному авторитету Хуану, который по какой-то причине хочет их убить. Скрываясь от преследования, без денег и документов, они находят спасение — переодеваются в девушек и участвуют в женском турнире по сёрфингу. Победа поможет выиграть сто тысяч долларов и выбраться из страны. Но они еще не знают, что их неидеальному плану помешают любовь, секретные спецслужбы, мафия и даже бойцовые петухи.

Страна: Россия
Студия: Fetisoff Illusion
Продолжительность: 01:29:15
Язык: Русский
Файл
Формат: AVI
Качество: WEB-DLRip
Видео: 688x288 (2,40:1), 24 fps, XviD ~ 1029 Кbps avg, 0.216 bit/pixel
Аудио: MP3, 48 kHz, 2 ch, ~128.00 kbps avg | русский |
Субтитры: Отсутствуют

Скриншоты

admin

Post 14-Nov-2019 14:54

[Quote]

23285Ciao a tutti vengo dall'italia / itawero
И мы Вас приветствуем на нашем трекере!

itaSal

Post 10-Nov-2019 02:33

[Quote]

Ciao a tutti vengo dall'italia / itawero

admin

Post 14-Oct-2019 02:54

[Quote]

Информация о фильме
Название: Дорогой папа
Год выхода: 2019
Жанр: Комедия, семейный
Режиссер: Михаил Расходников
В ролях: Владимир Вдовиченков, Валентина Ляпина, Владимир Сычев, Ирина Пегова, Николай Шрайбер, Иева Андреевайте, Игорь Ясулович, Юлия Сулес, Варвара Малкова, Андрей Пермяков
О фильме: Владелец ведущей торговой сети Вадим Дюмин привык добиваться своего любыми способами. Обаяние и продуманный план помогают ему найти китайского инвестора, готового стать партнером в компании Вадима, оформленной когда-то на его маму. Вот только, оказалось, она завещала акции своей внучке, его дочери... Которую Вадим бросил, когда ей было 2 года. Теперь Вадим должен поехать в свой родной маленький город, найти бывшую жену и дочь и убедить их отказаться от наследства на сумму... где-то полмиллиарда долларов. Вадим уверен, что его обаяние и манипуляции сработают и здесь, но в мире дочери его методы не работают, и слово "дорогой" здесь совсем не про деньги.

Выпущено: Россия, PBB, Renovatio ent.
Продолжительность: 01:27:04
Перевод: Не требуется| iTunes
Файл
Качество: WEB-DLRip
Формат: AVI
Видео: 720x304 (2.37:1), 23.976 fps, XviD build 73 ~1998 kbps avg, 0.38 bit/pixel
Аудио: 48 kHz, AC3 Dolby Digital, 3/2 (L,C,R,l,r) + LFE ch, ~384 kbps - iTunes
Субтитры: Нет

Скриншоты

MediaInfo

Формат : AVI
Формат/Информация : Audio Video Interleave
Размер файла : 1,46 Гбайт
Продолжительность : 1 ч. 27 м.
Общий поток : 2391 Кбит/сек
Название фильма : Дорогой папа_2019_WEB-DLRip
Программа кодирования : VirtualDubMod 1.5.10.3 | (build 2550/release)
Авторское право : порошков
Видео
Идентификатор : 0
Формат : MPEG-4 Visual
Профиль формата : Advanced Simple@L5
Настройки формата : BVOP1 / Custom Matrix
Параметр BVOP формата : 1
Параметр QPel формата : Нет
Параметр GMC формата : Без точки перехода
Параметр матрицы формата : Выборочная
Идентификатор кодека : XVID
Идентификатор кодека/Подсказка : XviD
Продолжительность : 1 ч. 27 м.
Битрейт : 1998 Кбит/сек
Ширина : 720 пикселей
Высота : 304 пикселя
Соотношение сторон : 2,35:1
Частота кадров : 23,976 (24000/1001) кадра/сек
Цветовое пространство : YUV
Субдискретизация насыщенности : 4:2:0
Битовая глубина : 8 бит
Тип развёртки : Прогрессивная
Метод сжатия : С потерями
Бит/(Пиксели*Кадры) : 0.381
Размер потока : 1,22 Гбайт (84%)
Библиотека кодирования : XviD 73
Аудио
Идентификатор : 1
Формат : AC-3
Формат/Информация : Audio Coding 3
Коммерческое название : Dolby Digital
Идентификатор кодека : 2000
Продолжительность : 1 ч. 27 м.
Вид битрейта : Постоянный
Битрейт : 384 Кбит/сек
Каналы : 6 каналов
ChannelLayout : L R C LFE Ls Rs
Частота : 48,0 КГц
Частота кадров : 31,250 кадров/сек (1536 SPF)
Метод сжатия : С потерями
Размер потока : 239 Мбайт (16%)
Выравнивание : Разделение по промежуткам
Продолжительность промежутка : 42 мс. (1,00 видеокадр)
Время предзагрузки промежутка : 500 мс.

admin

Post 08-Nov-2019 01:28

[Quote]

Информация о фильме
Название: Дикая Лига
Год выхода: 2019
Жанр: Приключения
Режиссер: Андрей Богатырёв, Арт Камачо
В ролях: Владимир Яглыч, Аделина Гизатуллина, Иван Охлобыстин, Дмитрий Назаров, Евгений Коряковский, Олеся Судзиловская, Эдриан Пол, Уильям Шокли, Станислав Тикунов, Анатолий Гущин, Иван Михайловский, Вячеслав Шихалеев, Павел Абраменков, Денис Кузнецов, Антон Колесников, Арсений Ветров, Максим Сапрыкин
О фильме:
Основанная на реальных событиях 1910-х годов история парня из низших социальных слоев, которому ради того, чтобы быть с любимой, пришлось покинуть родные края и начать жизнь заново в Москве. Проявившего себя в бою «стенка на стенку», его замечает англичанин, владелец закрытого футбольного клуба, который предлагает ему попробовать свои силы в его команде. Однако футбол — аристократическая игра и команда не принимает неотёсанного бурлака с Волги. Тогда он собирает волю в кулак, находит правильных людей, вместе с которыми создаёт Дикую лигу футбола из народных команд Москвы и становится лидером, изменив при этом свою жизнь и жизнь окружающих, вытеснив футболом народную забаву — драки «стенка на стенку», в которых простые люди погибали сотнями. Теперь уже им бросают вызов сами законодатели футбола…
Страна: Россия
Студия: Кинокомпания «Союз Маринс Групп», Муравей Продакшн, Modern Age Productions при поддержке министерства культуры РФ и Русское Радио
Продолжительность: 01:50:53
Язык: Русский
Примечание: Без рекламы
Файл
Кодек: XviD
Качество: WEB-DLRip
Видео: XviD, ~ 1685 Кбит/с, 720x304
Звук: AC3, 2 ch, 192 Кбит/с

Скриншоты

admin

Post 06-Nov-2019 01:42

[Quote]

Короткие волны
Страна: Россия
Производство: Кинокомпания SAMOLЁT, Vega Film
Год выпуска: 2019
Жанр: драма, комедия
Продолжительность: 01:23:40
Режиссер: Михаил Довженко
В ролях: Алекс Дубас, Евгений Гришковец, Игорь Ясулович, Яков Довженко, Екатерина Волкова, Алиса Хазанова, Елена Плаксина, Екатерина Семенова
Описание: Альманах увлекательных историй, имеющий одну общую тему — все они произошли на радио. Новелла «Шредер» основана на реальных событиях: слушателям прямого эфира предлагают уничтожить известное произведение современного искусства по итогам голосования. Герои новеллы «Переводчик» при помощи радио спасают свою любовь. «Игра в карты» — комедия положений на фоне радиоэфира, в котором обсуждают смену ролей мужчины и женщины в современном обществе. В социальной комедии «Радиорубка» жители маленького городка, где отключили интернет, пытаются изменить свою жизнь благодаря радиоэфиру. «Пока нет» — рассказ о настоящей любви в ситуации, когда счастливый финал невозможен…

Перевод: не требуется (оригинал)
Субтитры: нет-Качество: WEBRip
Формат: AVI
Видео кодек: XviD
Аудио кодек: АС3
Видео: 720x304 (2.35:1), 24.000 fps, XviD build 67 ~1890 kbps avg, 0.36 bit/pixel
Аудио: 48.0 kHz, AC3 Dolby Digital, 3/2 (L,C,R,l,r) + LFE ch, ~384 kbps
Дата премьеры (РФ): 11 апреля 2019, «Кинологистика»

Media Info

General
Полное имя : Короткие_волны_2018.avi
Формат : AVI
Формат/Информация : Audio Video Interleave
Профиль формата : OpenDML
Размер файла : 1,34 Гбайт
Продолжительность : 1 ч. 23 м.
Общий поток : 2287 Кбит/сек
Программа кодирования : Lavf58.20.100
Видео
Идентификатор : 0
Формат : MPEG-4 Visual
Профиль формата : Advanced Simple@L5
Настройки формата : BVOP2
Параметр BVOP формата : 2
Параметр QPel формата : Нет
Параметр GMC формата : Без точки перехода
Параметр матрицы формата : Default (MPEG)
Идентификатор кодека : XVID
Идентификатор кодека/Подсказка : XviD
Продолжительность : 1 ч. 23 м.
Битрейт : 1890 Кбит/сек
Ширина : 720 пикселей
Высота : 304 пикселя
Соотношение сторон : 2,35:1
Частота кадров : 24,000 кадра/сек
Цветовое пространство : YUV
Субдискретизация насыщенности : 4:2:0
Битовая глубина : 8 бит
Тип развёртки : Прогрессивная
Метод сжатия : С потерями
Бит/(Пиксели*Кадры) : 0.360
Размер потока : 1,10 Гбайт (83%)
Библиотека кодирования : XviD 67
Аудио
Идентификатор : 1
Формат : AC-3
Формат/Информация : Audio Coding 3
Коммерческое название : Dolby Digital
Идентификатор кодека : 2000
Продолжительность : 1 ч. 23 м.
Вид битрейта : Постоянный
Битрейт : 384 Кбит/сек
Каналы : 6 каналов
ChannelLayout : L R C LFE Ls Rs
Частота : 48,0 КГц
Частота кадров : 31,250 кадров/сек (1536 SPF)
Битовая глубина : 16 бит
Метод сжатия : С потерями
Размер потока : 230 Мбайт (17%)
Выравнивание : Соединение по промежуткам
Продолжительность промежутка : 32 мс. (0,77 видеокадр)

Скриншоты

admin

Post 05-Nov-2019 01:16

[Quote]

Информация о фильме
Название: Волшебник
Год выпуска: 2019
Жанр: Комедия, драма
Режиссер: Михаил Морсков
В ролях: Семен Трескунов, Максим Суханов, Ангелина Стречина, Ирина Купченко, Владимир Капустин, Ирина Яковлева, Иван Охлобыстин, Сергей Чонишвили, Сергей Аброскин, Екатерина Маликова
О фильме: В прошлом популярный рок-музыкант Фима влачит жалкое существование, растратив свой талант и предаваясь разгульному образу жизни. Все меняется, когда уроки на гитаре у него начинает брать мальчик Рома, страдающий ДЦП и отчаянно жаждущий завоевать сердце своей одноклассницы Маши.

Страна: Россия
Студия: RSS Production
Продолжительность: 01:22:57
Перевод: Не требуется | iTunes
Файл
Качество: WEB-DLRip
Формат: AVI
Видео: 720x272 (2.65:1), 25 fps, XviD build 73 ~2118 kbps avg, 0.43 bit/pixel
Аудио: 48 kHz, AC3 Dolby Digital, 3/2 (L,C,R,l,r) + LFE ch, ~384 kbps
Субтитры: Нет

Скриншоты

MediaInfo

Формат : AVI
Формат/Информация : Audio Video Interleave
Размер файла : 1,46 Гбайт
Продолжительность : 1 ч. 22 м.
Общий поток : 2512 Кбит/сек
Название фильма : Волшебник_2019_WEB-DLRip
Программа кодирования : VirtualDubMod 1.5.10.3 | (build 2550/release)
Авторское право : порошков
Видео
Идентификатор : 0
Формат : MPEG-4 Visual
Профиль формата : Advanced Simple@L5
Настройки формата : BVOP1 / Custom Matrix
Параметр BVOP формата : 1
Параметр QPel формата : Нет
Параметр GMC формата : Без точки перехода
Параметр матрицы формата : Выборочная
Идентификатор кодека : XVID
Идентификатор кодека/Подсказка : XviD
Продолжительность : 1 ч. 22 м.
Битрейт : 2118 Кбит/сек
Ширина : 720 пикселей
Высота : 272 пикселя
Соотношение сторон : 2,647
Частота кадров : 25,000 кадров/сек
Цветовое пространство : YUV
Субдискретизация насыщенности : 4:2:0
Битовая глубина : 8 бит
Тип развёртки : Прогрессивная
Метод сжатия : С потерями
Бит/(Пиксели*Кадры) : 0.433
Размер потока : 1,23 Гбайт (84%)
Библиотека кодирования : XviD 73
Аудио
Идентификатор : 1
Формат : AC-3
Формат/Информация : Audio Coding 3
Коммерческое название : Dolby Digital
Идентификатор кодека : 2000
Продолжительность : 1 ч. 22 м.
Вид битрейта : Постоянный
Битрейт : 384 Кбит/сек
Каналы : 6 каналов
ChannelLayout : L R C LFE Ls Rs
Частота : 48,0 КГц
Частота кадров : 31,250 кадров/сек (1536 SPF)
Метод сжатия : С потерями
Размер потока : 228 Мбайт (15%)
Выравнивание : Разделение по промежуткам
Продолжительность промежутка : 40 мс. (1,00 видеокадр)
Время предзагрузки промежутка : 500 мс.

admin

Post 25-Oct-2019 02:06

[Quote]

Информация о фильме
Название: Сторож
Страна: Россия
Жанр: драма, триллер
Продолжительность: 01:43:10
Перевод: Не требуется
Cубтитры: нет
Режиссер:
Юрий Быков
В ролях:
Юрий Быков, Владислав Абашин, Алла Юганова, Александр Кузьмин, Артур Бесчастный, Олег Зима, Гела Месхи, Алексей Симонов, Николай Козак, Дмитрий Блохин
О фильме:
Размеренную жизнь сторожа заброшенного санатория нарушает приезд странной пары, которая просит остановиться в одном из номеров. Всем троим есть что скрывать и от чего прятаться в снежной глуши.
| |
Файл
Качество: WEBRip
Формат: AVI
Видео кодек: XviD
Аудио кодек: АС3
Видео: 720x304 (2.37:1), 24.000 fps, XviD build 73 ~1818 kbps avg, 0.35 bit/pixel
Аудио: 48 kHz, AC3 Dolby Digital, 2/0 (L,R) ch, ~192 kbps avg

Скриншоты

admin

Post 22-Oct-2019 02:24

[Quote]

Информация о фильме
Название: Ничей
Год выхода: 2019
Жанр: Драма
Режиссер: Евгений Татаров
В ролях: Надежда Маркина, Олег Чугунов, Владимир Меньшов, Дарья Юргенс, Галина Бокашевская, Владимир Ямненко, Хельга Филиппова, Сергей Рост, Александр Тютрюмов, Андрей Шимко
О фильме:
После смерти матери двенадцатилетнего Колю отправляют в детский дом. Оттуда его забирает Валентина. Эта одинокая пожилая женщина — его родная тётя, с которой он прежде не был знаком. Коля ждёт, что старший брат после освобождения из тюрьмы приедет за ним, и они вместе вернутся домой.

Страна: Россия
Студия: АТК-Студио
Продолжительность: 01:16:43
Перевод: Не требуется
Файл
Качество: WEB-DLRip
Формат: AVI
Кодек: XviD
Видео: 720x304 (2,35:1), 25 fps, XviD ~ 2158 Кbps avg, 0.394 bit/pixel
Аудио: AC3, 48 kHz, 6 ch, ~384.00 kbps avg | русский | iTunes

Скриншоты

admin

Post 14-Oct-2019 02:55

[Quote]

Дорогой папа
«Богатый тоже плачет»-

Год выпуска: 2019
Страна: Россия
Производство: Renovatio Entertainment, РВВ
Жанр: Комедия, мелодрама
Режиссёр: Михаил Расходников
В ролях: Владимир Вдовиченков, Валентина Ляпина, Владимир Сычёв, Ирина Пегова, Николай Шрайбер, Иева Андреевайте, Игорь Ясулович, Юлия Сулес, Варвара Малкова, Маруся Пестунова
Перевод: Оригинал | [iTunes]
Субтитры: Нет
Реклама: Отсутствует
Описание: Владелец ведущей торговой сети Вадим Дюмин привык добиваться своего любыми способами. Обаяние и продуманный план помогают ему найти китайского инвестора, готового стать партнером в компании Вадима, оформленной когда-то на его маму. Вот только, оказалось, она завещала акции своей внучке, его дочери… которую Вадим бросил, когда ей было 2 года. Теперь Вадим должен поехать в свой родной маленький город, найти бывшую жену и дочь и убедить их отказаться от наследства на сумму … где-то полмиллиарда долларов. Вадим уверен, что его обаяние и манипуляции сработают и здесь, но в мире дочери его методы не работают, и слово "дорогой" здесь совсем не про деньги.

Качество: WEB-DLRip-AVC | iTunes Version |
Продолжительность: 01:27:04
Формат: MKV
Видео кодек: MPEG-4 AVC
Аудио кодек: AC3
Видео: 1024x426 (2.40:1), 24,000 fps, x264 ~1 924 kbps avg, 0.184 bit/pixel
Ауди: 48 kHz, AC3 Dolby Digital, 3/2 (L,C,R,l,r) + LFE ch, ~384.00 kbps avg | RUS (iTunes)
Дата премьеры (мир): 12 сентября 2019, «Централ Партнершип»
Дата премьеры (РФ):
Цифровой релиз:

MediaInfo

Общее
Уникальный идентификатор : 8905350723927506564859422352163572133 (0x6B31BB088C1E7408D189694F44D89A5)
Полное имя : F:OlLanDGroupDorogoy.papa.2019.WEB-DLRip(AVC).OlLanDGroup.mkv
Формат : Matroska
Версия формата : Version 4 / Version 2
Размер файла : 1,40 Гбайт
Продолжительность : 1 ч. 27 м.
Общий поток : 2307 Кбит/сек
Название фильма : Dorogoy.papa.2019 #TorpedoUK#
Дата кодирования : UTC 2019-10-12 07:31:02
Программа кодирования : mkvmerge v29.0.0 ('Like It Or Not') 64-bit
Библиотека кодирования : libebml v1.3.6 + libmatroska v1.4.9
Видео
Идентификатор : 1
Формат : AVC
Формат/Информация : Advanced Video Codec
Профиль формата : High@L4.1
Параметр CABAC формата : Да
Параметр ReFrames формата : 10 кадров
Идентификатор кодека : V_MPEG4/ISO/AVC
Продолжительность : 1 ч. 27 м.
Битрейт : 1924 Кбит/сек
Ширина : 1024 пикселя
Высота : 426 пикселей
Соотношение сторон : 2,40:1
Режим частоты кадров : Постоянный
Частота кадров : 24,000 кадра/сек
Цветовое пространство : YUV
Субдискретизация насыщенности : 4:2:0
Битовая глубина : 8 бит
Тип развёртки : Прогрессивная
Бит/(Пиксели*Кадры) : 0.184
Размер потока : 1,17 Гбайт (83%)
Библиотека кодирования : x264 core 146 r2538 121396c
Настройки программы : cabac=1 / ref=10 / deblock=1:-2:-3 / analyse=0x3:0x113 / me=umh / subme=10 / psy=1 / psy_rd=0.90:0.10 / mixed_ref=1 / me_range=48 / chroma_me=1 / trellis=2 / 8x8dct=1 / cqm=0 / deadzone=21,11 / fast_pskip=1 / chroma_qp_offset=-6 / threads=6 / lookahead_threads=1 / sliced_threads=0 / nr=0 / decimate=1 / interlaced=0 / bluray_compat=0 / constrained_intra=0 / bframes=11 / b_pyramid=2 / b_adapt=2 / b_bias=0 / direct=3 / weightb=1 / open_gop=0 / weightp=2 / keyint=240 / keyint_min=24 / scenecut=40 / intra_refresh=0 / rc_lookahead=40 / rc=2pass / mbtree=0 / bitrate=1924 / ratetol=1.0 / qcomp=0.60 / qpmin=0 / qpmax=69 / qpstep=4 / cplxblur=20.0 / qblur=0.5 / vbv_maxrate=50000 / vbv_bufsize=62500 / nal_hrd=none / filler=0 / ip_ratio=1.40 / pb_ratio=1.30 / aq=1:1.00
Язык : English
Default : Да
Forced : Нет
Аудио
Идентификатор : 2
Формат : AC-3
Формат/Информация : Audio Coding 3
Расширение режима : CM (complete main)
Параметр Endianness формата : Big
Идентификатор кодека : A_AC3
Продолжительность : 1 ч. 27 м.
Вид битрейта : Постоянный
Битрейт : 384 Кбит/сек
Каналы : 6 каналов
Расположение каналов : Front: L C R, Side: L R, LFE
Частота : 48,0 КГц
Частота кадров : 31,250 кадров/сек (1536 spf)
Битовая глубина : 16 бит
Метод сжатия : С потерями
Размер потока : 239 Мбайт (17%)
Язык : Russian
Default : Да
Forced : Нет

Скриншоты



Борисыч

Post 12-Oct-2019 10:11

[Quote]

- - Год выпуска: 2019
Страна:
Жанр: Драма
Продолжительность: 01:25:11
Режиссер: Анар Аббасов
В ролях: Риналь Мухаметов, Анна Исаева, Екатерина Кукуй, Илья Антоненко, Игорь Миркурбанов, Виталий Коваленко, Анфиса Семина, Алла Еминцева, Артем Карпов, Дмитрий Хасис, Михаил Кулешов, Гурген Манукян, Максим Авдеев, Александр Саюталин
Описание: Стрит дансер Антон делает стремительную карьеру — его команда побеждает на всех баттлах, он признанный хореограф и всё его будущее связано с танцем. Однако несчастный случай рушит все планы — Антон лишается слуха, а с ним и всех надежд. Оказавшись в непривычном мире тишины, Антон постепенно понимает, что это не конец. Страсть к танцу, воля к победе и любовь к жизни подсказывают ему новый путь к заветной мечте. И его главная битва ещё впереди.
Качество видео: WEB-DLRip
Формат видео: AVI
Видео кодек: XviD
Аудио кодек: AC3
Видео: 720x304, 24 fps, 2059 kbps
Аудио: 48 kHz, 6 ch, 384 kbps

Скриншоты

 

Current time is: 07-Dec 03:01

All times are UTC + 3