Search found 262 matches

Author Message

admin

Post 09-Jan-2020 13:10

[Quote]

Информация о фильме
Название: Француз
Год выхода: 2019
Жанр: История, драма
Страна: Россия
Перевод: Не требуется
Продолжительность: 02:08:20
Режиссер: Андрей Смирнов
В ролях: Антон Риваль, Евгения Образцова, Александр Балуев, Евгений Ткачук, Михаил Ефремов, Роман Мадянов, Нина Дробышева, Наталья Тенякова, Лилия Багирова, Люси Арон и др.
О фильме: Картина посвящена памяти Александра Гинзбурга — одного из первых советских диссидентов. В 1957 году французский студент Пьер Дюран приезжает в Москву на стажировку в МГУ. Здесь он знакомится с балериной Большого театра Кирой Галкиной и фотографом Валерой Успенским. Благодаря этим знакомствам, Пьер погружается в культурную жизнь Москвы, не только официальную, но и подпольную. За год в Москве Пьер проживает целую жизнь, совершенно не похожую на всё, что он знал. Но стажировка и знакомство с разными сторонами быта советских людей — не единственная цель Пьера. Он ищет своего отца, белого офицера Татищева, который был арестован в конце 30-х.

Файл
Формат: AVI
Качество: WEB-DLRip
Видео: Xvid 73, 704x384, ~1414 kbps, 24,000 fps
Звук: русский, AC3, 2.0 ch, 48 kHz, 192 kbps
Субтитры: русские (форс. вшитые)

MI

Общее
Полное имя : G:Torrent2FrancuzWEBDLRip.avi
Формат : AVI
Формат/Информация : Audio Video Interleave
Профиль формата : OpenDML
Размер файла : 1,45 Гбайт
Продолжительность : 2 ч. 8 м.
Общий поток : 1617 Кбит/сек
Программа кодирования : XviD4PSP 6.0 / 53.6.0
Видео
Идентификатор : 0
Формат : MPEG-4 Visual
Профиль формата : Advanced Simple@L5
Настройки формата : BVOP1 / Custom Matrix
Параметр BVOP формата : 1
Параметр QPel формата : Нет
Параметр GMC формата : Без точки перехода
Параметр матрицы формата : Выборочная
Идентификатор кодека : XVID
Идентификатор кодека/Подсказка : XviD
Продолжительность : 2 ч. 8 м.
Битрейт : 1414 Кбит/сек
Ширина : 704 пикселя
Высота : 384 пикселя
Соотношение сторон : 1,85:1
Частота кадров : 24,000 кадра/сек
Цветовое пространство : YUV
Субдискретизация насыщенности : 4:2:0
Битовая глубина : 8 бит
Тип развёртки : Прогрессивная
Метод сжатия : С потерями
Бит/(Пиксели*Кадры) : 0.218
Размер потока : 1,27 Гбайт (87%)
Библиотека кодирования : XviD 73
Аудио
Идентификатор : 1
Формат : AC-3
Формат/Информация : Audio Coding 3
Параметр Endianness формата : Big
Идентификатор кодека : 2000
Продолжительность : 2 ч. 8 м.
Вид битрейта : Постоянный
Битрейт : 192 Кбит/сек
Каналы : 2 канала
Расположение каналов : Front: L R
Частота : 48,0 КГц
Частота кадров : 31,250 кадров/сек (1536 SPF)
Битовая глубина : 16 бит
Метод сжатия : С потерями
Размер потока : 176 Мбайт (12%)
Выравнивание : Соединение по промежуткам
Продолжительность промежутка : 32 мс. (0,77 видеокадр)

Скриншоты

admin

Post 07-Jan-2020 22:18

[Quote]

Информация о фильме
Название: Люби их всех
Страна: Россия
Жанр: драма, триллер
Продолжительность: 01:38:14
Перевод: Не требуется
Cубтитры: нет
Режиссер:
Мария Агранович
В ролях:
Алена Михайлова, Александр Кузнецов, Сергей Гармаш, Александр Тронов, Александра Киселева, Кирилл Сафонов
О фильме:
У нее всегда есть план. Для каждого свой. Для каждого свое имя. Одному нужна Вера. Другому — Надежда. И почти всем Любовь. К каждому из мужчин у нее особый подход. Но они всегда платят: и чтобы ее завоевать, и чтобы от нее избавиться. Но кто знает, где кончается обман, на который идут только ради денег, и начинается настоящее чувство? И кто знает кто она: простая столичная содержанка, коварная мошенница, талантливая актриса или женщина, которая умеет (только) любить? Любить их всех.
| | Рекламы нет
Файл
Качество: WEBRip
Формат: AVI
Видео кодек: XviD
Аудио кодек: АС3
Видео: 720x304 (2.37:1), 25 fps, XviD build 67 ~1919 kbps avg, 0.35 bit/pixel
Аудио: 48 kHz, AC3 Dolby Digital, 2/0 (L,R) ch, ~192 kbps avg

Скриншоты

admin

Post 07-Jan-2020 22:15

[Quote]

Информация о фильме
Название: Давай разведемся!
Страна: Россия
Жанр: комедия
Продолжительность: 01:32:19
Перевод: Не требуется
Cубтитры: нет
Режиссер:
Анна Пармас
В ролях:
Анна Михалкова, Антон Филипенко, Светлана Камынина, Максим Лагашкин, Федор Лавров, Анна Рыцарева, Надежда Маркина, Сергей Рост, Дарья Румянцева, Майя Скородумова
О фильме:
Успешный врач Маша поглощена работой и не сразу замечает, что от нее уходит муж. Жизнь переворачивается вверх дном: на работе аврал, дети требуют постоянного внимания, а привыкшая побеждать Маша не готова уступить любимого мужа красотке фитнес-тренеру. Маша призывает на помощь полный боевой арсенал, включая потусторонние силы. Но новая жизнь открывает новые возможности…
| | Рекламы нет
Файл
Качество: WEBRip
Формат: AVI
Видео кодек: XviD
Аудио кодек: АС3
Видео: 720x304 (2.37:1), 25 fps, XviD build 67 ~2056 kbps avg, 0.38 bit/pixel
Аудио: 48 kHz, AC3 Dolby Digital, 2/0 (L,R) ch, ~192 kbps avg

Скриншоты

admin

Post 05-Jan-2020 12:41

[Quote]

https://ivtracker.org/viewtopic.php?t=22403

admin

Post 05-Jan-2020 12:40

[Quote]

Информация о фильме
Название: Без меня
Год выпуска: 2018
Жанр: Драма, мелодрама
Режиссер: Кирилл Плетнёв
В ролях: Полина Максимова, Любовь Аксёнова, Риналь Мухаметов, Кирилл Плетнёв, Анна Каменкова, Евгения Дмитриева, Иван Титяев, Владимир Яглыч, Алексей Шевченков, Агриппина Стеклова
О фильме: Две девушки, любившие одного мужчину, после его гибели получают сообщения, автором которых может быть только он. В надежде на чудо им вдвоем предстоит отправиться в путь, который прокладывают его подсказки, чтобы открыть тайну, стоящую за загадочными посланиями.

Страна: Россия
Студия: Синетрейн, Марс Медиа Энтертейнмент
Продолжительность: 01:33:14
Перевод: Не требуется | Лицензия BD GER
Файл
Формат: AVI
Качество: BDRip
Источник: |Das.Beste.an.mir.bist.Du.2018.GERMAN.DUAL.COMPLETE.BLURAY-UNiVERSUM|
Видео: 720x304 (2.37:1), 24 fps, XviD build 73 ~1785 kbps avg, 0.34 bit/pixel
Звук: 48 kHz, AC3 Dolby Digital, 3/2 (L,C,R,l,r) + LFE ch, ~448 kbps
Субтитры: Русский форсированные (хардсаб)

Скриншоты

admin

Post 02-Jan-2020 12:35

[Quote]

Название: Лев Яшин. Вратарь моей мечты
Год выхода: 2019
Жанр: Биография, спорт, драма
Режиссер: Василий Чигинский
В ролях: Александр Фокин, Юлия Хлынина, Алексей Гуськов, Алексей Кравченко, Евгений Дятлов, Виталий Хаев, Михаил Елисеев, Ян Цапник, Александр Самойленко, Владимир Андреев и др.
Описание: Чёрный паук, Чёрная пантера и даже Чёрный осьминог — такими прозвищами награждали Льва Яшина за гибкость, молниеносное перемещение и гениальное видение поля. Он, неизменно в черном свитере с буквой «Д», был полноправным хозяином в своей штрафной. После поражения на Чемпионате мира в Чили ему придется уйти, чтобы позже с триумфом вернуться и снова стать лучшим не только в стране, но и во всем мире — единственным вратарём за всю историю футбола, получившим Золотой мяч. Лучшим, по мнению FIFA, вратарем ХХ века.

Страна: Россия
Перевод: Не требуется
Продолжительность: 01:56:02
Формат: MKV
Качество: WEB-DLRip-AVC
Видео: AVC/H.264, 720x298, ~1402 Кbps, 23.973 fps, 0.273 bit/pixel
Аудио: 48 kHz, AC3, 5.1, 384 Kbps | iTunes | RUS |

ОтчетМедиаИнфо

General
Unique ID : 180643955792814323801594049319342555041 (0x87E6C2A7D4AE34549F73C7BA743DBFA1)
Complete name : F:Lev.Ashin.Vratar.Moej.Mechty.2019.WEB-Dl.AVC.ExKinoRay.mkv
Format : Matroska
Format version : Version 2
File size : 1.45 GiB
Duration : 1 h 56 min
Overall bit rate : 1 786 kb/s
Movie name : Лев Яшин. Вратарь моей мечты (2019) from ExKinoRay
Encoded date : UTC 2020-01-02 02:28:47
Writing application : mkvmerge v5.6.0 ('Kenya Kane') built on May 27 2012 16:44:04
Writing library : libebml v1.2.3 + libmatroska v1.3.0
Video
ID : 1
Format : AVC
Format/Info : Advanced Video Codec
Format profile : High@L4.1
Format settings, CABAC : Yes
Format settings, ReFrames : 11 frames
Codec ID : V_MPEG4/ISO/AVC
Duration : 1 h 56 min
Bit rate : 1 402 kb/s
Width : 720 pixels
Height : 298 pixels
Display aspect ratio : 2.40:1
Frame rate mode : Constant
Frame rate : 23.976 (24000/1001) FPS
Original frame rate : 23.976 (23976/1000) FPS
Color space : YUV
Chroma subsampling : 4:2:0
Bit depth : 8 bits
Scan type : Progressive
Bits/(Pixel*Frame) : 0.273
Stream size : 1.11 GiB (77%)
Title : Enigma
Writing library : x264 core 152 r2851 ba24899
Encoding settings : cabac=1 / ref=11 / deblock=1:-2:-2 / analyse=0x3:0x113 / me=umh / subme=10 / psy=1 / psy_rd=1.00:0.05 / mixed_ref=1 / me_range=32 / chroma_me=1 / trellis=2 / 8x8dct=1 / cqm=0 / deadzone=21,11 / fast_pskip=0 / chroma_qp_offset=-3 / threads=9 / lookahead_threads=2 / sliced_threads=0 / nr=0 / decimate=0 / interlaced=0 / bluray_compat=0 / constrained_intra=0 / bframes=10 / b_pyramid=2 / b_adapt=2 / b_bias=0 / direct=3 / weightb=1 / open_gop=0 / weightp=2 / keyint=240 / keyint_min=23 / scenecut=40 / intra_refresh=0 / rc=2pass / mbtree=0 / bitrate=1402 / ratetol=1.0 / qcomp=0.60 / qpmin=0 / qpmax=51 / qpstep=4 / cplxblur=20.0 / qblur=0.5 / ip_ratio=1.40 / pb_ratio=1.30 / aq=1:1.00
Default : Yes
Forced : No
Color range : Limited
Color primaries : BT.709
Transfer characteristics : BT.709
Matrix coefficients : BT.709
Audio
ID : 2
Format : AC-3
Format/Info : Audio Coding 3
Mode extension : CM (complete main)
Format settings, Endianness : Big
Codec ID : A_AC3
Duration : 1 h 56 min
Bit rate mode : Constant
Bit rate : 384 kb/s
Channel(s) : 6 channels
Channel positions : Front: L C R, Side: L R, LFE
Sampling rate : 48.0 kHz
Frame rate : 31.250 FPS (1536 spf)
Compression mode : Lossy
Stream size : 319 MiB (21%)
Title : iTunes
Language : Russian
Default : Yes
Forced : No
Menu
00:00:00.000 : en:1
00:03:17.000 : en:2
00:10:08.000 : en:3
00:20:19.000 : en:4
00:31:28.000 : en:5
00:41:06.000 : en:6
00:50:11.000 : en:7
01:01:07.000 : en:8
01:09:30.000 : en:9
01:20:23.000 : en:10
01:29:58.000 : en:11
01:40:56.000 : en:12
01:51:15.000 : en:13

Скриншоты

admin

Post 01-Jan-2020 23:22

[Quote]

Информация о фильме
Название: Мысленный волк
«Верь. Бойся. Проси»
Год выхода: 2019
Жанр: Фэнтези, драма, фильм-нуар
Режиссер: Валерия Гай Германика
В ролях: Юлия Высоцкая, Лиза Климова, Федор Лавров, Юрий Трубин, Ася Озтюрк, Иван Дранощук
О фильме:
Зима, лунная ночь… Две женщины с ребенком пробираются сквозь лесную чащу. А где-то рядом в поисках жертвы рыщет волк-оборотень. То ли зверь, то ли человек, то ли фантом…

Страна: Россия
Студия: Leos Film
Продолжительность: 01:08:27
Перевод: Не требуется
Файл
Качество: WEB-DLRip
Формат: AVI
Кодек: XviD
Видео: 720x304 (2,35:1), 24 fps, XviD ~ 1880 Кbps avg, 0.358 bit/pixel
Аудио: AC3, 48 kHz, 6 ch, ~384.00 kbps avg | русский | iTunes

Скриншоты

admin

Post 01-Jan-2020 23:00

[Quote]

Информация о фильме
Название: Одесский пароход
Год выхода: 2019
Жанр: Комедия, экранизация
Режиссер: Сергей Урсуляк
В ролях: Светлана Крючкова, Ирина Муравьёва, Чулпан Хаматова, Нина Усатова, Сергей Гармаш, Сергей Маковецкий, Сергей Пускепалис, Владимир Машков, Марина Александрова, Ирина Пегова, Фёдор Добронравов, Роман Мадянов, Михаил Пореченков, Тимофей Трибунцев, Александр Яценко, Александр Робак, Павел Деревянко, Авангард Леонтьев, Евгений Ткачук, Иван Агапов, Александр Чернявский (II), Игорь Золотовицкий, Юлия Сулес, Сергей Угрюмов, Михаил Ефремов, Анна Котова-Дерябина, Дмитрий Куличков, Лика Нифонтова, Наталья Павленкова, Евгений Сытый, Тарас Епифанцев, Виктор Супрун, Бронислава Захарова, Галина Кашковская, Александр Горбатов (II), Павел Ворожцов, Антон Кузнецов, Михаил Жванецкий, Мария Лисецкая
О фильме:
По мотивам произведений Михаила Жванецкого. В основе сюжета новой комедии – знаменитые миниатюры "Одесский пароход", "Два яблока", "Собрание на ликеро-водочном заводе" и другие произведения одного из самых прославленных писателей-юмористов страны Михаила Жванецкого. Всего – 13 миниатюр. Судьбы героев каждой истории переплетаются, и перед зрителем предстанет панорама жизни, в которой так и не удалось заслушать начальника транспортного цеха, экипаж самолета интересуется у пассажиров, не умеет ли кто сажать самолет, буфетчица встает за штурвал парохода, а отец учит сына арифметике, уничтожая все яблоки в доме...

Страна: Россия
Студия: ООО Киностудия «Москино» по заказу ВГТРК
Продолжительность: ~ 01:23:00
Язык: Русский
Примечание: Без рекламы
Файл
Кодек: XviD
Качество: SATRip
Видео: XviD, ~ 1700 Кбит/с, 720x400
Звук: МР3, 2 ch, 192 Кбит/с
Семпл

Скриншоты

admin

Post 01-Jan-2020 22:57

[Quote]

Информация о фильме
Название: Девятая
Год выхода: 2019
Жанр: Триллер, приключения, детектив, ужасы
Режиссер: Николай Хомерики
В ролях: Евгений Цыганов, Дэйзи Хэд, Дмитрий Лысенков, Джонатан Солвей, Юрий Колокольников, Евгений Ткачук, Игорь Черневич, Иван Решетняк, Мария Скуратова, Анна Христич, Игорь Грабузов, Вилен Бабичев
О фильме:
Петербург конца XIX века охвачен массовым увлечением оккультными науками и эзотерикой. Британка-медиум Оливия Рид приезжает в столицу Российской империи с гастролями и собирает на своих публичных спиритических сеансах толпы людей. В это время в городе происходит серия ритуальных загадочных убийств. На улицах похищают девушек, их изувеченные тела находят в самых разных концах города. Расследованием занимаются молодой полицейский офицер Ростов и его помощник Ганин. С каждой новой жертвой дело становится все запутаннее. Подозрение приводит Ростова к Оливии, и он решает обратиться к ней в надежде, что ее подлинная или мнимая способность вызывать духов погибших может помочь выйти на след убийцы.

Страна: Россия
Студия: Нон-стоп Продакшн
Продолжительность: 01:34:45
Перевод: Оригинал | iTunes
Файл
Формат: AVI
Качество: WEB-DLRip
Видео: XviD, 1700 Кбит/с, 720x304
Аудио: Русский (AC3, 6 ch, 384 Кбит/с) iTunes
Субтитры: Нет

Скриншоты

admin

Post 06-Dec-2019 06:28

[Quote]

Информация о фильме
Название: Двое
«Жизнь даётся на время»
Год выхода: 2018
Жанр: Драма
Режиссер: Тимофей Жалнин
В ролях: Антон Момот, Татьяна Полосина, Андрей Щепочкин, Александра Мареева, Андрей Астраханцев, Андрей Толшин, Сергей Доможаков, Валентин Ульчугаев
О фильме:
Отчаявшись поправить здоровье путём традиционной медицины, Надя уговаривает своего мужа Андрея отправиться в поход к целебным озерам. Андрей соглашается. В этом походе, вдали от сурового тестя, он планирует сообщить Наде о разводе. Но природа вмешивается в планы героев. Из-за начавшихся дождей, вода в реке поднимается, отрезая путь домой. В поисках переправы, Андрей и Надя теряются в глухой сибирской тайге. С этого момента начинается их сложный путь борьбы со своими страхами и работы над ошибками прошлого. Только здесь, оказавшись на грани жизни и смерти, они по-настоящему узнают себя и друг друга.

Страна: Россия
Студия: АРТЛАЙТ, Инвада фильм
Продолжительность: 01:36:12
Перевод: Не требуется
Файл
Качество: WEB-DLRip
Формат: AVI
Кодек: XviD
Видео: 720x304 (2,35:1), 24 fps, XviD ~ 1781 Кbps avg, 0.339 bit/pixel
Аудио: AC3, 48 kHz, 6 ch, ~384.00 kbps avg | русский | iTunes

Скриншоты

admin

Post 02-Dec-2019 20:48

[Quote]

23586i am from Italy hello. Can you help me translate? /rardor
Здравствуйте.Что именно Вам нужно перевести?Если фильм,то он только на русском.На другие языки перевода еще нет!

rardartet

Post 02-Dec-2019 17:13

[Quote]

i am from Italy hello. Can you help me translate? /rardor

admin

Post 21-Nov-2019 20:42

[Quote]

Информация о фильме
Название: Девушки бывают разные
Год выпуска: 2019
Жанр: Комедия
Режиссёр: Сарик Андреасян
В ролях: Дмитрий Нагиев, Роман Попов, Артем Сучков, Дмитрий Власкин, Владимир Яглыч, Зоя Бербер, Елизавета Моряк, Алена Чехова
Описание:
Это история о трёх друзьях, решивших покататься на серфе в Мексике. Все как полагается: океан, девушки и золотой песок. История не предвещает неожиданностей. Но не для наших героев, которые первым делом как следует отметили свой приезд. С трудом проснувшись наутро, парни обнаруживают себя посреди пляжа, они в замешательстве — не помнят, что же произошло накануне. Но вскоре появляются люди, которые освежают им память: оказывается, прошлой ночью парни страшно навредили международному криминальному авторитету Хуану, который по какой-то причине хочет их убить. Скрываясь от преследования, без денег и документов, они находят спасение — переодеваются в девушек и участвуют в женском турнире по сёрфингу. Победа поможет выиграть сто тысяч долларов и выбраться из страны. Но они еще не знают, что их неидеальному плану помешают любовь, секретные спецслужбы, мафия и даже бойцовые петухи.

Страна: Россия
Студия: Fetisoff Illusion
Продолжительность: 01:29:15
Язык: Русский
Файл
Формат: AVI
Качество: WEB-DLRip
Видео: 688x288 (2,40:1), 24 fps, XviD ~ 1029 Кbps avg, 0.216 bit/pixel
Аудио: MP3, 48 kHz, 2 ch, ~128.00 kbps avg | русский |
Субтитры: Отсутствуют

Скриншоты

admin

Post 14-Nov-2019 14:54

[Quote]

23285Ciao a tutti vengo dall'italia / itawero
И мы Вас приветствуем на нашем трекере!

admin

Post 08-Nov-2019 01:28

[Quote]

Информация о фильме
Название: Дикая Лига
Год выхода: 2019
Жанр: Приключения
Режиссер: Андрей Богатырёв, Арт Камачо
В ролях: Владимир Яглыч, Аделина Гизатуллина, Иван Охлобыстин, Дмитрий Назаров, Евгений Коряковский, Олеся Судзиловская, Эдриан Пол, Уильям Шокли, Станислав Тикунов, Анатолий Гущин, Иван Михайловский, Вячеслав Шихалеев, Павел Абраменков, Денис Кузнецов, Антон Колесников, Арсений Ветров, Максим Сапрыкин
О фильме:
Основанная на реальных событиях 1910-х годов история парня из низших социальных слоев, которому ради того, чтобы быть с любимой, пришлось покинуть родные края и начать жизнь заново в Москве. Проявившего себя в бою «стенка на стенку», его замечает англичанин, владелец закрытого футбольного клуба, который предлагает ему попробовать свои силы в его команде. Однако футбол — аристократическая игра и команда не принимает неотёсанного бурлака с Волги. Тогда он собирает волю в кулак, находит правильных людей, вместе с которыми создаёт Дикую лигу футбола из народных команд Москвы и становится лидером, изменив при этом свою жизнь и жизнь окружающих, вытеснив футболом народную забаву — драки «стенка на стенку», в которых простые люди погибали сотнями. Теперь уже им бросают вызов сами законодатели футбола…
Страна: Россия
Студия: Кинокомпания «Союз Маринс Групп», Муравей Продакшн, Modern Age Productions при поддержке министерства культуры РФ и Русское Радио
Продолжительность: 01:50:53
Язык: Русский
Примечание: Без рекламы
Файл
Кодек: XviD
Качество: WEB-DLRip
Видео: XviD, ~ 1685 Кбит/с, 720x304
Звук: AC3, 2 ch, 192 Кбит/с

Скриншоты

 

Current time is: 29-Jan 15:42

All times are UTC + 3