Search found 8 matches

Author Message

admin

Post 02-Jun-2018 04:05

[Quote]

Маззи в Гондоландии на французском / Muzzy in Gondoland French
Год выпуска: 1994
Страна: Великобритания
Жанр: Обучающий
Продолжительность: 2:31:04
Субтитры: внешние, английские + французскиеОписание: Muzzy in Gondoland - грамотный мультипликационный видеокурс для детей, который помогает сделать изучение французского языка веселым и занимательным. Большой Маззи - дружелюбное чудище из космоса - прибывает в Гондоландию, где встречается с Бобом, королевским садовником. Боб влюблен в принцессу Сильвию, но советник Короля Корвекс, который тоже любит принцессу, сажает Боба в тюрьму. Маззи решает помочь Бобу, и история начинается...Дети с интересом и увлечением будут смотреть 6-серийный мультфильм. одновременно изучая французский язык. Они научатся составлять простые предложения, вопросы и команды; называть цифры, цвета и дни недели; выучат некоторые основные существительные, глаголы и прилагательные по-французски, а также научатся использовать некоторые приветствия и вежливые выражения. Так как учеба с Маззи доставляет удовольствие, дети будут стремиться просмотреть видеофильм снова и снова, а это лучший способ закрепить понимание и запоминание того, что они видят и слышат.По-крайней мере, мой трехлетний сын, едва научившись говорить по-русски, смотрит английскую версию и уже начинает лепетать по-английски "Гудбай", "Окей" и пытается считать от 1 до 10 на английском. А от телевизора, когда в нем Маззи - просто не оторвать! У меня есть все версии, но французской на трекере я не видел. Поэтому раздаю.английская версия http://rutracker.org/forum/viewtopic.php?t=87242Качество: DVDRip
Формат: AVI
Видео кодек: XviD
Аудио кодек: MP3
Видео: DivX 5 400x272 29.97fps
Аудио: MP3 48000Hz stereo 96kbps

Скриншоты

MediaInfo

General
Format : AVI
Format/Info : Audio Video Interleave
File size : 683 MiB
Duration : 2 h 31 min
Overall bit rate : 632 kb/s
Writing library : VirtualDub build 14328/release
Video
ID : 0
Format : MPEG-4 Visual
Format settings, BVOP : No
Format settings, QPel : No
Format settings, GMC : No warppoints
Format settings, Matrix : Default (H.263)
Codec ID : DX50
Codec ID/Hint : DivX 5
Duration : 2 h 31 min
Bit rate : 524 kb/s
Nominal bit rate : 4 000 kb/s
Width : 400 pixels
Height : 272 pixels
Display aspect ratio : 3:2
Frame rate : 29.970 (30000/1001) FPS
Color space : YUV
Chroma subsampling : 4:2:0
Bit depth : 8 bits
Scan type : Progressive
Compression mode : Lossy
Bits/(Pixel*Frame) : 0.161
Stream size : 566 MiB (83%)
Writing library : DivX 5.0.5 (UTC 2003-04-24)
Audio
ID : 1
Format : MPEG Audio
Format version : Version 1
Format profile : Layer 3
Mode : Joint stereo
Mode extension : Intensity Stereo + MS Stereo
Codec ID : 55
Codec ID/Hint : MP3
Duration : 2 h 31 min
Bit rate mode : Constant
Bit rate : 96.0 kb/s
Channel(s) : 2 channels
Sampling rate : 48.0 kHz
Compression mode : Lossy
Stream size : 104 MiB (15%)
Alignment : Split accross interleaves
Interleave, duration : 33 ms (1.00 video frame)
Interleave, preload duration : 443 ms

admin

Post 02-Jun-2018 03:58

[Quote]

La dernier nuit au phare / Последняя ночь на маяке
Год выпуска: 2012 г.
Автор: Pascale Paoli
Категория: адаптированная книга
Издатель: Hachette Livre
Язык курса: Французский
Формат: PDF
Качество: Отсканированные страницы
Кол-во страниц: 30
ISBN: 978 2 01 155747 6
Описание: Жак мечтал стать смотрителем маяка с самого детства. Его мечта сбылась, но сегодня - он последний смотритель, поскольку все маяки стали автоматизированными. Обычно он несет службу со своим напарником, но сегодня - особенная вахта - он один в его последнюю ночь на маяке. Все шло как всегда, но внезапно Жак увидел что-то необычное!
Адаптированная книга уровня А1. Аудио, увы, пока нет.

Скриншоты

Доп. информация: Релиз группы:

admin

Post 02-Jun-2018 03:51

[Quote]

Amis et compagnie 1 (3 CD audio)
Amis et compagnie 2 (3 CD audio, Cahier)
Amis et compagnie 3 (3 CD audio)
Год выпуска: 2008 г.
Автор: Colette Samson
Категория: УМК
Разработчик: Clé International
Издатель: Clé International
Язык курса: ФранцузскийISBN: 978-2-09-032770-0
ISBN: 978-2-09-032774-8
ISBN: 978-2-09-032777-9
Аудио кодек: MP3
Битрейт аудио: 128 kbps
Формат книги: PDF
Качество: Отсканированные страницы
ISBN: 978-2-09-035494-2
Описание: Triple CD audio collectif
Amis et compagnie est la nouvelle méthode de Colette Samson à destination des pré-adolescents et adolescents à partir de 11 ans. Elle repose sur une pédagogie visant un véritable entraînement à l'oral et à l'écrit comme outil de communication. Le triple CD audio pour la classe accompagne le niveau 1 et le niveau 2.Le triple CD audio pour la classe qui accompagne le niveau 1-3 de la méthode Amis et compagnie.Écrite par Colette Samson, Amis et compagnie 1-3 propose une réelle continuité pour les élèves qui ont déjà abordé le français à l’école élémentaire, que ce soit avec la collection « Alex et Zoé » ou tout autre manuel de français pour enfants. Amis et compagnie 1 est composée d’un livre de l’élève (entraînement oral), d’un cahier d’activités (entraînement écrit), ainsi que d’un guide pédagogique et de CD audio.Le premier niveau introduit l’œuvre d’un grand écrivain de langue française (Les Trois mousquetaires d’Alexandre Dumas) mise en scène en mangas et correspond au niveau A1 du Cadre européen commun de référence pour les langues.Le deuxième niveau introduit l’œuvre d’un grand écrivain de langue française (Les Misérables de Vitcor Hugo) mise en scène en mangas et correspond au niveau A1/A2 du Cadre européen commun de référence pour les langues.Et les Contes et nouvelles de Guy de Maupassant au niveau 3.Аудиоприложение к курсу французского языка Amis et compagnie 1, 2 и 3 (по 3 CD аудио для класса).
Amis et compagnie — это новый учебник, который выводит на сцену четырех подростков, излагающих содержание учебника. Легкий в использовании, вдохновляющий, с богатым материалом на 4 уровня, Amis et compagnie — учебник, базирующийся на принципе развития навыков разговора и письма как средств общения.
Цели
* Amis et compagnie предлагает настоящую тренировку в устной речи и общении.
* 4 уровня учебника покрывают уровни А1–В1 Общеевропейских Рекомендаций.
* Учебник был создан с целью обеспечения непрерывного перехода от школы к колледжу.
* Amis et compagnie стимулирует заинтересованность и мотивацию ученика интерактивными заданиями, комиксами, советами относительно учебы, тестами для самооценивания, проектами, играми, поисковой деятельностью, театрализацией.Торрент обновлен - добавлено аудио для 3-го уровня.

Скриншоты

Доп. информация: Retrouvez le site Internet compagnon
Вы можете найти интерактивные задания к уровням 1 и 2 на сайте Clé International

admin

Post 02-Jun-2018 03:33

[Quote]

El Maravilloso Mago de Oz (Nivel A1) / Удивительный Волшебник из Страны Оз
Год выпуска: 2011 г.
Автор: Baum L. F.
Категория: адаптированная аудиокнига
Издатель: La Spiga Modern Languages
Язык курса: Испанский
Формат: PDF
Качество: Отсканированные страницы
Кол-во страниц: 68
ISBN: 9788846827234
Аудио кодек: WMA
Битрейт аудио: lossless
Описание: Estos libros tienen un vocabulario de aproximadamente 300 palabras. Están estructurados para fomentar una lectura activa por parte del lector: en la página de la izquierda se encuentra la historia; en la página de la derecha las actividades (ejercicios y juegos para repasar los conocimientos gramaticales y la comprensión).
El maravilloso Mago de Oz es un libro de literatura infantil escrito por Lyman Frank Baum e ilustrado por W. W. Denslow. Fue publicado por la George M. Hill Company en Chicago en 1900, y desde entonce... s hasta la fecha actual, El mago de Oz es uno de los libros que más veces se ha publicado, tanto en Estados Unidos como en Europa.
Este libro, que narra las aventuras de una muchacha llamada Dorothy Gale en la tierra de Oz, constituye una de las historias más conocidas de la cultura popular norteamericana y ha sido traducido a muchos idiomas.Ages 11-14

Скриншоты

Доп. информация: В странах бывшего СССР широко известен пересказ Александра Волкова «Волшебник Изумрудного города». Здесь же представлен пересказ на испанский язык для не испаноязычных детей с использованием словарного запаса в 300 слов. Плюс в книге даются развивающие задания на понимание прослушенного и на развитие письменного навыка на изучаемом языке.

admin

Post 02-Jun-2018 03:29

[Quote]

Маззи в Гондоландии на испанском / Muzzy in Gondoland Spanish
Год выпуска: 1994
Страна: Великобритания
Жанр: Обучающий
Продолжительность: 74 мин
Описание: Muzzy in Gondoland - грамотный мультипликационный видеокурс для детей, который помогает сделать изучение испанского языка веселым и занимательным. Большой Маззи - дружелюбное чудище из космоса - прибывает в Гондоландию, где встречается с Бобом, королевским садовником. Боб влюблен в принцессу Сильвию, но советник Короля Корвекс, который тоже любит принцессу, сажает Боба в тюрьму. Маззи решает помочь Бобу, и история начинается...Дети с интересом и увлечением будут смотреть 6-серийный мультфильм. одновременно изучая испанский язык. Они научатся составлять простые предложения, вопросы и команды; называть цифры, цвета и дни недели; выучат некоторые основные существительные, глаголы и прилагательные по-французски, а также научатся использовать некоторые приветствия и вежливые выражения. Так как учеба с Маззи доставляет удовольствие, дети будут стремиться просмотреть видеофильм снова и снова, а это лучший способ закрепить понимание и запоминание того, что они видят и слышат.По-крайней мере, мой трехлетний сын, едва научившись говорить по-русски, смотрит английскую версию и уже начинает лепетать по-английски "Гудбай", "Окей" и пытается считать от 1 до 10 на английском. От телевизора, когда в нем Маззи - просто не оторвать!
Качество: DVDRip
Формат: AVI
Видео кодек: XviD
Аудио кодек: MP3
Видео: Xvid 640x464 24.996fps
Аудио: MPEG Audio 48000Hz stereo 224kbps

Скриншоты

MediaInfo

General
Format : AVI
Format/Info : Audio Video Interleave
File size : 637 MiB
Duration : 40 min 53 s
Overall bit rate : 2 179 kb/s
Writing library : VirtualDub build 18160/release
Video
ID : 0
Format : MPEG-4 Visual
Format profile : Advanced Simple@L5
Format settings, BVOP : 2
Format settings, QPel : No
Format settings, GMC : No warppoints
Format settings, Matrix : Default (H.263)
Muxing mode : Packed bitstream
Codec ID : XVID
Codec ID/Hint : XviD
Duration : 40 min 53 s
Bit rate : 1 945 kb/s
Width : 640 pixels
Height : 464 pixels
Display aspect ratio : 1.379
Frame rate : 25.000 FPS
Color space : YUV
Chroma subsampling : 4:2:0
Bit depth : 8 bits
Scan type : Progressive
Compression mode : Lossy
Bits/(Pixel*Frame) : 0.262
Stream size : 569 MiB (89%)
Writing library : XviD 1.1.2 (UTC 2006-11-01)
Audio
ID : 1
Format : MPEG Audio
Format version : Version 1
Format profile : Layer 2
Codec ID : 50
Duration : 40 min 53 s
Bit rate mode : Constant
Bit rate : 224 kb/s
Channel(s) : 2 channels
Sampling rate : 48.0 kHz
Compression mode : Lossy
Stream size : 65.5 MiB (10%)
Alignment : Aligned on interleaves
Interleave, duration : 40 ms (1.00 video frame)
Interleave, preload duration : 504 ms

admin

Post 02-Jun-2018 03:23

[Quote]

Немецкий язык для школьников
Год выпуска: 2014
Автор: Матвеев С.А.
Издатель: АСТ
Язык курса: Русский
ISBN: 978-5-17-080773-4
Серия: Учимся легко в школе и дома
Формат: PDF
Качество: Издательский макет или текст (eBook)
Кол-во страниц: 210
Описание: Настоящая книга представляет собой учебное пособие для школьников, начинающих изучать немецкий язык. Материал разбит по темам. К каждой теме даны словарики с новыми словами для заучивания, а также короткие несложные рассказы и диалоги. Строение немецкого языка раскрывается в разделах «Немного грамматики».
С помощью этого пособия школьники могут заниматься дома самостоятельно, прибегая к помощи взрослых только в тех случаях, когда требуются дополнительные разъяснения.

Скриншоты

Релиз группы:

admin

Post 02-Jun-2018 03:20

[Quote]

Hauskasti suomea. Финский язык для школьников. Книги 1, 2, 3

Год выпуска: 2010, 2011, 2013 гг.
Авторы: Кочергина В. К. (книги 1, 2, 3), Полковцева H. Н. (книга 1)
Категория: Учебник
Издатель: Каро
Язык курса: Русский
Формат: DjVu
Качество: Отсканированные страницы + слой распознанного текста OCR без ошибок,
Кол-во страниц книги 1: 169 (168 - учебник и 1 - список исправлений)
Кол-во страниц книги 2: 227 (226 - учебник и 1 - список исправлений)
Кол-во страниц книги 3: 244 (242 - учебник и 2 - список исправлений)
ISBN: 978-5-9925-0600-6, 978-5-9925-0654-9, 978-5-9925-0842-0
Аудио кодек: MP3
Битрейт аудио: 192 kbps, 44 kHz, stereo
Описание учебников:Предлагаемое вниманию учителей и родителей учебное пособие «Финский — это здорово!» предназначено для учащихся, изучающих финский язык первый год. Наряду с серьезными грамматическими упражнениями в книге приводятся занимательные задания, игры и кроссворды. Грамматические правила объясняются доступно, так, чтобы учащиеся смогли сами разобраться с новой темой, если что-то не поняли или пропустили. На компакт-диск в формате МРЗ записаны различные упражнения, направленные на развитие и закрепление фонетических навыков. Весь аудиоматериал начитан носителями языка.Всем известно, что финский — язык сложный, поэтому, создавая учебник, авторы попытались сделать все, чтобы дети увлеклись этим непростым, но таким необычным и интересным языком.Наряду с серьезными грамматическими упражнениями в учебнике есть и веселые задания, игры и кроссворды. Грамматические правила объясняются доступно, так, чтобы учащиеся смогли сами разобраться с новой темой, если что-то не поняли или пропустили.В учебнике «Hauskasti suomea!» большое внимание уделяется отработке правильного произношения. На компакт-диск в формате МРЗ записаны различные упражнения, направленные на развитие и закрепление фонетических навыков. Невозможно научиться говорить на иностранном языке, ни разу не услышав его носителя, поэтому все записи сделаны только носителями финского языка.Использовать учебник можно в разных ситуациях:
  • на уроке: учащиеся могут работать самостоятельно, в парах и в группах, выполняя письменные и устные упражнения;
  • после уроков: письменные упражнения, дополняющие каждый урок, идеально подходят для домашних заданий и повторения пройденного материала;
  • во время каникул: благодаря доступной форме объяснения ребята с легкостью смогут заниматься самостоятельно.-Автор-составитель поурочных планов: Запорожчук Е.Ч.
    Категория: Методическое пособие
    Формат: PDF
    Качество: Изначально компьютерное
    Кол-во страниц: 81, 61
    Описание поурочных планов:
    Методическое пособие адресовано учителям финского языка, работающим по учебникам В. К. Кочергиной «Hauskasti Suomea!» для 5-6 классов. Система поурочного планирования, предлагаемая автором, объединяет 144 урока (72 урока для книг 1 и 2). Она полностью соответствует программе по финскому языку и строго следует разделам учебника.-

    Скриншоты

    Книга 1:

    Книга 2:

    Книга 3:

    Содержание учебников

    Часть 1 Часть 2 Часть 3

    Содержание аудиокурсов

    Исправления

    Часть 1 Часть 2 Часть 3
    Доп. информация:
  • Учебники были отсканированы с качеством 300dpi;
  • Текст вычитан и добавлен текстовый слой (OCR);
  • Файлы содержат деревья оглавлений (bookmarks) для быстрого перехода к нужным материалам;
  • Из первой книги изъяты две страницы с рекламой книг Кочергиной издательства "Каро";
  • Нумерация страниц в файлах соответствует нумерации в книгах.
  • admin

    Post 01-Jun-2018 08:55

    [Quote]

    Гастон Може - учебник для детей: "Le francais elementaire". В 2-х томах.
    Год выпуска: 1988
    Автор: G. Mauger G. Gougenheim
    Жанр: Учебник для детей
    Издательство: Hachette
    ISBN: нет
    Язык: Французский
    Формат: PDF
    Качество: Отсканированные страницы
    Количество страниц: 122 + 122
    Описание: Учебник Гастона Може в 2 томах, разработанный специально для детей.Доп. информация: Очень качественный скан , много фотографий, пропись, возможность рисования по точкам.
    Надеюсь, детям (и не только) понравится .
    Только жаль что на французском.
    Больших успехов Вам в изучении французского языка !!!
     

    Current time is: 11-Dec 20:20

    All times are UTC + 3