Search found 4 matches

Author Message

mihis

Post 06-Dec-2019 22:14

[Quote]

8-ой сезон заменен на BDRip 1080p

mihis

Post 31-May-2019 10:55

[Quote]

Игра престолов / Game of ThronesСезон: 1-8, Серии: 1-73 из 73 Год выпуска: 2011-2019
Страна: США, Великобритания
Жанр: Драма, фэнтези, приключения,
Продолжительность: 73 x ~00:55:00
Перевод 1: Профессиональный (многоголосый закадровый) LostFilm
Перевод 2: Профессиональный (многоголосый закадровый) AlexFilm
Перевод 3: Профессиональный (дублированный) Студия "Кравец"
Режиссёр: Алан Тейлор, Даниэль Минахан, Дэвид Наттер, Брайан Кирк, Тимоти Ван Паттен, Дэвид Петрарка
В ролях: Шон Бин, Николай Костер-Валдау, Лина Хиди, Иэн Глен, Питер Динклэйдж, Эмилия Кларк, Мишель Фэйрли, Эйден Гиллен, Кит Харингтон, Марк Эдди, Элфи Оуэн-Аллен, Джек Глисон, Софи Тёрнер, Мэйси Уильямс, Рон Донаки, Айзек Хемпстед-Райт, Джейсон Момоа, Ричард Мэдден, Джером Флинн, Конлет Хилл, Дональд Самптер, Рори МакКанн, Амрита Ачария, Чарльз Дэнс, Джон Брэдли, Кристиан Нэйрн, Сибель Кекилли, Джеймс Космо, Стивен Диллэйн, Гетин Энтони, Гвендолин Кристи, Натали Дормер, Уна Чаплин, Нонсо Анози, Роуз Лесли, Оуэн Тил
Описание: «Игра престолов» - сериал HBO, основанный на бестселлерах Джорджа Р.Р. Мартина. В мире, где лето и зимы длятся десятилетиями, на кону корона Вестероса. Предательство, похоть, интриги и сверхъестественные силы сотрясают все четыре стороны Королевства — от плетущего интриги юга, диких восточных земель, до замерзшего севера и древней Стены, что защищает королевство от тьмы за нею. Короли и королевы, рыцари и мятежники, лжецы и благородные люди борются за Влacть в кровавом сражении за Железный Трон.

Качество: BDRip 1080p
Контейнер: MKV
Видео: MPEG-4 AVC, ~ 10 Мбит/с, 1920x1080
Аудио 1: Русский AC3, 6 ch, 640 Кбит/с, 48.0 KHz (LostFilm)
Аудио 2: Русский AC3, 6 ch, 640 Кбит/с, 48.0 KHz (AlexFilm)
Аудио 3: Русский AC3, 2 ch, 192 Кбит/с, 48.0 KHz ("Кравец")
Аудио 4: Английский AC3, 6 ch, 640 Кбит/с, 48.0 KHz
Субтитры: Русские, английские (SRT)

Содержание

1 сезон:
01. Зима близко / Winter Is Coming
02. Королевский тракт / The Kingsroad
03. Лорд Сноу / Lord Snow
04. Калеки, бастарды и сломанные вещи / Cripples, Bastards, and Broken Things
05. Волк и лев / The Wolf and the Lion
06. Золотая корона / A Golden Crown
07. Побеждай или умри / You Win or You Die
08. Остриё / The Pointy End
09. Бейелор / Baelor
10. Пламя и кровь / Fire and Blood
2 сезон:
01. Север помнит / The North Remembers
02. Ночные земли / The Night Lands
03. Что мертво, умереть не может / What Is Dead May Never Die
04. Костяной Сад / Garden of Bones
05. Призрак Харренхола / The Ghost of Harrenhal
06. Старые Боги и Новые / The Old Gods and the New
07. Человек без Чести / A Man Without Honor
08. Принц Винтерфелла / The Prince of Winterfell
09. Черноводная / Blackwater
10. Валар Моргулис / Valar Morghulis
3 сезон:
01. Валар Дохаэрис / Valar Dohaeris
02. Черные крылья, черные вести / Dark Wings, Dark Words
03. Стезя страданий / Walk of Punishment
04. Теперь его дозор окончен / And Now His Watch Is Ended
05. Поцелованная огнем / Kissed by Fire
06. Подъем / The Climb
07. Медведь и прекрасная дева / The Bear and the Maiden Fair
08. Младшие сыны / Second Sons
09. Рейны из Кастамере / The Rains of Castamere
10. Миса / Mhysa
4 сезон:
01. Два меча / Two Swords
02. Лев и Роза / The Lion and the Rose
03. Разрушительница оков / Breaker of Chains
04. Верный клятве / Oathkeeper
05. Первый этого имени / First of His Name
06. Законы богов и людей / The Laws of Gods and Men
07. Пересмешник / Mockingbird
08. Гора и Змей / The Mountain and the Viper 1 июня 2014
09. Дозорные на Стене / The Watchers of the Wall
10. Дети / The Children
5 сезон:
01. Грядущие войны / The Wars to Come
02. Чёрно-белый дом / The House of Black and White
03. Его Воробейшество / High Sparrow
04. Сыны Гарпии / The Sons Of The Harpy
05. Убей мальчика / Kill the Boy
06. Непреклонные, несгибаемые, несдающиеся / Unbowed, Unbent, Unbroken
07. Дар / The Gift
08. Суровый дом / Hardhome
09. Танец драконов / The Dance of Dragons
10. Милость Матери / Mother's Mercy
6 сезон:
01. Красная женщина / The Red Woman
02. Дом / Home
03. Нарушивший клятву / Oathbreaker
04. Книга Неведомого / Book of the Stranger
05. Дверь / The Door
06. Кровь моей крови / Blood of My Blood
07. Сломленный человек / The Broken Man
08. Никто / No One
09. Битва бастардов / Battle of the Bastards
10. Ветра зимы / The Winds of Winter
7 сезон:
01. Драконий камень / Dragonstone
02. Бурерожденная / Stormborn
03. Правосудие королевы / The Queen's Justice
04. Военные трофеи / The Spoils of War
05. Восточный дозор / Eastwatch
06. За Стеной / Beyond the Wall
07. Дракон и Волк / The Dragon and the Wolf
8 сезон:
01. Винтерфелл / Winterfell
02. Рыцарь Семи Королевств / A Knight of the Seven Kingdoms
03. Долгая ночь / The Long Night
04. Последние из Старков / The Last of the Starks
05. Колокола / The Bells
06. Железный трон / The Iron Throne

MediaInfo

Game.of.Thrones.S01-07.LostFilm.AlexFilm.Dub.Eng.BDRip.1080p\GOT.S01\GOT.S01E01.BDRip.1080p.mkv
Format : Matroska
Format version : Version 4 / Version 2
File size : 5.23 GiB
Duration : 1h 1mn
Overall bit rate : 12.2 Mbps
Encoded date : UTC 2019-04-30 20:52:14
Writing application : mkvmerge v6.8.0 ('Theme for Great Cities') 32bit built on Mar 2 2014 21:27:07
Writing library : libebml v1.3.0 + libmatroska v1.4.1
Video
ID : 1
Format : AVC
Format/Info : Advanced Video Codec
Format profile : High@L4.0
Format settings, CABAC : Yes
Format settings, ReFrames : 4 frames
Codec ID : V_MPEG4/ISO/AVC
Duration : 1h 1mn
Bit rate : 10 000 Kbps
Width : 1 920 pixels
Height : 1 080 pixels
Display aspect ratio : 16:9
Frame rate mode : Constant
Frame rate : 23.976 fps
Color space : YUV
Chroma subsampling : 4:2:0
Bit depth : 8 bits
Scan type : Progressive
Bits/(Pixel*Frame) : 0.201
Stream size : 4.22 GiB (81%)
Writing library : x264 core 157 r2935 545de2f
Encoding settings : cabac=1 / ref=4 / deblock=1:-3:-3 / analyse=0x3:0x113 / me=umh / subme=11 / psy=1 / psy_rd=1.00:0.00 / mixed_ref=1 / me_range=32 / chroma_me=1 / trellis=2 / 8x8dct=1 / cqm=0 / deadzone=21,11 / fast_pskip=0 / chroma_qp_offset=-4 / threads=9 / lookahead_threads=2 / sliced_threads=0 / nr=0 / decimate=0 / interlaced=0 / bluray_compat=0 / constrained_intra=0 / bframes=9 / b_pyramid=2 / b_adapt=2 / b_bias=0 / direct=3 / weightb=1 / open_gop=0 / weightp=2 / keyint=240 / keyint_min=23 / scenecut=40 / intra_refresh=0 / rc=2pass / mbtree=0 / bitrate=10000 / ratetol=1.0 / qcomp=0.65 / qpmin=0 / qpmax=69 / qpstep=4 / cplxblur=20.0 / qblur=0.5 / ip_ratio=1.40 / pb_ratio=1.30 / aq=3:0.80
Default : Yes
Forced : No
Audio #1
ID : 2
Format : AC-3
Format/Info : Audio Coding 3
Mode extension : CM (complete main)
Format settings, Endianness : Big
Codec ID : A_AC3
Duration : 1h 1mn
Bit rate mode : Constant
Bit rate : 640 Kbps
Channel(s) : 6 channels
Channel positions : Front: L C R, Side: L R, LFE
Sampling rate : 48.0 KHz
Bit depth : 16 bits
Compression mode : Lossy
Stream size : 282 MiB (5%)
Title : LostFilm
Language : Russian
Default : Yes
Forced : No
Audio #2
ID : 3
Format : AC-3
Format/Info : Audio Coding 3
Mode extension : CM (complete main)
Format settings, Endianness : Big
Codec ID : A_AC3
Duration : 1h 1mn
Bit rate mode : Constant
Bit rate : 640 Kbps
Channel(s) : 6 channels
Channel positions : Front: L C R, Side: L R, LFE
Sampling rate : 48.0 KHz
Bit depth : 16 bits
Compression mode : Lossy
Stream size : 282 MiB (5%)
Title : AlexFilm
Language : Russian
Default : No
Forced : No
Audio #3
ID : 4
Format : AC-3
Format/Info : Audio Coding 3
Mode extension : CM (complete main)
Format settings, Endianness : Big
Codec ID : A_AC3
Duration : 1h 1mn
Bit rate mode : Constant
Bit rate : 192 Kbps
Channel(s) : 2 channels
Channel positions : Front: L R
Sampling rate : 48.0 KHz
Bit depth : 16 bits
Compression mode : Lossy
Stream size : 84.6 MiB (2%)
Title : DUB
Language : Russian
Default : No
Forced : No
Audio #4
ID : 5
Format : AC-3
Format/Info : Audio Coding 3
Mode extension : CM (complete main)
Format settings, Endianness : Big
Codec ID : A_AC3
Duration : 1h 1mn
Bit rate mode : Constant
Bit rate : 640 Kbps
Channel(s) : 6 channels
Channel positions : Front: L C R, Side: L R, LFE
Sampling rate : 48.0 KHz
Bit depth : 16 bits
Compression mode : Lossy
Stream size : 282 MiB (5%)
Title : English
Language : English
Default : No
Forced : No
Text #1
ID : 6
Format : PGS
Muxing mode : zlib
Codec ID : S_HDMV/PGS
Codec ID/Info : The same subtitle format used on BDs/HD-DVDs
Title : Forced
Language : Russian
Default : No
Forced : No
Text #2
ID : 7
Format : PGS
Muxing mode : zlib
Codec ID : S_HDMV/PGS
Codec ID/Info : The same subtitle format used on BDs/HD-DVDs
Language : Russian
Default : No
Forced : No
Text #3
ID : 8
Format : PGS
Muxing mode : zlib
Codec ID : S_HDMV/PGS
Codec ID/Info : The same subtitle format used on BDs/HD-DVDs
Language : Russian
Default : No
Forced : No
Text #4
ID : 9
Format : PGS
Muxing mode : zlib
Codec ID : S_HDMV/PGS
Codec ID/Info : The same subtitle format used on BDs/HD-DVDs
Language : English
Default : No
Forced : No
Text #5
ID : 10
Format : UTF-8
Codec ID : S_TEXT/UTF8
Codec ID/Info : UTF-8 Plain Text
Title : Forced
Language : Russian
Default : No
Forced : No
Text #6
ID : 11
Format : UTF-8
Codec ID : S_TEXT/UTF8
Codec ID/Info : UTF-8 Plain Text
Language : Russian
Default : No
Forced : No
Text #7
ID : 12
Format : UTF-8
Codec ID : S_TEXT/UTF8
Codec ID/Info : UTF-8 Plain Text
Language : Russian
Default : No
Forced : No
Text #8
ID : 13
Format : UTF-8
Codec ID : S_TEXT/UTF8
Codec ID/Info : UTF-8 Plain Text
Language : English
Default : No
Forced : No

Скриншоты

admin

Post 23-May-2019 04:41

[Quote]

Игра престолов / Game of Thrones
Страна: США Великобритания
Производство: Bighead Littlehead, Generator Entertainment, Television 360, Home Box Office (HBO)
Год выпуска: 2019
Жанр: фэнтези, боевик, драма, мелодрама, приключения
Продолжительность: 6х ~00:56:00
Режиссеры: Дэвид Наттер, Мигель Сапочник, Дэвид Бениофф, Д.Б. Уайсс
В ролях: Питер Динклэйдж, Николай Костер-Вальдау, Лина Хиди, Эмилия Кларк, Кит Харингтон, Софи Тернер, Мэйси Уильямс, Лиам Каннингэм, Алфи Аллен
Описание: К концу подходит время благоденствия, и лето, длившееся почти десятилетие, угасает. Вокруг средоточия власти Семи королевств, Железного трона, зреет заговор, и в это непростое время король решает искать поддержки у друга юности Эддарда Старка. В мире, где все — от короля до наемника — рвутся к власти, плетут интриги и готовы вонзить нож в спину, есть место и благородству, состраданию и любви. Между тем, никто не замечает пробуждение тьмы из легенд далеко на Севере — и лишь Стена защищает живых к югу от неё...

Перевод: Профессиональный (многоголосый) | AlexFilm + Профессиональный (многоголосый) | LostFilm
Субтитры: русские (forced + full), английские (SDH)-Качество: WEB-DL 720p | | исходник - Game.of.Thrones.S08.1080p.AMZN.WEB-DL.DDP5.1.H.264-GoT
Формат: МКV
Видео кодек: AVC
Аудио кодек: АС3
Видео: 1280x720 (16:9), 23.976 fps, MPEG-4 AVC ~3 026 kbps avg
Аудио №1: 48.0 kHz, AC3 Dolby Digital, 3/2 (L,C,R,l,r) + LFE ch, ~384 kbps | RUS / AlexFilm
Аудио №2: 48.0 kHz, AC3 Dolby Digital, 3/2 (L,C,R,l,r) + LFE ch, ~640 kbps | RUS / LostFilm
Аудио №3: 48.0 kHz, AC3 Dolby Digital, 3/2 (L,C,R,l,r) + LFE ch, ~640 kbps | ENG / Original
Формат субтитров: UTF-8 Plain Text
Дата премьеры (мир): 14 апреля 2019

Дополнительная информация

Релиз от:

Media Info

General
Unique ID : 240174754791325723799781754744418520831 (0xB4AFF9A79D5E07DC8D457BF23E86CEFF)
Complete name : Game.of.Thrones.s08e01.Winterfell.WEB-DL.720p.mkv
Format : Matroska
Format version : Version 4 / Version 2
File size : 1.83 GiB
Duration : 55 min 47 s
Overall bit rate : 4 689 kb/s
Movie name : Game of Thrones 08x01 (Winterfell) - release by Kastiel for EniaHD
Encoded date : UTC 2019-04-18 15:24:13
Writing application : mkvmerge v18.0.0 ('Apricity') 64-bit
Writing library : libebml v1.3.5 + libmatroska v1.4.8
Video
ID : 1
Format : AVC
Format/Info : Advanced Video Codec
Format profile : High@L3.1
Format settings : CABAC / 4 Ref Frames
Format settings, CABAC : Yes
Format settings, ReFrames : 4 frames
Codec ID : V_MPEG4/ISO/AVC
Duration : 55 min 45 s
Bit rate mode : Constant
Bit rate : 3 026 kb/s
Nominal bit rate : 6 000 kb/s
Width : 1 280 pixels
Height : 720 pixels
Display aspect ratio : 16:9
Frame rate mode : Constant
Frame rate : 23.976 (24000/1001) FPS
Color space : YUV
Chroma subsampling : 4:2:0
Bit depth : 8 bits
Scan type : Progressive
Bits/(Pixel*Frame) : 0.137
Stream size : 1.18 GiB (64%)
Default : Yes
Forced : No
Color range : Limited
Color primaries : BT.709
Transfer characteristics : BT.709
Matrix coefficients : BT.709
Audio #1
ID : 2
Format : AC-3
Format/Info : Audio Coding 3
Codec ID : A_AC3
Duration : 55 min 45 s
Bit rate mode : Constant
Bit rate : 384 kb/s
Channel(s) : 6 channels
Channel positions : Front: L C R, Side: L R, LFE
Sampling rate : 48.0 kHz
Frame rate : 31.250 FPS (1536 SPF)
Bit depth : 16 bits
Compression mode : Lossy
Stream size : 153 MiB (8%)
Title : DD5.1 AlexFilm
Language : Russian
Service kind : Complete Main
Default : Yes
Forced : No
Audio #2
ID : 3
Format : AC-3
Format/Info : Audio Coding 3
Codec ID : A_AC3
Duration : 55 min 45 s
Bit rate mode : Constant
Bit rate : 640 kb/s
Channel(s) : 6 channels
Channel positions : Front: L C R, Side: L R, LFE
Sampling rate : 48.0 kHz
Frame rate : 31.250 FPS (1536 SPF)
Bit depth : 16 bits
Compression mode : Lossy
Stream size : 255 MiB (14%)
Title : DD5.1 LostFilm
Language : Russian
Service kind : Complete Main
Default : No
Forced : No
Audio #3
ID : 4
Format : AC-3
Format/Info : Audio Coding 3
Codec ID : A_AC3
Duration : 55 min 45 s
Bit rate mode : Constant
Bit rate : 640 kb/s
Channel(s) : 6 channels
Channel positions : Front: L C R, Side: L R, LFE
Sampling rate : 48.0 kHz
Frame rate : 31.250 FPS (1536 SPF)
Bit depth : 16 bits
Compression mode : Lossy
Stream size : 255 MiB (14%)
Title : DD5.1 Original
Language : English
Service kind : Complete Main
Default : No
Forced : No
Text #1
ID : 5
Format : UTF-8
Codec ID : S_TEXT/UTF8
Codec ID/Info : UTF-8 Plain Text
Duration : 4 s 710 ms
Bit rate : 183 b/s
Count of elements : 2
Stream size : 108 Bytes (0%)
Title : Forced |AF|
Language : Russian
Default : Yes
Forced : No
Text #2
ID : 6
Format : UTF-8
Codec ID : S_TEXT/UTF8
Codec ID/Info : UTF-8 Plain Text
Duration : 52 min 45 s
Bit rate : 65 b/s
Count of elements : 507
Stream size : 25.2 KiB (0%)
Title : 7kingdoms
Language : Russian
Default : No
Forced : No
Text #3
ID : 7
Format : UTF-8
Codec ID : S_TEXT/UTF8
Codec ID/Info : UTF-8 Plain Text
Duration : 55 min 41 s
Bit rate : 45 b/s
Count of elements : 665
Stream size : 18.4 KiB (0%)
Title : SDH
Language : English
Default : No
Forced : No
Menu
00:00:00.000 : en:Ratings
00:00:03.944 : en:Previously On
00:01:59.944 : en:Studio Logo
00:02:05.944 : en:Opening Credits
00:03:52.944 : en:Arrival in Winterfell
00:09:46.944 : en:Fight together or die
00:12:53.944 : en:Sansa sees through the lies
00:15:36.944 : en:A tearful reunion
00:17:45.944 : en:A queen must be earned
00:22:40.944 : en:Cersei asks a favor of Bronn
00:25:25.944 : en:What is dead may never die
00:29:24.944 : en:Hold on to whatever you can
00:36:41.944 : en:A forge for dragonglass
00:39:11.944 : en:Sansa is frustrated with Jon's choice
00:41:03.944 : en:The head of House Tarly
00:44:32.944 : en:It's time for Jon to know the truth
00:48:40.944 : en:A message from the Night King
00:52:28.944 : en:An unexpected visitor
00:53:43.944 : en:End Credits
00:55:03.944 : en:Next Time
00:55:40.944 : en:Inside Game of Thrones

Скриншоты

admin

Post 23-May-2019 04:38

[Quote]

Игра престолов / Game of Thrones
Страна: США Великобритания
Производство: Bighead Littlehead, Generator Entertainment, Television 360, Home Box Office (HBO)
Год выпуска: 2019
Жанр: фэнтези, боевик, драма, мелодрама, приключения
Продолжительность: 6х ~00:56:00
Режиссеры: Дэвид Наттер, Мигель Сапочник, Дэвид Бениофф, Д.Б. Уайсс
В ролях: Питер Динклэйдж, Николай Костер-Вальдау, Лина Хиди, Эмилия Кларк, Кит Харингтон, Софи Тернер, Мэйси Уильямс, Лиам Каннингэм, Алфи Аллен
Описание: К концу подходит время благоденствия, и лето, длившееся почти десятилетие, угасает. Вокруг средоточия власти Семи королевств, Железного трона, зреет заговор, и в это непростое время король решает искать поддержки у друга юности Эддарда Старка. В мире, где все — от короля до наемника — рвутся к власти, плетут интриги и готовы вонзить нож в спину, есть место и благородству, состраданию и любви. Между тем, никто не замечает пробуждение тьмы из легенд далеко на Севере — и лишь Стена защищает живых к югу от неё...

Перевод: Профессиональный (многоголосый) | AlexFilm + Профессиональный (многоголосый) | LostFilm
Субтитры: русские (forced + full), английские (SDH)-Качество: WEB-DL 1080p | | исходник - Game.of.Thrones.S08.1080p.AMZN.WEB-DL.DDP5.1.H.264-GoT
Формат: МКV
Видео кодек: AVC
Аудио кодек: АС3
Видео: 1920x1080 (16:9), 23.976 fps, MPEG-4 AVC ~6 596 kbps avg
Аудио №1: 48.0 kHz, AC3 Dolby Digital, 3/2 (L,C,R,l,r) + LFE ch, ~384 kbps | RUS / AlexFilm
Аудио №2: 48.0 kHz, AC3 Dolby Digital, 3/2 (L,C,R,l,r) + LFE ch, ~640 kbps | RUS / LostFilm
Аудио №3: 48.0 kHz, AC3 Dolby Digital, 3/2 (L,C,R,l,r) + LFE ch, ~640 kbps | ENG / Original
Формат субтитров: UTF-8 Plain Text
Дата премьеры (мир): 14 апреля 2019

Дополнительная информация

Релиз от:

Media Info

General
Unique ID : 208190005713683336008349859285258127705 (0x9C9FEFC5D81EE9D786421819F34EC959)
Complete name : Game.of.Thrones.s08e01.Winterfell.WEB-DL.1080p.mkv
Format : Matroska
Format version : Version 4 / Version 2
File size : 3.22 GiB
Duration : 55 min 47 s
Overall bit rate : 8 257 kb/s
Movie name : Game of Thrones 08x01 (Winterfell) - release by Kastiel for EniaHD
Encoded date : UTC 2019-04-18 15:18:42
Writing application : mkvmerge v18.0.0 ('Apricity') 64-bit
Writing library : libebml v1.3.5 + libmatroska v1.4.8
Video
ID : 1
Format : AVC
Format/Info : Advanced Video Codec
Format profile : High@L4
Format settings : CABAC / 4 Ref Frames
Format settings, CABAC : Yes
Format settings, ReFrames : 4 frames
Codec ID : V_MPEG4/ISO/AVC
Duration : 55 min 45 s
Bit rate mode : Constant
Bit rate : 6 596 kb/s
Nominal bit rate : 10 000 kb/s
Width : 1 920 pixels
Height : 1 080 pixels
Display aspect ratio : 16:9
Frame rate mode : Constant
Frame rate : 23.976 (24000/1001) FPS
Color space : YUV
Chroma subsampling : 4:2:0
Bit depth : 8 bits
Scan type : Progressive
Bits/(Pixel*Frame) : 0.133
Stream size : 2.57 GiB (80%)
Default : Yes
Forced : No
Color range : Limited
Color primaries : BT.709
Transfer characteristics : BT.709
Matrix coefficients : BT.709
Audio #1
ID : 2
Format : AC-3
Format/Info : Audio Coding 3
Codec ID : A_AC3
Duration : 55 min 45 s
Bit rate mode : Constant
Bit rate : 384 kb/s
Channel(s) : 6 channels
Channel positions : Front: L C R, Side: L R, LFE
Sampling rate : 48.0 kHz
Frame rate : 31.250 FPS (1536 SPF)
Bit depth : 16 bits
Compression mode : Lossy
Stream size : 153 MiB (5%)
Title : DD5.1 AlexFilm
Language : Russian
Service kind : Complete Main
Default : Yes
Forced : No
Audio #2
ID : 3
Format : AC-3
Format/Info : Audio Coding 3
Codec ID : A_AC3
Duration : 55 min 45 s
Bit rate mode : Constant
Bit rate : 640 kb/s
Channel(s) : 6 channels
Channel positions : Front: L C R, Side: L R, LFE
Sampling rate : 48.0 kHz
Frame rate : 31.250 FPS (1536 SPF)
Bit depth : 16 bits
Compression mode : Lossy
Stream size : 255 MiB (8%)
Title : DD5.1 LostFilm
Language : Russian
Service kind : Complete Main
Default : No
Forced : No
Audio #3
ID : 4
Format : AC-3
Format/Info : Audio Coding 3
Codec ID : A_AC3
Duration : 55 min 45 s
Bit rate mode : Constant
Bit rate : 640 kb/s
Channel(s) : 6 channels
Channel positions : Front: L C R, Side: L R, LFE
Sampling rate : 48.0 kHz
Frame rate : 31.250 FPS (1536 SPF)
Bit depth : 16 bits
Compression mode : Lossy
Stream size : 255 MiB (8%)
Title : DD5.1 Original
Language : English
Service kind : Complete Main
Default : No
Forced : No
Text #1
ID : 5
Format : UTF-8
Codec ID : S_TEXT/UTF8
Codec ID/Info : UTF-8 Plain Text
Duration : 4 s 710 ms
Bit rate : 183 b/s
Count of elements : 2
Stream size : 108 Bytes (0%)
Title : Forced |AF|
Language : Russian
Default : Yes
Forced : No
Text #2
ID : 6
Format : UTF-8
Codec ID : S_TEXT/UTF8
Codec ID/Info : UTF-8 Plain Text
Duration : 52 min 45 s
Bit rate : 65 b/s
Count of elements : 507
Stream size : 25.2 KiB (0%)
Title : 7kingdoms
Language : Russian
Default : No
Forced : No
Text #3
ID : 7
Format : UTF-8
Codec ID : S_TEXT/UTF8
Codec ID/Info : UTF-8 Plain Text
Duration : 55 min 41 s
Bit rate : 45 b/s
Count of elements : 665
Stream size : 18.4 KiB (0%)
Title : SDH
Language : English
Default : No
Forced : No
Menu
00:00:00.000 : en:Ratings
00:00:03.944 : en:Previously On
00:01:59.944 : en:Studio Logo
00:02:05.944 : en:Opening Credits
00:03:52.944 : en:Arrival in Winterfell
00:09:46.944 : en:Fight together or die
00:12:53.944 : en:Sansa sees through the lies
00:15:36.944 : en:A tearful reunion
00:17:45.944 : en:A queen must be earned
00:22:40.944 : en:Cersei asks a favor of Bronn
00:25:25.944 : en:What is dead may never die
00:29:24.944 : en:Hold on to whatever you can
00:36:41.944 : en:A forge for dragonglass
00:39:11.944 : en:Sansa is frustrated with Jon's choice
00:41:03.944 : en:The head of House Tarly
00:44:32.944 : en:It's time for Jon to know the truth
00:48:40.944 : en:A message from the Night King
00:52:28.944 : en:An unexpected visitor
00:53:43.944 : en:End Credits
00:55:03.944 : en:Next Time
00:55:40.944 : en:Inside Game of Thrones

Скриншоты

 

Current time is: 13-Dec 04:12

All times are UTC + 3