Search found 2 matches

Author Message

admin

Post 23-May-2019 04:41

[Quote]

Игра престолов / Game of Thrones
Страна: США Великобритания
Производство: Bighead Littlehead, Generator Entertainment, Television 360, Home Box Office (HBO)
Год выпуска: 2019
Жанр: фэнтези, боевик, драма, мелодрама, приключения
Продолжительность: 6х ~00:56:00
Режиссеры: Дэвид Наттер, Мигель Сапочник, Дэвид Бениофф, Д.Б. Уайсс
В ролях: Питер Динклэйдж, Николай Костер-Вальдау, Лина Хиди, Эмилия Кларк, Кит Харингтон, Софи Тернер, Мэйси Уильямс, Лиам Каннингэм, Алфи Аллен
Описание: К концу подходит время благоденствия, и лето, длившееся почти десятилетие, угасает. Вокруг средоточия власти Семи королевств, Железного трона, зреет заговор, и в это непростое время король решает искать поддержки у друга юности Эддарда Старка. В мире, где все — от короля до наемника — рвутся к власти, плетут интриги и готовы вонзить нож в спину, есть место и благородству, состраданию и любви. Между тем, никто не замечает пробуждение тьмы из легенд далеко на Севере — и лишь Стена защищает живых к югу от неё...

Перевод: Профессиональный (многоголосый) | AlexFilm + Профессиональный (многоголосый) | LostFilm
Субтитры: русские (forced + full), английские (SDH)-Качество: WEB-DL 720p | | исходник - Game.of.Thrones.S08.1080p.AMZN.WEB-DL.DDP5.1.H.264-GoT
Формат: МКV
Видео кодек: AVC
Аудио кодек: АС3
Видео: 1280x720 (16:9), 23.976 fps, MPEG-4 AVC ~3 026 kbps avg
Аудио №1: 48.0 kHz, AC3 Dolby Digital, 3/2 (L,C,R,l,r) + LFE ch, ~384 kbps | RUS / AlexFilm
Аудио №2: 48.0 kHz, AC3 Dolby Digital, 3/2 (L,C,R,l,r) + LFE ch, ~640 kbps | RUS / LostFilm
Аудио №3: 48.0 kHz, AC3 Dolby Digital, 3/2 (L,C,R,l,r) + LFE ch, ~640 kbps | ENG / Original
Формат субтитров: UTF-8 Plain Text
Дата премьеры (мир): 14 апреля 2019

Дополнительная информация

Релиз от:

Media Info

General
Unique ID : 240174754791325723799781754744418520831 (0xB4AFF9A79D5E07DC8D457BF23E86CEFF)
Complete name : Game.of.Thrones.s08e01.Winterfell.WEB-DL.720p.mkv
Format : Matroska
Format version : Version 4 / Version 2
File size : 1.83 GiB
Duration : 55 min 47 s
Overall bit rate : 4 689 kb/s
Movie name : Game of Thrones 08x01 (Winterfell) - release by Kastiel for EniaHD
Encoded date : UTC 2019-04-18 15:24:13
Writing application : mkvmerge v18.0.0 ('Apricity') 64-bit
Writing library : libebml v1.3.5 + libmatroska v1.4.8
Video
ID : 1
Format : AVC
Format/Info : Advanced Video Codec
Format profile : High@L3.1
Format settings : CABAC / 4 Ref Frames
Format settings, CABAC : Yes
Format settings, ReFrames : 4 frames
Codec ID : V_MPEG4/ISO/AVC
Duration : 55 min 45 s
Bit rate mode : Constant
Bit rate : 3 026 kb/s
Nominal bit rate : 6 000 kb/s
Width : 1 280 pixels
Height : 720 pixels
Display aspect ratio : 16:9
Frame rate mode : Constant
Frame rate : 23.976 (24000/1001) FPS
Color space : YUV
Chroma subsampling : 4:2:0
Bit depth : 8 bits
Scan type : Progressive
Bits/(Pixel*Frame) : 0.137
Stream size : 1.18 GiB (64%)
Default : Yes
Forced : No
Color range : Limited
Color primaries : BT.709
Transfer characteristics : BT.709
Matrix coefficients : BT.709
Audio #1
ID : 2
Format : AC-3
Format/Info : Audio Coding 3
Codec ID : A_AC3
Duration : 55 min 45 s
Bit rate mode : Constant
Bit rate : 384 kb/s
Channel(s) : 6 channels
Channel positions : Front: L C R, Side: L R, LFE
Sampling rate : 48.0 kHz
Frame rate : 31.250 FPS (1536 SPF)
Bit depth : 16 bits
Compression mode : Lossy
Stream size : 153 MiB (8%)
Title : DD5.1 AlexFilm
Language : Russian
Service kind : Complete Main
Default : Yes
Forced : No
Audio #2
ID : 3
Format : AC-3
Format/Info : Audio Coding 3
Codec ID : A_AC3
Duration : 55 min 45 s
Bit rate mode : Constant
Bit rate : 640 kb/s
Channel(s) : 6 channels
Channel positions : Front: L C R, Side: L R, LFE
Sampling rate : 48.0 kHz
Frame rate : 31.250 FPS (1536 SPF)
Bit depth : 16 bits
Compression mode : Lossy
Stream size : 255 MiB (14%)
Title : DD5.1 LostFilm
Language : Russian
Service kind : Complete Main
Default : No
Forced : No
Audio #3
ID : 4
Format : AC-3
Format/Info : Audio Coding 3
Codec ID : A_AC3
Duration : 55 min 45 s
Bit rate mode : Constant
Bit rate : 640 kb/s
Channel(s) : 6 channels
Channel positions : Front: L C R, Side: L R, LFE
Sampling rate : 48.0 kHz
Frame rate : 31.250 FPS (1536 SPF)
Bit depth : 16 bits
Compression mode : Lossy
Stream size : 255 MiB (14%)
Title : DD5.1 Original
Language : English
Service kind : Complete Main
Default : No
Forced : No
Text #1
ID : 5
Format : UTF-8
Codec ID : S_TEXT/UTF8
Codec ID/Info : UTF-8 Plain Text
Duration : 4 s 710 ms
Bit rate : 183 b/s
Count of elements : 2
Stream size : 108 Bytes (0%)
Title : Forced |AF|
Language : Russian
Default : Yes
Forced : No
Text #2
ID : 6
Format : UTF-8
Codec ID : S_TEXT/UTF8
Codec ID/Info : UTF-8 Plain Text
Duration : 52 min 45 s
Bit rate : 65 b/s
Count of elements : 507
Stream size : 25.2 KiB (0%)
Title : 7kingdoms
Language : Russian
Default : No
Forced : No
Text #3
ID : 7
Format : UTF-8
Codec ID : S_TEXT/UTF8
Codec ID/Info : UTF-8 Plain Text
Duration : 55 min 41 s
Bit rate : 45 b/s
Count of elements : 665
Stream size : 18.4 KiB (0%)
Title : SDH
Language : English
Default : No
Forced : No
Menu
00:00:00.000 : en:Ratings
00:00:03.944 : en:Previously On
00:01:59.944 : en:Studio Logo
00:02:05.944 : en:Opening Credits
00:03:52.944 : en:Arrival in Winterfell
00:09:46.944 : en:Fight together or die
00:12:53.944 : en:Sansa sees through the lies
00:15:36.944 : en:A tearful reunion
00:17:45.944 : en:A queen must be earned
00:22:40.944 : en:Cersei asks a favor of Bronn
00:25:25.944 : en:What is dead may never die
00:29:24.944 : en:Hold on to whatever you can
00:36:41.944 : en:A forge for dragonglass
00:39:11.944 : en:Sansa is frustrated with Jon's choice
00:41:03.944 : en:The head of House Tarly
00:44:32.944 : en:It's time for Jon to know the truth
00:48:40.944 : en:A message from the Night King
00:52:28.944 : en:An unexpected visitor
00:53:43.944 : en:End Credits
00:55:03.944 : en:Next Time
00:55:40.944 : en:Inside Game of Thrones

Скриншоты

admin

Post 23-May-2019 04:38

[Quote]

Игра престолов / Game of Thrones
Страна: США Великобритания
Производство: Bighead Littlehead, Generator Entertainment, Television 360, Home Box Office (HBO)
Год выпуска: 2019
Жанр: фэнтези, боевик, драма, мелодрама, приключения
Продолжительность: 6х ~00:56:00
Режиссеры: Дэвид Наттер, Мигель Сапочник, Дэвид Бениофф, Д.Б. Уайсс
В ролях: Питер Динклэйдж, Николай Костер-Вальдау, Лина Хиди, Эмилия Кларк, Кит Харингтон, Софи Тернер, Мэйси Уильямс, Лиам Каннингэм, Алфи Аллен
Описание: К концу подходит время благоденствия, и лето, длившееся почти десятилетие, угасает. Вокруг средоточия власти Семи королевств, Железного трона, зреет заговор, и в это непростое время король решает искать поддержки у друга юности Эддарда Старка. В мире, где все — от короля до наемника — рвутся к власти, плетут интриги и готовы вонзить нож в спину, есть место и благородству, состраданию и любви. Между тем, никто не замечает пробуждение тьмы из легенд далеко на Севере — и лишь Стена защищает живых к югу от неё...

Перевод: Профессиональный (многоголосый) | AlexFilm + Профессиональный (многоголосый) | LostFilm
Субтитры: русские (forced + full), английские (SDH)-Качество: WEB-DL 1080p | | исходник - Game.of.Thrones.S08.1080p.AMZN.WEB-DL.DDP5.1.H.264-GoT
Формат: МКV
Видео кодек: AVC
Аудио кодек: АС3
Видео: 1920x1080 (16:9), 23.976 fps, MPEG-4 AVC ~6 596 kbps avg
Аудио №1: 48.0 kHz, AC3 Dolby Digital, 3/2 (L,C,R,l,r) + LFE ch, ~384 kbps | RUS / AlexFilm
Аудио №2: 48.0 kHz, AC3 Dolby Digital, 3/2 (L,C,R,l,r) + LFE ch, ~640 kbps | RUS / LostFilm
Аудио №3: 48.0 kHz, AC3 Dolby Digital, 3/2 (L,C,R,l,r) + LFE ch, ~640 kbps | ENG / Original
Формат субтитров: UTF-8 Plain Text
Дата премьеры (мир): 14 апреля 2019

Дополнительная информация

Релиз от:

Media Info

General
Unique ID : 208190005713683336008349859285258127705 (0x9C9FEFC5D81EE9D786421819F34EC959)
Complete name : Game.of.Thrones.s08e01.Winterfell.WEB-DL.1080p.mkv
Format : Matroska
Format version : Version 4 / Version 2
File size : 3.22 GiB
Duration : 55 min 47 s
Overall bit rate : 8 257 kb/s
Movie name : Game of Thrones 08x01 (Winterfell) - release by Kastiel for EniaHD
Encoded date : UTC 2019-04-18 15:18:42
Writing application : mkvmerge v18.0.0 ('Apricity') 64-bit
Writing library : libebml v1.3.5 + libmatroska v1.4.8
Video
ID : 1
Format : AVC
Format/Info : Advanced Video Codec
Format profile : High@L4
Format settings : CABAC / 4 Ref Frames
Format settings, CABAC : Yes
Format settings, ReFrames : 4 frames
Codec ID : V_MPEG4/ISO/AVC
Duration : 55 min 45 s
Bit rate mode : Constant
Bit rate : 6 596 kb/s
Nominal bit rate : 10 000 kb/s
Width : 1 920 pixels
Height : 1 080 pixels
Display aspect ratio : 16:9
Frame rate mode : Constant
Frame rate : 23.976 (24000/1001) FPS
Color space : YUV
Chroma subsampling : 4:2:0
Bit depth : 8 bits
Scan type : Progressive
Bits/(Pixel*Frame) : 0.133
Stream size : 2.57 GiB (80%)
Default : Yes
Forced : No
Color range : Limited
Color primaries : BT.709
Transfer characteristics : BT.709
Matrix coefficients : BT.709
Audio #1
ID : 2
Format : AC-3
Format/Info : Audio Coding 3
Codec ID : A_AC3
Duration : 55 min 45 s
Bit rate mode : Constant
Bit rate : 384 kb/s
Channel(s) : 6 channels
Channel positions : Front: L C R, Side: L R, LFE
Sampling rate : 48.0 kHz
Frame rate : 31.250 FPS (1536 SPF)
Bit depth : 16 bits
Compression mode : Lossy
Stream size : 153 MiB (5%)
Title : DD5.1 AlexFilm
Language : Russian
Service kind : Complete Main
Default : Yes
Forced : No
Audio #2
ID : 3
Format : AC-3
Format/Info : Audio Coding 3
Codec ID : A_AC3
Duration : 55 min 45 s
Bit rate mode : Constant
Bit rate : 640 kb/s
Channel(s) : 6 channels
Channel positions : Front: L C R, Side: L R, LFE
Sampling rate : 48.0 kHz
Frame rate : 31.250 FPS (1536 SPF)
Bit depth : 16 bits
Compression mode : Lossy
Stream size : 255 MiB (8%)
Title : DD5.1 LostFilm
Language : Russian
Service kind : Complete Main
Default : No
Forced : No
Audio #3
ID : 4
Format : AC-3
Format/Info : Audio Coding 3
Codec ID : A_AC3
Duration : 55 min 45 s
Bit rate mode : Constant
Bit rate : 640 kb/s
Channel(s) : 6 channels
Channel positions : Front: L C R, Side: L R, LFE
Sampling rate : 48.0 kHz
Frame rate : 31.250 FPS (1536 SPF)
Bit depth : 16 bits
Compression mode : Lossy
Stream size : 255 MiB (8%)
Title : DD5.1 Original
Language : English
Service kind : Complete Main
Default : No
Forced : No
Text #1
ID : 5
Format : UTF-8
Codec ID : S_TEXT/UTF8
Codec ID/Info : UTF-8 Plain Text
Duration : 4 s 710 ms
Bit rate : 183 b/s
Count of elements : 2
Stream size : 108 Bytes (0%)
Title : Forced |AF|
Language : Russian
Default : Yes
Forced : No
Text #2
ID : 6
Format : UTF-8
Codec ID : S_TEXT/UTF8
Codec ID/Info : UTF-8 Plain Text
Duration : 52 min 45 s
Bit rate : 65 b/s
Count of elements : 507
Stream size : 25.2 KiB (0%)
Title : 7kingdoms
Language : Russian
Default : No
Forced : No
Text #3
ID : 7
Format : UTF-8
Codec ID : S_TEXT/UTF8
Codec ID/Info : UTF-8 Plain Text
Duration : 55 min 41 s
Bit rate : 45 b/s
Count of elements : 665
Stream size : 18.4 KiB (0%)
Title : SDH
Language : English
Default : No
Forced : No
Menu
00:00:00.000 : en:Ratings
00:00:03.944 : en:Previously On
00:01:59.944 : en:Studio Logo
00:02:05.944 : en:Opening Credits
00:03:52.944 : en:Arrival in Winterfell
00:09:46.944 : en:Fight together or die
00:12:53.944 : en:Sansa sees through the lies
00:15:36.944 : en:A tearful reunion
00:17:45.944 : en:A queen must be earned
00:22:40.944 : en:Cersei asks a favor of Bronn
00:25:25.944 : en:What is dead may never die
00:29:24.944 : en:Hold on to whatever you can
00:36:41.944 : en:A forge for dragonglass
00:39:11.944 : en:Sansa is frustrated with Jon's choice
00:41:03.944 : en:The head of House Tarly
00:44:32.944 : en:It's time for Jon to know the truth
00:48:40.944 : en:A message from the Night King
00:52:28.944 : en:An unexpected visitor
00:53:43.944 : en:End Credits
00:55:03.944 : en:Next Time
00:55:40.944 : en:Inside Game of Thrones

Скриншоты

 

Current time is: 03-Dec 23:26

All times are UTC + 3