Search found 1 matches

Author Message

admin

Post 23-May-2019 04:42

[Quote]

Информация о фильме
Название: Игра престолов
Оригинальное название: Game of Thrones
Год выпуска: 2019
Жанр: Драма, фэнтези, приключения, экранизация
Режиссер: Джереми Подесва, Дэниэл Сакхайм, Джек Бендер, Марк Майлод, Мигель Сапочник
В ролях: Питер Динклэйдж, Иэн Глен, Николай Костер-Валдау, Лина Хиди, Эмилия Кларк, Кит Харингтон, Лиам Каннингэм, Кэрис ван Хаутен, Натали Дормер, Индира Варма, Софи Тёрнер, Мэйси Уильямс, Конлет Хилл, Элфи Оуэн-Аллен, Гвендолин Кристи, Джонатан Прайс, Майкл МакЭлхаттон, Иван Реон, Джозеф Науфаху, Ханна Уэддингхэм, Розабелла Лауренти Селлерс, Дэниэл Портман, Фэй Марсей, Оуэн Тил
Описание: «Игра престолов» новый сериал HBO, основанный на бестселлерах Джорджа Р.Р. Мартина. В мире, где лето и зимы длятся десятилетиями, на кону корона Вестероса. Предательство, похоть, интриги и сверхъестественные силы сотрясают все четыре стороны Королевства — от плетущего интриги юга, диких восточных земель, до замерзшего севера и древней Стены, что защищает королевство от тьмы за нею. Короли и королевы, рыцари и мятежники, лжецы и благородные люди борются за власть в кровавом сражении за Железный Трон. Экранизация по произведению: Джордж Р.Р. Мартин.
Релиз: EniaHD
Сбор материала: Atla22
Работа со звуком: itunestv & Zgurvas & Atla22


Выпущено: США, Великобритания, Bighead Littlehead, Created By, Generator Entertainment, Home Box Office (HBO)
Продолжительность: 6 x ~ 00:55:00
Перевод#1: Профессиональный (многоголосый, закадровый) - LostFilm
Перевод#2: Профессиональный (многоголосый, закадровый) - AlexFilm
Перевод#3: Профессиональный (многоголосый, закадровый) - студия Novamedia по заказу Amedia
Файл
Качество: WEB-DLRip-AVC
Видео: MPEG-4 AVC, ~ 1860 Кбит/с, 1024x576
Аудио#1: Русский (AC3, 6 ch, 384 Кбит/с) | Профессиональный (многоголосый, закадровый) - LostFilm
Аудио#2: Русский (AC3, 6 ch, 384 Кбит/с) | Профессиональный (многоголосый, закадровый) - AlexFilm
Аудио#3: Русский (AC3, 6 ch, 384 Кбит/с) | Студия Novamedia по заказу Amedia
Аудио#4: Английский (AC3, 6 ch, 384 Кбит/с)
Субтитры: Русские (Forced, Full), английские (SDH)

MediaInfo:

Общее
Уникальный идентификатор: 247631575375615458967220361383085251099 (0xBA4C1B4B64D0D6EEB51C4D719CFE9A1B)
Полное имя: Игра престолов. 8 сезон. 3xMVO. EniaHD (WEB-DLRip AVC) Game.of.Thrones.s08e01. Винтерфелл.mkv
Формат: Матроска
Версия формата: Версия 2
Размер файла: 1,34 Гбайт
Продолжительность: 55 м. 12 с.
Режим общего битрейта: Переменный
Общий поток: 3472 Кбит / сек
Название фильма: Винтерфелл
Дата кодирования: UTC 2019-04-16 20:01:20
Программа кодирования: mkvmerge v6.9.1 ('Blue Panther') 32-битная, построенная 18 апреля 2014 года 18:15:44
Библиотека кодирования: libebml v1.3.0 + libmatroska v1.4.1
Видео
Идентификатор: 1
Формат: AVC
Формат / Информация: Расширенный видеокодек
Профиль формата: High @ L4
Настройки формата: CABAC / 4 Ref Frames
Параметр CABAC формата: Да
Параметр RefFrames формата: 4 кадра
Идентификатор кодека: V_MPEG4 / ISO / AVC
Продолжительность: 55 м. 12 с.
Вид битрейта: Переменный
Битрейт: 1867 Кбит / сек
Максимальный битрейт: 15,0 Мбит / сек
Ширина: 1024 пикселя
Высота: 576 пикселей
Соотношение сторон: 16: 9
Режим частоты кадров: Постоянный
Частота кадров: 23,976 (24000/1001) кадра / сек
Цветовое пространство: YUV
Субдискретизация насыщенности: 4: 2: 0
Битовая глубина: 8 бит
Тип развёртки: Прогрессивная
Бит / (Пиксели * Кадры): 0,132
Размер потока: 737 Мбайт (54%)
Библиотека кодирования: x264 core 157 r2935 545de2f
Настройки программы: cabac = 1 / ref = 4 / deblock = 1: -1: -1 / анализ = 0x3: 0x113 / me = ум / subme = 9 / psy = 1 / psy_rd = 1.00: 0.15 / mixed_ref = 1 / me_range = 24 / chroma_me = 1 / trellis = 2 / 8x8dct = 1 / cqm = 0 / мертвая зона = 21,11 / fast_pskip = 0 / chroma_qp_offset = -3 / threads = 18 / lookahead_threads = 3 / sliced_threads = 0 / nr = 0 / decimate = 1 / interlaced = 0 / bluray_compat = 0 / constrained_intra = 0 / bframes = 8 / b_pyramid = 2 / b_adapt = 2 / b_bias = 0 / direct = 3 / weightb = 1 / open_gop = 0 / weightp = 2 / keyint = 120 / keyint_min = 61 / scenecut = 40 / intra_refresh = 0 / rc_lookahead = 120 / rc = crf / mbtree = 1 / crf = 18.0 / qcomp = 0,60 / qpmin = 0 / qpmax = 69 / qpstep = 4 / vbv_maxrate = 15000 / vbv_bufsize = 31250 / crf_max = 0.0 / nal_hrd = vbr / filler = 0 / ip_ratio = 1,40 / aq = 3: 1,00
Язык: английский
По умолчанию: Да
Принудительно: Нет
Цветовой диапазон: ограниченный
Основные цвета: BT.709
Характеристики трансфера: BT.709
Приближенные матрицы: BT.709
Аудио # 1
Идентификатор: 2
Формат: AC-3
Формат / Информация: Audio Coding 3
Коммерческое название: Dolby Digital
Идентификатор кодека: A_AC3
Продолжительность: 55 м. 12 с.
Вид битрейта: Постоянный
Битрейт: 384 Кбит / сек
Каналы: 6 каналов
Схема канала: LRC LFE Ls Rs
Частота: 48,0 КГц
Частота кадров: 31,250 кадров / сек (1536 SPF)
Битовая глубина: 16 бит
Метод сжатия: С потерями
Размер потока: 152 Мбайт (11%)
Заголовок: LostFilm
Язык: русский
ServiceKind / String: завершить основной
По умолчанию: Да
Принудительно: Нет
Аудио # 2
Идентификатор: 3
Формат: AC-3
Формат / Информация: Audio Coding 3
Коммерческое название: Dolby Digital
Идентификатор кодека: A_AC3
Продолжительность: 55 м. 12 с.
Вид битрейта: Постоянный
Битрейт: 384 Кбит / сек
Каналы: 6 каналов
Схема канала: LRC LFE Ls Rs
Частота: 48,0 КГц
Частота кадров: 31,250 кадров / сек (1536 SPF)
Битовая глубина: 16 бит
Метод сжатия: С потерями
Размер потока: 152 Мбайт (11%)
Заголовок: AlexFilm
Язык: русский
ServiceKind / String: завершить основной
По умолчанию: Нет
Принудительно: Нет
Аудио # 3
Идентификатор: 4
Формат: AC-3
Формат / Информация: Audio Coding 3
Коммерческое название: Dolby Digital
Идентификатор кодека: A_AC3
Продолжительность: 55 м. 12 с.
Вид битрейта: Постоянный
Битрейт: 384 Кбит / сек
Каналы: 6 каналов
Схема канала: LRC LFE Ls Rs
Частота: 48,0 КГц
Частота кадров: 31,250 кадров / сек (1536 SPF)
Битовая глубина: 16 бит
Метод сжатия: С потерями
Размер потока: 152 Мбайт (11%)
Заголовок: Новамедия
Язык: русский
ServiceKind / String: завершить основной
По умолчанию: Нет
Принудительно: Нет
Аудио # 4
Идентификатор: 5
Формат: AC-3
Формат / Информация: Audio Coding 3
Коммерческое название: Dolby Digital
Идентификатор кодека: A_AC3
Продолжительность: 55 м. 12 с.
Вид битрейта: Постоянный
Битрейт: 384 Кбит / сек
Каналы: 6 каналов
Схема канала: LRC LFE Ls Rs
Частота: 48,0 КГц
Частота кадров: 31,250 кадров / сек (1536 SPF)
Битовая глубина: 16 бит
Метод сжатия: С потерями
Размер потока: 152 Мбайт (11%)
Язык: английский
ServiceKind / String: завершить основной
По умолчанию: Нет
Принудительно: Нет
Текст # 1
Идентификатор: 6
Формат: UTF-8
Идентификатор кодека: S_TEXT / UTF8
Идентификатор кодека / Информация: UTF-8 Plain Text
Заголовок: Принудительный
Язык: русский
По умолчанию: Нет
Принудительно: Нет
Текст # 2
Идентификатор: 7
Формат: UTF-8
Идентификатор кодека: S_TEXT / UTF8
Идентификатор кодека / Информация: UTF-8 Plain Text
Заголовок: Полный
Язык: русский
По умолчанию: Нет
Принудительно: Нет
Текст # 3
Идентификатор: 8
Формат: UTF-8
Идентификатор кодека: S_TEXT / UTF8
Идентификатор кодека / Информация: UTF-8 Plain Text
Заголовок: SDH
Язык: английский
По умолчанию: Нет
Принудительно: Нет

Скриншоты

 

Current time is: 17-Jan 23:06

All times are UTC + 3