Search found 28 matches

Author Message

admin

Post 13-May-2021 04:32

[Quote]

Информация о фильме
Название: Вампиры средней полосы
Год выхода: 2020
Жанр: Детектив, комедия, фэнтези
Режиссер: Антон Маслов
В ролях: Юрий Стоянов, Татьяна Догилева, Екатерина Кузнецова (II), Артём Ткаченко, Ольга Медынич, Михаил Гаврилов-Третьяков, Дмитрий Чеботарёв, Глеб Калюжный, Дмитрий Лысенков, Александр Устюгов, Александр Никольский, Маргарита Шилова, Виталия Корниенко, Вероника Лысакова, Алёна Фалалеева, Дмитрий Архангельский, Владислав Миллер, Владимир Брест, Мария Букнис, Владимир Котов (IV), Роман Максимов, Владимир Гарцунов, Максим Дромашко, Андрей Дроздов, Андрей Юртаев, Ян Решетников, Александр Недорезов, Артём Анашкин, Александр Сибирцев (II), Сергей Радуто, Александр Волков (II)
О фильме:
Смоленск — среднестатистический город, расположенный в средней полосе России. Лишь одно отличает Смоленск от любого другого провинциального города средней полосы — в Смоленске живут вампиры. Живут давно. Живут тихо. Живут по закону. Живут непримечательной жизнью обычной провинциальной семьи и вовсе не убивают людей. Хотя кровь, конечно, попивают. И вот когда в березовой роще под Смоленском находят обескровленных парней... Их мирная жизнь оказывается под угрозой. Возглавляет вампирскую «ячейку общества» самый старый вампир, дед Слава, он же Святослав Вернидубович, а следят за соблюдением вампирско-мирских законов «хранители» во главе с суровой Ириной Витальевной.

Страна: Россия
Студия: START Studio
Продолжительность: 8 х ~ 00:55:00
Язык: Русский
Файл
Кодек: MPEG-4 AVC
Качество: WEB-DL 1080p
Видео: MPEG-4 AVC, ~ 4800 Кбит/с, 1920x804
Звук: AC3, 2 ch, 192 Кбит/с
Реклама, любого вида, отсутствует.

Скриншоты


admin

Post 24-Mar-2021 19:22

[Quote]

Информация о фильме
Год выпуска: 2020
Жанр: мелодрама
Режиссер: Оксана Байрак
В ролях:
Екатерина Тышкевич (Катя Богданова / Маша Богданова), Максим Дрозд (Калинин), Антон Батырев (Вадим Огнев), Надежда Грановская (Раиса), Алла Масленникова (Лидия Николаевна), Ирина Ефремова (Ирина Сергеевна), Валентин Томусяк (Дмитрий Богданов), Владимир Гладкий (Побегайло), Олесь Кацион (Побегайло), Глеб Калюжный (Юра в юности), Антон Бухов (следователь), Татьяна Жевнова (Алла)-О фильме: Эта история начинается 20 лет назад. Небольшой военный посёлок на самой границе только на первый взгляд кажется тихим и мирным. Маленькая страна со своими правилами, где есть место страсти, любви, верности и измене. Перед героями стоят трудные решения и роковые встречи, которые приведут к испытаниям... или же к большой любви?
Страна: Украина
Студия: Украина Film.UA, Студия Байрак
Продолжительность: ~ 00:52:42
Файл
Кодек: h.264
Качество: HDTV 1080p
Видео: MPEG-4 AVC,1920x1080 (16:9), 7050 kbps, 25 fps, 0,136 bpp
Аудио: AC3, 2 ch, 192 Кбит/с
Язык: Русский
Субтитры: Украинские

MediaInfo

General
Unique ID : 190147570069268095626685454309417300795 (0x8F0D170401B6EF2DA80BA22C927C333B)
Complete name : E:Запись с твNichto ne sluchaetsya dvazhdy S02 2020 HDTV 1080p.R.G.GeneralfilmNichto ne sluchaetsya dvazhdy.s01.e01.2020.HDTV 1080p.by.White Smoke.R.G.Generalfilm.mkv
Format : Matroska
Format version : Version 4 / Version 2
File size : 2.66 GiB
Duration : 52 min
Overall bit rate mode : Constant
Overall bit rate : 7 217 kb/s
Movie name : Nichto ne sluchaetsya dvazhdy.s01.e01.2020.HDTV 1080p.by.White Smoke.R.G.Generalfilm.mkv
Encoded date : UTC 2020-03-31 09:31:48
Writing application : mkvmerge v6.8.0 ('Theme for Great Cities') 64bit built on Mar 2 2014 21:34:26
Writing library : libebml v1.3.0 + libmatroska v1.4.1
Cover : Yes
Attachments : cover.jpg
Video
ID : 1
Format : AVC
Format/Info : Advanced Video Codec
Format profile : High@L4.1
Format settings, CABAC : Yes
Format settings, ReFrames : 3 frames
Codec ID : V_MPEG4/ISO/AVC
Duration : 52 min
Bit rate mode : Constant
Bit rate : 7 051 kb/s
Width : 1 920 pixels
Height : 1 080 pixels
Display aspect ratio : 16:9
Frame rate mode : Constant
Frame rate : 25.000 FPS
Standard : PAL
Color space : YUV
Chroma subsampling : 4:2:0
Bit depth : 8 bits
Scan type : Progressive
Bits/(Pixel*Frame) : 0.136
Stream size : 2.53 GiB (95%)
Default : Yes
Forced : No
Color range : Limited
Color primaries : BT.709
Transfer characteristics : BT.709
Matrix coefficients : BT.709
Audio
ID : 2
Format : AC-3
Format/Info : Audio Coding 3
Mode extension : CM (complete main)
Format settings, Endianness : Big
Codec ID : A_AC3
Duration : 52 min
Bit rate mode : Constant
Bit rate : 192 kb/s
Channel(s) : 2 channels
Channel positions : Front: L R
Sampling rate : 48.0 kHz
Frame rate : 31.250 FPS (1536 spf)
Compression mode : Lossy
Stream size : 72.4 MiB (3%)
Default : Yes
Forced : No

Скриншоты

admin

Post 04-Mar-2021 16:18

[Quote]

Информация о фильме
Название: Отпуск
Год выпуска: 2021
Жанр: Комедия
Режиссер: Александр Бойков
В ролях: Демис Карибидис, Павел Майков, Юлия Подозёрова, Кузьма Сапрыкин, Татьяна Догилева, Катрин Асси, Валентина Карнаухова, Арарат Кещян, Святослав Королев, Радислав Куцов, Сергей Епишев, Александр Волохов (II), Альбина Кабалина, Максим Винокуров, Амир Гурбанов, Денис Доронин, Елена Пономарёва, Владимир Паршенков, Виталий Гумеров, Артур Павленко, Кристина Арабина, Юлия Кубина, Алексей Бухтояров, Владимир Глушков (II)
О фильме: Северяне Беляевы 11-й год подряд приезжают в Геленджик. Но этот отпуск не будет похож на остальные. Для главы семейства Севы это последний шанс спасти брак и доказать супруге, что он хороший отец и муж. Их сын Саша собирается сделать предложение Люсе — дочери дяди Бори, владельца гостевого дома, где остановились Беляевы. Дядя Боря вовсе не замечает северян, ведь у него свои проблемы — новая любовь, красавица Мадина, и ее ревнивый бывший — влиятельный бизнесмен Таймураз, который не готов отпустить Мадину. Это история двух семей, в каждой из которых люди борются за любовь.

Выпущено: Россия
Студия: 123 Продакшн, Телеканал ТНТ
Продолжительность: 18 х ~ 00:25:00
Перевод: Не требуется
Файл
Качество: WEBRip 720p
Видео: MPEG-4 AVC, ~ 3000 Кбит/с, 1280x539
Аудио: AC3, 2 ch, 192 Кбит/с

Скриншоты

Раздача ведётся путём добавления новых серий

Внимание! Раздача ведётся путём добавления новых серий; при каждом добавлении создаётся новый торрент.
Чтобы начать докачку новой серии, пользователям необходимо сделать следующее:
1. Остановить скачивание;
2. Удалить старый торрент у себя из клиента (старые серии удалять не надо);
3. Скачать новый торрент и запустить его у себя в клиенте вместо старого, при этом указать клиенту путь в старую папку куда и должно происходить скачивание новых серий. Ваш клиент при этом должен произвести хеширование (проверку) старой папки и будет докачивать только те серии, которых у вас ещё нет. Старые серии при этом не удаляются, а продолжают раздаваться! Eсли вы уже удалили старые серии, то предотвратить повторную закачку старых серий можно, отжав галочку в соответствующих местах при запуске нового торрента.

admin

Post 04-Mar-2021 16:15

[Quote]

Название: Бывшие
Год выхода: 2020
Жанр: Драма, мелодрама
Режиссеры: Иван Китаев
В ролях: Любовь Аксёнова, Денис Шведов, Полина Гагарина, Наталья Рогожкина, Виталий Хаев, Григорий Чабан, Анатолий Журавлёв, Софья Лебедева, Александр Соколовский, Эра Зиганшина, Ростислав Бершауэр и др.
Описание сериала: Яна сделала выбор, который кардинально изменил ее жизнь. Теперь она покорная жена Кирилла Рогова, эксцентричного бизнесмена из Кемерово. Она отказалась от наркотиков, обрезала все контакты с родными и Ильей, а еще приняла свою судьбу: ведь стоит ей уйти от жестокого супруга, ее отцу снова будет грозить тюрьма. Тем временем в Москве отец Яны пытается наладить жизнь после ареста, а ее мать, распрощавшись с роскошной жизнью, ищет способы вернуть утраченное – деньги, институт и свою дочь. Илья же пытается выбраться из состояния, к которому его привело окончательное расставание с Яной, и находит новую работу благодаря необычной клиентке – писательнице с миллионами подписчиков. Получится ли у каждого из героев вернуться к нормальной жизни и избавиться наконец от своих зависимостей?
Страна: Россия
Производство: START STUDIO, Киностудия "Yellow, Black and White"
Продолжительность: ~00:45:00
Язык: Русский

Файл
Формат: MKV
Качество: WEBRip 1080р
Видео: MPEG-4 AVC, ~ 5000 Кбит/с, 1920x912
Аудио RUS: AC3, 2 ch, 192 Кбит/с

Внимание! Версия 18+. Присутствует ненормативная лексика.

Внимание! Раздача ведётся путём добавления новых серий

Внимание! Раздача ведётся путём добавления новых серий; при каждом добавлении создаётся новый торрент. Чтобы начать докачку новой серии, пользователям необходимо сделать следующее:
(1) остановить скачивание,
(2) удалить старый торрент у себя из клиента (старые серии удалять не надо),
(3) скачать новый торрент и запустить его у себя в клиенте вместо старого, при этом указать клиенту путь в старую папку куда и должно происходить скачивание новых серий.
Ваш клиент при этом должен произвести хеширование (проверку) старой папки (если не производит сам - помогите ему сделать это), и будет докачивать только те серии которых у вас ещё нет. Старые серии при этом не удаляются, а продолжают раздаваться!
Eсли вы уже удалили старые серии, то предотвратить повторную закачку старых серий можно, отжав галочку в соответсвующих местах при запуске нового торрента. По возможности, желательно не удалять старые серии как можно дольше чтобы релизёр не столько продолжал раздавать старые серии, а смог сконцентрироваться на новых.

Скриншоты

Chernyshkov84

Post 20-Jul-2020 01:54

[Quote]

Смотрел с удовольствием. Не глупый, не затянутый, озорной. Многого от него ждать не стоит - жанр не тот, но нет чувства зря потраченного времени. И за то спасибо

admin

Post 22-Dec-2019 16:58

[Quote]

Информация о фильме
Оригинальное название: ИП Пирогова
Год выпуска: 2019
Жанр: Комедия
Режиссер: Антон Маслов
В ролях: Елена Подкаминская, Александр Панкратов-Чёрный, Данила Дунаев, Ксения Теплова, Александр Константинов, Василина Юсковец, Елена Валюшкина
О фильме По сюжету, жизнь Веры размеренно катится по рельсам семейного счастья, пока измена мужа не заводит эти рельсы в тупик. Выставив неверного супруга из дома, Вера лишается не только доверия к мужчинам, но и средств к существованию. Тут самое время впасть в депрессию, но врожденная предприимчивость и талант к кондитерскому искусству внезапно открывают для Веры мир индивидуального предпринимательства. Оказалось, сладкий бизнес способен приносить хороший доход. Теперь вчерашней домохозяйке предстоит освоиться в роли бизнес-вумен, развить свой «сТОРТап» и заодно наладить личную жизнь.

Выпущено: Россия
Студия: СУПЕР продакшн
Продолжительность: 20 х ~ 00:27:00
Перевод: Не требуется
Файл
Качество: WEBRip 720p
Видео: MPEG-4 AVC, ~ 3500 Кбит/с, 1280x720
Аудио: AC3, 2 ch, 192 Кбит/с

Скриншоты

admin

Post 11-May-2019 01:49

[Quote]

Информация о фильме
Название: Подлежит уничтожению
Год выхода: 2019
Жанр: Военный, детектив, драма, шпионский фильм
Режиссер: Виталий Ващенко
В ролях: Александр Яцко, Дмитрий Шевченко, Антон Батырев, Алина Сергеева, Анна Сагайдачная, Сергей Фролов (II), Сергей Комаровский, Борис Георгиевский, Сергей Деревянко, Константин Октябрьский, Александр Ромашко
О фильме:
Июль 1941 года. Немцы рвутся к Москве. В ставке Верховного Главнокомандующего принимают решение применить новое секретное оружие — радиоуправляемые фугасы. Специальные группы саперов минируют дома, вокзалы, заводы. Немцы несут большие потери. Гитлер приказывает любым путем заполучить русскую мину и обезвредить ее. Оперативники НКВД, арестовав одного из засланных немецких агентов, узнают о планах нацистов. Поддержку диверсантам оказывает и вермахт, который начинает наступление именно на этом участке фронта. Но главное — на заводе-изготовителе действует шпион, который помогает немцам, и найти его и обезвредить нужно как можно быстрее.
Страна: Россия
Студия: ВайТ Медиа по заказу АО «Телекомпания НТВ»
Продолжительность: 4 x ~ 00:49:00
Перевод: Не требуется
Файл
Кодек: MPEG-4 AVC
Качество: WEBRip 1080p
Видео: 1920х1080 (16:9), 25 fps, AVC MPEG-4 (x264), High@L4.0 ~ 6000 kbps avg, 0.152 bit/pixel
Звук: 48 kHz, AC3, 2 ch, ~ 192 kbps avg

Скриншоты


admin

Post 11-May-2019 01:47

[Quote]

Информация о фильме
Название: Подлежит уничтожению
Год выхода: 2019
Жанр: Военный, детектив, драма, шпионский фильм
Режиссер: Виталий Ващенко
В ролях: Александр Яцко, Дмитрий Шевченко, Антон Батырев, Алина Сергеева, Анна Сагайдачная, Сергей Фролов (II), Сергей Комаровский, Борис Георгиевский, Сергей Деревянко, Константин Октябрьский, Александр Ромашко
О фильме:
Июль 1941 года. Немцы рвутся к Москве. В ставке Верховного Главнокомандующего принимают решение применить новое секретное оружие — радиоуправляемые фугасы. Специальные группы саперов минируют дома, вокзалы, заводы. Немцы несут большие потери. Гитлер приказывает любым путем заполучить русскую мину и обезвредить ее. Оперативники НКВД, арестовав одного из засланных немецких агентов, узнают о планах нацистов. Поддержку диверсантам оказывает и вермахт, который начинает наступление именно на этом участке фронта. Но главное — на заводе-изготовителе действует шпион, который помогает немцам, и найти его и обезвредить нужно как можно быстрее.
Страна: Россия
Студия: ВайТ Медиа по заказу АО «Телекомпания НТВ»
Продолжительность: 4 x ~ 00:49:00
Перевод: Не требуется
Файл
Кодек: MPEG-4 AVC
Качество: WEBRip 720p
Видео: 1280х720 (16:9), 25 fps, AVC MPEG-4 (x264), High@L4.1 ~ 4000 kbps avg, 0.152 bit/pixel
Звук: 48 kHz, AC3, 2 ch, ~ 192 kbps avg

Скриншоты



admin

Post 11-May-2019 01:43

[Quote]

Информация о фильме
Оригинальное название: Прыжок Богомола
Год выпуска: 2019
Жанр: Военный, детектив, шпионский фильм
Режиссер: Владимир Балкашинов
В ролях: Павел Чинарёв, Татьяна Лялина, Александра Никифорова, Яков Шамшин, Сергей Степанченко, Виктор Супрун, Анатолий Лобоцкий, Дмитрий Брауэр, Владимир Капустин, Иван Лапин, Сергей Сосновский, Евгений Шириков, Владимир Терещенко, Константин Новиков, Алексей Ошурков, Александр Катин (старший), Дмитрий Родонов, Илья Семёнов, Виктор Немец, Роман Синицын, Игорь Поселенов, Вячеслав Морозов, Илья Беляев, Александр Никольский, Александр Кузнецов (XVI), Игорь Трафлялин
Описание: 1942 год. Управление особых отделов НКВД начинает операцию по выявлению агентов, заброшенных на советскую территорию из разведцентра абвера. По заданию командования офицер НКВД разведчик Константин Богомолов под маской уголовника проникает в разведцентр и становится там лучшим курсантом. Постоянные проверки и провокации зачастую ставят Богомолова на грань провала. И вот, когда успех уже близок, и личные дела шпионов уже почти в руках, гитлеровцы забрасывают Богомолова, уже как своего агента, на советскую территорию. Руководство НКВД считает, что Богомолов перевербован, и арестовывает Богомолова и его командира — майора НКВД Маркелова. В последний момент Богомолов бежит. Теперь уже только он сам, в одиночку, без поддержки Большой Земли, должен выполнить задание и тем самым обелить себя и своего командира.
Выпущено: Россия, ГРИФОН, Калейдоскоп фильм
Продолжительность: 2 x ~ 01:30:00
Язык: Русский
Файл
Формат:TS
Качество: HDTV 1080i
Видео кодек: H.264
Аудио кодек: MP2
Видео: MPEG-4 AVC, ~ 7100 Кбит/с, 1920x1080
Аудио: MP2, 2 ch, 192 Кбит/с

Скриншоты

admin

Post 10-Feb-2019 16:37

[Quote]

Информация о фильме
Название: Фитнес
Год выпуска: 2018
Жанр: Комедия
Режиссер: Антон Маслов
В ролях: Софья Зайка, Михаил Трухин, Татьяна Храмова (II), Роман Курцын, Алексей Демидов, Борис Дергачев, Марианна Шульц, Ольга Баранова, Анна Лауренская, Татьяна Сомова, Мария Малиновская, Александр Семчев, Данила Якушев, Евгений Михеев, Дмитрий Чеботарёв, Елизавета Мартинес, Ирина Бякова, Андрей Пынзару
О фильме: «Быстрее, выше, сильнее»… В мире Аси такому девизу не место. Так же, как и комплексам из-за лишнего веса. Тем более, есть дела поважнее – подготовка к свадьбе в самом разгаре. Беспечный мир Аси рушится в одну секунду: девушка узнает, что любимого давно не устраивает ее фигура. А лучшие подруги не стесняются злословить о пышных формах за ее спиной. Восстанавливать веру в себя Ася отправляется в спортклуб. Вот только тренировки и программа по снижению веса оказываются не по карману начинающей спортсменке. Выход один – стать сотрудником фитнеса и заниматься бесплатно. Так у Аси появляется новая работа, знакомства и, главное, стимул доказать подругам, бывшему и всему миру, что «невозможное возможно».

Выпущено: Россия
Студия: Киностудия "Yellow, Black and White"
Продолжительность: 20 х ~ 00:26:00
Перевод: Не требуется
Файл
Качество: WEBRip 1080p
Видео: MPEG-4 AVC, ~ 6501 Кбит/с, 1920x1080
Аудио: AC3, 2 ch, 192 Кбит/с

Скриншоты

admin

Post 30-May-2018 06:07

[Quote]

Информация о фильме
Название: Девочки не сдаются
Год выхода: 2018
Жанр: Мелодрама, комедия, драма
Режиссер: Артем Насыбулин, Сергей Краснов, Мария Кравченко (II)
В ролях: Любовь Толкалина, Агния Кузнецова, Анна Якунина, Андрей Чернышов, Мария Валешная, Виктория Кобленко, Алексей Макаров, Кирилл Сафонов, Данила Дунаев, Максим Аверин, Виктор Логинов, Александр Ратников, Алексей Демидов, Ирина Темичева, Виктория Полторак, Екатерина Казакова, Александр Андриенко, Валентина Ляпина
О фильме: 5 женских судеб, 5 сложных характеров и 5 любовных драм — в новой лирической комедии героини влюбляются, изменяют, разводятся, воспитывают детей и мужчин. Экс-модель, ведущая прогноза погоды, бизнесвумен, стюардесса и студентка — они такие разные, но объединяет их одно — стремление к простому женскому счастью. Правда, неожиданные перемены превращают их размеренную жизнь в американские горки с крутыми виражами и непредсказуемым финалом.

Страна: Россия
Студия: Кинокомпания "Русское"
Продолжительность: 16 x ~ 00:48:00
Перевод: Не требуется
Файл
Кодек: AVC
Качество: WEB-DL 720p
Видео: MPEG-4 AVC, ~ 3500 Кбит/с, 1280x720
Звук: AC3, 2 ch, 192 Кбит/с

Скриншоты

admin

Post 30-May-2018 06:04

[Quote]

Информация о фильме
Оригинальное название: Девочки не сдаются
Год выпуска: 2018
Жанр: Мелодрама, комедия, драма
Режиссер: Артем Насыбулин, Сергей Краснов, Мария Кравченко (II)
В ролях: Любовь Толкалина, Агния Кузнецова, Анна Якунина, Андрей Чернышов, Мария Валешная, Виктория Кобленко, Алексей Макаров, Кирилл Сафонов, Данила Дунаев, Максим Аверин, Виктор Логинов, Александр Ратников, Алексей Демидов, Ирина Темичева, Виктория Полторак, Екатерина Казакова, Александр Андриенко, Валентина Ляпина
О фильме: 5 женских судеб, 5 сложных характеров и 5 любовных драм — в новой лирической комедии героини влюбляются, изменяют, разводятся, воспитывают детей и мужчин. Экс-модель, ведущая прогноза погоды, бизнесвумен, стюардесса и студентка — они такие разные, но объединяет их одно — стремление к простому женскому счастью. Правда, неожиданные перемены превращают их размеренную жизнь в американские горки с крутыми виражами и непредсказуемым финалом.

Выпущено: Россия
Студия: Кинокомпания "Русское"
Продолжительность: 12 x ~ 00:47:30
Перевод: Не требуется
Файл
Качество: WEB-DL 1080p
Видео: MPEG-4 AVC, ~ 5200 Кбит/с, 1920x1080
Аудио: AC3, 2 ch, 192 Кбит/с

Скриншоты

admin

Post 27-Apr-2018 00:56

[Quote]

Информация о фильме
Название: Полицейский с Рублёвки: Снова дома
Год выхода: 2018
Жанр: Комедия, криминальный фильм
Режиссер: Илья Куликов
В ролях: Александр Петров (III), Сергей Бурунов, Роман Попов, Татьяна Бабенкова, Софья Каштанова, Ростислав Гулбис, Рина Гришина, Анастасия Стежко, Ирина Вилкова, Юлия Богатикова, Александра Бортич
О фильме:
Гриша Измайлов с триумфом возвращается на Рублевку в новой должности начальника родного отдела. Его радость разделяют все вернувшиеся домой коллеги. Все, кроме одного: бывший начальник Яковлев теперь всего лишь глава оперов. И готов на все, лишь бы вернуть себе власть и сбросить гнёт ненавистного Измайлова.
Страна: Россия
Студия: Legio Felix по заказу телеканала ТНТ
Продолжительность: 7 х ~ 00:50:00
Перевод: Не требуется
Файл
Кодек: MPEG-4 AVC
Качество: HDTVRip 720p
Видео: 1280х592 (16:9), 25 fps, AVC MPEG-4 (x264), High@L4.1 ~ 4000 kbps , 0.152 bit/pixel
Звук: 48 kHz, AC3, 2 ch, ~ 192 kbps avg

Скриншоты


mihis

Post 08-Apr-2018 15:58

[Quote]

Оригинальное название: Лишний
Год выпуска: 2017
Жанр: Детектив
Режиссер: Руслан Ибрагимов
В ролях: Елена Мартыненко, Александр Макагон, Владимир Стержаков, Кирилл Балобан, Владимир Колганов, Максим Брызгалин, Элис Дарс
О фильме:
Неожиданно умирает основатель и владелец крупной фармацевтической компании Георг Тарманов. Его взрослые сыновья Борис и Виктор уже решили, как избавятся от сестры Анны в совете директоров и приберут отцовский бизнес к рукам. Однако во время оглашения завещания, оставленного Тармановым, выясняется, что ни один из детей Георга никакого отношения к наследству не имеет. Все состояние Тарманова завещано внуку Максиму - сыну Анны, утонувшему много лет назад. А вскоре журналистка Энка на железнодорожной платформе обращает внимание на молодого человека в несознательном состоянии. В полиции он утверждает, что его зовут Максим, и он является внуком олигарха Георга Тарманова...

Выпущено: Россия
Студия: Телемастер, Prior, кинокомпании "Green-Film"
Продолжительность: 4 x ~ 00:47:00
Перевод: Не требуется
Релиз от: Алехаndr
Файл
Качество: WEBRip 1080p
Видео: AVC/H.264, 1920x1080 (16:9), ~1470 Kbps
Аудио: AC3, 2 ch, 192 Kbps

M/I

General
Unique ID : 151101005143204634569628300280386396699 (0x71ACFEBB273631DF0B15EF763A39A21B)
Complete name : F:СериалыЛишний (2017).by.АлехаndrСерия 2.by.Алехаndr.mkv
Format : Matroska
Format version : Version 4 / Version 2
File size : 580 MiB
Duration : 47 min 50 s
Overall bit rate : 1 695 kb/s
Writing application : Lavf57.71.100
Writing library : Lavf57.71.100
ErrorDetectionType : Per level 1
Video
ID : 1
Format : AVC
Format/Info : Advanced Video Codec
Format profile : High@L4
Format settings : CABAC / 3 Ref Frames
Format settings, CABAC : Yes
Format settings, ReFrames : 3 frames
Codec ID : V_MPEG4/ISO/AVC
Duration : 47 min 50 s
Bit rate : 1 469 kb/s
Width : 1 920 pixels
Height : 1 080 pixels
Display aspect ratio : 16:9
Frame rate mode : Constant
Frame rate : 25.000 FPS
Color space : YUV
Chroma subsampling : 4:2:0
Bit depth : 8 bits
Scan type : Progressive
Bits/(Pixel*Frame) : 0.028
Stream size : 503 MiB (87%)
Default : Yes
Forced : No
Color range : Limited
Color primaries : BT.709
Transfer characteristics : BT.709
Matrix coefficients : BT.709
Audio
ID : 2
Format : AC-3
Format/Info : Audio Coding 3
Codec ID : A_AC3
Duration : 47 min 50 s
Bit rate mode : Constant
Bit rate : 192 kb/s
Channel(s) : 2 channels
Channel positions : Front: L R
Sampling rate : 44.1 kHz
Frame rate : 28.711 FPS (1536 SPF)
Bit depth : 16 bits
Compression mode : Lossy
Stream size : 65.7 MiB (11%)
Language : unknown
Service kind : Complete Main
Default : Yes
Forced : No

Скриншоты

admin

Post 27-Mar-2018 05:03

[Quote]

Информация о фильме
Оригинальное название: Реальные пацаны
Год выхода: 2018
Жанр: Комедия, ситком
Режиссер: Жанна Кадникова
В ролях: Николай Наумов, Зоя Бербер, Антон Богданов, Владимир Селиванов, Станислав Тляшев, Мария Скорницкая, Валентина Мазунина, Марина Федункив, Армен Бежанян, Игорь Ознобихин, Алексей Базанов, Анастасия Плоскова, Сергей Ершов, Татьяна Ронзина, Любовь Рудометова, Юлия Гришнина, Михаил Чуднов, Юрий Богомолов, Василий Бичев, Анна Шепелева
О фильме:
Пермяки становятся реальными селебами: их узнают на улицах, у них берут автографы, с ними делают селфи, приглашают на днюхи и бесконечно просят повторить легендарное «так-то». С подачи небезызвестной Олеси Геннадьевны (та самая, что сделала из Коляна депутата) коллектив «Реальных пацанов» отправляется в большой концертный тур по стране. В программе: лайфхаки от Антохи, рэп от Вована и танцы от Коляна. Суперзвезд ждут в Санкт-Петербурге, Новосибирске, Екатеринбурге, Нижнем Новгороде, Казани, Челябинске, Омске, Самаре и еще в сотнях городов, сел и деревень России. Но кого пермяки обманывают? Суперзвезды для всей России, в своем мире вечного пермского периода Колян, Вован и Антоха по-прежнему простые пацаны с городских окраин. Даже когда слава того гляди снесет им крышу, пацаны делают вид, что ничего не изменилось. Но надолго ли их хватит? В новом сезоне пацанов ждет испытание славой, а значит их дружба и отношения с близкими пройдут самую серьезную проверку.
Страна: Россия, Good Story Media по заказу ТНТ
Продолжительность: 11 х ~ 00:23:00
Перевод: Не требуется
Файл
Кодек: MPEG-4 AVC
Качество: HDTV 1080i
Видео: 1920х1080 (16:9), 25 fps, AVC MPEG-4 (x264), High@L4.0 ~ 7900 kbps avg, 0.121 bit/pixel
Звук: 48 kHz, MPEG Layer 2, 2 ch, ~ 192 kbps avg

Скриншоты


 

Current time is: 01-Aug 18:05

All times are UTC + 3