Search found 46 matches

Author Message

admin

Post 30-Apr-2022 01:45

[Quote]

Начальник разведки
Год выпуска: 2022
Страна: Россия, Кинокомпания «Точка»
Жанр: драма, история, биография, детектив-Перевод: Не требуется
Продолжительность: ~ 00:47:32-Режиссер: Кирилл Белевич
В ролях: Сергей Марин, Игорь Петренко, Иван Добронравов, Екатерина Вилкова, Артём Ткаченко, Егор Бероев, Екатерина Волкова (I), Иван Стебунов, Николай Иванов (II), Виталий Крылов, Леван Мсхиладзе, Дирк Мартенс, Юлиан Мау, Джошуа Гроте, Кристиан Мок, Марцин Стец, Виталий Кищенко, Анатолий Кот, Лев Прыгунов, Сергей Угрюмов, Дмитрий Куличков, Карэн Бадалов, Юрий Нифонтов, Вера Строкова, Алексей Родионов (IV), Дарья Жовнер, Дмитрий Готсдинер, Александр Назаров (II), Вячеслав Разбегаев, Дарья Иванова, Мария Смольникова, Серафима Герцева, Настасья Кербенген, Максим Битюков, Любовь Ярлыкова, Юрий Дейнекин, Дмитрий Овчинников, Джан Бадмаев, Игорь Хрипунов, Михаил Мартьянов, Анастасия Обжигина-Описание:
История становления советской разведки, рассказанная через судьбу её самого молодого руководителя — 31-летнего Павла Фитина, человека, который в кратчайшие сроки вопреки всему и вся возродил её из пепла репрессий и сделал одной из сильнейших спецслужб мира. Вклад Фитина в развитие возглавляемого ведомства сложно переоценить. Благодаря своим организаторским способностям и профессиональной интуиции он наладил необходимые механизмы для того, чтобы добывать для руководства страны самую ценную информацию.-Рейтинг:
-Качество: HDTV 1080p
Формат: MKV
Видео: MPEG-4 AVC, 1920x1080 (16:9), 25.000 fps, 6 893 kb/s (0.133 bit/pixel)
Аудио: AC3 / 2.0 / 48 kHz / 192 kbps /-

ОтчетМедиаИнфо

General
Unique ID : 207411850466405711856091795220078406173 (0x9C0A11C1CCC674A0BC4F061DB69A2A1D)
Complete name : D:Nachalnik razvedki S01 2022 HDTV 1080p.R.G.GeneralfilmNachalnik razvedki.s01.e01.2022.HDTV 1080p.by.White Smoke.R.G.Generalfilm.mkv
Format : Matroska
Format version : Version 4
File size : 2.40 GiB
Duration : 47 min 32 s
Overall bit rate mode : Variable
Overall bit rate : 7 229 kb/s
Movie name : Nachalnik razvedki.s01.e01.2022.HDTV 1080p.by.White Smoke.R.G.Generalfilm.mkv
Encoded date : UTC 2022-04-18 17:36:27
Writing application : mkvmerge v6.8.0 ('Theme for Great Cities') 64bit built on Mar 2 2014 21:34:26
Writing library : libebml v1.3.0 + libmatroska v1.4.1
Cover : Yes
Attachments : cover.jpg
Video
ID : 1
Format : AVC
Format/Info : Advanced Video Codec
Format profile : High@L4.1
Format settings : CABAC / 3 Ref Frames
Format settings, CABAC : Yes
Format settings, Reference frames : 3 frames
Codec ID : V_MPEG4/ISO/AVC
Duration : 47 min 32 s
Bit rate mode : Variable
Bit rate : 6 893 kb/s
Maximum bit rate : 7 051 kb/s
Width : 1 920 pixels
Height : 1 080 pixels
Display aspect ratio : 16:9
Frame rate mode : Constant
Frame rate : 25.000 FPS
Standard : PAL
Color space : YUV
Chroma subsampling : 4:2:0
Bit depth : 8 bits
Scan type : Progressive
Bits/(Pixel*Frame) : 0.133
Stream size : 2.29 GiB (95%)
Default : No
Forced : No
Color range : Limited
Color primaries : BT.709
Transfer characteristics : BT.709
Matrix coefficients : BT.709
Audio
ID : 2
Format : AC-3
Format/Info : Audio Coding 3
Commercial name : Dolby Digital
Codec ID : A_AC3
Duration : 47 min 32 s
Bit rate mode : Constant
Bit rate : 192 kb/s
Channel(s) : 2 channels
Channel layout : L R
Sampling rate : 48.0 kHz
Frame rate : 31.250 FPS (1536 SPF)
Compression mode : Lossy
Delay relative to video : -200 ms
Stream size : 65.3 MiB (3%)
Service kind : Complete Main
Default : Yes
Forced : No

Скриншоты

admin

Post 29-Apr-2022 01:47

[Quote]

Оригинальное название: Эпидемия
Год выпуска: 2022
Жанр: Драма, фантастика, триллер, экранизация
Выпущено: Россия, 1-2-3 Production
Режиссер: Дмитрий Тюрин
В ролях: Кирилл Кяро, Александр Робак, Марьяна Спивак, Наталья Земцова, Эльдар Калимулин, Виктория Агалакова, Юра Борисов, Савелий Кудряшов, Никита Еленев, Виктория Клинкова, Юлия Ендроссек, Аскар Ильясов, Юрий Касмынин, Эрик Абрамович, Надежда Игошина, Виктория Исакова, Юрий Кузнецов, Олег Евтеев, Иван Ивашов, Виктория Дроздова, Владимир Сарапульцев
Автор релиза: 25Kuzmich
Без рекламы
Версия 18+
О сериале: Во 2 сезоне, едва оправившись от смерти Ани, герои с трудом переживают зиму в карельских лесах. Однако обстоятельства вынуждают их покинуть убежище. На пути они встречают группу молодых людей под предводительством бывшего чистильщика Жени, и все вместе отправляются в лагерь беженцев в Европе. Но это направление тоже оказывается закрытым, и герои меняют курс на Соловецкий монастырь, преодолевая новые испытания и встречая выживших. Удастся ли им найти место, куда не добралась эпидемия?

Файл
Качество: WEBRip 1080p
Видео: MPEG-4 AVC, ~ 4500 Кбит/с, 1949x816
Продолжительность: 3 х ~ 00:55:0
Язык: Русский

Скриншоты

admin

Post 27-Apr-2022 01:46

[Quote]

Информация о фильме
Название: Чернобыль
Год выхода: 2022
Жанр: История, драма, детектив
Режиссер: Алексей Мурадов
В ролях: Игорь Петренко, Надежда Михалкова, Дмитрий Ульянов, Мария Андреева, Александр Ильин (мл.), Владимир Юматов, Дмитрий Муляр, Александр Феклистов, Елена Яковлева, Юрий Цурило, Борис Каморзин, Елена Лотова, Владимир Матвеев, Виталия Корниенко, Андрей Пынзару, Сергей Петров, Руслан Банковский, Жан-Марк Биркхольц, Антон Ансимов, Ян Горбачевский, Николай Капустин, Никита Клютко, Станислав Савостин, Кирилл Новицкий, Денис Барановский, Анастасия Знаменщикова, Алеся Клочко, Сергей Гурьев, Юрий Шмак, Виталий Лойко, Юрий Нифонтов, Олег Вебер, Василий Мичков, Жорж Девдариани
О фильме:
Действие разворачивается с апреля по декабрь 1986 года. Украинскому отделу КГБ СССР становится известно об интересе, проявляемом иностранными спецслужбами к Чернобыльской атомной электростанции. Для установления местонахождения на территории Припяти опытного сотрудника ЦРУ Альберта Ленца, которого подозревают в шпионаже, в город прибывает подполковник военной контрразведки Андрей Николаев.

Страна: Россия
Студия: Амальгама студия
Продолжительность: 4 х ~ 00:51:00
Язык: Русский
Премьера: 30 марта 2022 года
Примечание: Без рекламы
Файл
Формат: MKV
Качество: WEB-DL 1080p
Видео: MPEG-4 AVC, ~ 4000 Кбит/с, 1920x1080
Звук: AC3, 2 ch, 192 Кбит/с
Субтитры: Отсутствуют
Семпл

Скриншоты

MI

Общее
Уникальный идентификатор : 321484678368303590795966735167105227001 (0xF1DBB26646E273277B9DF79FAA7B58F9)
Полное имя : D:Chernobyl.S01.2022.WEB-DL.1080pChernobyl.S01.E01.2022.WEB-DL.1080p.mkv
Формат : Matroska
Версия формата : Version 4
Размер файла : 1,49 Гбайт
Продолжительность : 51 м. 6 с.
Общий поток : 4 164 Кбит/сек
Название фильма : Chernobyl.S01.E01.2022.WEB-DL.1080p
Дата кодирования : UTC 2022-03-30 17:24:42
Программа кодирования : mkvmerge v66.0.0 ('Josie') 64-bit
Библиотека кодирования : libebml v1.4.2 + libmatroska v1.6.4
Attachments : poster.jpg
Видео
Идентификатор : 1
Формат : AVC
Формат/Информация : Advanced Video Codec
Профиль формата : High@L4
Настройки формата : CABAC / 3 Ref Frames
Параметр CABAC формата : Да
Параметр RefFrames формата : 3 кадра
Идентификатор кодека : V_MPEG4/ISO/AVC
Продолжительность : 51 м. 6 с.
Битрейт : 3 970 Кбит/сек
Ширина : 1 920 пикселей
Высота : 1 080 пикселей
Соотношение сторон : 16:9
Режим частоты кадров : Постоянный
Частота кадров : 25,000 кадров/сек
Цветовое пространство : YUV
Субдискретизация насыщенности : 4:2:0
Битовая глубина : 8 бит
Тип развёртки : Прогрессивная
Бит/(Пиксели*Кадры) : 0.077
Размер потока : 1,42 Гбайт (95%)
Default : Да
Forced : Нет
Аудио
Идентификатор : 2
Формат : AC-3
Формат/Информация : Audio Coding 3
Коммерческое название : Dolby Digital
Идентификатор кодека : A_AC3
Продолжительность : 51 м. 6 с.
Вид битрейта : Постоянный
Битрейт : 192 Кбит/сек
Каналы : 2 канала
Channel layout : L R
Частота : 48,0 КГц
Частота кадров : 31,250 кадров/сек (1536 SPF)
Метод сжатия : С потерями
Размер потока : 70,2 Мбайт (5%)
Service kind : Complete Main
Default : Да
Forced : Нет

admin

Post 10-Apr-2022 05:14

[Quote]

Информация о фильме
Название: Исправление и наказание
Год выхода: 2022
Жанр: Драма, комедия
Режиссер: Анна Пармас
В ролях: Анна Михалкова, Тимофей Трибунцев, Наталья Бардо, Татьяна Лютаева, Владислав Прохоров, Александра Макарская, Борис Каморзин, Галина Данилова, Ольга Виниченко, Андрей Пынзару, Игорь Грабузов, Аграфена Петровская, Артур Ваха, Александр Добровинский, Владимир Терещенко, Бесо Гатаев, Баин Бовальдинов, Сергей Фролов, Олег Кассин, Сергей Аброскин, Ольга Альбанова, Алексей Шило, Ирина Чипиженко, Аслан Бижоев, Алексей Шемес, Михаил Трухин, Наталья Кучеренко, Станислав Назиров, Ямур Гильмутдинов, Лара Шум, Андрей Железный, Михаил Коновалов, Елена Соловьева (II), Антон Никушин, Григорий Дудник, Владислав Кудряев, Наталия Полякова, Каринэ Асланян, Игорь Гордеев, Лилия Шайхитдинова, Ильшат Латыпов, Илья Лунеев, Валентина Рославцева, Галина Иванова (VII), Алексей Воронков, Виталий Слинько, Константин Богданов
О фильме:
Согласно сюжету, после похорон главы семейства семья олигарха хотела начать делить наследство. Однако все деньги оказались за рубежом на запароленных счетах. Родственники умершего богача подумали, что большую часть наследства он мог оставить внебрачной дочери, которая живет в глубинке. Оказалось, что она работает заместителем начальника колонии. В попытках «выбить» наследство, они поджигают дом своей родственницы. Но в итоге они получили тюремный срок в колонии, где и работает внебрачная дочь их отца.

Страна: Россия
Студия: Производство ООО «Гуд Стори Медиа»
Продолжительность: 17 х ~ 00:30:00
Язык: Русский
Премьера: 14 марта 2022 года
Примечание: Без рекламы
Файл
Формат: MKV
Качество: WEBRip 1080p
Видео: MPEG-4 AVC, ~ 6480 Кбит/с, 1920x1080
Звук: AC3, 2 ch, 256 Кбит/с
Субтитры: Отсутствуют
Семпл

Скриншоты

MI

Общее
Уникальный идентификатор : 295040723358353832466980630318268300089 (0xDDF6C6C1B04380F16C6F96989D643B39)
Полное имя : D:Ispravlenie.i.nakazanie.S01.2022.WEBRip.1080pIspravlenie.i.nakazanie.S01.E01.2022.WEBRip.1080p.mkv
Формат : Matroska
Версия формата : Version 4
Размер файла : 1,14 Гбайт
Продолжительность : 24 м. 55 с.
Общий поток : 6 558 Кбит/сек
Название фильма : Ispravlenie.i.nakazanie.S01.E01.2022.WEBRip.1080p
Дата кодирования : UTC 2022-03-14 19:36:35
Программа кодирования : mkvmerge v66.0.0 ('Josie') 64-bit
Библиотека кодирования : libebml v1.4.2 + libmatroska v1.6.4
Attachments : poster.jpg
Видео
Идентификатор : 1
Формат : AVC
Формат/Информация : Advanced Video Codec
Профиль формата : High@L4
Настройки формата : CABAC / 4 Ref Frames
Параметр CABAC формата : Да
Параметр RefFrames формата : 4 кадра
Идентификатор кодека : V_MPEG4/ISO/AVC
Продолжительность : 24 м. 55 с.
Битрейт : 6 480 Кбит/сек
Ширина : 1 920 пикселей
Высота : 1 080 пикселей
Соотношение сторон : 16:9
Режим частоты кадров : Постоянный
Частота кадров : 25,000 кадров/сек
Цветовое пространство : YUV
Субдискретизация насыщенности : 4:2:0
Битовая глубина : 8 бит
Тип развёртки : Прогрессивная
Бит/(Пиксели*Кадры) : 0.125
Размер потока : 1,10 Гбайт (96%)
Библиотека кодирования : x264 core 161
Настройки программы : cabac=1 / ref=2 / deblock=1:0:0 / analyse=0x3:0x113 / me=hex / subme=6 / psy=1 / psy_rd=1.00:0.00 / mixed_ref=1 / me_range=16 / chroma_me=1 / trellis=1 / 8x8dct=1 / cqm=0 / deadzone=21,11 / fast_pskip=1 / chroma_qp_offset=-2 / threads=12 / lookahead_threads=2 / sliced_threads=0 / nr=0 / decimate=1 / interlaced=0 / bluray_compat=0 / constrained_intra=0 / bframes=3 / b_pyramid=2 / b_adapt=1 / b_bias=0 / direct=1 / weightb=1 / open_gop=0 / weightp=1 / keyint=250 / keyint_min=25 / scenecut=40 / intra_refresh=0 / rc_lookahead=30 / rc=abr / mbtree=1 / bitrate=6480 / ratetol=1.0 / qcomp=0.60 / qpmin=0 / qpmax=69 / qpstep=4 / vbv_maxrate=7776 / vbv_bufsize=15552 / nal_hrd=none / filler=0 / ip_ratio=1.40 / aq=1:1.00
Default : Да
Forced : Нет
Цветовой диапазон : Limited
Основные цвета : BT.709
Характеристики трансфера : BT.709
Коэффициенты матрицы : BT.709
Аудио
Идентификатор : 2
Формат : AC-3
Формат/Информация : Audio Coding 3
Коммерческое название : Dolby Digital
Идентификатор кодека : A_AC3
Продолжительность : 24 м. 55 с.
Вид битрейта : Постоянный
Битрейт : 256 Кбит/сек
Каналы : 2 канала
Channel layout : L R
Частота : 48,0 КГц
Частота кадров : 31,250 кадров/сек (1536 SPF)
Метод сжатия : С потерями
Задержка видео : -80 мс.
Размер потока : 45,6 Мбайт (4%)
Service kind : Complete Main
Default : Да
Forced : Нет

admin

Post 10-Apr-2022 05:08

[Quote]

Информация о фильме
Название: Аптекарь
Год выхода: 2009
Жанр: мистика, драма, экранизация
Режиссер: Александр Баршак
В ролях: Сергей Пускепалис, Светлана Ходченкова, Тимофей Трибунцев, Даниил Спиваковский, Михаил Ефремов, Сергей Никоненко, Владимир Сычёв, Денис Бродский, Евгений Воскресенский, Владимир Епископосян, Юлия Рутберг, Павел Баршак, Владимир Долинский, Юлия Куварзина, Галина Шевякова, Александр Леньков, Сергей Рубеко, Расми Джабраилов, Сергей Шолох, Владимир Давиденко, Алексей Якубов, Наталья Тетенова, Наталья Унгард, Антон Хабаров, Юрий Тузов, Любовь Кондрашова, Пётр Меркурьев, Дарья Сивова, Иван Агапов
О фильме: Сценарий фильма написан по культовому одноименному роману Владимира Орлова «Аптекарь». Это мистическая история, случившаяся в жизни обычных советских людей в середине 80-х годов, которая помогла расставить акценты в сознании героев фильма о добре и зле. Пятеро приятелей, знакомцев по пивному автомату, разных профессий, возрастов и судеб, скинулись на бутылку. А из бутылки явилась фея, объявившая себя Берегиней и рабой хозяев бутылки, обязанной исполнять все их желания. Но как оказалось, не было великих устремлений у советских людей, всё их устраивало. Однако привычное течение жизни, против их воли, нарушилось – с героями (пайщиками бутылки) стали происходить неожиданные и неприятные изменения. Не имея возможности избавиться от вмешательства Берегини в их жизнь, пайщики продали свои паи местному «предпринимателю» - торговцу щенками. Все, кроме главного героя – Аптекаря. Он единственный, кто имел настоящее, истинное желание - желание любить…

Страна: Россия
Студия: ООО "Киностудия Аргус и Ко.Интернейшнл"
Продолжительность: 8 x ~ 00:45:00
Файл
Кодек: H.264
Качество: WEBRip 720p
Видео: MPEG-4 (AVC), 1280x720, 25 fps, ~ 1000 kbps, ~ 0.04 bit/pixel
Звук: AC3, 44.1 kHz, 2 ch, 192 Kbps
Семпл

Скриншоты

admin

Post 01-Apr-2022 04:38

[Quote]

Информация о фильме
Название: Идентификация
Год выхода: 2022
Жанр: Драма, детектив, триллер, криминал
Режиссер: Владлена Санду
В ролях: Лена Тронина, Куралбек Чокоев, Анвар Осмоналиев, Полина Кутепова, Роман Васильев, Никита Кукушкин, Олег Васильков, Ваган Сароян, Ульяна Куликова, Екатерина Дегтярёва, Сергей Кузнецов, Анастасия Белоусова, Игорь Поселенов, Иван Ефремов, Александр Коротков, Максим Дромашко, Меерим Атантаева, Сайра Эсенбаева, Эрнест Абдыжапаров, Дмитрий Архангельский, Таисия Радченко, Юлия Рутберг, Валерий Афанасьев, Евгения Симонова, Велимир Русаков, Евгений Харитонов, Сергей Фатьянов, Александр Обласов, Георгий Тополага, Елена Плаксина, Сергей Горобченко
О фильме:
Сирота Валерия работает продавщицей на вещевом рынке в Москве. Влюбившись в Амана, она принимает ислам и становится частью диаспоры. На свадьбе Бакир, брат Амана, пытается изнасиловать девушку, но ей удаётся сбежать. Вскоре обнаруживают изуродованный труп Бакира, всё подозрение падает на Валерию. В ее невиновность верят лишь молодой адвокат Даниил Крамер и уставший от жизни следователь Григорий Плахов.

Страна: Россия
Студия: Производство ООО «1-2-3 Продакшн» по заказу АО «ТНТ-Телесеть»
Продолжительность: 9 x ~ 00:52:00
Язык: Русский
Премьера: 17 февраля 2022 года (Premier)
Примечание: Без рекламы
Версия 18+
Файл
Формат: MKV
Качество: WEBRip 1080p
Видео: MPEG-4 AVC, ~ 4500 Кбит/с, 1920x816
Звук: AC3, 2 ch, 192 Кбит/с
Субтитры: Отсутствуют
Семпл

Скриншоты

MI

Общее
Уникальный идентификатор : 176507150869748110664818073080363919836 (0x84CA0A6D026BE9E8D94F12432386A9DC)
Полное имя : D:Identifikaciya.S01.2022.WEBRip.1080pIdentifikaciya.S01.E01.2022.WEBRip.1080p.mkv
Формат : Matroska
Версия формата : Version 4
Размер файла : 1,89 Гбайт
Продолжительность : 58 м. 9 с.
Режим общего битрейта : Переменный
Общий поток : 4 647 Кбит/сек
Название фильма : Identifikaciya.S01.E01.2022.WEBRip.1080p
Дата кодирования : UTC 2022-02-16 21:04:38
Программа кодирования : mkvmerge v65.0.0 ('Too Much') 64-bit
Библиотека кодирования : libebml v1.4.2 + libmatroska v1.6.4
Attachments : poster.jpg
Видео
Идентификатор : 1
Формат : AVC
Формат/Информация : Advanced Video Codec
Профиль формата : High@L4.1
Настройки формата : CABAC / 2 Ref Frames
Параметр CABAC формата : Да
Параметр RefFrames формата : 2 кадра
Идентификатор кодека : V_MPEG4/ISO/AVC
Продолжительность : 58 м. 8 с.
Вид битрейта : Переменный
Битрейт : 4 452 Кбит/сек
Максимальный битрейт : 4 500 Кбит/сек
Ширина : 1 920 пикселей
Высота : 816 пикселей
Соотношение сторон : 2,40:1
Режим частоты кадров : Постоянный
Частота кадров : 25,000 кадров/сек
Цветовое пространство : YUV
Субдискретизация насыщенности : 4:2:0
Битовая глубина : 8 бит
Тип развёртки : Прогрессивная
Бит/(Пиксели*Кадры) : 0.114
Размер потока : 1,81 Гбайт (96%)
Default : Да
Forced : Нет
Цветовой диапазон : Limited
Основные цвета : BT.709
Характеристики трансфера : BT.709
Коэффициенты матрицы : BT.709
Аудио
Идентификатор : 2
Формат : AC-3
Формат/Информация : Audio Coding 3
Коммерческое название : Dolby Digital
Идентификатор кодека : A_AC3
Продолжительность : 58 м. 9 с.
Вид битрейта : Постоянный
Битрейт : 192 Кбит/сек
Каналы : 2 канала
Channel layout : L R
Частота : 48,0 КГц
Частота кадров : 31,250 кадров/сек (1536 SPF)
Метод сжатия : С потерями
Задержка видео : -120 мс.
Размер потока : 79,9 Мбайт (4%)
Service kind : Complete Main
Default : Да
Forced : Нет

admin

Post 01-Apr-2022 04:37

[Quote]

Информация о фильме
Название: Идентификация
Год выхода: 2022
Жанр: Драма, детектив, триллер, криминал
Режиссер: Владлена Санду
В ролях: Лена Тронина, Куралбек Чокоев, Анвар Осмоналиев, Полина Кутепова, Роман Васильев, Никита Кукушкин, Олег Васильков, Ваган Сароян, Ульяна Куликова, Екатерина Дегтярёва, Сергей Кузнецов, Анастасия Белоусова, Игорь Поселенов, Иван Ефремов, Александр Коротков, Максим Дромашко, Меерим Атантаева, Сайра Эсенбаева, Эрнест Абдыжапаров, Дмитрий Архангельский, Таисия Радченко, Юлия Рутберг, Валерий Афанасьев, Евгения Симонова, Велимир Русаков, Евгений Харитонов, Сергей Фатьянов, Александр Обласов, Георгий Тополага, Елена Плаксина, Сергей Горобченко
О фильме:
Сирота Валерия работает продавщицей на вещевом рынке в Москве. Влюбившись в Амана, она принимает ислам и становится частью диаспоры. На свадьбе Бакир, брат Амана, пытается изнасиловать девушку, но ей удаётся сбежать. Вскоре обнаруживают изуродованный труп Бакира, всё подозрение падает на Валерию. В ее невиновность верят лишь молодой адвокат Даниил Крамер и уставший от жизни следователь Григорий Плахов.

Страна: Россия
Студия: Производство ООО «1-2-3 Продакшн» по заказу АО «ТНТ-Телесеть»
Продолжительность: 9 x ~ 00:52:00
Язык: Русский
Премьера: 17 февраля 2022 года (Premier)
Примечание: Без рекламы
Версия 18+
Файл
Формат: MKV
Качество: WEBRip 720p
Видео: MPEG-4 AVC, ~ 3000 Кбит/с, 1280x544
Звук: AC3, 2 ch, 192 Кбит/с
Субтитры: Отсутствуют
Семпл

Скриншоты

MI

Общее
Уникальный идентификатор : 238294931324507725655631992207082937157 (0xB345EF33BF67F6814EEDB18F5AFA5B45)
Полное имя : D:Identifikaciya.S01.2022.WEBRip.720pIdentifikaciya.S01.E01.2022.WEBRip.720p.mkv
Формат : Matroska
Версия формата : Version 4
Размер файла : 1,28 Гбайт
Продолжительность : 58 м. 9 с.
Режим общего битрейта : Переменный
Общий поток : 3 160 Кбит/сек
Название фильма : Identifikaciya.S01.E01.2022.WEBRip.720p
Дата кодирования : UTC 2022-02-16 21:10:38
Программа кодирования : mkvmerge v65.0.0 ('Too Much') 64-bit
Библиотека кодирования : libebml v1.4.2 + libmatroska v1.6.4
Attachments : poster.jpg
Видео
Идентификатор : 1
Формат : AVC
Формат/Информация : Advanced Video Codec
Профиль формата : High@L4.1
Настройки формата : CABAC / 2 Ref Frames
Параметр CABAC формата : Да
Параметр RefFrames формата : 2 кадра
Идентификатор кодека : V_MPEG4/ISO/AVC
Продолжительность : 58 м. 8 с.
Вид битрейта : Переменный
Битрейт : 2 966 Кбит/сек
Максимальный битрейт : 3 000 Кбит/сек
Ширина : 1 280 пикселей
Высота : 544 пикселя
Соотношение сторон : 2,40:1
Режим частоты кадров : Постоянный
Частота кадров : 25,000 кадров/сек
Цветовое пространство : YUV
Субдискретизация насыщенности : 4:2:0
Битовая глубина : 8 бит
Тип развёртки : Прогрессивная
Бит/(Пиксели*Кадры) : 0.170
Размер потока : 1,20 Гбайт (94%)
Default : Да
Forced : Нет
Цветовой диапазон : Limited
Основные цвета : BT.709
Характеристики трансфера : BT.709
Коэффициенты матрицы : BT.709
Аудио
Идентификатор : 2
Формат : AC-3
Формат/Информация : Audio Coding 3
Коммерческое название : Dolby Digital
Идентификатор кодека : A_AC3
Продолжительность : 58 м. 9 с.
Вид битрейта : Постоянный
Битрейт : 192 Кбит/сек
Каналы : 2 канала
Channel layout : L R
Частота : 48,0 КГц
Частота кадров : 31,250 кадров/сек (1536 SPF)
Метод сжатия : С потерями
Задержка видео : -120 мс.
Размер потока : 79,9 Мбайт (6%)
Service kind : Complete Main
Default : Да
Forced : Нет

admin

Post 01-Apr-2022 04:33

[Quote]

Информация о фильме
Название: Модный синдикат
Год выхода: 2022
Жанр: Комедия, криминал
Режиссер: Александр Карпиловский
В ролях: Ян Цапник, Мария Горбань, Антон Жижин, Ангелина Стречина, Кирилл Полухин, Дмитрий Колчин, Яна Кошкина, Александр Пташенчук, Вера Строкова, Евгения Капралова, Сергей Фролов, Наталья Потапова
О фильме:
Модельер Ланской, в поисках былой славы и денег на новую коллекцию находит спонсора в лице жены криминального авторитета Гали. Самоуверенная девушка приезжает в Москву с «верным псом» Мишей, чтобы прикрыть махинации мужа брендом Ланского. Мечтающий о показах в Париже модельер вынужден работать с неприлично богатой сахалинской девушкой, лишённой вкуса. Правда, со временем Ланской увидит в грубоватой Гале долгожданную музу.

Страна: Россия
Студия: Производство ООО «Keystone Production», АО «СТС»
Продолжительность: 17 х ~ 00:24:00
Язык: Русский
Премьера: 14 марта 2022 года
Примечание: Без рекламы
Файл
Формат: MKV
Качество: WEB-DL 1080p
Видео: MPEG-4 AVC, ~ 3500 Кбит/с, 1920x1080
Звук: AC3, 2 ch, 192 Кбит/с
Субтитры: Отсутствуют
Семпл

Скриншоты

MI

Общее
Уникальный идентификатор : 69921207356684869150132760890511373778 (0x349A55AEDF65DAE6BF2A3D94ECB6B5D2)
Полное имя : D:Modnyj.sindikat.S01.2022.WEB-DL.1080pModnyj.sindikat.S01.E01.2022.WEB-DL.1080p.mkv
Формат : Matroska
Версия формата : Version 4
Размер файла : 674 Мбайт
Продолжительность : 25 м. 39 с.
Общий поток : 3 672 Кбит/сек
Название фильма : Modnyj.sindikat.S01.E01.2022.WEB-DL.1080p
Дата кодирования : UTC 2022-03-14 16:28:43
Программа кодирования : mkvmerge v66.0.0 ('Josie') 64-bit
Библиотека кодирования : libebml v1.4.2 + libmatroska v1.6.4
Attachments : poster.jpg
Видео
Идентификатор : 1
Формат : AVC
Формат/Информация : Advanced Video Codec
Профиль формата : High@L5
Настройки формата : CABAC / 5 Ref Frames
Параметр CABAC формата : Да
Параметр RefFrames формата : 5 кадров
Параметр GOP формата : M=4, N=50
Идентификатор кодека : V_MPEG4/ISO/AVC
Продолжительность : 25 м. 39 с.
Битрейт : 3 477 Кбит/сек
Ширина : 1 920 пикселей
Высота : 1 080 пикселей
Соотношение сторон : 16:9
Режим частоты кадров : Постоянный
Частота кадров : 25,000 кадров/сек
Стандарт вещания : PAL
Цветовое пространство : YUV
Субдискретизация насыщенности : 4:2:0
Битовая глубина : 8 бит
Тип развёртки : Прогрессивная
Бит/(Пиксели*Кадры) : 0.067
Размер потока : 638 Мбайт (95%)
Default : Да
Forced : Нет
Цветовой диапазон : Limited
Основные цвета : BT.709
Характеристики трансфера : BT.709
Коэффициенты матрицы : BT.709
Аудио
Идентификатор : 2
Формат : AC-3
Формат/Информация : Audio Coding 3
Коммерческое название : Dolby Digital
Идентификатор кодека : A_AC3
Продолжительность : 25 м. 39 с.
Вид битрейта : Постоянный
Битрейт : 192 Кбит/сек
Каналы : 2 канала
Channel layout : L R
Частота : 48,0 КГц
Частота кадров : 31,250 кадров/сек (1536 SPF)
Метод сжатия : С потерями
Размер потока : 35,2 Мбайт (5%)
Service kind : Complete Main
Default : Да
Forced : Нет

admin

Post 31-Mar-2022 04:05

[Quote]

Информация о фильме
Название: Технарь
Год выхода: 2019
Жанр: Детектив, триллер
Режиссер: Душан Глигоров
В ролях: Владимир Жеребцов, Екатерина Олькина, Виктор Добронравов, Фёдор Лавров, Кирилл Полухин, Анна Лутцева, Владимир Селезнёв (II), Анна Бачалова, Олег Тактаров, Борис Хвошнянский, Сергей Галахов, Александр Тараньжин, Линда Лапиньш, Аделина Коблова, Иван Латушко, Вячеслав Евлантьев, Инна Коляда, Александр Винников, Анастасия Евграфова, Владимир Верёвочкин, Шухрат Курбанов, Илья Гавриленков, Тимур Бурин, Константин Тополага, Татьяна Яковенко, Александр Сибирцев (II), Кирилл Васильев, Руслан Сабиров, Александр Никольский (II), Владимир Чуприков, Олег Евтеев, Евгений Казанцев, Георгий Стрелянный, Наталья Кондратьева (II), Даниил Коновалов (II), Нина Антюхова, Никита Чернецкий, Филипп Матвеев-Витовский, Святослав Наставшевский
О фильме:
Игорю Одинцову, талантливому программисту, можно только позавидовать: у него счастливая семья и надежные друзья, красивый загородный дом, престижная работа и большие перспективы. Но однажды идеальный мир Одинцова рассыпается на части. Неожиданно его жену Ирину и их годовалого ребенка похищают неизвестные: злоумышленники пробираются в его дом, обойдя все системы безопасности. Одинцов становится пешкой в их руках и вынужден использовать свои знания об электронных охранных системах в интересах преступников, чтобы сохранить жизнь семьи и вернуть свою идеальную жизнь обратно. Но анализируя свое прошлое, разлученные Игорь и Ирина понимают, что их образцовая жизнь была только иллюзией.

Страна: Россия
Студия: ООО «Щука Фильм»
Продолжительность: 8 х ~ 00:50:00
Язык: Русский
Премьера: 16 февраля 2022 года (KION)
Примечание: Без рекламы
Файл
Формат: MKV
Качество: WEBRip 1080p
Видео: MPEG-4 AVC, ~ 6144 Кбит/с, 1920x1080
Звук: AC3, 2 ch, 192 Кбит/с
Субтитры: Отсутствуют
Семпл

Скриншоты

MI

Общее
Уникальный идентификатор : 165488315683676000767174416925735024030 (0x7C7FE3E83837EE60D83E212075DC759E)
Полное имя : D:Tekhnar.S01.2019.WEBRip.1080pTekhnar.S01.E01.2019.WEBRip.1080p.mkv
Формат : Matroska
Версия формата : Version 4
Размер файла : 2,30 Гбайт
Продолжительность : 52 м. 14 с.
Режим общего битрейта : Постоянный
Общий поток : 6 314 Кбит/сек
Название фильма : Tekhnar.S01.E01.2019.WEBRip.1080p
Дата кодирования : UTC 2022-02-16 02:16:42
Программа кодирования : mkvmerge v65.0.0 ('Too Much') 64-bit
Библиотека кодирования : libebml v1.4.2 + libmatroska v1.6.4
Attachments : poster.jpg
Видео
Идентификатор : 1
Формат : AVC
Формат/Информация : Advanced Video Codec
Профиль формата : Baseline@L4
Настройки формата : 2 Ref Frames
Параметр CABAC формата : Нет
Параметр RefFrames формата : 2 кадра
Параметр GOP формата : M=1, N=25
Идентификатор кодека : V_MPEG4/ISO/AVC
Продолжительность : 52 м. 14 с.
Вид битрейта : Постоянный
Битрейт : 6 144 Кбит/сек
Ширина : 1 920 пикселей
Высота : 1 080 пикселей
Соотношение сторон : 16:9
Режим частоты кадров : Постоянный
Частота кадров : 25,000 кадров/сек
Цветовое пространство : YUV
Субдискретизация насыщенности : 4:2:0
Битовая глубина : 8 бит
Тип развёртки : Прогрессивная
Бит/(Пиксели*Кадры) : 0.119
Размер потока : 2,23 Гбайт (97%)
Default : Да
Forced : Нет
Аудио
Идентификатор : 2
Формат : AC-3
Формат/Информация : Audio Coding 3
Коммерческое название : Dolby Digital
Идентификатор кодека : A_AC3
Продолжительность : 52 м. 14 с.
Вид битрейта : Постоянный
Битрейт : 192 Кбит/сек
Каналы : 2 канала
Channel layout : L R
Частота : 48,0 КГц
Частота кадров : 31,250 кадров/сек (1536 SPF)
Метод сжатия : С потерями
Размер потока : 71,7 Мбайт (3%)
Service kind : Complete Main
Default : Да
Forced : Нет

admin

Post 31-Mar-2022 03:57

[Quote]

Информация о фильме
Название: И снова здравствуйте!
Год выхода: 2022
Жанр: Комедия, криминал
Режиссер: Егор Чичканов
В ролях: Андрей Мерзликин, Денис Власенко, Алексей Серебряков, Павел Чинарёв, Аглая Тарасова, Кирилл Жандаров, Любовь Толкалина, Михаил Полицеймако, Дмитрий Журавлёв, Сергей Годин, Богдан Жилин, Николай Кисличенко, Виктор Логинов, Татьяна Струженкова, Сергей Стёпин, Наташа Калашник, Алексей Соколков, Сергей Михайлов, Максим Демченко (II), Роман Ёлкин, Валентин Бугаев, Дмитрий Костяев, Михаил Коновалов, Николай Рыжков, Серафим Долбунов
О фильме:
Бандит по имени Борис - «решала», в круг его обязанностей входят шантаж, пытки и убийства. Однажды герой решает завязать с такой работой и открыть кондитерскую. Борис сообщает об этом боссу, но в этот же день его убивают. Вскоре он приходит в себя и, к своему удивлению, оказывается в морге. Там восставший из мертвых герой знакомится с Артемом - студентом-медиком, проходящим практику. Борис хочет выяснить, кто его убил и украл все сбережения. На пути к этой разгадке главного героя периодически снова убивают, а Артёму приходится приводить Бориса в порядок, штопая дырки в теле и вправляя кости.

Страна: Россия
Студия: Компания «Медиаслово», ООО «Иви.ру»
Продолжительность: 10 х ~ 00:30:00
Язык: Русский
Премьера: 02 февраля 2022 года (IVI)
Примечание: Без рекламы
Файл
Формат: MKV
Качество: WEB-DLRip 1080p
Видео: MPEG-4 AVC, ~ 5120 Кбит/с, 1920x804
Звук: AC3, 6 ch, 384 Кбит/с
Субтитры: Отсутствуют
Семпл

Скриншоты

MI

Общее
Уникальный идентификатор : 4018998432154652675094518401792143443 (0x30607EBDC3F57EB77562B8589BAF053)
Полное имя : D:I.snova.zdravstvujte.S01.2022.WEB-DL.1080pI.snova.zdravstvujte.S01.E01.2022.WEB-DL.1080p.mkv
Формат : Matroska
Версия формата : Version 4
Размер файла : 1,16 Гбайт
Продолжительность : 30 м. 18 с.
Общий поток : 5 485 Кбит/сек
Название фильма : I.snova.zdravstvujte.S01.E01.2022.WEB-DL.1080p
Дата кодирования : UTC 2022-02-02 02:48:12
Программа кодирования : mkvmerge v64.0.0 ('Willows') 64-bit
Библиотека кодирования : libebml v1.4.2 + libmatroska v1.6.4
Attachments : poster.jpg
Видео
Идентификатор : 1
Формат : AVC
Формат/Информация : Advanced Video Codec
Профиль формата : High@L4
Настройки формата : CABAC / 4 Ref Frames
Параметр CABAC формата : Да
Параметр RefFrames формата : 4 кадра
Идентификатор кодека : V_MPEG4/ISO/AVC
Продолжительность : 30 м. 18 с.
Битрейт : 5 120 Кбит/сек
Ширина : 1 920 пикселей
Высота : 804 пикселя
Соотношение сторон : 2,40:1
Режим частоты кадров : Постоянный
Частота кадров : 25,000 кадров/сек
Цветовое пространство : YUV
Субдискретизация насыщенности : 4:2:0
Битовая глубина : 8 бит
Тип развёртки : Прогрессивная
Бит/(Пиксели*Кадры) : 0.133
Размер потока : 1,08 Гбайт (93%)
Библиотека кодирования : x264 core 152 r2854 e9a5903
Настройки программы : cabac=1 / ref=3 / deblock=1:0:0 / analyse=0x3:0x113 / me=hex / subme=7 / psy=1 / psy_rd=1.00:0.00 / mixed_ref=1 / me_range=16 / chroma_me=1 / trellis=1 / 8x8dct=1 / cqm=0 / deadzone=21,11 / fast_pskip=1 / chroma_qp_offset=-2 / threads=24 / lookahead_threads=4 / sliced_threads=0 / nr=0 / decimate=1 / interlaced=0 / bluray_compat=0 / constrained_intra=0 / bframes=6 / b_pyramid=2 / b_adapt=1 / b_bias=0 / direct=1 / weightb=1 / open_gop=0 / weightp=2 / keyint=50 / keyint_min=26 / scenecut=0 / intra_refresh=0 / rc_lookahead=40 / rc=2pass / mbtree=1 / bitrate=5120 / ratetol=1.0 / qcomp=0.60 / qpmin=0 / qpmax=69 / qpstep=4 / cplxblur=20.0 / qblur=0.5 / vbv_maxrate=7680 / vbv_bufsize=20480 / nal_hrd=none / filler=0 / ip_ratio=1.40 / aq=1:1.00
Default : Да
Forced : Нет
Аудио
Идентификатор : 2
Формат : AC-3
Формат/Информация : Audio Coding 3
Коммерческое название : Dolby Digital
Идентификатор кодека : A_AC3
Продолжительность : 30 м. 18 с.
Вид битрейта : Постоянный
Битрейт : 384 Кбит/сек
Каналы : 6 каналов
Channel layout : L R C LFE Ls Rs
Частота : 48,0 КГц
Частота кадров : 31,250 кадров/сек (1536 SPF)
Метод сжатия : С потерями
Размер потока : 83,3 Мбайт (7%)
Service kind : Complete Main
Default : Да
Forced : Нет

admin

Post 26-Mar-2022 06:53

[Quote]

Информация о фильме
Название: Порт
Год выхода: 2022
Жанр: Боевик, детектив
Режиссер: Вячеслав Кириллов
В ролях: Максим Щёголев, Алексей Барабаш, Александр Барановский, Вадим Андреев, Софья Шуткина, Илья Акинтьев, Никита Дювбанов, Сергей Сафронов, Татьяна Каргаева, Иван Моховиков
О фильме:
Боевой офицер Михаил Самойлов во время вооруженного конфликта с сирийскими боевиками теряет друга Игоря Макарова. Виня себя в гибели товарища, Михаил возвращается в родной портовый городок Янтарск, чтобы помогать вдове Макарова Ольге. Он даже не подозревает, что старый друг, во-первых, жив, а во-вторых, очень опасен. Страшные преступления, которые сотрясают Янтарск, приводят к хозяину порта Куприянову. Но Куприянов тоже лишь пешка в жестокой игре не на жизнь, а на смерть…
Страна: Россия
Студия: «Киностудия КИТ» по заказу НТВ
Продолжительность: 12 х ~ 00:50:00
Перевод: Не требуется
Файл
Кодек: MPEG-4 AVC
Качество: WEBRip 1080p
Видео: 1920х1080 (16:9), 25 fps, AVC MPEG-4 (x264), High@L4.1 ~ 6000 kbps avg, 0.153 bit/pixel
Аудио: AC3, 2 ch, 192 Кбит/с
Субтитры: Русские

МИ

General
General
Unique ID : 218653619845000970449575089018423195730 (0xA47F27C7B144C03880D53BD4F9FBB852)
Complete name : G:Port.2022.WEB-DL.(1080p).ExKinoRayPort.E01.2022.WEB-DL.(1080p).ExKinoRay.mkv
Format : Matroska
Format version : Version 4 / Version 2
File size : 2.06 GiB
Duration : 48 min 3 s
Overall bit rate : 6 147 kb/s
Encoded date : UTC 2022-03-21 18:12:09
Writing application : mkvmerge v6.9.1 ('Blue Panther') 64bit built on Apr 18 2014 18:23:38
Writing library : libebml v1.3.0 + libmatroska v1.4.1
Video
ID : 1
Format : AVC
Format/Info : Advanced Video Codec
Format profile : High@L4.1
Format settings : 2 Ref Frames
Format settings, CABAC : No
Format settings, RefFrames : 2 frames
Codec ID : V_MPEG4/ISO/AVC
Duration : 48 min 3 s
Bit rate mode : Constant
Bit rate : 6 000 kb/s
Width : 1 920 pixels
Height : 1 080 pixels
Display aspect ratio : 16:9
Frame rate mode : Constant
Frame rate : 25.000 FPS
Standard : PAL
Color space : YUV
Chroma subsampling : 4:2:0
Bit depth : 8 bits
Scan type : Progressive
Bits/(Pixel*Frame) : 0.116
Stream size : 1.96 GiB (95%)
Default : Yes
Forced : No
Color range : Limited
Color primaries : BT.709
Transfer characteristics : BT.709
Matrix coefficients : BT.709
Audio
ID : 2
Format : AC-3
Format/Info : Audio Coding 3
Codec ID : A_AC3
Duration : 48 min 3 s
Bit rate mode : Constant
Bit rate : 192 kb/s
Channel(s) : 2 channels
Channel positions : Front: L R
Sampling rate : 48.0 kHz
Frame rate : 31.250 FPS (1536 SPF)
Bit depth : 16 bits
Compression mode : Lossy
Stream size : 66.0 MiB (3%)
Language : Russian
Service kind : Complete Main
Default : Yes
Forced : No
Text
ID : 3
Format : UTF-8
Codec ID : S_TEXT/UTF8
Codec ID/Info : UTF-8 Plain Text
Language : Russian
Default : No
Forced : No

Скриншоты


Реклама, любого вида, отсутствует.

admin

Post 13-Mar-2022 05:52

[Quote]

Информация о фильме
Название: Триггер
Год выхода: 2021
Жанр: Драма
Режиссер: Игорь Твердохлебов
В ролях: Максим Матвеев, Игорь Костолевский, Светлана Иванова, Виктория Маслова, Марк Юсеф, Роман Маякин, Владислав Тирон, Ангелина Стречина, Марианна Шульц, Даниил Воробьёв, Андрей Мерзликин, Макар Запорожский, Сабина Ахмедова, Екатерина Варнава, Светлана Устинова, Дарья Коныжева, Мадлен Джабраилова, Лена Тронина, Сергей Гилёв, Олег Осипов (II), Андрей Назимов, Николай Шрайбер, Яна Сексте, Антон Хабаров, Алексей Розин, Елена Хабарова, Зоя Бербер, Олег Евтеев, Всеволод Болдин, Гарик Айвазов, Хельга Филиппова, Павел Ворожцов, Артём Быстров, Алёна Малахова, Александр Сергеев (II), Дмитрий Овчинников, Эльвира Синельник, Александра Бабаскина, Юлия Бедарева, Каринэ Асланян, Мария Ремер, Алла Малкова, Арина Горбачёва, Александра Бурьянова, Юлия Беляева, Ника Вигель, Маргарита Дьяченкова, Ярослав Доронин, Сергей Лобынцев, Артём Осипов, Евгений Добряков, Екатерина Шевченко, Андрей Дудников, Лиана Гриба, Александр Лавров (II), Фёдор Федосеев, Иван Егоров (II), Сергей Арбатский, Кристина Вайнас, Ксения Дубник, Александр Мякушко, Яна Сивакова, Максим Демченко (II), Максим Дромашко, Рафаэль Ханбеков, Сергей Новосад, Эльвира Цымбал
О фильме:
Узнав о гибели близкого человека, Артем Стрелецкий решает выйти из клиники, где провел больше года, восстанавливаясь после сокрушительных событий первого сезона. Он хочет докопаться до истины и понять, что произошло на самом деле. И параллельно возвращается к практике — Артем готов помогать всем и каждому: детям домашних тиранов, жертвам насилия, тем, кто потерял родных или чувствует себя ненужным, тем, кто боится иметь детей, и тем, кто своих детей не принимает. Стрелецкий водит людей по их прошлому, показывает откуда растут проблемы и берётся за самые сложные случаи. С легкостью помогая другим, он все сильнее запутывается в собственных чувствах и отношениях с друзьями и врагами. Но теперь в его жизни есть та, рядом с кем он может быть просто собой.

Страна: Россия
Студия: ООО ПК «Среда»
Продолжительность: 7 x ~ 00:52:00
Язык: Русский
Премьера: 07 января 2022 года (КиноПоиск HD)
Примечание: Без рекламы
Файл
Формат: MKV
Качество: WEB-DL 1080p
Видео: MPEG-4 AVC, ~ 6000 Кбит/с, 1920x1080
Аудио #01: AC3, 2 ch, 192 Кбит/с | C цензурой
Аудио #02: AC3, 2 ch, 192 Кбит/с | Без цензуры 18+
Субтитры: Русские (полные)
Семпл

Скриншоты

MI

Общее
Уникальный идентификатор : 151351643051890349594702132167714016435 (0x71DD44225049DAB89EFE83E022200CB3)
Полное имя : D:Trigger.S02.2021.WEB-DL.1080pTrigger.S02.E01.2021.WEB-DL.1080p.mkv
Формат : Matroska
Версия формата : Version 4
Размер файла : 2,39 Гбайт
Продолжительность : 53 м. 44 с.
Общий поток : 6 360 Кбит/сек
Название фильма : Trigger.S02.E01.2021.WEB-DL.1080p
Дата кодирования : UTC 2022-01-13 02:18:59
Программа кодирования : mkvmerge v64.0.0 ('Willows') 64-bit
Библиотека кодирования : libebml v1.4.2 + libmatroska v1.6.4
Attachments : poster.jpg
Видео
Идентификатор : 1
Формат : AVC
Формат/Информация : Advanced Video Codec
Профиль формата : High@L4
Настройки формата : CABAC / 4 Ref Frames
Параметр CABAC формата : Да
Параметр RefFrames формата : 4 кадра
Идентификатор кодека : V_MPEG4/ISO/AVC
Продолжительность : 53 м. 44 с.
Битрейт : 6 000 Кбит/сек
Ширина : 1 920 пикселей
Высота : 1 080 пикселей
Соотношение сторон : 16:9
Режим частоты кадров : Постоянный
Частота кадров : 25,000 кадров/сек
Цветовое пространство : YUV
Субдискретизация насыщенности : 4:2:0
Битовая глубина : 8 бит
Тип развёртки : Прогрессивная
Бит/(Пиксели*Кадры) : 0.116
Размер потока : 2,24 Гбайт (94%)
Библиотека кодирования : x264 core 157
Настройки программы : cabac=1 / ref=4 / deblock=1:0:0 / analyse=0x3:0x133 / me=umh / subme=10 / psy=1 / psy_rd=1.00:0.00 / mixed_ref=1 / me_range=24 / chroma_me=1 / trellis=2 / 8x8dct=1 / cqm=0 / deadzone=21,11 / fast_pskip=1 / chroma_qp_offset=-2 / threads=34 / lookahead_threads=5 / sliced_threads=0 / nr=0 / decimate=1 / interlaced=0 / bluray_compat=0 / constrained_intra=0 / bframes=8 / b_pyramid=2 / b_adapt=2 / b_bias=0 / direct=3 / weightb=1 / open_gop=0 / weightp=2 / keyint=200 / keyint_min=100 / scenecut=40 / intra_refresh=0 / rc_lookahead=60 / rc=2pass / mbtree=1 / bitrate=6000 / ratetol=1.0 / qcomp=0.60 / qpmin=0 / qpmax=69 / qpstep=4 / cplxblur=20.0 / qblur=0.5 / vbv_maxrate=6600 / vbv_bufsize=9000 / nal_hrd=none / filler=0 / ip_ratio=1.40 / aq=1:1.00
Default : Да
Forced : Нет
Аудио #1
Идентификатор : 2
Формат : AC-3
Формат/Информация : Audio Coding 3
Коммерческое название : Dolby Digital
Идентификатор кодека : A_AC3
Продолжительность : 53 м. 44 с.
Вид битрейта : Постоянный
Битрейт : 192 Кбит/сек
Каналы : 2 канала
Channel layout : L R
Частота : 48,0 КГц
Частота кадров : 31,250 кадров/сек (1536 SPF)
Метод сжатия : С потерями
Размер потока : 73,8 Мбайт (3%)
Заголовок : Censor
Язык : Russian
Service kind : Complete Main
Default : Да
Forced : Да
Аудио #2
Идентификатор : 3
Формат : AC-3
Формат/Информация : Audio Coding 3
Коммерческое название : Dolby Digital
Идентификатор кодека : A_AC3
Продолжительность : 53 м. 44 с.
Вид битрейта : Постоянный
Битрейт : 192 Кбит/сек
Каналы : 2 канала
Channel layout : L R
Частота : 48,0 КГц
Частота кадров : 31,250 кадров/сек (1536 SPF)
Метод сжатия : С потерями
Размер потока : 73,8 Мбайт (3%)
Заголовок : 18+
Язык : Russian
Service kind : Complete Main
Default : Нет
Forced : Нет
Текст
Идентификатор : 4
Формат : UTF-8
Идентификатор кодека : S_TEXT/UTF8
Идентификатор кодека/Информация : UTF-8 Plain Text
Продолжительность : 52 м. 47 с.
Битрейт : 104 бит/сек
Count of elements : 630
Размер потока : 40,3 Кбайт (0%)
Язык : Russian
Default : Нет
Forced : Нет

admin

Post 17-Feb-2022 06:30

[Quote]

Информация о фильме
Название: #СеняФедя
Год выхода: 2021
Жанр: Комедия
Режиссер: Михаил Соловьев
В ролях: Сергей Лавыгин, Михаил Тарабукин, Анна Бегунова, Ирина Аугшкап, Леся Кудряшова, Кристина Юдичева, Арина Полонская, Алексей Старченко, Андрей Трушин, Галина Коньшина, Никита Дювбанов, Екатерина Ерохина, Дмитрий Мазуров, Александр Ревенко, Андрей Капустин, Сергей Марухин, Роман Селецкий, Татьяна Чердынцева, Татьяна Сомова, Андрей Курносов, Мария Ульянова, Алина Носуленко, Кирилл Симоненко, Светлана Рога, Женя Евстигнеева, Варвара Верховых, Дмитрий Корепин, Владимир Ляхов, Алёна Минчук, Денис Шаблий, Антон Шварц, Вера Островская, Наталия Меньшова, Сергей Степин, Дмитрий Нагиев, Дмитрий Белоцерковский, Александр Обласов, Максим Мальцев, Иван Гришанов, Александр Никольский, Анна Шапран, Анна Шапран, Настасья Кербенген, Маруся Пестунова, Владимир Иваний, Павел Кижук, Нелла Стрекаловская, Алексей Соколков, Юлия Беляева, Павел Голубев, Наталья Бергер, Вячеслав Колядин, Владимир Зомерфельд, Катя Кабак, Дмитрий Сотниченко, Анна Старшенбаум, Вадим Руденко, Александр Маврин, Сергей Неудачин, Дарья Пескова, Валентин Драб, Александра Живова, Олег Курсачёв, Ольга Сташкевич, Евгения Шевченко, Алина Андрейченко, Марина Доможирова, Николай Рыжков, Марина Донец, Николай Ткаченко, Семен Дорин, Вадим Першин, Иванка Осина-Фридман, Эльберд Агаев, Мария Баева, Анастасия Козырева, Андрей Юртаев, Константин Умрихин, Виктор Ким, Игорь Серебряный, Марк Румянцев, Арсений Тур, Андрей Федорцов, Клим Поплавский, Анатолий Кот, Наталья Кийко
О фильме:
Неразлучная пара поваров самой сытной телевселенной «Кухни» возвращается в новом сезоне. Сеня и Федя смогли пережить столкновение с контрабандистами, вампирами и обнаружить в собственном фуд-траке тайник с золотом, но пока так и не раскрыли рецепт идеального бизнеса. Теперь их ждет новый вызов: друзья решают открыть бургерную.

Страна: Россия
Студия: Производство ООО «Пик Ап Фильм» при участии ООО «Сок» по заказу АО «СТС»
Продолжительность: 8 х ~ 00:25:00
Язык: Русский
Премьера: 07 декабря 2021 года (СТС)
Примечание: Без рекламы
Файл
Формат: MKV
Качество: WEB-DL 1080p
Видео: MPEG-4 AVC, ~ 3500 Кбит/с, 1920x1080
Звук: AC3, 2 ch, 192 Кбит/с
Субтитры: Отсутствуют
Семпл

Скриншоты

MI

Общее
Уникальный идентификатор : 137615553618645521536939232727947356752 (0x6787CAA333973A0CEEE9AC6218B92A50)
Полное имя : D:SenyaFedya.S05.E01.2021.WEB-DL.1080pSenyaFedya.S05.2021.WEB-DL.1080p.mkv
Формат : Matroska
Версия формата : Version 4
Размер файла : 666 Мбайт
Продолжительность : 25 м. 18 с.
Общий поток : 3 681 Кбит/сек
Название фильма : SenyaFedya.S05.2021.WEB-DL.1080p
Дата кодирования : UTC 2021-12-07 16:36:13
Программа кодирования : mkvmerge v63.0.0 ('Everything') 64-bit
Библиотека кодирования : libebml v1.4.2 + libmatroska v1.6.4
Attachments : poster.jpg
Видео
Идентификатор : 1
Формат : AVC
Формат/Информация : Advanced Video Codec
Профиль формата : High@L5
Настройки формата : CABAC / 5 Ref Frames
Параметр CABAC формата : Да
Параметр RefFrames формата : 5 кадров
Идентификатор кодека : V_MPEG4/ISO/AVC
Продолжительность : 25 м. 18 с.
Битрейт : 3 487 Кбит/сек
Ширина : 1 920 пикселей
Высота : 1 080 пикселей
Соотношение сторон : 16:9
Режим частоты кадров : Постоянный
Частота кадров : 25,000 кадров/сек
Стандарт вещания : PAL
Цветовое пространство : YUV
Субдискретизация насыщенности : 4:2:0
Битовая глубина : 8 бит
Тип развёртки : Прогрессивная
Бит/(Пиксели*Кадры) : 0.067
Размер потока : 631 Мбайт (95%)
Default : Да
Forced : Нет
Цветовой диапазон : Limited
Основные цвета : BT.709
Характеристики трансфера : BT.709
Коэффициенты матрицы : BT.709
Аудио
Идентификатор : 2
Формат : AC-3
Формат/Информация : Audio Coding 3
Коммерческое название : Dolby Digital
Идентификатор кодека : A_AC3
Продолжительность : 25 м. 18 с.
Вид битрейта : Постоянный
Битрейт : 192 Кбит/сек
Каналы : 2 канала
Channel layout : L R
Частота : 48,0 КГц
Частота кадров : 31,250 кадров/сек (1536 SPF)
Метод сжатия : С потерями
Размер потока : 34,8 Мбайт (5%)
Service kind : Complete Main
Default : Да
Forced : Нет

admin

Post 17-Feb-2022 06:08

[Quote]

Информация о фильме
Название: Карамора
Год выхода: 2022
Жанр: Фэнтези, триллер
Режиссер: Данила Козловский
В ролях: Данила Козловский, Филипп Янковский, Андрей Смоляков, Дарья Балабанова, Никита Кукушкин, Нино Нинидзе, Ольга Зуева, Дмитрий Чеботарёв, Дмитрий Поднозов, Артур Ваха, Один Ланд Байрон, Мария Лисовая, Анатолий Завьялов, Александр Ильин (младший), Игорь Черневич, Фёдор Лавров, Ольга Бодрова, Николай Комягин, Александр Алябьев, Игорь Гордин, Павел Юлку, Евгений Шварц, Мария Янычева, Игорь Лизенгевич, Борис Бирман, Игорь Лаский, Владимир Комаров, Александр Ильин, Ваган Сароян, Мария Курденевич, Николай Самсонов, Ильдар Абдразаков, Варвара Шмыкова, Александр Завьялов, Яна Пронина, Дмитрий Могучев, Ринат Сафин, Константин Фёдоров-Фрейвальд, Родион Рудаков, Сергей Якушев, Ирена Грегор, Игорь Угаров, Иван Монахов, Вилен Бабичев, Александр Петров, Андрей Давыдов, Артур Мухамадияров, Гарик Айвазов, Кирилл Пластунов, Иван Якименко, Егор Келли, Артём Кузьмин, Дмитрий Сизов, Сергей Бондаренко, Алексей Паничев, Сергей Троев, Роберто Флейтес, Денис Лукичёв, Евгений Низов, Александр Какуев, Андрей Дерюгин, Игорь Девлекамов, Юрий Кузнецов, Дарья Пескова, Александр Большаков, Людмила Григораш, Александр Насенков, Илья Семёнов, Дмитрий Удобный, Игорь Щипакин, Александр Чернов, Фанис Шайдуллин, Вячеслав Харчёв, Владислав Сыровацкий, Тимофей Ольков, Артур Павленко, Антон Никитин, Иван Гаврилов, Марина Антохова, Антон Харунжий, Александр Никонов, Владимир Цупка, Александр Зенин, Яна Кузнецова, Сергей Кузнецов, Павел Серебряков, Александр Лашко, Елизавета Боброва, Андрей Кулев, Владислав Толдыков, Олег Цветков
О фильме:
Альтернативная реальность - дореволюционная Россия начала ХХ века. Молодой русский анархист по прозвищу Карамора теряет возлюбленную Алину в столкновении с представителями тайной организации, защищающей интересы тех, кто веками управляет миром. Теперь он готов на всё, чтобы отомстить за потерянную любовь. Раскрыв главную тайну врага, Карамора понимает, что сила тех, кому он противостоит, лежит далеко за пределами человеческих возможностей.

Страна: Россия
Студия: Фонд «Кинопрайм», DK Entertainment
Продолжительность: 6 х ~ 00:45:00
Язык: Русский
Премьера: 20 января 2022 года (START)
Примечание: Без рекламы
Файл
Формат: MKV
Качество: WEBRip 1080p
Видео: MPEG-4 AVC, ~ 6480 Кбит/с, 1920x1080
Звук: AC3, 2 ch, 192 Кбит/с
Субтитры: Отсутствуют
Семпл

Скриншоты

MI

Общее
Уникальный идентификатор : 229230876169229410655549917937986040602 (0xAC7442C7ABE26AFD87B2A2A87761F31A)
Полное имя : D:Karamora.S01.2022.WEB-DL.1080pKaramora.S01.E01.2022.WEB-DL.1080p.mkv
Формат : Matroska
Версия формата : Version 4
Размер файла : 2,31 Гбайт
Продолжительность : 51 м. 2 с.
Общий поток : 6 467 Кбит/сек
Название фильма : Karamora.S01.E01.2021.WEB-DL.1080p
Дата кодирования : UTC 2022-01-19 20:38:48
Программа кодирования : mkvmerge v64.0.0 ('Willows') 64-bit
Библиотека кодирования : libebml v1.4.2 + libmatroska v1.6.4
Attachments : poster.jpg
Видео
Идентификатор : 1
Формат : AVC
Формат/Информация : Advanced Video Codec
Профиль формата : High@L4
Настройки формата : CABAC / 4 Ref Frames
Параметр CABAC формата : Да
Параметр RefFrames формата : 4 кадра
Идентификатор кодека : V_MPEG4/ISO/AVC
Продолжительность : 51 м. 2 с.
Битрейт : 6 480 Кбит/сек
Ширина : 1 920 пикселей
Высота : 1 080 пикселей
Соотношение сторон : 16:9
Режим частоты кадров : Постоянный
Частота кадров : 25,000 кадров/сек
Цветовое пространство : YUV
Субдискретизация насыщенности : 4:2:0
Битовая глубина : 8 бит
Тип развёртки : Прогрессивная
Бит/(Пиксели*Кадры) : 0.125
Размер потока : 2,24 Гбайт (97%)
Библиотека кодирования : x264 core 161
Настройки программы : cabac=1 / ref=2 / deblock=1:0:0 / analyse=0x3:0x113 / me=hex / subme=6 / psy=1 / psy_rd=1.00:0.00 / mixed_ref=1 / me_range=16 / chroma_me=1 / trellis=1 / 8x8dct=1 / cqm=0 / deadzone=21,11 / fast_pskip=1 / chroma_qp_offset=-2 / threads=12 / lookahead_threads=2 / sliced_threads=0 / nr=0 / decimate=1 / interlaced=0 / bluray_compat=0 / constrained_intra=0 / bframes=3 / b_pyramid=2 / b_adapt=1 / b_bias=0 / direct=1 / weightb=1 / open_gop=0 / weightp=1 / keyint=250 / keyint_min=25 / scenecut=40 / intra_refresh=0 / rc_lookahead=30 / rc=abr / mbtree=1 / bitrate=6480 / ratetol=1.0 / qcomp=0.60 / qpmin=0 / qpmax=69 / qpstep=4 / vbv_maxrate=7776 / vbv_bufsize=15552 / nal_hrd=none / filler=0 / ip_ratio=1.40 / aq=1:1.00
Default : Да
Forced : Нет
Цветовой диапазон : Limited
Основные цвета : BT.709
Характеристики трансфера : BT.709
Коэффициенты матрицы : BT.709
Аудио
Идентификатор : 2
Формат : AC-3
Формат/Информация : Audio Coding 3
Коммерческое название : Dolby Digital
Идентификатор кодека : A_AC3
Продолжительность : 51 м. 2 с.
Вид битрейта : Постоянный
Битрейт : 192 Кбит/сек
Каналы : 2 канала
Channel layout : L R
Частота : 48,0 КГц
Частота кадров : 31,250 кадров/сек (1536 SPF)
Метод сжатия : С потерями
Задержка видео : -80 мс.
Размер потока : 70,1 Мбайт (3%)
Язык : Russian
Service kind : Complete Main
Default : Да
Forced : Нет

admin

Post 17-Feb-2022 06:04

[Quote]

Информация о фильме
Название: Ресторан по понятиям
Год выхода: 2021
Жанр: Комедия, криминал
Режиссер: Давид Дадунашвили
В ролях: Владимир Вдовиченков, Дмитрий Дюжев, Владимир Сычёв, Иван Кокорин, Ирина Темичева, Михаил Тарабукин, Виктория Богатырёва, Уильям Ламберти, Теона Дольникова, Максим Коновалов, Кай Метов, Добромир Машуков, Олег Евтеев, Евгений Зеленский, Дарья Ковалевская, Ася Борисова, Александр Златопольский, Евгений Штырбул, Алина Мещерякова, Ольга Маковеева, Николай Ткаченко, Дмитрий Калистратов, Михаил Апальков, Артём Клименко, Виталий Видякин, Александр Азыранкулов, Антон Полетаев, Сергей Шароватов, Вадим Руденко, Олег Суховерхов, Сергей Канаев, Иса Новиков, Юрий Миронцев, Руслан Вавилов
О фильме:
История четырех преступников: вора со стажем Шустрого, альфонса-мошенника Кощея, заядлого хулигана-драчуна Кувалды и наивного и тупого похитителя домашних животных Кильки. Все они познакомились в тюрьме и теперь, прежде чем завязать с криминальной жизнью, решаются на финальное грандиозное ограбление, чтобы денег хватило на всю оставшуюся жизнь. Бывшие арестанты арендуют ресторан рядом с банком и намереваются втихаря сделать подкоп к хранилищу, но неожиданно их заведение с тюремной кухней и хамским обслуживанием становится хитом у посетителей. Теперь парни должны решить: поддаться воровской романтике и осуществить ограбление или выбрать спокойную жизнь с новым для них делом.

Страна: Россия
Студия: ООО «К.Б.А.»
Продолжительность: 10 x ~ 00:20:00
Язык: Русский
Премьера: 20 января 2022 года (Premier)
Примечание: Без рекламы
Версия 18+
Файл
Формат: MKV
Качество: WEBRip 720p
Видео: MPEG-4 AVC, ~ 3000 Кбит/с, 1552x592
Звук: AC3, 2 ch, 192 Кбит/с
Субтитры: Отсутствуют
Семпл

Скриншоты

MI

Общее
Уникальный идентификатор : 246505340955016869866284220222246868588 (0xB97333A6857BCB604AD54A78C669D66C)
Полное имя : D:Restoran.po.ponyatiyam.S01.2021.WEB-DL.720pRestoran.po.ponyatiyam.S01.E01.2021.WEB-DL.720p.mkv
Формат : Matroska
Версия формата : Version 4
Размер файла : 433 Мбайт
Продолжительность : 19 м. 12 с.
Режим общего битрейта : Переменный
Общий поток : 3 153 Кбит/сек
Название фильма : Restoran.po.ponyatiyam.S01.E01.2021.WEB-DL.720p
Дата кодирования : UTC 2022-01-19 21:43:15
Программа кодирования : mkvmerge v64.0.0 ('Willows') 64-bit
Библиотека кодирования : libebml v1.4.2 + libmatroska v1.6.4
Attachments : poster.jpg
Видео
Идентификатор : 1
Формат : AVC
Формат/Информация : Advanced Video Codec
Профиль формата : High@L4.1
Настройки формата : CABAC / 2 Ref Frames
Параметр CABAC формата : Да
Параметр RefFrames формата : 2 кадра
Идентификатор кодека : V_MPEG4/ISO/AVC
Продолжительность : 19 м. 12 с.
Вид битрейта : Переменный
Битрейт : 2 955 Кбит/сек
Максимальный битрейт : 3 000 Кбит/сек
Ширина : 1 552 пикселя
Высота : 592 пикселя
Соотношение сторон : 2,667
Режим частоты кадров : Постоянный
Частота кадров : 25,000 кадров/сек
Цветовое пространство : YUV
Субдискретизация насыщенности : 4:2:0
Битовая глубина : 8 бит
Тип развёртки : Прогрессивная
Бит/(Пиксели*Кадры) : 0.129
Размер потока : 406 Мбайт (94%)
Default : Да
Forced : Нет
Цветовой диапазон : Limited
Основные цвета : BT.709
Характеристики трансфера : BT.709
Коэффициенты матрицы : BT.709
Аудио
Идентификатор : 2
Формат : AC-3
Формат/Информация : Audio Coding 3
Коммерческое название : Dolby Digital
Идентификатор кодека : A_AC3
Продолжительность : 19 м. 12 с.
Вид битрейта : Постоянный
Битрейт : 192 Кбит/сек
Каналы : 2 канала
Channel layout : L R
Частота : 48,0 КГц
Частота кадров : 31,250 кадров/сек (1536 SPF)
Метод сжатия : С потерями
Задержка видео : -120 мс.
Размер потока : 26,4 Мбайт (6%)
Service kind : Complete Main
Default : Да
Forced : Нет
 

Current time is: 25-May 17:28

All times are UTC + 3