Search found 27 matches

Author Message

mihis

Post 10-Jan-2019 14:35

[Quote]

Побег из тюрьмы Даннемора | Escape at Dannemora- Год выпуска: 2018
Страна: США
Жанр: Драма
Продолжительность: 7 ~ 01:03:00-Перевод: Профессиональный (многоголосый закадровый) | LostFilm-Режиссёр: Бен Стиллер / Ben Stiller-В ролях: Бенисио Дель Торо, Патриша Аркетт, Пол Дано, Бонни Хант, Эрик Ланж, Дэвид Морс и др.-Описание: Основанная на реальных событиях драма от сценаристов «Рэя Донована». Ричард Матт – преступник, получивший 25 лет за убийство бизнесмена. Даже оказавшись в тюрьме строго режима Даннемора, он не опускает руки и придумывает хитроумный план побега. Громкое дело берет под свой контроль губернатор штата Нью-Йорк Эндрю Куомо, который бросает на преследование все силы штата- --Качество: WEBRip
Формат: AVI
Видео: XviD, 720x304 (2,35:1), 23,976 кадров/сек, ~1500 Кбит/сек
Аудио Rus: MP3, 48 kHz, 2 ch, 128 Кбит/сек | LostFilm
Аудио Eng: MP3, 48 kHz, 2 ch, 128 Кбит/сек
Субтитры: Русские (Forced), английские
Реклама: Отсутствует-

MediaInfo

Общее
Полное имя : E:\Escape at Dannemora (Season 1) LostFilm WEBRip\Escape.at.Dannemora.S01E01.Girl.from.the.North.Country.WEBRip.LostFilm.[Wentworth_Miller].avi
Формат : AVI
Формат/Информация : Audio Video Interleave
Размер файла : 805 Мбайт
Продолжительность : 1 ч. 3 м.
Общий поток : 1770 Кбит/сек
Программа кодирования : VirtualDubMod 1.5.10.2 (build 2540/release)
Библиотека кодирования : VirtualDubMod build 2540/release
Видео
Идентификатор : 0
Формат : MPEG-4 Visual
Профиль формата : Advanced Simple@L5
Настройки формата : BVOP1
Параметр BVOP формата : 1
Параметр QPel формата : Нет
Параметр GMC формата : Без точки перехода
Параметр матрицы формата : Default (MPEG)
Идентификатор кодека : XVID
Идентификатор кодека/Подсказка : XviD
Продолжительность : 1 ч. 3 м.
Битрейт : 1500 Кбит/сек
Ширина : 720 пикселей
Высота : 304 пикселя
Соотношение сторон : 2,35:1
Частота кадров : 23,976 (24000/1001) кадра/сек
Цветовое пространство : YUV
Субдискретизация насыщенности : 4:2:0
Битовая глубина : 8 бит
Тип развёртки : Прогрессивная
Метод сжатия : С потерями
Бит/(Пиксели*Кадры) : 0.286
Размер потока : 682 Мбайт (85%)
Библиотека кодирования : XviD 61
Аудио #1
Идентификатор : 1
Формат : MPEG Audio
Версия формата : Version 1
Профиль формата : Layer 3
Идентификатор кодека : 55
Идентификатор кодека/Подсказка : MP3
Продолжительность : 1 ч. 3 м.
Вид битрейта : Постоянный
Битрейт : 128 Кбит/сек
Каналы : 2 канала
Частота : 48,0 КГц
Частота кадров : 41,667 кадра/сек (1152 SPF)
Метод сжатия : С потерями
Размер потока : 58,2 Мбайт (7%)
Выравнивание : Соединение по промежуткам
Продолжительность промежутка : 42 мс. (1,00 видеокадр)
Время предзагрузки промежутка : 504 мс.
Библиотека кодирования : LAME3.98r
Настройки программы : -m s -V 4 -q 2 -lowpass 17 -b 128
Аудио #2
Идентификатор : 2
Формат : MPEG Audio
Версия формата : Version 1
Профиль формата : Layer 3
Настройки формата : Joint stereo
Идентификатор кодека : 55
Идентификатор кодека/Подсказка : MP3
Продолжительность : 1 ч. 3 м.
Вид битрейта : Постоянный
Битрейт : 128 Кбит/сек
Каналы : 2 канала
Частота : 48,0 КГц
Метод сжатия : С потерями
Размер потока : 58,2 Мбайт (7%)
Выравнивание : Соединение по промежуткам
Продолжительность промежутка : 42 мс. (1,00 видеокадр)
Время предзагрузки промежутка : 504 мс.
-

Скриншоты

admin

Post 15-May-2018 05:18

[Quote]

Информация о фильме
Название: Стартап
Оригинальное название: Alex, Inc.
Год выпуска: 2018
Жанр: Комедия
Режиссер: Зак Брафф, Ричи Кин
В ролях: Элиша Хениг, Одисси Джеймс, Зак Брафф, Тия Сиркар, Джон Патрик Джордан, Джессика Микайла Адамс, Надеж Огюст, Анджали Бимани и др.
О фильме: Блестящий радиожурналист, муж и отец двоих детей скоро совершит нечто безумное — бросит работу и займется основанием собственной компании. Он быстро обнаруживает, что выполнить эту задачу будет намного сложнее, чем предполагалось.

Страна: США
Студия: Sony Pictures Television, Davis Entertainment
Продолжительность: 1 x ~ 00:23:00
Перевод: Профессиональный (многоголосый закадровый) студия Jaskier
Файл
Кодек: XviD | Avi
Качество: WEB-DLRip
Видео: ~ 1400 kbps, 720x400, 23.976 fps
Аудио Rus: mp3, 48 KHz, 2 ch, 128 kbps
Аудио Eng: mp3, 48 KHz, 2 ch, 128 kbps
Субтитры: отсутствуют
Присутствует аудио-реклама.

Скриншоты

Раздача ведется путем добавления новых серий

Когда раздача ведётся путём добавления новых серий, при каждом добавлении создётся новый торрент. Чтобы начать докачку новой серии, пользователям необходимо сделать следующее:
(1) остановить скачивание,
(2) удалить старый торрент у себя из клиента (старые серии удалять не надо),
(3) скачать новый торрент и запустить его у себя в клиенте вместо старого, при этом указать клиенту путь в старую папку, куда и должно происходить скачивание новых серий.
Ваш клиент при этом должен произвести хеширование (проверку) старой папки (если не производит сам - помогите ему сделать это), и будет докачивать только те серии, которых у вас ещё нет. Старые серии при этом не удаляются, а продолжают раздаваться!
Eсли вы уже удалили старые серии, то предотвратить повторную закачку старых серий можно, отжав галочку в соответсвующих местах при запуске нового торрента. По возможности, желательно не удалять старые серии как можно дольше, чтобы релизёр не столько продолжал раздавать старые серии, а смог сконцентрироваться на новых.

admin

Post 18-Apr-2018 22:00

[Quote]

Информация о фильме
Оригинальное название: Красный уровень
Год выхода: 2018
Жанр: Боевик, триллер, драма
Режиссер: Валерий Мызников
В ролях: Берик Айтжанов, Тауекел Мусилим, Сая Оразгалиева, Филипп Волошин, Нышанбек Жубанаев, Ермек Турганбеков, Марйам Сатай
О фильме: Сюжет фильма опирается на трагические события, произошедшие в Казахстане за последние годы. Главный герой, следователь КНБ Ернар Есенгельдиев, занимается расследованием череды жестоких преступлений и неожиданно выходит на след экстремистской группировки. Выясняется, что банда замышляет сразу несколько террористических атак в столице Казахстана. Под угрозой жизни тысяч мирных граждан. При этом в личной жизни самого майора Есенгельдиева давно наступил кризис, а в самый острый момент повествования он столкнётся с шокирующим предательством.
Страна: Казахстан
Продолжительность: ~00:45:00
Перевод: Не требуется
Файл
Качество: WEBRip
Видео: 704x352, 25 fps, XviD ~1500 kbps, 0.25 bit/pixel
Аудио: 48 kHz, MPEG Layer 3, 2 ch, ~128.00 kbps
Субтитры: Русские (на казахские диалоги)

Скриншоты

Раздача ведется путем добавления новых серий

Когда раздача ведётся путём добавления новых серий, при каждом добавлении создётся новый торрент. Чтобы начать докачку новой серии, пользователям необходимо сделать следующее:
(1) остановить скачивание,
(2) удалить старый торрент у себя из клиента (старые серии удалять не надо),
(3) скачать новый торрент и запустить его у себя в клиенте вместо старого, при этом указать клиенту путь в старую папку, куда и должно происходить скачивание новых серий.
Ваш клиент при этом должен произвести хеширование (проверку) старой папки (если не производит сам - помогите ему сделать это), и будет докачивать только те серии, которых у вас ещё нет. Старые серии при этом не удаляются, а продолжают раздаваться!
Eсли вы уже удалили старые серии, то предотвратить повторную закачку старых серий можно, отжав галочку в соответсвующих местах при запуске нового торрента. По возможности, желательно не удалять старые серии как можно дольше, чтобы релизёр не столько продолжал раздавать старые серии, а смог сконцентрироваться на новых.

mihis

Post 18-Apr-2018 16:56

[Quote]

Террор / The Wire1 сезон: 10 серийГод выпуска: 2018
Страна: США, EMJAG Productions, Entertainment 360, Scott Free Productions
Жанр: Ужасы, драма
Продолжительность: 10 x ~ 00:45:00
Премьера (мир): 21 февраля 2018, ...
Премьера (РФ): 29 марта 2018
Перевод: Любительский (многоголосый, закадровый) Baibako + Original
Режиссер:Тим Милантс, Эдвард Бергер, Серджо Мимика-Геззан
В ролях: Джаред Харрис, Киаран Хайндс, Тобайас Мензис, Крис Корригэн, Иэн Харт, Кристос Лоутон, Мэттью МакНалти, Адам Нагаитис, Нив Нилсен, Пол Рэди, Себастьян Арместо, Эдвард Эшли, Майки Коллинз, Кевин Гатри, Аарон Джеффкот, Дэвид Уолмсли, Гай Фолкнер, Лиам Гэрриган, Чарли Келли, Кэролайн Болтон
Описание: В 1845 году экспедиция под командованием опытного полярного исследователя сэра Джона Франклина отправляется на судах «Террор» и «Эребус» к северному побережью Канады на поиск северо-западного прохода из Атлантического океана в Тихий. Удачно пережив первую зиму, в сентябре 1846 оба судна экспедиции оказываются плотно затертыми льдами.

Качество: WEBRip
Формат: AVI
Видео кодек: XviD
Аудио кодек: AC3
Видео: 720x400 (16:9), 23.976 fps, XviD build 50 ~2000 kbps avg, 0.29 bit/pixel
Аудио Rus: AC3, 48 kHz, 6 ch, 384 kbps |Baibako|
Аудио Eng: AC3, 48 kHz, 6 ch, 384 kbps |Original|

Содержание

1 Сезон
01. Рывок
02. Резня
03. Лестница
04. Наказанный, как мальчишка
05. Не промажьте, ребята
06. Милосердие
07. Страшный ужин
08. Лагерь Террор
09. C, с открытой C
10. Мы ушли

MI

Общее
Полное имя : E:\_Сериалы\_Сериалы\Террор\The.Terror.s01.WEBRip.Rus.Eng.BaibaKo\The.Terror.S01E01.WEBRip.Rus.Eng.BaibaKo.avi
Формат : AVI
Формат/Информация : Audio Video Interleave
Размер файла : 937 Мбайт
Продолжительность : 46 м. 58 с.
Общий поток : 2788 Кбит/сек
Программа кодирования : VirtualDubMod 1.5.10.3 | www.virtualdub-fr.org || (build 2550/release)
Библиотека кодирования : VirtualDubMod build 2550/release
Видео
Идентификатор : 0
Формат : MPEG-4 Visual
Профиль формата : Advanced Simple@L5
Настройки формата : BVOP1
Параметр BVOP формата : 1
Параметр QPel формата : Нет
Параметр GMC формата : Без точки перехода
Параметр матрицы формата : Default (MPEG)
Идентификатор кодека : XVID
Идентификатор кодека/Подсказка : XviD
Продолжительность : 46 м. 58 с.
Битрейт : 2006 Кбит/сек
Ширина : 720 пикселей
Высота : 400 пикселей
Соотношение сторон : 16:9
Частота кадров : 23,976 (24000/1001) кадра/сек
Цветовое пространство : YUV
Субдискретизация насыщенности : 4:2:0
Битовая глубина : 8 бит
Тип развёртки : Прогрессивная
Метод сжатия : С потерями
Бит/(Пиксели*Кадры) : 0.291
Размер потока : 674 Мбайт (72%)
Библиотека кодирования : XviD 1.2.1 (UTC 2008-12-04)
Аудио #1
Идентификатор : 1
Формат : AC-3
Формат/Информация : Audio Coding 3
Идентификатор кодека : 2000
Продолжительность : 46 м. 58 с.
Вид битрейта : Постоянный
Битрейт : 384 Кбит/сек
Каналы : 6 каналов
Расположение каналов : Front: L C R, Side: L R, LFE
Частота : 48,0 КГц
Частота кадров : 31,250 кадров/сек (1536 SPF)
Битовая глубина : 16 бит
Метод сжатия : С потерями
Размер потока : 129 Мбайт (14%)
Выравнивание : Разделение по промежуткам
Продолжительность промежутка : 42 мс. (1,00 видеокадр)
Время предзагрузки промежутка : 500 мс.
ServiceKind/String : Complete Main
Аудио #2
Идентификатор : 2
Формат : AC-3
Формат/Информация : Audio Coding 3
Идентификатор кодека : 2000
Продолжительность : 46 м. 58 с.
Вид битрейта : Постоянный
Битрейт : 384 Кбит/сек
Каналы : 6 каналов
Расположение каналов : Front: L C R, Side: L R, LFE
Частота : 48,0 КГц
Частота кадров : 31,250 кадров/сек (1536 SPF)
Битовая глубина : 16 бит
Метод сжатия : С потерями
Размер потока : 129 Мбайт (14%)
Выравнивание : Разделение по промежуткам
Продолжительность промежутка : 42 мс. (1,00 видеокадр)
Время предзагрузки промежутка : 500 мс.
ServiceKind/String : Complete Main

Скриншоты

mihis

Post 09-Apr-2018 15:03

[Quote]

Чингисхан / Genghis Khan30 СерииГод выпуска: 2006
Страна: Китай
Жанр: Исторический боевик
Продолжительность: 30 х ~ 00:43:00
Перевод: Профессиональный (многоголосый, закадровый)
Субтитры: Нет
Режиссер: Чжу Вэньцзе
В ролях: Ба Лин, Сажэнь Гаова, Чжао Хэнсюань, Ба Сэнь Чжа Бу, Гаова Сыцинь
Описание: 800 лет назад монгольская степь была заселена множеством племен, самыми крупными из которых были кераиты, меркиты, татары, найманы, монголы. Эти пять крупных племен были независимыми и не подчинялись друг другу. Династия Цзинь в отношении них осуществляла политику «разделяй и властвуй», проводила разбойные набеги, сокращая население этих племен. Эта вражда привела к длительным войнам как на территории монгольской степи, так и за ее пределами, в ходе которых многие монгольские племена и их ханы пролили свою кровь и лишились жизни.

Качество: DVDRip-AVC
Формат: MKV
Видео кодек: H.264
Аудио кодек: AAC
Видео: AVC, 848x496 (16:9), 25.000 fps, 1 700 Kbps (0.162 bit/pixel)
Аудио: 48.0 kHz, AAC LC, 2/0 (L,R) ch, ~ 224.00 kbps avg

MediaInfo

Complete name : D:\Video\Genghis-Khan (30 series)\Genghis-Khan 01.mkv
Format : Matroska
Format version : Version 2
File size : 573 MiB
Duration : 41mn 57s
Overall bit rate : 1 908 Kbps
Encoded date : UTC 2012-03-23 23:30:23
Writing application : mkvmerge v5.0.1 ('Es ist Sommer') built on Oct 24 2011 19:45:06
Writing library : libebml v1.2.2 + libmatroska v1.3.0
Video
ID : 1
Format : AVC
Format/Info : Advanced Video Codec
Format profile : High@L3.1
Format settings, CABAC : Yes
Format settings, ReFrames : 9 frames
Codec ID : V_MPEG4/ISO/AVC
Duration : 41mn 57s
Nominal bit rate : 1 700 Kbps
Width : 848 pixels
Height : 496 pixels
Display aspect ratio : 1.710
Frame rate : 25.000 fps
Color space : YUV
Chroma subsampling : 4:2:0
Bit depth : 8 bits
Scan type : Progressive
Bits/(Pixel*Frame) : 0.162
Writing library : x264 core 119 r2106 07efeb4
Encoding settings : cabac=1 / ref=9 / deblock=1:0:0 / analyse=0x3:0x133 / me=umh / subme=9 / psy=1 / psy_rd=1.00:0.10 / mixed_ref=1 / me_range=64 / chroma_me=1 / trellis=0 / 8x8dct=1 / cqm=0 / deadzone=21,11 / fast_pskip=0 / chroma_qp_offset=-2 / threads=1 / sliced_threads=0 / nr=0 / decimate=0 / interlaced=0 / bluray_compat=0 / constrained_intra=0 / bframes=0 / weightp=2 / keyint=250 / keyint_min=25 / scenecut=40 / intra_refresh=0 / rc_lookahead=55 / rc=abr / mbtree=1 / bitrate=1700 / ratetol=1.0 / qcomp=0.60 / qpmin=0 / qpmax=69 / qpstep=4 / ip_ratio=1.40 / aq=1:1.00
Default : Yes
Forced : No
Audio
ID : 2
Format : AAC
Format/Info : Advanced Audio Codec
Format profile : LC
Codec ID : A_AAC
Duration : 41mn 57s
Channel(s) : 2 channels
Channel positions : Front: L R
Sampling rate : 48.0 KHz
Compression mode : Lossy
Default : Yes
Forced : No

Скриншоты

mihis

Post 09-Apr-2018 14:56

[Quote]

Прослушка / The Wire«A new case begins...»1-5 сезон: 60 серийГод выпуска: 2002-2008
Страна: США, Blown Deadline Productions, Home Box Office (HBO)
Жанр: Триллер, драма, криминал, детектив
Продолжительность: 60 x ~ 00:58:00
Перевод: Профессиональный (многоголосый, закадровый) FoxCrime
Режиссер: Джо Чаппелль, Клемент Вирго, Роб Бэйли
В ролях: Доминик Уэст, Джон Доумен, Дирдри Лавджой, Уенделл Пирс, Лэнс Реддик, Соня Сон, Сет Гиллиам, Доменик Ломбардоззи, Кларк Питерс, Андре Ройо, Майкл К. Уильямс, Джим Тру-Фрост, Фрэнки Фэйзон, Кори Паркер Робинсон, Делани Уильямс, Дж.Д. Уильямс, Вуд Харрис, Идрис Эльба, Эйден Гиллен, Джэми Гектор, Гбенга Акиннагбе, Роберт Уиздом, Чад Коулмэн, Анван Гловер, Майкл Кострофф, Трей Чейни, Исайя Уитлок мл., Майкл Салкони, Фелиция Пирсон, Роберт Ф. Чю
Описание: Самый популярный в америке сериал про полицейских. Сериал повествует о полицейских расследованиях в Балтиморе. Именно этот сериал, любимый сериал полицейских и гангстеров помог правоохранительным органам разгромить сеть наркоторговцев. Полицейские источники сообщили, что лидеры преступной группировки вели себя в точности как герои телесериала, в частности, постоянно меняли мобильные телефоны, затрудняя прослушивание. В ходе подготовки операции полицейские широко применяли прослушивание телефонных разговоров гангстеров. В результате были арестованы 12 человек, изъяты 43 кг кокаина, 500.000 долларов наличными, 18 единиц оружия и пять дорогостоящих автомобилей. Бандиты, оказавшиеся большими поклонниками "Прослушки", помимо обсуждения своих дел по телефону, говорили и о сюжете очередной серии. Полицейские, прослушивавшие их, тоже любили этот фильм. Если мы пропускали какой-то эпизод, то всегда могли узнать подробности из их бесед, – сообщили стражи порядка Криминальная драма, написана, снята и спродюсирована в Балтиморе бывшим полицейским репортером Дэвидом Саймоном.

Качество: HDTVRip
Формат: AVI
Видео кодек: XviD
Аудио кодек: MP3
Видео: 720x400 (1.80:1), 23.976 fps, XviD build 50 ~1451 kbps avg, 0.21 bit/pixel
Аудио: 48 kHz, MPEG Layer 3, 2 ch, ~128 kbps avg

Содержание

1 Сезон
01. The Target
02. The Detail
03. The Buys
04. Old Cases
05. The Pager
06. The Wire
07. One Arrest
08. Lessons
09. Game Day
10. The Cost
11. The Hunt
12. Cleaning Up
13. Sentencing
2 Сезон
01. Ebb Tide
02. Collateral Damage
03. Hot Shots
04. Hard Cases
05. Undertow
06. All Prologue
07. Backwash
08. Duck and Cover
09. Stray Rounds
10. Storm Warnings
11. Bad Dreams
12. Port in a Storm
3 Сезон
01. Time After Time
02. All Due Respect
03. Dead Soldiers
04. Hamsterdam
05. Straight and True
06. Homecoming
07. Back Burners
08. Moral Midgetry
09. Slapstick
10. Reformation
11. Middle Ground
12. Mission Accomplished
4 Сезон
01. Boys of Summer
02. Soft Eyes
03. Home Rooms
04. Refugees
05. Alliances
06. Margin of Error
07. Unto Others
08. Corner Boys
09. Know Your Place
10. Misgivings
11. A New Day
12. That's Got His Own
13. Final Grades
5 Сезон
01. More with Less
02. Unconfirmed Reports
03. Not for Attribution
04. Transitions
05. React Quotes
06. The Dickensian Aspect
07. Took
08. Clarifications
09. Late Editions
10. -30-

MI

Полное имя : D:The.Wire59.The.Wire.tahiy.avi
Формат : AVI
Формат/Информация : Audio Video Interleave
Размер файла : 679 Мбайт
Продолжительность : 59 м.
Общий поток : 1584 Кбит/сек
Название фильма : The.Wire.tahiy
Программа кодирования : VirtualDubMod 1.5.10.3 | www.virtualdub-fr.org || (build 2550/release)
Видео
Идентификатор : 0
Формат : MPEG-4 Visual
Профиль формата : Advanced Simple@L5
Параметр BVOP формата : 1
Параметр QPel формата : Нет
Параметр GMC формата : Без точки перехода
Параметр матрицы формата : Default (MPEG)
Идентификатор кодека : XVID
Идентификатор кодека/Подсказка : XviD
Продолжительность : 59 м.
Битрейт : 1447 Кбит/сек
Ширина : 720 пикселей
Высота : 400 пикселей
Соотношение сторон : 16:9
Частота кадров : 23,976 кадра/сек
Цветовое пространство : YUV
Субдискретизация насыщенности : 4:2:0
Битовая глубина : 8 бит
Тип развёртки : Прогрессивная
Метод сжатия : С потерями
Бит/(Пиксели*Кадры) : 0.210
Размер потока : 620 Мбайт (91%)
Библиотека кодирования : XviD 73
Аудио
Идентификатор : 1
Формат : MPEG Audio
Версия формата : Version 1
Профиль формата : Layer 3
Режим : Joint stereo
Идентификатор кодека : 55
Идентификатор кодека/Подсказка : MP3
Продолжительность : 59 м.
Вид битрейта : Постоянный
Битрейт : 128 Кбит/сек
Каналы : 2 канала
Частота : 48,0 КГц
Метод сжатия : С потерями
Размер потока : 54,8 Мбайт (8%)
Выравнивание : Соединение по промежуткам
Продолжительность промежутка : 42 мс. (1,00 видеокадр)
Время предзагрузки промежутка : 504 мс.
Библиотека кодирования : LAME3.99r
Настройки программы : -m j -V 4 -q 2 -lowpass 17 -b 128

Скриншоты

mihis

Post 09-Apr-2018 14:45

[Quote]

Воздействие / Грабь награбленное / Leverage
«Искусство аферы»
1-5 сезоны: 77 серии из 77

Год выпуска: 2008-2012
Страна: США, Electric Entertainment
Жанр: Боевик, криминал, детектив
Продолжительность: 77 x ~ 00:44:00
Перевод: Профессиональный (многоголосый, закадровый) LostFilm
Субтитры: нет
Режиссер: Марк Роскин, Дин Девлин, Джонатан Фрейкс
В ролях: Тимоти Хаттон, Джина Беллман, Кристиан Кейн, Бэт Рисграф, Элдис Ходж, Джери Райан, Марк Шеппард, Шон Гудел, Роберт Бланш, Леон Риппи, Элизабетта Каналис, Джералд Дауни, Пит Робертсон, Кэри Матчетт, Сол Рубинек, Диего Санчез, Уил Уитон, Рик Овертон, Дэнни Бруно, Вэл Ландрум, Том Скерритт, Крис Гэнн, Джон Бэйли, Эндрю Дж. Ли....
Описание: Нейт Форд бывший следователь страховой компании возглавляет команду в которую входят: компьютерный мошенник Хардисон, воровка и вообще безбашенная особа Паркер, актриса и мошенница Софи и специалист широкого профиля Эллиот. Эта команда помогает людям пострадавшим от рук сильных мира сего, а попросту — воров.

Качество: WEB-DLRip
Формат: AVI
Видео кодек: XviD
Аудио кодек: MP3
Видео: 656x368 (1.78:1), 23.976 fps, XviD build 63 ~1084 kbps avg, 0.19 bit/pixel
Аудио: 48 kHz, MPEG Layer 3, 2 ch, 128 kbps avg

Список сезонов, серий

1 Сезон
01. Ограбление по-нигерийски / The Nigerian Job
02. Ветеранское дело / The Homecoming Job
03. Дело о двух лошадях / The Two-Horse Job
04. Церковное дело / The Miracle Job
05. Банковское дело / The Bank Shot Job
06. Семейное дело / The Stork Job
07. Свадебное дело / The Wedding Job
08. Дело на большой высоте / The Mile High Job
09. Снежное дело / The Snow Job
10. Дело о реабилитации / The 12-Step Job
11. Дело о присяжном номер 6 / The Juror #6 Job
12. Дело о Первом Давиде / The First David Job
13. Дело о Втором Давиде / The Second David Job
2 Сезон
01. Дело о Бостонской субсидии / The Beantown Bailout Job
02. Дело о поражении / The Tap-Out Job
03. Дело об эпидемии / The Order 23 Job
04. Дело о волшебных феях / The Fairy Godparents Job
05. Дело о "Трёх днях Хантер" / The Three Days of the Hunter Job
06. Дело о фокусах / The Top Hat Job
07. Дело о двух командах / The Two Live Crew Job
08. Ледяное дело / The Ice Man Job
09. Дело о потерянном наследнике / The Lost Heir Job
10. Дело о подиуме / The Runway Job
11. Дело о бутылке / The Bottle Job
12. Дело о Занзибарском базаре / The Zanzibar Marketplace Job
13. Дело о будущем / The Future Job
14. Дело о бейсболе / The Three Strikes Job
15. Дело о Мальтийском соколе / The Maltese Falcon Job
3 Сезон
01. Тюремное дело / The Jailhouse Job
02. Дело об одноклассниках / The Reunion Job
03. Внутреннее дело / The Inside Job
04. Дело о Шахерезаде / The Scheherazade Job
05. Дело о лекарствах / The Double Blind Job
06. Работа в студии / The Studio Job
07. Дело о рыбалке / The Gone-Fishin' Job
08. Дело об угоне / The Boost Job
09. Дело о наперстках / The Three-Card Monte Job
10. Дело о шахте / The Underground Job
11. Дело пятилетней давности / The Rashomon Job
12. Дело о короле Георге / The King George Job
13. Дело о пробуждении / The Morning After Job
14. Дело о рождестве / The Ho, Ho, Ho Job
15. Дело о большом взрыве / The Big Bang Job
16. Дело о Сан-Лоренцо / The San Lorenzo Job
4 Сезон
01. Дело о длинном спуске / The Long Way Down Job
02. Дело "Десять нахалят" / The 10 Li'l Grifters Job
03. Дело пятнадцати минут / The 15 Minutes Job
04. Дело о Ван Гоге / The Van Gogh Job
05. Дело о горячей картошке / The Hot Potato Job
06. Дело о ярмарке / The Carnival Job
07. Смертельно опасное дело / The Grave Danger Job
08. Дело о биржевых махинациях / The Boiler Room Job
09. Дело о клятве / The Cross My Heart Job
10. Дело "Ферзевый гамбит" / The Queen's Gambit Job
11. Дело об эксперименте / The Experimental Job
12. Дело об офисе / The Office Job
13. Дело о вечере для девочек / The Girls' Night Out Job
14. Дело о вечере для мальчиков / The Guys' Night Out Job
15. Дело об одиноких сердцах / The Lonely Hearts Job
16. Дело о золоте / The Gold Job
17. Дело о радио / The Radio Job
18. Дело о дамбе / The Last Dam Job
5 Сезон
01. Дело о большой пташке / The (Very) Big Bird Job
02. Дело о подаче / The Blue Line Job
03. Дело о первом контакте / The First Contact Job
04. Дело о французских связях / The French Connection Job
05. Дело о подборе ключей / The Gimme a K Street Job
06. Дело о Д.Б. Купере / The D.B. Cooper Job
07. Дело о настоящей ненастоящей машине / The Real Fake Car Job
08. Дело о подбитом крыле / The Broken Wing Job
09. Дело о провокации / The Rundown Job
10. Дело о подтасовке / The Frame-Up Job
11. Дело об очень низких ценах / The Low Low Price Job
12. Дело о белом кролике / The White Rabbit Job
13. Дело о штопоре / The Corkscrew Job
14. Игрушечное дело / The Toy Job
15. Дело о долгом прощании / The Long Good-bye Job

Награды

Сатурн, 2012 год
Победитель (1):
Лучшая роль приглашенной звезды в телесериале (Том Скеррит)
Номинации (3):
Лучший телеактер (Тимоти Хаттон)
Лучшая телеактриса второго плана (Бэт Рисграф)
Лучший телесериал, созданный для кабельного телевидения
Сатурн, 2011 год
Номинации (4):
Лучший телеактер (Тимоти Хаттон)
Лучшая телеактриса второго плана (Джина Беллман)
Лучшая телеактриса второго плана (Бэт Рисграф)
Лучший телесериал, созданный для кабельного телевидения
Сатурн, 2010 год
Номинации (3):
Лучший телеактер второго плана (Элдис Ходж)
Лучшая телеактриса второго плана (Джина Беллман)
Лучший телесериал, созданный для кабельного телевидения
Сатурн, 2009 год
Номинации (2):
Лучший телеактер (Тимоти Хаттон)
Лучший телесериал, созданный для кабельного телевидения

MediaInfo

General
Complete name : K:\Video\Leverage (LostFilm)\Воздействие (LostFilm)\Leverage.S01E01.WEB-DLRip.avi
Format : AVI
Format/Info : Audio Video Interleave
File size : 501 MiB
Duration : 57mn 16s
Overall bit rate : 1 222 Kbps
Writing application : VirtualDubMod 1.5.10.3 | www.virtualdub-fr.org || (build 2550/release)
Writing library : VirtualDubMod build 2550/release
Video
ID : 0
Format : MPEG-4 Visual
Format profile : Advanced Simple@L5
Format settings, BVOP : 1
Format settings, QPel : No
Format settings, GMC : No warppoints
Format settings, Matrix : Default (H.263)
Codec ID : XVID
Codec ID/Hint : XviD
Duration : 57mn 16s
Bit rate : 1 085 Kbps
Width : 656 pixels
Height : 368 pixels
Display aspect ratio : 16:9
Frame rate : 23.976 fps
Color space : YUV
Chroma subsampling : 4:2:0
Bit depth : 8 bits
Scan type : Progressive
Compression mode : Lossy
Bits/(Pixel*Frame) : 0.187
Stream size : 444 MiB (89%)
Writing library : XviD 63
Audio
ID : 1
Format : MPEG Audio
Format version : Version 1
Format profile : Layer 3
Mode : Joint stereo
Mode extension : MS Stereo
Codec ID : 55
Codec ID/Hint : MP3
Duration : 57mn 16s
Bit rate mode : Constant
Bit rate : 128 Kbps
Channel(s) : 2 channels
Sampling rate : 48.0 KHz
Compression mode : Lossy
Stream size : 52.4 MiB (10%)
Alignment : Aligned on interleaves
Interleave, duration : 42 ms (1.00 video frame)
Interleave, preload duration : 504 ms
Writing library : LAME3.98r
Encoding settings : -m j -V 4 -q 0 -lowpass 17 -b 128

Скриншоты

mihis

Post 09-Apr-2018 14:38

[Quote]

Андромеда / Andromeda5 сезонов: 110 серии + Дополнения«Когда вселенная во власти хаоса» Год выпуска: 2000-2005
Страна: США, Канада, BLT Productions, Fireworks Entertainment, Global, MBR Productions Inc., Tribune Entertainment.
Жанр: Фантастика, боевик, приключения
Продолжительность: 110 x ~ 00:42:00
Перевод: Профессиональный (многоголосый, закадровый) СТС
Субтитры: нет
Режиссер: Хорхе Монтеси, Мартин Вуд, Майкл Робисан, Аллен Крокер, Т.Дж. Скотт, Брентон Спенсер, Дж. Майлз Дэйл, Гордон Верхел, Аллан Истмэн, Ричард Флауер, Дэвид Уиннинг, Питер ДеЛуис, Брэд Тёрнер, Аллан Хэрмон, Майк Рол, Дэвид Уарри-Смит
В ролях: Кевин Сорбо, Лиза Райдер, Лекса Дойг, Кит Гамильтон Кобб, Лаура Бертрам, Брент Стейт, Гордон Майкл Вулветт, Стив Бакич, Себастьян Спэнс, Роджер Гросс, Найджел Беннетт, Энди Фриззелл, Джеймс Мастерс
Описание: В 9784 году по летоисчеслению Содружества, ницшеанцы подняли восстание против Содружества Систем, стремясь избавиться от контроля и установить собственный порядок. Началась война, исход которой должен был изменить весь мир. Дабы не допустить победы врага, на встречу их флоту был направлен крейсер Звёздной Гвардии Содружества «Созвездие Андромеды» под командованием капитана Дилана Ханта. Однако, самое мощное судно из когда-либо созданных людьми, попало в западню ницшеанского флота. Не видя никаких возможностей спастись, капитан отдал приказ экипажу эвакуироваться с корабля. Сама же «Андромеда» вместе с капитаном Хантом стала пленником временной аномалии на границе чёрной дыры в системе Гефеста. Вскоре Содружество Систем было повержено, однако, Ницшеанская Империя так и не была создана. С этого времени вселенная погрузилась во тьму и хаос «Долгой Ночи». Прошло 303 года, прежде чем корабль «Эврика Мару», находящийся под командованием Беки Валентайн, смог вытащить когда-то могущественное судно Содружества с орбиты чёрной дыры. Для всех жителей вселенной прошло 303 года, тогда как для Дилана Ханта прошло лишь одно мгновение. Объединившись с членами экипажа «Эврики Мару», капитан Хант взялся за миссию по восстановлении Содружества Систем, прекрасно зная, что этот путь к его цели будет долгим и сложным.

Качество: DVDRip
Формат: AVI
Видео кодек: XviD
Аудио кодек: МР3
Видео: 720x400 (1.80:1), 29.970 fps, XviD build 47 ~1472 kbps avg, 0.17 bit/pixel
Аудио #1: 48 kHz, MPEG Layer 3, 2 ch, ~128.00 kbps avg MVO
Аудио #2: 48 kHz, MPEG Layer 3, 2 ch, ~128.00 kbps avg Eng

Название серий

1 Сезон
01. Под покровом ночи (Under The Night)
02. Пламя надежды (Affirming Flame)
03. Опаленные огнем судьбы (To Loose The Fateful Lightning)
04. Первая кровь (D Minus Zero)
05. Двойная спираль (Double Helix)
06. Темный ангел, светлый демон (Angel Dark, Demon Bright)
07. Слепое родство (The Ties That Blind)
08. На берегах Леты (Banks Of The Lethe)
09. Роза в пепле (Rose In The Ashes)
10. В океанских глубинах Нептуна (All Great Neptune's Ocean)
11. Жемчужины, которые были его глазами (Pearls That Were His Eyes)
12. Уравнение слез (Mathematics Of Tears)
13. Бой далекого барабана (Music Of A Distant Drum)
14. Харпер, версия 2.0 (Harper 2.0)
15. Навязанная перспектива (Forced Perspective)
16. Сумма слагаемых (Sum Of Its Parts)
17. Страх и презрение на Млечном Пути (Fear And Loathing In The Milky Way)
18. Дьявол берет отстающего (Devil Take The Hindmost)
19. Брачное предложение (Honey Offering)
20. Проклятые звездами (Star-Crossed)
21. Источник дивного света (It Makes A Lovely Light)
22. Час превращений (Its Hour Come Round At Last)
2 Сезон
01. На краю бездны (The Widening Gyre)
02. Стратегия отступления (Exit Strategies)
03. Сердце - подделка (A Heart For Falsehood Framed)
04. Безжалостна, как солнце (Pitiless As The Sun)
05. Момент истины (Last Call At The Broken Hammer)
06. Слишком по-человечески (All Too Human)
07. Надежда обреченных (Una Salus Victus)
08. Пожар в доме (Home Fires)
09. По лабиринту (Into the Labyrinth)
10. Принц (The Prince)
11. Мятеж (Bunker Hill)
12. Круг замкнулся (Ouroboros)
13. Лава и ракеты (Lava and Rockets)
14. Помяни меня в молитвах (Be All My Sins Remembered)
15. Танец мотыльков (Dance of the Mayflies)
16. Теперь на небесах трое (In Heaven Now Are Three)
17. То, что нам не изменить (The Things We Cannot Change)
18. Путь в неведомое (The Fair Unknown)
19. В брюхе у чудовища (Belly of the Beast)
20. Рыцарь, смерть и дьявол (The Knight, Death and the Devil)
21. Непорочное зачатие (Immaculate Perception)
22. Туннель в конце света (Tunnel at the End of the Light)
3 Сезон
01. Колесо судьбы (If the Wheel Is Fixed)
02. Осколки из Римни (The Shards of Rimni)
03. Спасение безумцев (Mad To Be Saved)
04. Кому выгодно? (Cui Bono?)
05. Пустынные песчаные равнины (The Lone and Level Sands)
06. Истребление псов войны (Slipfighter The Dogs Of War)
07. Поцелуй прокаженного (The Leper's Kiss)
08. По ком звонит колокол (For Whom The Bell Tolls)
09. И твое сердце улетит прочь (And Your Heart Will Fly Away)
10. Непобедимый (The Unconquerable Man)
11. Похитить и уничтожить (Delenda Est)
12. Туманное прошлое (The Dark Backward)
13. Тотальный риск (The Risk-All Point)
14. Верная лошадка (The Right Horse)
15. Отсроченное блаженство (What Happens to a Rev Deferred)
16. На острие копья (Point of the Spear)
17. Небесный свод (Vault of the Heavens)
18. Голос глубокой ночи (Deep Midnight's Voice)
19. Иллюзия величия (Illusions of Majesty)
20. Сумерки идолов (Twilight of the Idols)
21. Судный день (Day of Judgement, Day of Wrath)
22. Тени прощального салюта (Shadows Cast By a Final Salute)
4 Сезон
01. Ответы на незаданные вопросы (Answers Given To Questions Never Asked)
02. Части восьми (Pieces of Eight)
03. Пробуждая орудие тирана (Waking The Tyrant's Device)
04. Вдвойне или ничто (Double or Nothingness)
05. Харпер/Удаление (Harper/Delete)
06. Приближаясь к водовороту (Soon The Nearing Vortex)
07. Мир вращается вокруг нее (The World Turns All Around Her)
08. Проводник Судьбы (Conduit to Destiny)
09. Механика сознания (Machinery of the Mind)
10. Достойная причина - прекрасная дочь (Exalted Reason, Resplendеnt Daughter)
11. Пытка и освобождение (The Torment, The Release)
12. Хитрость паука (The Spider's Stratagem)
13. Тепло невидимого света (The Warmth of An Invisible Light)
14. Другие (The Others)
15. Страх, сжигающий дотла (Fear Burns Down To Ashes)
16. Затерянные в чужом космосе (Lost In Space That Isn't There)
17. Сокращая деление зла (Abridging the Devil's Divide)
18. Гордиев лабиринт (Trusting The Gordian Maze)
19. Симметрия несовершенства (The Symmetry Of Imperfection)
20. Безумное время (Time Out Of Mind)
21. В диссонансом Интервале - Часть 1 (The Dissonant Interval - Part One)
22. В диссонансом Интервале - Часть 2 (The Dissonant Interval - Part Two)
5 Сезон
01. Бремя, часть первая (The Weight)
02. Бремя, часть вторая (The Weight)
03. Феномен фактора страха (Phear Phactor Phenom)
04. Падение Ангела (Decay of the Angel)
05. Конец Нашего Настоящего (The Eschatology of Our Present)
06. По кругу... (When Goes Around...)
07. Попытка познания (Attempting Screed)
08. Выжженные Священные Земли (So Burn The Untamed Lands)
09. Того, что будет, не было (What Will Be Was Not)
10. Проверка (The Test)
11. Сквозь мутное стекло (Through A Glass Darkly)
12. Гордыня до беды доведет (Pride Before The Fall)
13. Тебе идет лунный свет (Moolight Becomes You)
14. Унылое прошлое (Past Is Prolix)
15. Обратная сторона привлекательности (The Opposite Of Attractiom)
16. Спасая свет от темного солнца (Saving Light From A Black Sun)
17. Вспомнив всё (Totaled Recall)
18. Бред квантового трактата (Quantum Tratate Delirium)
19. Свет еще одного дня (One More Day)
20. Хаос и его неподвижность (Chaos And The Stillness Of It)
21. Сердце пути (часть первая) (The Heart Of The Journey (Part 1))
22. Сердце пути (часть вторая) (The Heart Of The Journey (Part 2))
Дополнительно
Bonus/Ogovorki: Вырезанные смешные сцены с оговорками.
Bonus/Dopolnitelno: Удалённые сцены и съёмки фильма.

MediaInfo

Общее
Полное имя : G:\Video\Andromeda.(1-5.sezony.iz.5.and.bonus).2000-2005.XviD.DVDRip\Sezon-1\Andromeda.(1.sezon.01.seriya.iz.22).2000.XviD.DVDRip.avi
Формат : AVI
Формат/Информация : Audio Video Interleave
Размер файла : 537 Мбайт
Продолжительность : 42 м.
Общий поток : 1749 Кбит/сек
Программа кодирования : VirtualDubModRus 1.5.10.2 (build 2540/release)
Библиотека кодирования : VirtualDubMod build 2540/release
Видео
Идентификатор : 0
Формат : MPEG-4 Visual
Профиль формата : Advanced Simple@L5
Параметр BVOP формата : 1
Параметр QPel формата : Нет
Параметр GMC формата : Без точки перехода
Параметр матрицы формата : Default (H.263)
Идентификатор кодека : XVID
Идентификатор кодека/Подсказка : XviD
Продолжительность : 42 м.
Битрейт : 1413 Кбит/сек
Ширина : 720 пикселей
Высота : 400 пикселей
Соотношение сторон : 16:9
Частота кадров : 29,970 кадров/сек
Цветовое пространство : YUV
Субдискретизация насыщенности : 4:2:0
Битовая глубина : 8 бит
Тип развёртки : Прогрессивная
Метод сжатия : С потерями
Бит/(Пиксели*Кадры) : 0.164
Размер потока : 434 Мбайт (81%)
Библиотека кодирования : XviD 1.2.0.dev47 (UTC 2006-11-01)
Аудио #1
Идентификатор : 1
Формат : MPEG Audio
Версия формата : Version 1
Профиль формата : Layer 3
Режим : Joint stereo
Расширение режима : MS Stereo
Идентификатор кодека : 55
Идентификатор кодека/Подсказка : MP3
Продолжительность : 42 м.
Вид битрейта : Постоянный
Битрейт : 128 Кбит/сек
Каналы : 2 канала
Частота : 48,0 КГц
Метод сжатия : С потерями
Размер потока : 39,3 Мбайт (7%)
Выравнивание : Соединение по промежуткам
Библиотека кодирования : LAME3.97
Аудио #2
Идентификатор : 2
Формат : MPEG Audio
Версия формата : Version 1
Профиль формата : Layer 3
Идентификатор кодека : 55
Идентификатор кодека/Подсказка : MP3
Продолжительность : 42 м.
Вид битрейта : Постоянный
Битрейт : 128 Кбит/сек
Каналы : 2 канала
Частота : 48,0 КГц
Метод сжатия : С потерями
Размер потока : 39,3 Мбайт (7%)
Выравнивание : Соединение по промежуткам
Библиотека кодирования : LAME3.97
Настройки программы : -m s -V 4 -q 2 -lowpass 17 -b 128

Скриншоты

mihis

Post 09-Apr-2018 11:37

[Quote]

- - Мотель Бейтса / Мотель Бэйтс / Bates Motel
1-5 сезоны: 1-50 серии из 50
- Информация о фильме:
Название: Мотель Бейтса
Оригинальное название: Bates Motel
Год выхода: 2013 - 2017
Жанр: триллер, детектив, ужасы
Режиссер: Такер Гейтс
В ролях: Вера Фармига, Фредди Хаймор, Макс Тириот, Оливия Кук, Никола Пельтц, Нестор Карбонелл, Майк Фогель, Киган Коннор Трейси

Описание фильма:
Снято по мотивам культового фильма Альфреда Хичкока «Психо» 1960 года. Bates Motel является современным приквелом этого фильма. Зрители увидят, как формировалась психика Нормана Бейтса в подростковые годы. Это тёмная и запутанная предыстория, рассказывающая о сложных взаимоотношениях Нормана с его матерью Нормой и о том, как она повлияла на становление известного серийного убийцы. После трагической смерти мужа Норма Бейтс покупает мотель близ идиллического прибрежного города Уайт-Пайн Бэй, чтобы начать с чистого листа. Пока Норма и Норман устраиваются в новом доме, они обнаруживают, что этот город не совсем такой, как кажется, и местные жители не желают раскрывать свои тайны. Ситуация становится опасной, и Бейтсы сделают всё, чтобы выжить - и всё, чтобы защитить собственные тайны.

Страна: США, The Wolper Organization, Universal Television
Продолжительность: 50 x ~ 00:43:00 серия
Перевод: профессиональный (многоголосый, закадровый)
- LostFilm

Информация о файле:

Качество: WEB-DLRip
Кодек: XviD
Формат: AVI
Видео: 720x400 (1.80:1), 23.976 fps, XviD build 64 ~1558 kbps avg, 0.20 bit/pixel
Аудио RU: 48 kHz, MPEG Layer 3, 2 ch, ~192.00 kbps avg
Субтитры: отсутствуют

Название серий

1 сезон:
01. Сначала сон, а следом - смерть / First You Dream, Then You Die
02. Хороший городок ты выбрала, Норма... / Nice Town You Picked, Norma...
03. Что не так с Норманом? / What's Wrong with Norman
04. Доверься мне / Trust Me
05. Вид на океан / Ocean View
06. Правда / The Truth
07. Мужчина из девятого номера / The Man in Number 9
08. Мальчик и его собака / A Boy and His Dog
09. Безвыходное положение / Underwater
10. Полночь / Midnight
2 сезон:
01. Ушла, но не забыта / Gone But Not Forgotten
02. Тень сомнения / Shadow of a Doubt
03. Калеб / Caleb
04. Выписка / Check-Out
05. Иллюзионист-эскапист / The Escape Artist
06. Нырок / Plunge
07. Презумпция невиновности / Presumed Innocent
08. Выяснение отношений / Meltdown
09. Ящик / The Box
10. Непреложная истина / The Immutable Truth
3 сезон:
01. Смерть в семье / A Death in the Family
02. Клуб Аркан / The Arcanum Club
03. Убеждение / Persuasion
04. Несокрушимые / Unbreak-Able
05. Сделка / The Deal
06. Норма Луиза / Norma Louise
07. Тайная вечеря / The Last Supper
08. Яма / The Pit
09. Не в своем уме / Crazy
10. Психоз / Unconscious
4 сезон:
01. Опасен для себя и окружающих / A Danger to Himself and Others
02. Спокойной ночи, мама / Goodnight, Mother
03. Пока смерть не разлучит вас / 'Til Death Do You Part
04. Зимние огни / Lights of Winter
05. Преломление / Refraction
06. Cейф / The Vault
07. Нет места милее родного дома / There's No Place Like Home
08. Неверная / Unfaithful
09. Навсегда / Forever
10. Норман / Norman
5 сезон:
01. Темный рай / Dark Paradise
02. Сближение двоих / The Convergence of the Twain
03. Дурная кровь / Bad Blood
04. Скрытая / Hidden
05. Первыми погибают мечты / Dreams Die First
06. Мэрион / Marion
07. Неразлучные / Inseparable
08. Тело / The Body
09. Часы посещения / Visiting Hours
10. Нить / The Cord

Скриншоты

mihis

Post 09-Apr-2018 11:10

[Quote]

Элен и ребята / Helene et les garcons
280 Серий

Год выпуска: 1992-1994
Страна: Франция, AB Productions, Eustache Productions, TF1
Жанр: Драма, комедия
Продолжительность: 280 х ~ 00:25:00
Перевод: Профессиональный (двухголосый, закадровый) Рет-ТВ, ОРТ

Профессиональный (двухголосый, закадровый) Силена + Оригинал
Субтитры: нет
Режиссер: Жак Самин, Кристоф Грежуа, Жерар Эспинасс, Марианн Фоссорье, Нино Монти, Ноэль Рошар, Жан-Пьер Спьеро, Кристоф Салаша
В ролях: Элен Ролле, Патрик Пьюдеба, Рошелль Редфилд, Карин Лоллишон, Себастьен Рок, Филипп Вассёр, Лор Гибер, Себастьен Куриво, Лели Меньян, Мануэла Лопез, Николя Бикьяло, Кати Андриё, Давид Пру, Линда Лакосте, Оливье Севестр, Эрик Дитрих, Дэвид Брекот, Летиция Габриелли, Даррен Фаус, Каню Муринги, Агнес Досси, Фабрис Джоссо, Кэролайн Хэм, Стефан Кэй, Терри Шэйн, Элоди Озанн, Николас Шмит, Изабель Буис, Аннетт Шрайбер, Дидье Азулай, Жерар Вайвз, Изабелль Алексис, Робер Планьоль, Маргарет Редмонд, Бруно Флендер, Матильда Россет
Описание: Молодежный сериал про взаимоотношения молодых людей. Сериал рассказывает о жизни французких студентов. Все они учатся в университете, живут в общежитии, дружат, любят друг друга, ссорятся, расходятся, мирятся, играют в музыкальной группе. Главная героиня сериала - Элен. В сериале героиня Элен очень правильная и местами даже занудная девушка. Её любовь - Юноша Николя. Еще одна пара в сериале - Лали и Себастьян. Ну а самые взбалмошые и эксцентричные влюбленные, конечно же, неугомонная техаская Джоанна и её "малыш" Кри-Кри. На протяжнии сериала одни герои покидали его, но на их место приходили новые...

Качество: DVDRip
Формат: AVI
Видео кодек: XviD
Аудио кодек: MP3
Видео: MPEG4, XviD, 720x544 (4:3), 25.000 fps, 1 780 Kbps (0.182 bit/pixel)
Аудио #1: MP3, 44.1 KHz, 2 ch, 192 Kbps, CBR DVO Рет-ТВ, ОРТ
Аудио #2: MP3, 44.1 KHz, 2 ch, 192 Kbps, CBR DVO Силена
Аудио #3: MP3, 44.1 KHz, 2 ch, 192 Kbps, CBR Fra

Название серий

1. Встреча
2. День рождения Кати
3. Еще один парень
4. Вещий сон
5. Размолвка
6. Признание в любви
7. Джимми
8. Ночь, проведенная вместе
9. Уикенд
10. Мое сердце колеблется
11. Проверка
12. Водительские права
13. Приступ хондры
14. День, заполненный работой
15. Потрясающая новость
16. Удачный случай
17. Танцевальная ночь
18. Папа
19. Фотомодель
20. Кумир факультета
21. Новое увлечение
22. Гонка
23. Свадьба
24. Трудный разрыв
25. Деликатная миссия
26. Милое безумство
27. Чертовски классный тип
28. Ну и гусь
29. Кассета
30. Томас
31. Двойная игра
32. Смятение
33. Соринка в глазу
34. Новая жизнь
35. Разоблачение
36. Операция катапульта
37. Трудные признания
38. Жизнь продолжается
39. Контратака
40. Красивый профиль
41. Любовь выше гран-при
42. Бал вампиров
43. Корь
44. Ветер из Техаса
45. Кто посеет ветер, тот пожнет бурю
46. Отъезд
47. Седрик
48. Розыгрыш
49. Частный детектив
50. Песня
51. Запись
52. Звукоинженер просто золото
53. Запись века
54. Ложь
55. Катастрофа
56. На дне
57. Прощение
58. Промоутер
59. Сон о шедевре
60. Вечер Рока (часть 1)
61. Вечер Рока (часть 2)
62. Сумка из крокодиловой кожи
63. Раскаяние
64. Подруга детства
65. Удар молнии
66. Великий Маниту
67. Фанатки
68. Финляндия
69. Новенькие
70. Вакантное место
71. Изгнание
72. Водосточная труба
73. Подозрение
74. Чужак
75. Западня
76. Потрясающий ударник
77. Несчастный случай
78. Гутанани
79. Видеокамера
80. Склока
81. Слабое зрение
82. Розовый галстук
83. Новая эра
84. Индейский отвар
85. Секрет
86. Высокая рыжая
87. На краю пропасти
88. Друзья
89. Портрет
90. Возвращение (часть 1)
91. Возвращение (часть 2)
92. Англия (часть 1)
93. Англия (часть 2)
94. Холостяцкая жизнь
95. Возвращение домой
96. Диана
97. Прощание
98. Неожиданная развязка
99. Непристроенная англичанка
100. Искушение (часть 1)
101. Искушение (часть 2)
102. Искушение (часть 3)
103. Еще одна измена
104. Еще одна потеря
105. Один
106. Безумие
107. Самый черный день
108. Разоблачение
109. Изумительная подруга
110. Возвращение в гавань
111. Новая любовь
112. Поэма
113. Волшебная песня
114. Кража
115. Тайна Аньес
116. Счастье
117. Любимый Кри-Кри
118. Возвращение любви
119. Фитиль и пороховая бочка
120. И снова любовь
121. Троянский конь
122. Сомнение
123. Контракт
124. Танцевальная музыка
125. Неразбериха
126. Попавший в западню
127. Проблема без решения
128. Квадратура круга
129. Предательство
130. Жизнь прекрасна
131. Новые друзья
132. Встречи
133. Подпольщики
134. Угрызения совести
135. Драма
136. Раскаяние
137. Нежность
138. Выздоровление
139. Рецидив
140. Хитрость
141. Неуловимый
142. Еще неостывшее место
143. Конфликт в группе
144. Приступ безумия
145. Замена
146. Попытки
147. Откровение
148. Обретение себя
149. Окончание каникул
150. За пределом
151. Возвращение к старому
152. Изменение
153. Сладкие мгновенья
154. Потихоньку
155. Недопустимое
156. Все непросто
157. Недоразумение
158. Большое счастье
159. Авторское полотно
160. Четко и ясно
161. Волнения
162. Копилка секретов
163. Мир тесен
164. Простить не значит победить
165. Выбор
166. Предложение
167. Икота
168. Отказ
169. Выбирай
170. Билет в один конец
171. Конец эпохи
172. Умножение на 2
173. Соперник
174. Ошибка
175. Как прежде
176. Мятеж
177. Без жилья
178. Ограбление
179. Подлость
180. Мужество
181. Клуб
182. Сложная ситуация
183. Классная распашонка
184. Резкое увеличение рождаемости
185. Паэлья
186. Трудное завтра
187. Несостоявшаяся репетиция
188. Искры
189. Опасность
190. Мерзавцы
191. Знак благодарности
192. Возвращение в город
193. Неразбериха
194. Приятель
195. Великий день
196. Затоваривание
197. Смена имиджа
198. Большая спячка
199. Мучительный конец
200. Сюрприз
201. Красная карточка
202. Упрямство
203. Хондра
204. Рози
205. Конкурс
206. Спасение
207. Урок вождения
208. Согласие
209. Тревога
210. Заза
211. Глупое пари
212. Ошибка
213. Новый поворот событий
214. Воспоминания
215. Сближение
216. Затруднительное положение
217. Мера предосторожности
218. Ловушка
219. Затворница
220. Единение
221. Тайное свидание
222. Находка
223. Наверстывание упущенного
224. Шок
225. Сделка
226. Новый композитор
227. Дружба
228. Соперничество
229. Трудный сеанс
230. Самая длинная ночь
231. Отрезвление
232. Опасный поворот
233. Перекресток
234. Взятие в руки
235. Неожиданность
236. Презентация
237. Безумные каникулы
238. Гениальная идея
239. Снимки
240. Неудачная попытка
241. Сестры-враги
242. В единении сила
243. Подготовка
244. Переезд
245. Великий вечер
246. Опасное алиби
247. Очевидное преступление
248. Оригинальная кража
249. Ссора
250. Творение
251. Терпение
252. Свершившийся факт
253. Возврат к истоку
254. Трудное прошлое
255. Стыд
256. Грязная
257. Искупление
258. Обновление
259. Сумашедшая сваха
260. Ошибка в расчетах
261. Вторжение
262. Загадочность
263. Кольцо
264. Театральность
265. Решение
266. Продвижение
267. Ночь не дома
268. Бразильский амулет
269. Девушка с собачкой
270. Уход в сторону
271. Дезертирство
272. Замена
273. Девушка среди парней
274. Новый парень
275. Переменщина
276. Дурной глаз
277. Мольба
278. Зуд
279. Рот на замок
280. Развязка

MediaInfo

Общее
Полное имя : D:\Video\Yelen.i.rebyata.(001-280).1993.XviD.DVDRip\Yelen.i.rebyata.(001.seriya.iz.280).1993.XviD.DVDRip.avi
Формат : AVI
Формат/Информация : Audio Video Interleave
Размер файла : 371 Мбайт
Продолжительность : 21 м.
Общий поток : 2376 Кбит/сек
Название фильма : Элен и ребята - Знакомство (эпизод#1)
Программа кодирования : VirtualDubMod 1.5.10.2 (build 2540/release)
Библиотека кодирования : VirtualDubMod build 2540/release
Правообладатель : [Molen&Co]
Видео
Идентификатор : 0
Формат : MPEG-4 Visual
Профиль формата : Simple@L3
Параметр BVOP формата : 2
Параметр QPel формата : Нет
Параметр GMC формата : Без точки перехода
Параметр матрицы формата : Default (MPEG)
Режим смешивания : Сжатый битовый поток
Идентификатор кодека : XVID
Идентификатор кодека/Подсказка : XviD
Продолжительность : 21 м.
Битрейт : 1780 Кбит/сек
Ширина : 720 пикселей
Высота : 544 пикселя
Соотношение сторон : 5:4
Соотношение сторон в оригинале : 4:3
Частота кадров : 25,000 кадров/сек
Цветовое пространство : YUV
Субдискретизация насыщенности : 4:2:0
Битовая глубина : 8 бит
Тип развёртки : Прогрессивная
Метод сжатия : С потерями
Бит/(Пиксели*Кадры) : 0.182
Размер потока : 278 Мбайт (75%)
Библиотека кодирования : XviD 1.0.1 (UTC 2004-06-05)
Аудио #1
Идентификатор : 1
Формат : MPEG Audio
Версия формата : Version 1
Профиль формата : Layer 3
Идентификатор кодека : 55
Идентификатор кодека/Подсказка : MP3
Продолжительность : 21 м.
Вид битрейта : Постоянный
Битрейт : 192 Кбит/сек
Каналы : 2 канала
Частота : 44,1 КГц
Метод сжатия : С потерями
Размер потока : 30,0 Мбайт (8%)
Выравнивание : Разделение по промежуткам
Продолжительность промежутка : 40 мс. (1,00 видеокадр)
Время предзагрузки промежутка : 500 мс.
Аудио #2
Идентификатор : 2
Формат : MPEG Audio
Версия формата : Version 1
Профиль формата : Layer 3
Идентификатор кодека : 55
Идентификатор кодека/Подсказка : MP3
Продолжительность : 21 м.
Вид битрейта : Постоянный
Битрейт : 192 Кбит/сек
Каналы : 2 канала
Частота : 44,1 КГц
Метод сжатия : С потерями
Размер потока : 30,0 Мбайт (8%)
Выравнивание : Разделение по промежуткам
Продолжительность промежутка : 40 мс. (1,00 видеокадр)
Время предзагрузки промежутка : 500 мс.
Аудио #3
Идентификатор : 3
Формат : MPEG Audio
Версия формата : Version 1
Профиль формата : Layer 3
Идентификатор кодека : 55
Идентификатор кодека/Подсказка : MP3
Продолжительность : 21 м.
Вид битрейта : Постоянный
Битрейт : 192 Кбит/сек
Каналы : 2 канала
Частота : 44,1 КГц
Метод сжатия : С потерями
Размер потока : 30,0 Мбайт (8%)
Выравнивание : Разделение по промежуткам
Продолжительность промежутка : 40 мс. (1,00 видеокадр)
Время предзагрузки промежутка : 500 мс.

Скриншоты

mihis

Post 09-Apr-2018 10:57

[Quote]

Скорая помощь / ER
«A true medical marvel»
15 сезонов, 331 серия + Бонус

Год выпуска: 1994-2009
Страна: США, Warner Bros. Television, John Wells Productions, Hands Down Entertainment, Constant c Productions, Amblin Television
Жанр: Драма
Продолжительность: 330 x ~ 00:44:00 / 2 x ~ 01:24:00
Перевод: Профессиональный (многоголосый, закадровый) НТВ
Субтитры: нет
Режиссер: Кристофер Чулак, Джон Уэллс, Пол МакКрейн, Чарльз Хейд, Эндрю Бернштейн
В ролях: Ной Уайл, Энтони Эдвардс, Джордж Клуни, Джулианна Маргулис, Лора Иннес, Шерри Стрингфилд, Эрик Ла Саль, Алекс Кингстон, Глория Рубен, Келли Мартин, Мария Белло, Эрик Паладино, Джорджа Фокс, Пол МакКрейн, Горан Виснич, Мойра Тирни, Майкл Мишель, Минь-На, Лиланд Орсер, Меки Файфер, Шариф Аткинс, Шейн Уэст, Пармингер Награ, Скотт Граймс, Линда Корделлини, Уильям Эйч. Мейси, Дон Айлвард, С.С.Эйч.Поундер, Лаура Серон, Иветта Фримен, Дезер Ди, Абрахам Бенруби, Эллен Кроуфорд, Эми Аквино....
Описание: Герои остросюжетного сериала «Скорая помощь» — врачи чикагской городской больницы. Они оказывают экстренную помощь пациентам, спасают человеческие жизни, забывая порой о себе и совершенно не думая о том, что их каждодневная работа граничит с героизмом. Выполняя свой профессиональный долг, врачи «Скорой помощи» влюбляются, разводятся, плетут интриги, надеются на лучшее и… в общем, у них все как у людей, несмотря на трудную работу и высокое призвание.

Качество: WEB-DLRip
Формат: AVI
Видео кодек: XviD
Аудио кодек: MP3
Видео: 624x352 (1.77:1), 23.976 fps, XviD build 65 ~851 kbps avg, 0.16 bit/pixel
Аудио: 44.100 kHz, MPEG Layer 3, 2 ch, ~128.00 kbps avg

Список сезонов

Сезон 1

01х01 (001) — День первый (24 Hours (Pilot))
01х02 (002) — День первый (Day One)
01х03 (003) — Возвращение домой (Going Home)
01х04 (004) — Этой хорошей ночью (Into That Good Night)
01х05 (005) — Бей и беги (Hit and Run)
01х06 (006) — Жара в Чикаго (Chicago Heat)
01х07 (007) — Ещё один прекрасный день (Another Perfect Day)
01х08 (008) — Девять с половиной часов (9 1/2 Hours)
01х09 (009) — Секреты Скорой помощи (ER Confidential)
01х10 (010) — Буран (Blizzard)
01х11 (011) — Подарок (The Gift)
01х12 (012) — С новым годом! (Happy New Year)
01х13 (013) — Счастливый билет (Luck of the Draw)
01х14. (014) — Долгое путешествие (Long Day's Journey)
01х15 (015) — 5 февраля 1995 год (Feb 5, '95)
01х16 (016) — Дело двух сердец (Make of Two Hearts)
01х17 (017) — День рождения (The Birthday Party)
01х18 (018) — Неспящие в Чикаго (Sleepless in Chicago)
01х19 (019) — Бесплодные усилия любви (Love's Labor Lost)
01х20 (020) — Полная луна, субботняя ночь (Full Moon, Saturday Night)
01х21 (021) — Карточный домик (House of Cards)
01х22 (022) — Человек предполагает, а Бог располагает (Men Plan, God Laughs)
01х23 (023) — Любовь на развалинах (Love Among the Ruins)
01х24 (024) — Материнство (Motherhood)
01х25 (025) — Всё новое - это хорошо забытое старое (Everything Old Is New Again)

Сезон 2

02х01 (026) — С возвращением, Картер (Welcome Back Carter!)
02х02 (027) — Летний пробег (Summer Run)
02х03 (028) — Сделать раз, учите два, убейте три (Do One, Teach One, Kill One)
02х04 (029) — Какая жизнь? (What Life?)
02х05 (030) — Ребенок сделал второй шаг (And Baby Makes Two)
02х06 (031) — День как день (Days Like This)
02х07 (032) — Ад и паводок (Hell and High Water)
02х08 (033) — Секретный акционер (The Secret Sharer)
02х09 (034) — Дом (Home)
02х10 (035) — Чудо случается здесь (A Miracle Happens Here)
02х11 (036) — Мертвый из зимы (Dead of Winter)
02х12 (037) — Истинная ложь (True Lies)
02х13 (038) — Это не легко быть Грином (It's Not Easy Being Greene)
02х14 (039) — Правильные вещи (The Right Thing)
02х15 (040) — Ливень ребенка (Baby Shower)
02х16 (041) — Целители (The Healers)
02х17 (042) — Игра состязания (The Match Game)
02х18 (043) — Изменение ночью (A Shift in the Night)
02х19 (044) — Огонь в животе (Fire in the Belly)
02х20 (045) — Лихорадка неизвестного происхождения (Fevers of Unknown Origin)
02х21 (046) — Взять эти крылья (Take These Broken Wings)
02х22 (047) — Джон Картер, доктор медицины. (John Carter, M.D.)

Сезон 3

03x01 (048) — Доктор Картер, полагаю (Dr. Carter, I Presume)
03x02 (049) — Пусть начнутся игры (Let the Games Begins)
03x03 (050) — Не говори (Don’t Ask, Don’t Tell)
03x04 (051) — Последний звонок (Last Call)
03x05 (052) — Хэллоуин (Ghosts)
03x06 (053) — Страх полёта (Fear of Flying)
03x07 (054) — Главное — спасти мозг (No Brain, No Gain)
03x08 (055) — Вокзал 'Юнион Стейшн' (Union Station)
03x09 (056) — Не спросишь — не совру (Ask Me No Questions, I’ll Tell You No Lies)
03x10 (057) — Праздник без крыши над головой (Homeless for the Holidays)
03x11 (058) — Ночная смена (Night Shift)
03x12 (059) — Аутопсия (Post Mortem)
03x13 (060) — Пасынки Фортуны (Fortune’s Fools)
03x14 (061) — Кому вырезать аппендикс? (Whose Appy Now?)
03x15 (062) — Обходной путь (The Long Way Around)
03x16 (063) — Вера (Faith)
03x17 (064) — 12 колен израилевых (Tribes)
03x18 (065) — Ставка — жизнь (You Bet Your Life)
03x19 (066) — Доктор Хэтуэй, к больному! (Calling Dr. Hathaway)
03x20 (067) — Случайности (Random Acts)
03x21 (068) — Загадай желание (Make A Wish)
03x22 (069) — Ещё по одной на дорожку (One More for the Road)

Сезон 4


04x01 (070) — Засада (Ambush)
04x02 (071) — Что-то новенькое (Something New)
04x03 (072) — Игра с огнем (Friendly Fire)
04x04 (073) — Час пик (When the Bough Breaks)
04x05 (074) — Ложка мёда, ложка дегтя (Good Touch, Bad Touch)
04x06 (075) — Нулевая точка (Ground Zero)
04x07 (076) — Отцы и сыновья (Fathers and Sons)
04x08 (077) — Кунсткамера (Freak Show)
04x09 (078) — Сопротивление правосудию (Obstruction of Justice)
04x10 (079) — Посмотри и увидишь (Do You See What I See?)
04x11 (080) — Пикантные фантазии (Think Warm Thoughts)
04x12 (081) — Лёд и пламень (Sharp Relief)
04x13 (082) — Выбор Картера (Carter’s Choice)
04x14 (083) — Семейная практика (Family Practice)
04x15 (084) — Исход (Exodus)
04x16 (085) — Сторож брата моего (My Brother’s Keeper)
04x17 (086) — Кровавая баня (A Bloody Mess)
04x18 (087) — Инстинктивная реакция (Gut Reaction)
04x19 (088) — В тумане (Shades of Grey)
04x20 (089) — Прошлого стыжусь, грядущего боюсь (Of Past Regret and Future Fear)
04x21 (090) — Пустите детей приходить ко мне (Suffer the Little Children)
04x22 (091) — Дыра в сердце (A Hole in the Heart)

Сезон 5


05x01 (092) — Один день Люси Найт (Day for Knight)
05x02 (093) — Доли секунды (Split Second)
05x03 (094) — Здесь лечат лошадей, не правда ли? (They Treat Horses, Don’t They?)
05x04 (095) — Чудесное исчезновение (Vanishing Act)
05x05 (096) — Маскарад (Masquerade)
05x06 (097) — Прилепись душой и телом (Stuck on You)
05x07 (098) — Туман в голове (Hazed and Confused)
05x08 (099) — Не жалея себя (The Good Fight)
05x09 (100) — Будь счастлива, Руфь Джонсон (Good Luck, Ruth Johnson)
05x10 (101) — Чудодей (The Miracle Worker)
05x11 (102) — Никто не любит Аманду Ли (Nobody Doesn’t Like Amanda Lee)
05x12 (103) — Слепой метод (Double Blind)
05x13 (104) — Выбор Джои (Choosing Joi)
05x14 (105) — Шторм — часть 1(The Storm — Part I)
05x15 (106) — Шторм — часть 2 (The Storm — Part II)
05x16 (107) — Захолустье (Middle of Nowhere)
05x17 (108) — Гнев толпы (Sticks and Stones)
05x18 (109) — Истоки (Point of Origin)
05x19 (110) — Хвала весне (Rites of Spring)
05x20 (111) — Энергия (Power)
05x21 (112) — Ответственные стороны (Responsible Parties)
05x22 (113) — Курс на сближение (Getting to Know You)

Сезон 6


06x01 (114) — Положись на Уивер (Leave It to Weaver)
06x02 (115) — В последний путь (Last Rites)
06x03 (116) — Зелёная зависть доктора Грина (Greene with Envy)
06x04 (117) — Грехи отцов (Sins of the Fathers)
06x05 (118) — Правда и её последствия (Truth & Consequences)
06x06 (119) — Покой простых созданий (The Peace of Wild Things)
06x07 (120) — Шалтай-Болтай (Humpty Dumpty)
06x08 (121) — Большие ожидания (Great Expectations)
06x09 (122) — Как Финч украла Рождество (How the Finch Stole Christmas)
06x10 (123) — Дела семейные (Family Matters)
06x11 (124) — Переходящее сердце (The Domino Heart)
06x12 (125) — Эбби Роад (Abby Road)
06x13 (126) — Храни меня в сердце (Be Still My Heart
06x14 (127) — Одна семья (All in the Family)
06x15 (128) — Будь терпеливым больным (Be Patient)
06x16 (129) — Всё нормально (Under Control)
06x17 (130) — Кандидаты на выживание (Viable Options)
06x18 (131) — Идеальное соответствие (Match Made in Heaven)
06x19 (132) — Самый быстрый год (The Fastest Year)
06x20 (133) — Многоточие (Loose Ends)
06x21 (134) — Расставанья светлая печаль (Such Sweet Sorrow)
06x22 (135) — Сигнал бедствия (May Day)

Сезон 7


07x01 (136) — Возвращение домой (Homecoming)
07x02 (137) — Песок и вода (Sand and Water)
07x03 (138) — Марс атакует (Mars Attacks)
07x04 (139) — Возвращение Бентона (Benton Backwards)
07x05 (140) — Полёт фантазии (Flight of Fancy)
07x06 (141) — Визит (The Visit)
07x07 (142) — Спаси меня (Rescue Me)
07x08 (143) — Наш танец (The Dance We Do)
07x09 (144) — Бесценный подарок (The Greatest of Gifts)
07x10 (145) — Частица ума (Piece of Mind)
07x11 (146) — Камень, бумага, ножницы (Rock, Paper, Scissors)
07x12 (147) — Поражение (Surrender)
07x13 (148) — Да будет воля твоя (Thy Will Be Done)
07x14 (149) — Прогулка в лесу (A Walk in the Woods)
07x15 (150) — Перекрёсток (The Crossing)
07x16 (151) — Охота на ведьм (Witch Hunt)
07x17 (152) — Выживает сильнейший (Survival of the Fittest)
07x18 (153) — Апрельские дожди (April Showers)
07x19 (154) — Уплывая вдаль (Sailing Away)
07x20 (155) — Боязнь ответственности (Fear of Commitment)
07x21 (156) — Там, где сердце (Where the Heart Is)
07x22 (157) — Ярость (Rampage)

Сезон 8


08x01 (158) — Четыре угла (Four Corners)
08x02 (159) — Чем дольше остаёшься (The Longer You Stay)
08x03 (160) — Кровь, сахар, секс и магия (Blood, Sugar, Sex, Magic)
08x04 (161) — Никогда не говори 'никогда' (Never Say Never)
08x05 (162) — Начни всё с начала (Start All Over Again)
08x06 (163) — Спрос и предложение (Supplies and Demands)
08x07 (164) — Если я впаду в немилость (If I Should Fall From Grace)
08x08 (165) — Местами облачно, возможен дождь (Partly Cloudy, Chance of Rain)
08x09 (166) — Камо грядеши? (Quo Vadis?)
08x10 (167) — Я буду дома к Рождеству (I’ll Be Home for Christmas)
08x11 (168) — Это неизлечимо (Beyond Repair)
08x12 (169) — Река в Египте (A River in Egypt)
08x13 (170) — Непоправимый ущерб (Damage Is Done)
08x14 (171) — Превратности судьбы (A Simple Twist of Fate)
08x15 (172) — Всё дело в голове (It’s All in Your Head)
08x16 (173) — Тайны и ложь (Secrets and Lies)
08x17 (174) — Прошлые обиды (Bygones)
08x18 (175) — Орион в небе (Orion in the Sky)
08x19 (176) — Братья и сестры (Brothers and Sisters)
08x20 (177) — Письмо (The Letter)
08x21 (178) — На пляже (On the Beach)
08x22 (179) — Карантин (Lockdown)

Сезон 9

09x01 — Теория хаоса (Chaos Theory)
09x02 — Снова мёртв (Dead Again)
09x03 — Бунт (Insurrection)
09x04 — Быть мужчиной (Walk Like A Man)
09x05 — Безнадёжная рана (A Hopeless Wound)
09x06 — Будем надеяться (One Can Only Hope)
09x07 — Скажи мне, где болит (Tell Me Where It Hurts)
09x08 — Первый снегопад (First Snowfall)
09x09 — Ближайший родственник (Next of Kin)
09x10 — Взгляд в прошлое (Hindsight)
09x11 — Помощь моих друзей (A Little Help From My Friends)
09x12 — Святой в городе (A Saint in the City)
09x13 — Ни одно доброе дело не остается безнаказаннным (No Good Deed Goes Unpunished)
09x14 — Полная независимость (No Strings Attached)
09x15 — Парень, упавший с неба (A Boy Falling Out of the Sky)
09x16 — Тысяча журавликов (A Thousand Cranes)
09x17 — Адвокат (The Advocate)
09x18 — Твоя потеря - моя находка (Finders Keepers)
09x19 — Все меняется (Things Change)
09x20 — Международные дела (Foreign Affairs)
09x21 — Когда ночь встречается с днем (When Night Meets Day)
09x22 — Кисангани (Kisangani)

Сезон 10


10x01 (202) — Что дальше? (Now What?)
10x02 (203) — Потерянный (The Lost)
10x03 (204) — Дорогая Эбби (Dear Abby)
10x04 (205) — Трудная смена (Shifts Happen)
10x05 (206) — Из Африки (Out of Africa)
10x06 (207) — Высшее благо (The Greater Good)
10x07 (208) — Смерть и налоги (Death and Taxes)
10x08 (209) — Свободное падение (Freefall)
10x09 (210) — Пропажи (Missing)
10x10 (211) — Макемба (Makemba)
10x11 (212) — На волоске (Touch and Go)
10x12 (213) — Практика (NICU)
10x13 (214) — Нужен Картер (Get Carter)
10x14 (215) — Импульс (Impulse Control)
10x15 (216) — Узы крови (Blood Relations)
10x16 (217) — Простить и забыть (Forgive and Forget)
10x17 (218) — Студентка (The Student)
10x18 (219) — Нет дыма без огня (Where There’s Smoke)
10x19 (220) — Легким прикосновением (Just a Touch)
10x20 (221) — Эбби-терапия (Abby Normal)
10x21 (222) — Полночь (Midnight)
10x22 (223) — Гонка (Drive)

Сезон 11

11x01 (224) — На дорожку (One for the Road)
11x02 (225) — Травмы (Damaged)
11x03 (226) — Спросите Картера (Try Carter)
11x04 (227) — Страх (Fear)
11x05 (228) — Путь интерна к звездам (An Intern’s Guide to the Galaxy)
11x06 (229) — Время смерти (Time of Death)
11x07 (230) — Белый парень, тёмные волосы (White Guy, Dark Hair)
11x08 (231) — Выстрел наугад (A Shot in the Dark)
11x09 (232) — В Сочельник (Twas the Night)
11x10 (233) — Кожа (Skin)
11x11 (234) — Установить контакт (Only Connect)
11x12 (235) — Благодетели (The Providers)
11x13 (236) — Среднее звено (Middleman)
11x14 (237) — Я такая, какая есть (Just As I Am)
11x15 (238) — Одна в толпе (Alone in a Crowd)
11x16 (239) — Здесь и там (Here and There)
11x17 (240) — Возвращение в мир (Back in the World)
11x18 (241) — Отказ от помощи (Refusal of Care)
11x19 (242) — Возвращение Руби (Ruby Redux)
11x20 (243) — Вы здесь (You Are Here)
11x21 (244) — Влюбленный Картер (Carter est Amoureux)
11x22 (245) — Шоу должно продолжаться (The Show Must Go On)

Сезон 12

12x01 (246) — Город, живущий по правилам (Canon City)
12x02 (247) — Чей это малыш? (Nobody’s Baby)
12x03 (248) — Человек без имени (Man With No Name)
12x04 (249) — Во всём виноват дождь (Blame It On The Rain)
12x05 (250) — Проснись! (Wake Up)
12x06 (251) — Дом мечты (Dream House)
12x07 (252) — Человеческая защита (The Human Shield)
12x08 (253) — Два корабля (Two Ships)
12x09 (254) — Согласен (I Do)
12x10 (255) — В канун Рождества (All About Christmas Eve)
12x11 (256) — Если не сейчас (If Not Now)
12x12 (257) — Неожиданные решения (Split Decisions)
12x13 (258) — Тело и душа (Body and Soul)
12x14 (259) — Воплощение праха (Quintessence of Dust)
12x15 (260) — Дарфур (Darfur)
12x16 (260) — Под угрозой (Out on a Limb)
12x17 (261) — Потерянные в Америке (Lost In America)
12x18 (263) — Странный спутник жизни (Strange Bedfellows)
12x19 (264) — Негде спрятаться (No Place to Hide)
12x20 (265) — Ангелы здесь не живут (There Are No Angels Here)
12x21 (266) — Герой Галлант и печальный Виктор (The Gallant Hero and The Tragic Victor)
12x22 (267) — 21 пушка (Twenty-One Guns)

Сезон 13

13x01 (268) — Родословная (Bloodline)
13x02 (269) — Выпускной (Graduation Day)
13x03 (270) — Кого-нибудь любить (Somebody to Love)
13x04 (271) — Родительские обязанности (Parenthood)
13x05 (272) — Эймс против Ковача (Ames v. Kovac)
13x06 (273) — Сердечный вопрос (Heart of the Matter)
13x07 (274) — Джигсоу (Jigsaw)
13x08 (275) — Повод верить (Reason to Believe)
13x09 (276) — Хватай и беги (Scoop and Run)
13x10 (277) — Не рассказывай мне секретов... (Tell Me No Secrets...)
13x11 (278) — Город Милосердия (City of Mercy)
13x12 (279) — Злоупотребление доверием (Breach of Trust)
13x13 (280) — Разделенный дом (A House Divided)
13x14 (281) — Ропоты сердца (Murmurs of the Heart)
13x15 (282) — Смерть легка (Dying is Easy)
13x16 (283) — Кризис совести (Crisis of Conscience)
13x17 (284) — Путь к отцовству (From Here to Paternity)
13x18 (285) — Фотографии и воспоминания (Photographs and Memories)
13x19 (286) — Семейные дела (Family Business)
13x20 (287) — Огни погашены (Lights Out)
13x21 (288) — Не согласна (I Don't)
13x22 (289) — Главные изменения (Sea Change)
13x23 (290) — Медовый месяц закончен (The Honeymoon's Over)

Сезон 14

14x01 (291) — Война приходит в дом (The War Comes Home)
14x02 (292) — В различном свете (In A Different Light)
14x03 (293) — Офицер ранен! (Officer Down)
14x04 (294) — Серьезная ситуация (Gravity)
14x05 (295) — Под влиянием (Under the Influence)
14x06 (296) — Испытание (The Test)
14x07 (297) — Пропуск (Blackout)
14x08 (298) — Возвращение домой (Coming Home)
14x09 (299) — Недостижимая Скай (Skye's The Limit)
14x10 (300) — Триста пациентов (300 patients)
14x11 (301) — Статус Кво (Status Quo)
14x12 (302) — Верьте неведимке (Believe the Unseen)
14x13 (303) — Искупление (Atonement)
14x14 (304) — Владелец разбитого сердца (Owner of a Broken Heart)
14x15 (305) — ...тот день, когда она родилась (...As The Day She Was Born)
14x16 (306) — Правда наружу (Truth Will Out)
14x17 (307) — Под давлением (Under Pressure)
14x18 (308) — Тандемные повторения (Tandem Repeats)
14x19 (309) — Чикагский путь (The Chicago Way)

Сезон 15

15x01 (310) — Жизнь после смерти (Life After Death)
15x02 (311) — Другой четверг в Окружной (Another Thursday at County)
15x03 (312) — Книга Эбби (The Book Of Abby)
15x04 (313) — Родительское руководство (Parental Guidance)
15x05 (314) — С призраками (Haunted)
15x06 (315) — О, Брат (Oh, Brother)
15x07 (316) — Исцелился сам (Heal Thyself )
15x08 (317) — Невинный возраст (Age of Innocence)
15x09 (318) — Пусть пойдёт снег (Let It Snow)
15x10 (319) — Большой праздник (The High Holiday)
15x11 (320) — Страх разлуки (Separation Anxiety)
15x12 (321) — Бег за мечтой (Dream Runner)
15x13 (322) — Любовь как поле битвы (Love Is a Battlefield)
15x14 (323) — Долгая, странная дорога (A Long, Strange Trip)
15x15 (324) — Семьянин (The Family Man)
15x16 (325) — Начало конца (The Beginning of the End)
15x17 (326) — Время "Ч" - минус 6 (T-minus-6)
15x18 (327) — Что мы делаем (What We Do)
15x19 (328) — Старые времена (Old Times)
15x20 (329) — Неустойчивое равновесие (Shifting Equilibrium)
15x21 (330) — Мне хорошо (I Feel Good)
15x22 (331) — И в завершении... (And In The End)

Бонус

Фильм о сериале - Special ER Retrospective
Продолжительность: 00:40:55

Награды

Эмми, 2009 год
Номинации (1):
Лучший приглашенный актёр в драматическом сериале (Эрнест Боргнайн)
Эмми, 2008 год
Номинации (1):
Лучший приглашенный актёр в драматическом сериале (Стэнли Туччи)
Эмми, 2007 год
Номинации (1):
Лучший приглашенный актёр в драматическом сериале (Форест Уитакер)
Эмми, 2006 год
Номинации (1):
Лучший приглашенный актёр в драматическом сериале (Джеймс Вудс)
Эмми, 2005 год
Победитель (1):
Лучший приглашенный актёр в драматическом сериале (Рэй Лиотта)
Номинации (1):
Лучший приглашенный актёр в драматическом сериале (Ред Баттонс)
Эмми, 2004 год
Номинации (1):
Лучший приглашенный актёр в драматическом сериале (Боб Ньюхарт)
Эмми, 2003 год
Номинации (2):
Лучший приглашенный актёр в драматическом сериале (Дон Чидл)
Лучшая приглашенная актриса в драматическом сериале (Салли Филд)
Эмми, 2002 год
Номинации (1):
Лучшая приглашенная актриса в драматическом сериале (Мэри МакДоннелл)
Золотой глобус, 2001 год
Номинации (1):
Лучший драматический сериал
Эмми, 2001 год
Победитель (1):
Лучшая приглашенная актриса в драматическом сериале (Салли Филд)
Номинации (3):
Лучший драматический сериал
Лучший приглашенный актёр в драматическом сериале (Джеймс Кромуэлл)
Лучшая женская роль второго плана в драматическом сериале (Мора Тирни)
Премия Гильдии актеров, 2001 год
Номинации (3):
Лучший актерский состав драматического сериала
Лучшая актриса драматического сериала (Салли Филд)
Лучший актер драматического сериала (Энтони Эдвардс)
Золотой глобус, 2000 год
Номинации (2):
Лучшая женская роль на ТВ (драма) (Джулианна Маргулис)
Лучший драматический сериал
Эмми, 2000 год
Номинации (3):
Лучший драматический сериал
Лучший приглашенный актёр в драматическом сериале (Алан Алда)
Лучшая женская роль в драматическом сериале (Джулианна Маргулис)
Премия Гильдии актеров, 2000 год
Номинации (1):
Лучший актерский состав драматического сериала
Золотой глобус, 1999 год
Номинации (4):
Лучший актёр второго плана мини-сериала или фильма на ТВ (Ноа Уайли)
Лучшая мужская роль на ТВ (драма) (Энтони Эдвардс)
Лучшая женская роль на ТВ (драма) (Джулианна Маргулис)
Лучший драматический сериал
Эмми, 1999 год
Номинации (3):
Лучший драматический сериал
Лучшая женская роль в драматическом сериале (Джулианна Маргулис)
Лучшая мужская роль второго плана в драматическом сериале (Ноа Уайли)
Премия Гильдии актеров, 1999 год
Победитель (2):
Лучший актерский состав драматического сериала
Лучшая актриса драматического сериала (Джулианна Маргулис)
Номинации (1):
Лучший актер драматического сериала (Энтони Эдвардс)
Золотой глобус, 1998 год
Победитель (1):
Лучшая мужская роль на ТВ (драма) (Энтони Эдвардс)
Номинации (6):
Лучшая мужская роль на ТВ (драма) (Джордж Клуни)
Лучшая женская роль на ТВ (драма) (Джулианна Маргулис)
Лучший актёр второго плана мини-сериала или фильма на ТВ (Ноа Уайли)
Лучший актёр второго плана мини-сериала или фильма на ТВ (Эрик Ла Салль)
Лучшая актриса второго плана мини-сериала или фильма на ТВ (Глория Рубен)
Лучший драматический сериал
Эмми,1998 год
Номинации 8:
Лучший драматический сериал
Лучшая мужская роль в драматическом сериале (Энтони Эдвардс)
Лучшая женская роль в драматическом сериале (Джулианна Маргулис)
Лучшая приглашенная актриса в драматическом сериале (Свузи Кёрц)
Лучшая мужская роль второго плана в драматическом сериале (Ноа Уайли)
Лучшая мужская роль второго плана в драматическом сериале (Эрик Ла Салль)
Лучшая женская роль второго плана в драматическом сериале (Лора Иннес)
Лучшая женская роль второго плана в драматическом сериале (Глория Рубен)
Премия Гильдии актеров, 1998 год
Победитель (3):
Лучший актерский состав драматического сериала
Лучшая актриса драматического сериала (Джулианна Маргулис)
Лучший актер драматического сериала (Энтони Эдвардс)
Золотой глобус, 1997 год
Номинации (5):
Лучшая мужская роль на ТВ (драма) (Джордж Клуни)
Лучшая мужская роль на ТВ (драма) (Энтони Эдвардс)
Лучшая женская роль на ТВ (драма) (Шерри Стрингфилд)
Лучший актёр второго плана мини-сериала или фильма на ТВ (Ноа Уайли)
Лучший драматический сериал
Эмми, 1997 год
Номинации (12):
Лучший драматический сериал
Лучшая мужская роль в драматическом сериале (Энтони Эдвардс)
Лучший приглашенный актёр в драматическом сериале (Уильям Х. Мэйси)
Лучший приглашенный актёр в драматическом сериале (Юэн МакГрегор)
Лучшая женская роль в драматическом сериале (Шерри Стрингфилд)
Лучшая женская роль в драматическом сериале (Джулианна Маргулис)
Лучшая приглашенная актриса в драматическом сериале (Вероника Картрайт)
Лучшая мужская роль второго плана в драматическом сериале (Ноа Уайли)
Лучшая мужская роль второго плана в драматическом сериале (Эрик Ла Салль)
Лучшая женская роль второго плана в драматическом сериале (Си Си Эйч Паундер)
Лучшая женская роль второго плана в драматическом сериале (Глория Рубен)
Лучшая женская роль второго плана в драматическом сериале (Лора Иннес)
Премия Гильдии актеров, 1997 год
Победитель (1):
Лучший актерский состав драматического сериала
Номинации (2):
Лучший актер драматического сериала (Энтони Эдвардс)
Лучший актер драматического сериала (Джордж Клуни)
Золотой глобус, 1996 год
Номинации (5):
Лучшая мужская роль на ТВ (драма) (Джордж Клуни)
Лучшая мужская роль на ТВ (драма) (Энтони Эдвардс)
Лучшая женская роль на ТВ (драма) (Шерри Стрингфилд)
Лучшая актриса второго плана мини-сериала или фильма на ТВ (Джулианна Маргулис)
Лучший драматический сериал
Эмми, 1996 год
Победитель (1):
Лучший драматический сериал
Номинации (6):
Лучшая мужская роль в драматическом сериале (Энтони Эдвардс)
Лучшая мужская роль в драматическом сериале (Джордж Клуни)
Лучшая женская роль в драматическом сериале (Шерри Стрингфилд)
Лучшая приглашенная актриса в драматическом сериале (Пенни Фуллер)
Лучшая мужская роль второго плана в драматическом сериале (Ноа Уайли)
Лучшая женская роль второго плана в драматическом сериале (Джулианна Маргулис)
Премия Гильдии актеров, 1996 год
Победитель (2):
Лучший актерский состав драматического сериала
Лучший актер драматического сериала (Энтони Эдвардс)
Номинации (2):
Лучшая актриса драматического сериала (Джулианна Маргулис)
Лучший актер драматического сериала (Джордж Клуни)
Золотой глобус, 1995 год
Номинации (1):
Лучший драматический сериал
Эмми, 1995 год
Победитель (2):
Лучшая женская роль второго плана в драматическом сериале (Джулианна Маргулис)
Лучшие вступительные титры
Номинации (10):
Лучший драматический сериал
Лучшая мужская роль в драматическом сериале (Джордж Клуни)
Лучшая мужская роль в драматическом сериале (Энтони Эдвардс)
Лучший приглашенный актёр в драматическом сериале (Алан Розенберг)
Лучший приглашенный актёр в драматическом сериале (Вонди Куртис-Холл)
Лучшая женская роль в драматическом сериале (Шерри Стрингфилд)
Лучшая приглашенная актриса в драматическом сериале (Розмари Клуни)
Лучшая приглашенная актриса в драматическом сериале (Коллин Флинн)
Лучшая мужская роль второго плана в драматическом сериале (Ноа Уайли)
Лучшая мужская роль второго плана в драматическом сериале (Эрик Ла Салль)
Премия Гильдии актеров, 1995 год
Номинации (1):
Лучший актерский состав драматического сериала

MediaInfo

Общее
Полное имя : D:\Video\ER.1994-2009.WEB-DLRip_1-15.season_[teko]\ER_Season_01_[2xdvd5]\ER.s01e02.Day.One.avi
Формат : AVI
Формат/Информация : Audio Video Interleave
Размер файла : 332 Мбайт
Продолжительность : 46 м.
Общий поток : 989 Кбит/сек
Программа кодирования : VirtualDubMod 1.5.10.3 | www.virtualdub-fr.org || (build 2550/release)
Библиотека кодирования : VirtualDubMod build 2550/release
Видео
Идентификатор : 0
Формат : MPEG-4 Visual
Профиль формата : Advanced Simple@L5
Параметр BVOP формата : 2
Параметр QPel формата : Нет
Параметр GMC формата : Без точки перехода
Параметр матрицы формата : Выборочная
Идентификатор кодека : XVID
Идентификатор кодека/Подсказка : XviD
Продолжительность : 46 м.
Битрейт : 851 Кбит/сек
Ширина : 624 пикселя
Высота : 352 пикселя
Соотношение сторон : 16:9
Частота кадров : 23,976 кадра/сек
Цветовое пространство : YUV
Субдискретизация насыщенности : 4:2:0
Битовая глубина : 8 бит
Тип развёртки : Прогрессивная
Метод сжатия : С потерями
Бит/(Пиксели*Кадры) : 0.162
Размер потока : 286 Мбайт (86%)
Библиотека кодирования : XviD 65
Аудио
Идентификатор : 1
Формат : MPEG Audio
Версия формата : Version 1
Профиль формата : Layer 3
Идентификатор кодека : 55
Идентификатор кодека/Подсказка : MP3
Продолжительность : 46 м.
Вид битрейта : Постоянный
Битрейт : 128 Кбит/сек
Каналы : 2 канала
Частота : 44,1 КГц
Метод сжатия : С потерями
Размер потока : 43,0 Мбайт (13%)
Выравнивание : Разделение по промежуткам
Продолжительность промежутка : 42 мс. (1,00 видеокадр)
Время предзагрузки промежутка : 500 мс.
Библиотека кодирования : L3.99r
Настройки программы : -m s -V 4 -q 2 -lowpass 17 -b 128

Скриншоты

mihis

Post 08-Apr-2018 17:12

[Quote]

Легенда о Брюсе Ли / The Legend of Bruce Lee50 Серий из 50 Год выпуска: 2008
Страна: Китай, CCTV (China Central Television)
Жанр: Биография, боевые искусства
Продолжительность: 50 х ~ 00:46:00
Перевод: Любительский (одноголосый) Zamez
Режиссер: Ли Вонги
В ролях: Квок-Куен Чан, Мишель Мисти Лэнг, Тед Е. Дюран, Хазен МакИнтайр, Лоюн Ванг, Наталья Дзюбло, Трэйси Энн Вульф, Ке Гай, Чжоу Чжоу, Марк Дакаскос, Гэри Дениэлс
Описание: Уникальный сериал-биография величайшего мастера боевых искусств Брюса Ли, начиная с его детства и заканчивая трагической гибелью. Китайские кинематографисты с удивительной точностью воссоздали все интерьеры и обстоятельства съемок фильмов Брюса Ли, рассказали о его семье, о его трудном пути от мальчика-ученика престижного колледжа до суперзвезды мирового кино!

Качество: TVRip
Формат: AVI
Видео кодек: XviD
Аудио кодек: MP3
Видео: 704x384 (1.83:1), 25 fps, XviD build 50, 1499 kbps avg, 0.22 bit/pixel
Аудио: 48 kHz, MPEG Layer 3, 2 ch, ~128.00 kbps avg

MI

Общее
Полное имя : E:\Video\The Legend of Bruce Lee.2008.VO.Zamez\The Legend of Bruce Lee.s01e01.avi
Формат : AVI
Формат/Информация : Audio Video Interleave
Размер файла : 543 Мбайт
Продолжительность : 46 м.
Общий поток : 1637 Кбит/сек
Программа кодирования : VirtualDubMod 1.5.10.2 (build 2540/release)
Библиотека кодирования : VirtualDubMod build 2540/release
Видео
Идентификатор : 0
Формат : MPEG-4 Visual
Профиль формата : Advanced Simple@L5
Параметр BVOP формата : 2
Параметр QPel формата : Нет
Параметр GMC формата : Без точки перехода
Параметр матрицы формата : Default (MPEG)
Идентификатор кодека : XVID
Идентификатор кодека/Подсказка : XviD
Продолжительность : 46 м.
Битрейт : 1499 Кбит/сек
Ширина : 704 пикселя
Высота : 384 пикселя
Соотношение сторон : 1,85:1
Частота кадров : 25,000 кадров/сек
Цветовое пространство : YUV
Субдискретизация насыщенности : 4:2:0
Битовая глубина : 8 бит
Тип развёртки : Прогрессивная
Метод сжатия : С потерями
Бит/(Пиксели*Кадры) : 0.222
Размер потока : 498 Мбайт (92%)
Библиотека кодирования : XviD 1.2.1 (UTC 2008-12-04)
Аудио
Идентификатор : 1
Формат : MPEG Audio
Версия формата : Version 1
Профиль формата : Layer 3
Режим : Joint stereo
Расширение режима : MS Stereo
Идентификатор кодека : 55
Идентификатор кодека/Подсказка : MP3
Продолжительность : 46 м.
Вид битрейта : Постоянный
Битрейт : 128 Кбит/сек
Каналы : 2 канала
Частота : 48,0 КГц
Метод сжатия : С потерями
Размер потока : 42,5 Мбайт (8%)
Выравнивание : Соединение по промежуткам
Продолжительность промежутка : 40 мс. (1,00 видеокадр)
Время предзагрузки промежутка : 504 мс.

Скриншоты

mihis

Post 08-Apr-2018 15:36

[Quote]

Граница (Рубеж) / Frontier1-2 Сезон, Серий 12 Год выпуска: 2016-2017
Страна: Канада
Производство: Discovery Canada, Netflix, Take the Shot Productions
Премьера: 6 ноября 2016
Cерий: 12
Жанр: Приключения, драма, исторический
Продолжительность: 12 x ~ 00:45:00
Перевод:
Профессиональный (многоголосый, закадровый) NewStudio
Оригинал
Субтитры: Русские
Режиссер: Кен Джиротти, Брэд Пейтон, Келли Макин
В ролях: Диана Бентли, Бриэнн Хилл, Джейсон Момоа, Джессика Мэттен, Пол Ивэн Уилсон, Майкл Патрик, Уильям Белло, Пол Фауте, Эван Джонигкейт, Кристиан МакКэй, Лайла Портер Фоллоус..
Описание: Сериал расскажет о жестокой и кровавой борьбе за богатство и власть в торговле пушниной на просторах Северной Америки в XVIII веке. Бизнес приходится вести в очень сложных условиях жестокого противостояния коренных племён и понаехавших на континент европейцев.

Качество: HDTVRip (AVC)
Формат: MKV
Видео кодек: AVC
Аудио кодек: AC3
Видео: AVC, 1024x510 (2.008), 23.976 fps, 2 000 Kbps (0.160 bit/pixel)
Аудио #1: Rus AC3, 48.0 KHz, 6 ch, 384 Kbps
Аудио #2: Eng AC3, 48.0 KHz, 6 ch, 384 Kbps

Список серий

Первый сезон:
1-01. Королевство внутри королевства / A Kingdom Unto Itself
1-02. Стычка из-за индейца / Little Brother War
1-03. Вождь племени / Mushkegowuk Esquewu
1-04. Волки / Wolves
1-05. Ученик / The Disciple
1-06. Виселица / The Gallows
Второй сезон:
2-01. Точный расчёт / Dead Reckoning
2-02. Награда за голову / Wanted
2-03. Волк и Медведь / The Wolf and the Bear
2-04. Мятеж / Mutiny
2-05. Пушечное ядро / Cannonbal
2-06. Возвращение Волка / Keetom Takooteeoo Maheekun (Return of the Wolf)

MediaInfo

Общее
Уникальный идентификатор : 215312576969204036085386202541505542629 (0xA1FBB1A5F96D1D108D96B83AA87E79E5)
Полное имя : E:\Video\Граница (Рубеж). Сериал (HDTVRip AVC)\1 Сезон\1-01. Королевство внутри королевства.mkv
Формат : Matroska
Версия формата : Version 2
Размер файла : 922 Мбайт
Продолжительность : 45 м. 38 с.
Общий поток : 2824 Кбит/сек
Дата кодирования : UTC 2016-11-16 12:19:54
Программа кодирования : mkvmerge v7.8.0 ('River Man') 32bit built on Apr 3 2015 12:11:22
Библиотека кодирования : libebml v1.3.1 + libmatroska v1.4.2
Видео
Идентификатор : 1
Формат : AVC
Формат/Информация : Advanced Video Codec
Профиль формата : High@L3.1
Параметр CABAC формата : Да
Параметр RefFrames формата : 3 кадра
Параметр GOP формата : M=1, N=25
Идентификатор кодека : V_MPEG4/ISO/AVC
Продолжительность : 45 м. 38 с.
Битрейт : 2000 Кбит/сек
Ширина : 1024 пикселя
Высота : 510 пикселей
Соотношение сторон : 2,008
Режим частоты кадров : Постоянный
Частота кадров : 23,976 (24000/1001) кадра/сек
Цветовое пространство : YUV
Субдискретизация насыщенности : 4:2:0
Битовая глубина : 8 бит
Тип развёртки : Прогрессивная
Бит/(Пиксели*Кадры) : 0.160
Размер потока : 653 Мбайт (71%)
Язык : English
Default : Да
Forced : Нет
Аудио #1
Идентификатор : 2
Формат : AC-3
Формат/Информация : Audio Coding 3
Параметр Endianness формата : Big
Идентификатор кодека : A_AC3
Продолжительность : 45 м. 38 с.
Вид битрейта : Постоянный
Битрейт : 384 Кбит/сек
Каналы : 6 каналов
Расположение каналов : Front: L C R, Side: L R, LFE
Частота : 48,0 КГц
Частота кадров : 31,250 кадров/сек (1536 SPF)
Битовая глубина : 16 бит
Метод сжатия : С потерями
Размер потока : 125 Мбайт (14%)
Язык : Russian
ServiceKind/String : Complete Main
Default : Да
Forced : Нет
Аудио #2
Идентификатор : 3
Формат : AC-3
Формат/Информация : Audio Coding 3
Параметр Endianness формата : Big
Идентификатор кодека : A_AC3
Продолжительность : 45 м. 38 с.
Вид битрейта : Постоянный
Битрейт : 384 Кбит/сек
Каналы : 6 каналов
Расположение каналов : Front: L C R, Side: L R, LFE
Частота : 48,0 КГц
Частота кадров : 31,250 кадров/сек (1536 SPF)
Битовая глубина : 16 бит
Метод сжатия : С потерями
Размер потока : 125 Мбайт (14%)
Язык : English
ServiceKind/String : Complete Main
Default : Нет
Forced : Нет
Текст
Идентификатор : 4
Формат : ASS
Идентификатор кодека : S_TEXT/ASS
Идентификатор кодека/Информация : Advanced Sub Station Alpha
Метод сжатия : Без потерь
Заголовок : forced
Язык : Russian
Default : Да
Forced : Да

Скриншоты

admin

Post 04-Apr-2018 03:46

[Quote]

Информация о фильме
Название: Террор
Оригинальное название: The Terror
Год выпуска: 2018
Жанр: ужасы, драма
Режиссер: Эдвард Бергер
В ролях: Джаред Харрис (Francis Crozier), Киран Хайндс (John Franklin), Тобайас Мензис (James Fitzjames), Кристос Лоутон (George Hodgson), Мэттью МакНалти (Little), Адам Нагаитис (Cornelius Hickey), Нив Нилсен (Lady Silence), Пол Рэди (Harry Goodsir), Себастьян Арместо (Charles Des Voeux), Эдвард Эшли (William Gibson), Jack Colgrave Hirst (Tom Hartnell), Майки Коллинз (Robert Golding)
О фильме: Канал AMC знает толк в запугивании зрителей. «Ходячие мертвецы» и его спин-офф много лет справлялись с этой задачей на ура, а теперь добрую традицию продолжит сериал «Террор», в котором, правда, зомби не фигурируют. Вместо них зрителей ждут невероятно живописные, но совершенно непригодные для жизни арктические пейзажи, гигантское кровожадное чудовище и медленно, но неумолимо тающая надежда на выживание. В основу сериала положена популярная, в том числе и в России, книга американского фантаста Дэна Симмонса, которую он писал на основе реальных событий. Часть продюсерских функций взял на себя главный голливудский знаток триллеров про загадочные угрозы — Ридли Скотт, а в актерский состав вошли такие хорошо известные сериаломанам персоны, как Киран Хайндс, Джаред Харрис и Тобиаш Мензес. Совместными усилиями они создали сериал, который рассказывает о силе человеческого духа и голоде первооткрывателей и одновременно рисует гипнотизирующую хронику безумия, накрывающего человека, который понимает, что жизнь уходит из него капля за каплей. А это бывает гораздо страшнее, чем встретить смерть от укуса ходячего мертвеца.
В 1845 году два укрепленных железом и оснащенных по последнему слову техники корабля Британского флота, «Эребус» и «Террор», отплыли от родных берегов и направились в сторону Арктики. Целью экспедиции под руководством сэра Джона Франклина (Киран Хайндс) было открыть Северо-Западный проход, а значит, поднять престиж страны, услужить Королеве и вписать свое имя в историю. Запасов провианта хватило бы на несколько лет, команда была полна сил и амбиций, а лидеры миссии, хоть и спорили по мелочам, но были готовы уверенно и смело идти к общей цели... Однако спустя несколько месяцев оба корабля намертво застряли во льдах, и Франклину пришлось пересмотреть свои грандиозные планы. Оказалось, все выглядит не так радужно: у него на попечении находится более 120 человек, запасы еды тают быстрее, чем планировалось, но самое неприятное — один за другим экипаж начинает терять людей. В поисках выхода из этой ситуации капитан отправляет на разведку группу матросов, которые возвращаются назад с представителями коренных народов. И те намекают незваным гостям, что лучше им поскорее убраться домой, иначе их ждут проблемы посерьезнее голода и холода...

Страна: США
Студия: EMJAG Productions, Entertainment 360, Scott Free Productions
Продолжительность: ~00:45:00 серия
Перевод: Профессиональный (многоголосый, закадровый) телеканал AMC
Файл
Качество: WEBRip
Формат: AVI
Видео: 720x400 at 23.976 fps, XviD, ~1400 kbps avg
Аудио#1: Russian: 48 kHz, MP3, 2/0 (L,R) ch, ~128 kbps avg |Многоголосый закадровый, телеканал AMC|
Аудио#2: English: 48 kHz, MP3, 2/0 (L,R) ch, ~128 kbps avg
Субтитры: None
***Примечание: Без рекламы.

Список серий

01. В поисках пути / Go for Broke
02. Запекшаяся кровь / Gore
03. Трап / The Ladder
04. Наказан, как мальчишка / Punished, as a Boy
05. Отличный выстрел, ребята / First Shot a Winner, Lads
06. Снисхождение / A Mercy
07. Чудовищный ужин / Horrible from Supper
08. Пустой лагерь Террора / Terror Camp Clear
09. Си, Си с открытой Си / The C the C the Open C
10. Мы ушли / We Are Gone

Скриншоты

Раздача ведется путем добавления новых серий

Когда раздача ведётся путём добавления новых серий, при каждом добавлении создётся новый торрент. Чтобы начать докачку новой серии, пользователям необходимо сделать следующее:
(1) остановить скачивание,
(2) удалить старый торрент у себя из клиента (старые серии удалять не надо),
(3) скачать новый торрент и запустить его у себя в клиенте вместо старого, при этом указать клиенту путь в старую папку, куда и должно происходить скачивание новых серий.
Ваш клиент при этом должен произвести хеширование (проверку) старой папки (если не производит сам - помогите ему сделать это), и будет докачивать только те серии, которых у вас ещё нет. Старые серии при этом не удаляются, а продолжают раздаваться!
Eсли вы уже удалили старые серии, то предотвратить повторную закачку старых серий можно, отжав галочку в соответсвующих местах при запуске нового торрента. По возможности, желательно не удалять старые серии как можно дольше, чтобы релизер не столько продолжал раздавать старые серии, а смог сконцентрироваться на новых.

admin

Post 28-Feb-2018 01:28

[Quote]

Информация о фильме
Название: Лёд
Оригинальное название: Glacé
Год выхода: 2016
Жанр: триллер, драма
Режиссер: Лоран Эрбье
В ролях: Шарль Берлинг, Джулия Пьятон, Паскаль Греггори, Нина Мерисс, Лубна Азабаль, Анн Ле Ни, Робинсон Стевенен, Софи Гиймен, Робер Планьоль, Ален Фромаже и др.
О фильме:
В маленьком городке во французских Пиренеях двое местных жителей делают страшную находку – замороженный безголовый труп лошади, с которой содрана кожа. Выясняется, что эта лошадь принадлежит местному миллионеру Эрику Ломбарду, которого в городке недолюбливают. И лошадь, конечно, не просто лошадь – она оценивается в 600 тысяч евро. Местная полиция приступает к расследованию. В том же городке находится и больница для душевнобольных, в которой содержатся опасные преступники. Связаны ли эти истории между собой?
ВНИМАНИЕ! Присутствует реклама спонсора, не мешающая просмотру. (видео и аудио)

Страна: Франция
Студия: Gaumont Television
Продолжительность: ~00:45:00
Перевод: Профессиональный (двухголосый, закадровый) [ViruseProject]
Файл
Кодек: XviD
Качество: BDRip
Видео: 720x400 (1.80:1), 25 fps, XviD build 67 ~1993 kbps avg, 0.28 bit/pixel
Звук RU: 48 kHz, MPEG Layer 3, 2 ch, ~192.00 kbps avg
Звук FR: 48 kHz, MPEG Layer 3, 2 ch, ~192.00 kbps avg
Субтитры: русские, отдельно
Семпл

Скриншоты

 

Current time is: 07-Dec 18:28

All times are UTC + 3