Search found 55 matches

Author Message

admin

Post 30-Sep-2019 01:11

[Quote]

21154Супер Вообще не ожидал такого крутого фильма от ТНТ, просто 10 из 10 Советую всем.
3Ы: только со звуком у меня почему-то проблемы - периодически прерывается на мгновенье
Да,хорошая комедия.Со звуком вроде было все норм,когда смотрел.

AvesDemer

Post 03-Sep-2019 14:56

[Quote]

Супер Вообще не ожидал такого крутого фильма от ТНТ, просто 10 из 10 Советую всем.
3Ы: только со звуком у меня почему-то проблемы - периодически прерывается на мгновенье

admin

Post 01-Feb-2019 19:39

[Quote]

Информация о фильме
Оригинальное название: Первый парень на деревне
Год выпуска: 2017
Жанр: Комедия
Режиссер: Николай Каптан
В ролях: Валентин Томусяк, Евгения Нохрина, Армен Джигарханян, Семён Стругачёв, Татьяна Орлова, Светлана Пермякова
О фильме:
Лейтенант полиции Михаил Ермаков — честный и неподкупный страж порядка, который снискал славу не только своим особым подходом к работе, но и равнодушием к алкоголю. Принципиальность сотрудника полиции становится поводом для его перевода из столицы в глухую деревню, где ему предстоит жить в доме первой красавицы Насти. Несмотря на любовь с первого взгляда, жить и работать Михаилу нелегко. Местные жители то и дело норовят угостить лейтенанта горячительным, даже участковый Грищенко постоянно предпринимает попытки отвлечь московского специалиста от исполнения обязанностей. Настя предлагает Михаилу собрать вещи и вернуться в столицу, но Ермаков не намерен сдаваться так просто...

Страна: Россия
Студия: PRO TV PRODUCTION
Продолжительность: 4 x ~ 00:53:00
Перевод: Не требуется
Субтитры: нет
Файл
Формат: avi
Качество: WEBRip
Видео: XviD build 73, 720x400 (16:9), 25.000 fps, ~ 1320 Kbps (~ 0.180 bit/pixel)
Звук: 48.0 kHz, MP3, 2/0 ch, 128 kbps

admin

Post 27-Jun-2019 22:19

[Quote]

Информация о фильме
Оригинальное название: Беловодье. Тайна затерянной страны
Год выпуска: 2016
Жанр: Мистика, приключения, фэнтези
Режиссер: Евгений Бедарев
В ролях: Александр Петров (II), Светлана Суханова, Татьяна Орлова, Алексей Васильев (II), Алла Подчуфарова, Юлия Самойленко, Павел Крайнов, Роман Курцын, Марианна Шульц, Залим Мирзоев, Сергей Майоров (III), Любовь Виролайнен, Александр Пальчиков, Екатерина Ефимова, Руслан Спояло, Евгений Морозов, Данила Якушев, Рустам Махмутов, Дарья Макарова, Алёна Ковалёва, Михаил Хмуров, Николай Токарев, Дмитрий Бедарев, Максим Важов, Елена Аросьева
О фильме: Герои самого зрелищного российского фэнтези-сериала «Пока цветет папоротник» возвращаются на экраны в новой полной приключений и волшебства истории «Беловодье. Тайна затерянной страны». Страшная тайна Хранителей открыта. Провал земли в заброшенном горном монастыре освободил силу, которая угрожает всей жизни на Земле. В параллельных мирах развернулась борьба за власть, каждый ведет свою смертельную игру, и понять, кто враг, а кто друг невозможно. Остается только один шанс на спасение. Но для последней Надежды нужна крепкая Вера и страстная Любовь.

Выпущено: Россия
Студия: ИВД Кино
Продолжительность: 10 х ~ 00:48:00
Перевод: Не требуется
Файл
Качество: WEB-DLRip
Видео: XviD, ~ 1600 Кбит/с, 720x400
Аудио: AC3, 2 ch, 192 Кбит/с

Скриншоты

admin

Post 11-May-2019 01:46

[Quote]

Информация о фильме
Название: Подлежит уничтожению
Год выхода: 2019
Жанр: Военный, детектив, драма, шпионский фильм
Режиссер: Виталий Ващенко
В ролях: Александр Яцко, Дмитрий Шевченко, Антон Батырев, Алина Сергеева, Анна Сагайдачная, Сергей Фролов (II), Сергей Комаровский, Борис Георгиевский, Сергей Деревянко, Константин Октябрьский, Александр Ромашко
О фильме:
Июль 1941 года. Немцы рвутся к Москве. В ставке Верховного Главнокомандующего принимают решение применить новое секретное оружие — радиоуправляемые фугасы. Специальные группы саперов минируют дома, вокзалы, заводы. Немцы несут большие потери. Гитлер приказывает любым путем заполучить русскую мину и обезвредить ее. Оперативники НКВД, арестовав одного из засланных немецких агентов, узнают о планах нацистов. Поддержку диверсантам оказывает и вермахт, который начинает наступление именно на этом участке фронта. Но главное — на заводе-изготовителе действует шпион, который помогает немцам, и найти его и обезвредить нужно как можно быстрее.
Страна: Россия
Студия: ООО «ПРО ТВ», АО «ВайТ Медиа» по заказу АО «Телекомпания НТВ»
Продолжительность: 4 х ~ 00:45:00
Язык: Русский
Файл
Кодек: XviD
Качество: SATRip
Видео: XviD, ~ 1700 Кбит/с, 720x400
Звук: МР3, 2 ch, 192 Кбит/с
Примечание: Без рекламы

Скриншоты

admin

Post 11-May-2019 01:41

[Quote]

Оригинальное название: Прыжок Богомола
Год выпуска: 2019
Жанр: Военный, шпионский, детектив
Выпущено: Россия, «ГРИФОН», «Калейдоскоп фильм»
Режиссер: Владимир Балкашинов
В ролях: Павел Чинарёв, Татьяна Лялина, Александра Никифорова, Яков Шамшин, Сергей Степанченко, Виктор Супрун, Анатолий Лобоцкий, Дмитрий Брауэр, Владимир Капустин, Иван Лапин, Сергей Сосновский, Евгений Шириков, Владимир Терещенко, Константин Новиков, Алексей Ошурков, Александр Катин, Дмитрий Родонов, Илья Семёнов, Виктор Немец, Роман Синицын, Игорь Поселенов, Вячеслав Морозов, Илья Беляев, Александр Никольский
О фильме: 1942 год. Управление особых отделов НКВД начинает операцию по выявлению агентов, заброшенных на советскую территорию из разведцентра абвера. По заданию командования офицер НКВД разведчик Константин Богомолов под маской уголовника проникает в разведцентр и становится там лучшим курсантом.Постоянные проверки и провокации зачастую ставят Богомолова на грань провала. И вот, когда успех уже близок, и личные дела шпионов уже почти в руках, гитлеровцы забрасывают Богомолова, уже как своего агента, на советскую территорию.Руководство НКДВ считает, что Богомолов перевербован, и арестовывает Богомолова и его командира – майора НКВД Маркелова. В последний момент Богомолов бежит. Теперь уже только он сам, в одиночку, без поддержки Большой Земли, должен выполнить задание и тем самым обелить себя и своего командира.

Качество: HDTVRip
Видео: XviD build 73, 720x304 (2.37:1), 25.000 fps, ~ 1550 Kbps (~ 0.280 bit/pixel)
Аудио: 48.0 kHz, AC3, 2/0 ch, 192 kbps
Продолжительность: 2 х ~ 01:30:00
Перевод: Не требуется [Русский]
Cубтитры: нет

Скриншоты

MediaInfo

General
Complete name: D:RazdachiPryzhok.Bogomola.2019.HDTVRip.GeneralFilmPryzhok.Bogomola.01.avi
Format: AVI
Format/Info: Audio Video Interleave
File size: 1.09 GiB
Duration: 1 h 28 min
Overall bit rate: 1 756 kb/s
Writing application: VirtualDubMod 1.5.10.3 | www.virtualdub-fr.org || (build 2550/release)
Writing library: VirtualDubMod build 2550/release
Video
ID: 0
Format: MPEG-4 Visual
Format profile: Advanced Simple@L5
Format settings: BVOP1 / Custom Matrix
Format settings, BVOP: 1
Format settings, QPel: No
Format settings, GMC: No warppoints
Format settings, Matrix: Custom
Codec ID: XVID
Codec ID/Hint: XviD
Duration: 1 h 28 min
Bit rate: 1 554 kb/s
Width: 720 pixels
Height: 304 pixels
Display aspect ratio: 2.35:1
Frame rate: 25.000 FPS
Color space: YUV
Chroma subsampling: 4:2:0
Bit depth: 8 bits
Scan type: Progressive
Compression mode: Lossy
Bits/(Pixel*Frame): 0.284
Stream size: 986 MiB (89%)
Writing library: XviD 73
Audio
ID: 1
Format: AC-3
Format/Info: Audio Coding 3
Commercial name: Dolby Digital
Codec ID: 2000
Duration: 1 h 28 min
Bit rate mode: Constant
Bit rate: 192 kb/s
Channel(s): 2 channels
Channel layout: L R
Sampling rate: 48.0 kHz
Frame rate: 31.250 FPS (1536 SPF)
Bit depth: 16 bits
Compression mode: Lossy
Stream size: 122 MiB (11%)
Alignment: Split accross interleaves
Interleave, duration: 40 ms (1.00 video frame)
Interleave, preload duratio: 500 ms
Service kind: Complete Main

admin

Post 09-Feb-2019 20:47

[Quote]

Информация о фильме
Название: Бабье царство
Год выхода: 2012
Жанр: мелодрама
Режиссер: Кира Ангелина
В ролях: Ольга Ломоносова, Олег Масленников-Войтов, Александр Арсентьев, Полина Пахомова, Евгения Трофимова, Елена Мольченко, Эра Зиганшина, Валерий Дегтярь
О фильме: Оксана — успешная молодая женщина, директор одного из крупнейших рекламных агентств Москвы. Головокружительный успех на работе — главное составляющее жизни Оксаны, более того, она намерена побороться за тендер на рекламную компанию некого английского бренда и в результате продолжить работу в Лондоне. А что до личной жизни, то тут сплошные разочарования: роман с женатым мужчиной сложно назвать женским счастьем. А тут Оксана еще узнает, что ее младшая шестнадцатилетняя сестра Аллочка ждет ребенка от случайного партнера, а аборт делать поздно. Необходимо что-либо предпринять, чтобы скрыть беременность Аллы от скорого на расправу главы семейства. Сестра предлагает Оксане… стать мамой ее малышки! Перед Оксаной встает сложный выбор — любимая работа или репутации сестры. Что выберет Оксана?..

Выпущено: Россия / Про100 Фильм
Продолжительность: 4 х 00:42:00
Озвучивание: Оригинальное [лицензия]
Файл
Формат: AVI (XviD)
Качество: DVDRip
Видео: 1798 kb/s, 720x400
Аудио: AC3, 192 kb/s (2 ch)

Скриншоты

admin

Post 03-Feb-2019 11:52

[Quote]

Информация о фильме
Оригинальное название: Другие
Год выпуска: 2018
Жанр: драма
Выпущено: Россия, Киностудия «Маркес»
Режиссер: Ольга Доброва-Куликова
В ролях: Елена Подкаминская, Кирилл Сафонов, Светлана Смирнова-Марцинкевич, Наталья Романычева, Сергей Горобченко, Эльдар Лебедев, Наталья Земцова, Мила Сивацкая, Марта Тимофеева, Анастасия Дятлова, Владимир Щербаков, Александр Синюков, Полина Богомолова, Виктор Конухин, Виктор Запорожский
О фильме: 50-е годы. Бездетная пара берет из детского дома маленькую девочку. Скоро новоиспеченные родители обнаруживают, что им достался необычный ребенок, - из тех, кого сегодня называют экстрасенсами. Дочь доставляет родителям массу проблем, к которым те совершенно не готовы. Неожиданно возвращается из сталинских лагерей родная мать девочки, тоже обладающая паранормальными способностями. Она хочет забрать ребенка, но получает отказ. Сотрудник госбезопасности Гринёв обещает Вале вернуть дочь, если она поработает на разведку…

Качество: WEBRip
Видео: XviD build 73, 720x400 (16:9), 25.000 fps, ~ 1320 Kbps (~ 0.183 bit/pixel)
Аудио: 48.0 kHz, AC3, 2/0 ch, 192 kbps
Продолжительность: 16 x ~ 00:50:00
Перевод: Не требуется
Cубтитры: нет

Скриншоты

MediaInfo

General
Complete name : D:RazdachiDrugie.2018.WEBRip.GeneralFilmDrugie.e01.avi
Format : AVI
Format/Info : Audio Video Interleave
File size : 557 MiB
Duration : 51 min 11 s
Overall bit rate : 1 522 kb/s
Writing application : VirtualDubMod 1.5.10.3 | www.virtualdub-fr.org || (build 2550/release)
Writing library : VirtualDubMod build 2550/release
Video
ID : 0
Format : MPEG-4 Visual
Format profile : Advanced Simple@L5
Format settings : BVOP1 / Custom Matrix
Format settings, BVOP : 1
Format settings, QPel : No
Format settings, GMC : No warppoints
Format settings, Matrix : Custom
Codec ID : XVID
Codec ID/Hint : XviD
Duration : 51 min 11 s
Bit rate : 1 320 kb/s
Width : 720 pixels
Height : 400 pixels
Display aspect ratio : 16:9
Frame rate : 25.000 FPS
Color space : YUV
Chroma subsampling : 4:2:0
Bit depth : 8 bits
Scan type : Progressive
Compression mode : Lossy
Bits/(Pixel*Frame) : 0.183
Stream size : 483 MiB (87%)
Writing library : XviD 73
Audio
ID : 1
Format : AC-3
Format/Info : Audio Coding 3
Commercial name : Dolby Digital
Codec ID : 2000
Duration : 51 min 11 s
Bit rate mode : Constant
Bit rate : 192 kb/s
Channel(s) : 1 channel
Channel layout : C
Sampling rate : 48.0 kHz
Frame rate : 31.250 FPS (1536 SPF)
Bit depth : 16 bits
Compression mode : Lossy
Stream size : 70.3 MiB (13%)
Alignment : Split accross interleaves
Interleave, duration : 40 ms (1.00 video frame)
Interleave, preload duratio : 500 ms
Service kind : Complete Main

admin

Post 22-Jan-2019 05:42

[Quote]

Название: Рождённая революцией / Комиссар милиции рассказывает
Год выхода: 1974-1977
Жанр: Детектив, биография, история
Режиссер: Григорий Кохан
В ролях: Евгений Жариков, Наталья Гвоздикова, Виктор Шульгин, Улдис Пуцитис, Виталий Розстальный, Сергей Подгорный, Станислав Бородокин, Георгий Дворников, Лев Прыгунов, Вадим Медведев, Адольф Шестаков, Сергей Дворецкий, Тамара Уржумова, Александр Январёв, Юрий Шерстнёв, Евгений Филатов, Александр Захаров, Сергей Полежаев, Владимир Талашко, Дмитрий Миргородский, Георгий Тейх, Ольга Матешко, Александр Быструшкин, Эрнст Романов, Евгений Леонов-Гладышев, Александр Филиппенко, Леонид Губанов, Лев Перфилов, Николай Погодин, Александр Вокач, Евгений Шутов
О фильме: О борьбе уголовного розыска с преступным миром. Картина, основанная на реальных фактах и документах, воссоздает атмосферу России 20-х годов, которую захлестнула волна насилия…
В центре повествования — судьба и карьера молодого парня, которому вместе с товарищами предстоит творить историю советского уголовного розыска…

Страна: СССР
Студия: Студия Довженко
Продолжительность: 10 x ~ 01:20:00
Кодек: х264
Качество: SATRip-AVC
Видео: MPEG-4 AVC, 704x572@768X572, 25 fps, 2400 Кбит/с
Аудио: AC3, 2 ch, 192 Кбит/с

Скриншоты


Инфо файл

Общее
Уникальный идентификатор : 178869143858032988209441588945421669755 (0x8690F1ABD6DB5AE3B9D798E2AEBD157B)
Полное имя : I:Рожденная революцией_1974-77-SATRip-AVCРеволюция-1.mkv
Формат : Matroska
Версия формата : Version 2
Размер файла : 1,12 Гбайт
Продолжительность : 1 ч. 1 м.
Общий поток : 2594 Кбит/сек
Дата кодирования : UTC 2014-12-01 09:17:40
Программа кодирования : mkvmerge v5.2.0 ('I can't explain') built on Dec 18 2011 18:12:03
Библиотека кодирования : libebml v1.2.3 + libmatroska v1.3.0
Видео
Идентификатор : 1
Формат : AVC
Формат/Информация : Advanced Video Codec
Профиль формата : High@L4.1
Параметр CABAC формата : Да
Параметр ReFrames формата : 15 кадров
Идентификатор кодека : V_MPEG4/ISO/AVC
Продолжительность : 1 ч. 1 м.
Битрейт : 2400 Кбит/сек
Ширина : 704 пикселя
Высота : 572 пикселя
Соотношение сторон : 4:3
Режим частоты кадров : Постоянный
Частота кадров : 25,000 кадров/сек
Цветовое пространство : YUV
Субдискретизация насыщенности : 4:2:0
Битовая глубина : 8 бит
Тип развёртки : Прогрессивная
Бит/(Пиксели*Кадры) : 0.238
Размер потока : 1,01 Гбайт (91%)
Библиотека кодирования : x264 core 142 r2431 ac76440
Настройки программы : cabac=1 / ref=15 / deblock=1:-2:-2 / analyse=0x3:0x133 / me=umh / subme=10 / psy=1 / psy_rd=1.05:0.20 / mixed_ref=1 / me_range=24 / chroma_me=1 / trellis=2 / 8x8dct=1 / cqm=0 / deadzone=21,11 / fast_pskip=0 / chroma_qp_offset=-3 / threads=12 / lookahead_threads=2 / sliced_threads=0 / nr=0 / decimate=0 / interlaced=0 / bluray_compat=0 / constrained_intra=0 / bframes=7 / b_pyramid=2 / b_adapt=2 / b_bias=0 / direct=1 / weightb=1 / open_gop=0 / weightp=2 / keyint=250 / keyint_min=25 / scenecut=40 / intra_refresh=0 / rc=2pass / mbtree=0 / bitrate=2400 / ratetol=1.0 / qcomp=0.60 / qpmin=0 / qpmax=39 / qpstep=4 / cplxblur=20.0 / qblur=0.5 / ip_ratio=1.40 / pb_ratio=1.30 / aq=1:1.00
Язык : English
Default : Да
Forced : Нет
Основные цвета : BT.601 PAL
Характеристики трансфера : BT.470 System B, BT.470 System G
Коэффициенты матрицы : BT.601
Аудио
Идентификатор : 2
Формат : AC-3
Формат/Информация : Audio Coding 3
Расширение режима : CM (complete main)
Параметр Endianness формата : Big
Идентификатор кодека : A_AC3
Продолжительность : 1 ч. 1 м.
Вид битрейта : Постоянный
Битрейт : 192 Кбит/сек
Каналы : 2 канала
Расположение каналов : Front: L R
Частота : 48,0 КГц
Битовая глубина : 16 бит
Метод сжатия : С потерями
Задержка видео : 160 мс.
Размер потока : 84,6 Мбайт (7%)
Язык : Russian
Default : Да
Forced : Нет

BOSS

Post 30-Dec-2018 22:14

[Quote]

Оригинальное название: Вкус Счастья
Год выпуска: 2018
Жанр: Мелодрама
Выпущено: Украина, «Star Media»
Режиссер: Александр Будённый
В ролях: Клавдия Дрозд, Анна Кошмал, Александр Пашков, Владимир Лилицкий, Михаил Химичев, Сталина Лагошняк, Алексей Смолка, Ксения Мишина, Влад Никитюк
О фильме: У Леры нет никого ближе и роднее, чем младшая сестра Наташа, которую она с 18 лет воспитывала сама. Чтобы сестра ни в чем не испытывала недостатка, Лера отказалась от своей мечты и не поступила в медицинский институт. Сестры живут душа в душу, пока однажды младшая не едет в столицу на поиски лучшей жизни. А потом и вообще девушкам приходится столкнуться друг с другом в борьбе за сердце одного мужчины. Но, к счастью, обоим хватает и ума, и сестринской любви, чтобы избежать полного разрыва. Лера уходит в сторону, чтобы Наташа была счастлива. И судьба награждает ее новой любовью...

Качество: WEB-DLRip
Видео: XviD build 73, 720x400 (16:9), 25.000 fps, ~ 1520 Kbps (~ 0.210 bit/pixel)
Аудио: 48.0 kHz, AC3, 2/0 ch, 192 kbps
Продолжительность: 4 x ~ 00:45:00
Перевод: Не требуется
Cубтитры: нет

Скриншоты

MediaInfo

General
Complete name : D:RazdachiVkus.Schastija.2018.XviD.WEB-DLRip.GeneralFilmVkus.Schastija.e01.avi
Format : AVI
Format/Info : Audio Video Interleave
File size : 557 MiB
Duration : 45 min 23 s
Overall bit rate : 1 715 kb/s
Writing application : VirtualDubMod 1.5.10.3 | www.virtualdub-fr.org || (build 2550/release)
Writing library : VirtualDubMod build 2550/release
Video
ID : 0
Format : MPEG-4 Visual
Format profile : Advanced Simple@L5
Format settings, BVOP : 1
Format settings, QPel : No
Format settings, GMC : No warppoints
Format settings, Matrix : Custom
Codec ID : XVID
Codec ID/Hint : XviD
Duration : 45 min 23 s
Bit rate : 1 513 kb/s
Width : 720 pixels
Height : 400 pixels
Display aspect ratio : 16:9
Frame rate : 25.000 FPS
Color space : YUV
Chroma subsampling : 4:2:0
Bit depth : 8 bits
Scan type : Progressive
Compression mode : Lossy
Bits/(Pixel*Frame) : 0.210
Stream size : 491 MiB (88%)
Writing library : XviD 73
Audio
ID : 1
Format : AC-3
Format/Info : Audio Coding 3
Format settings, Endianness : Big
Codec ID : 2000
Duration : 45 min 23 s
Bit rate mode : Constant
Bit rate : 192 kb/s
Channel(s) : 2 channels
Channel positions : Front: L R
Sampling rate : 48.0 kHz
Frame rate : 31.250 FPS (1536 SPF)
Bit depth : 16 bits
Compression mode : Lossy
Stream size : 62.3 MiB (11%)
Alignment : Split accross interleaves
Interleave, duration : 40 ms (1.00 video frame)
Interleave, preload duratio : 500 ms
Service kind : Complete Main

Борисыч

Post 09-Dec-2018 06:58

[Quote]


Год выпуска: 2018
Жанр: Криминал
Страна: Россия
Продолжительность: 16 х 00:49:00
Режиссер: Марк Горобец
В ролях: Павел Прилучный, Карина Андоленко, Роман Курцын, Максим Костромыкин, Виталий Кищенко, Екатерина Буйлова, Иван Ивашкин, Маша Шерстобитова, Светлана Степанковская, Сергей Пускепалис, Евгения Добровольская, Агния Кузнецова, Катерина Шпица, Борис Каморзин, Лариса Шахворостова, Раиса Рязанова, Александра Ребенок, Игорь Филиппов, Юлия Агафонова, Александр Лымарев, Александр Никольский (II), Владимир Чуприков, Максим Глотов, Никита Абдулов, Сергей Друзьяк, Александра Скачкова, Александр Андриенко, Андрей Гусев, Арсений Васильевых, Евгений Мундум
Описание: 1988 год, Калининград. Четверо лучших друзей отмечают школьный выпускной и делятся планами на будущее, мечтая связать свою жизнь с янтарем. Но янтарный бизнес превращает бывших юных мечтателей в алчных хладнокровных дельцов, не гнушающихся даже воровством и убийствами. Спустя 15 лет одному из героев придется бороться с друзьями юности, чтобы разоблачить преступную сеть и остановить «янтарный беспредел»
Качество видео: WEBRip
Формат видео: AVI
Видео кодек: XviD
Аудио кодек: AC3
Видео: 720x304, 25 fps, 1373 kbps
Аудио: 48 kHz, 2 ch, 192 kbps

Скриншоты

Борисыч

Post 29-Nov-2018 18:34

[Quote]

- Год выпуска: 2018
Жанр: Криминальная драма
Страна: Россия
Продолжительность: 9 x 00:50:00
Режиссер: Борис Хлебников
В ролях: Анна Михалкова, Евгений Гришковец, Татьяна Догилева, Аглая Тарасова, Александра Бортич, Александр Сударев, Стася Милославская, Анастасия Шаповал, Сергей Маркелов, Юлия Мельникова, Мария Андреева, Елизавета Кононова, Тамара Акулова, Николай Шрайбер, Валентина Лукащук, Семён Шомин, Сергей Уманов
Описание: У 39-летней Марины обычный маленький бизнес — цветочный магазинчик, обычная семья — муж работает хирургом, дочери учатся: младшая — в частной школе, старшая — в институте, и вполне обычные заботы. Окружающим её жизнь кажется счастливой, но за этим благополучным фасадом скрываются невероятные семейные тайны. Это история самой обычной женщины, живущей очень необычной жизнью.
Качество видео: SATRip
Формат видео: AVI
Видео кодек: XviD
Аудио кодек: АС3
Видео: 720x304, 25 fps, 1500 kbps
Аудио: 48 kHz, 2 ch, 192 kbps

Скриншоты

Борисыч

Post 12-Nov-2018 17:34

[Quote]

- - Год выпуска: 2007
Жанр: Детектив
Страна: Россия
Продолжительность: 14 x ~ 00:46:00
Режиссер: Сергей Урсуляк
В ролях: Сергей Маковецкий, Владимир Машков, Светлана Крючкова, Виктор Супрун, Лика Нифонтова, Ксения Раппопорт, Александр Семчев, Константин Лавроненко, Михаил Пореченков, Андрей Краско, Полина Агуреева
Описание: Послевоенная Одесса, разгул преступности. В городе орудует банда бывших диверсантов во главе с загадочным Академиком, которого не знают даже свои. Бандиты грабят военные склады и пытаются переправить продовольствие, обмундирование и оружие бандеровцам. В это время недовольный Жуковым Сталин назначает его командующим Одесским округом. Маршал всеми силами пытается навести в городе порядок. На борьбу с бандитами посланы все силы, особенно старается начальник уголовного розыска Давид Гоцман. В ходе расследования выясняется, что и в милиции, и в штабе командования у бандитов свои люди, в частности, сам Академик. Жуков и Гоцман прибегают к разным методам, чтобы выйти на банду. В конце концов Гоцман осуществляет идею внедрить в ряды бандитов своего человека и приманкой вынудить их к решительным действиям, чтобы всех взять и выйти на Академика
Качество видео: DVDRip
Формат видео: AVI
Видео кодек: XviD
Аудио кодек: АС3
Видео: 720x432, 25 fps, 1742 kbps
Аудио: 48 kHz, 6 ch, 384 kbps

Скриншоты

admin

Post 08-Nov-2018 17:50

[Quote]

Информация о фильме
Название: Годунов
Год выпуска: 2018
Жанр: драма, история
Режиссер: Алексей Андрианов, Тимур Алпатов
В ролях: Сергей Безруков (Борис Годунов), Сергей Маковецкий (Иван Грозный), Анна Михалкова (Ирина Годунова), Светлана Ходченкова (Мария Годунова), Виктор Сухоруков (Малюта Скуратов), Андрей Мерзликин (Василий Шуйский), Александр Устюгов (Фёдор Романов), Ирина Пегова (Мария Нагая), Владимир Стеклов, Антон Кузнецов (Богдан Бельский), Александр Семчев, Федор Лавров
О фильме: XVI век. Один из самых сложных и противоречивых периодов в истории страны. Тревожная и героическая эпоха Российского царства. Борьба за трон и неразделенная любовь, предательство и интриги, страсти и испытания эпохи - ставка в которой больше, чем жизнь. На кону - будущее Российского государства.В основе сериала реальные исторические события, охватывающие период со времен окончания правления Ивана Грозного и до восшествия на русский престол Михаила Федоровича Романова - первого царя из династии Романовых.
В центре беспрецедентного исторического проекта - судьба рода Годуновых. Какую роль сыграют в этой драме сам Борис Годунов, его жена Мария Годунова, сестра Ирина и дочь Ксения, зрителям только предстоит узнать. Впереди - настоящие открытия!
В Московском Кремле начинается отсчет последних дней правления Иоанна Грозного. Кто займет место на царском троне, как сложится судьба целого народа, кто способен провести Россию через Смутное время, и как любовь изменяет путь истории.

Страна: Россия
Студия: Главкино
Продолжительность: ~00:50:00 серия
Перевод: Оригинальный
Файл
Качество: SATRip
Формат: AVI
Видео: 720x400 at 25.000 fps, XviD, ~1600 kbps avg
Аудио: Russian: 48 kHz, MP3, 2/0 (L,R) ch, ~192 kbps avg
Субтитры: None
***Примечание: Без рекламы.
***Релиз: 25Kuzmich.

Скриншоты

Раздача ведется путем добавления новых серий

Когда раздача ведётся путём добавления новых серий, при каждом добавлении создётся новый торрент. Чтобы начать докачку новой серии, пользователям необходимо сделать следующее:
(1) остановить скачивание,
(2) удалить старый торрент у себя из клиента (старые серии удалять не надо),
(3) скачать новый торрент и запустить его у себя в клиенте вместо старого, при этом указать клиенту путь в старую папку, куда и должно происходить скачивание новых серий.
Ваш клиент при этом должен произвести хеширование (проверку) старой папки (если не производит сам - помогите ему сделать это), и будет докачивать только те серии, которых у вас ещё нет. Старые серии при этом не удаляются, а продолжают раздаваться!
Eсли вы уже удалили старые серии, то предотвратить повторную закачку старых серий можно, отжав галочку в соответсвующих местах при запуске нового торрента. По возможности, желательно не удалять старые серии как можно дольше, чтобы релизер не столько продолжал раздавать старые серии, а смог сконцентрироваться на новых.

admin

Post 31-May-2018 05:51

[Quote]

Информация о фильме
Оригинальное название: Гурзуф
Год выпуска: 2018
Жанр: Детектив, драма, криминал
Выпущено: Россия, Epic Media
Режиссер: Дмитрий Константинов
В ролях: Пётр Фёдоров, Евгений Антропов, Дарья Урсуляк, Павел Чинарёв, Мария Смольникова, Виталия Корниенко, Александр Бухаров, Тимур Бадалбейли, Константин Чепурин, Елена Нестерова, Алексей Комашко, Дмитрий Поднозов, Ольга Ергина, Вячеслав Чепурченко, Юлия Харьковская, Шамхал Хачатурян
О фильме: Июнь 1965 года. Порой, жёстко, в обход закона; порой, договариваясь с преступниками – Родион Стоцкий, за три года работы начальником милиции, превратил Гурзуф в самое спокойное место Южного Берега Kрыма. Здесь даже пляжные мошенники предпочитают не работать. Но в начале нового курортного сезона, за пару дней, происходит сразу несколько преступлений: расстреливают блатных в такси; грабят грузовик, который везёт зарплату для работников «Артека»; совершают разбойное нападение на подпольное игорное заведение. Стоцкий понимает, что все эти преступления связаны, и он должен найти преступников в самое кратчайшее время. В расследовании ему помогает старый знакомый Тарас Зайцев, который перебрался с семьёй в Kрым следом за Стоцким.

Файл
Качество: SATRip
Видео: XviD ~ 1650 Кбит/с, 720x400
Аудио: MP3, 2 ch, 192 Кбит/с
Продолжительность: 6 х ~ 00:49:00
Язык: Русский

Скриншоты


 

Current time is: 14-Dec 01:00

All times are UTC + 3