Search found 163 matches

Author Message

admin

Post 25-Jun-2022 18:19

[Quote]

Информация о фильме
Название: Смычок
Год выпуска: 2022
Жанр: Драма
Режиссер: Александр Цой
В ролях:Марк Эйдельштейн, Кристина Кучеренко, Катерина Беккер, Владислав Миллер, Полина Давыдова, Рузиль Минекаев, Михаил Кремер, Лев Малишава, Екатерина Соколова-Жубер, Евгений Сидихин, Евгений Иванов, София Эль-Гедави, Александр Яцко, Андрей Вергелис, Татьяна Колганова, Илья Халмурзаев
О фильме: Сеня одержим классической музыкой. Он отправляется поступать в престижную консерваторию в Питере и ближайшие годы планирует посвятить только игре на скрипке. Но реальность оказывается гораздо сложнее: на вокзале ему подкидывают сверток с запрещенными веществами и шантажом вынуждают стать кладменом. Теперь Сеню зовут «Смычок», и он начинает понимать, что новое занятие — быстрый социальный лифт и легкий способ заработать большие деньги, с которыми придут новые друзья, независимость и уверенность в себе... Или не придут, а только лишат амбиций стать великим музыкантом?
Выпущено: Россия
Студия: Кинокомпания "Start Studio", фонд «Пример Интонации»
Продолжительность: 8 х ~ 00:54:00
Перевод: Не требуется
Файл
Качество: WEBRip
Видео: XviD, ~ 1600 Кбит/с, 720x400
Аудио: AC3, 2 ch, 192 Кбит/с

Скриншоты

admin

Post 23-Jun-2022 13:54

[Quote]

Информация о фильме
Название: Оффлайн
Год выпуска: 2022
Жанр: Детектив, драма, триллер
Режиссер: Кирилл Плетнёв
В ролях: Никита Ефремов, Денис Шведов, Полина Максимова, Никита Кологривый, Марина Ворожищева, Алёна Константинова, Тина Стойилкович, Егор Кенжаметов, Алексей Шевченков, Риналь Мухаметов, Валентина Мазунина, Александр Клюквин, Альфия Закирова, Полина Пушкарук, Дмитрий Ульянов, Игорь Черневич, Анна Каменкова, Никита Карпинский, Павел Чернышёв (II), Даниил Белых, Александр Фисенко, Алексей Коряков, Таисья Калинина, Павел Абдалов, Егор Ковалёв, Андрей Мартынов (IV), Галина Шевякова, Василий Михайлов (II), Николай Хмелёв (II), Роберт Штаф, Егор Попов, Валентин Валл, Михаил Водзуми, Владимир Горюшин, Иван Иванович, Алёна Ицкова, Александр Комиссаров (II), Сергей Крапива, Сергей Л
О фильме: BeHappy — секретное невидимое приложение, которое служит для покупки наркотиков через смартфон. Его пользователи сталкиваются с серьезным противником, который прячется под именем Анонимус. Он сообщает им, что сумел раскрыть данные всех, кто когда-либо пользовался этим приложением и теперь он дает им выбор — пойти в полицию и во всем признаться или сыграть в игру со смертью. Что будет, если в этой игре проиграть, становится ясно, когда пользователи BeHappy получают фото кладмена с перерезанным горлом.

Выпущено: Россия
Студия: Кинокомпания "BUBBLEGUM PRODUCTION "
Продолжительность: 10 х ~ 00:48:00
Перевод: Не требуется
Файл
Качество: WEB-DLRip
Видео: XviD, ~ 1600 Кбит/с, 720x304, 25 кадр/с
Аудио: AC3, 6 ch, 384 Кбит/с

Скриншоты

Раздача ведётся путём добавления новых серий

Внимание! Раздача ведётся путём добавления новых серий; при каждом добавлении создаётся новый торрент.
Чтобы начать докачку новой серии, пользователям необходимо сделать следующее:
1. Остановить скачивание;
2. Удалить старый торрент у себя из клиента (старые серии удалять не надо);
3. Скачать новый торрент и запустить его у себя в клиенте вместо старого, при этом указать клиенту путь в старую папку куда и должно происходить скачивание новых серий. Ваш клиент при этом должен произвести хеширование (проверку) старой папки и будет докачивать только те серии, которых у вас ещё нет. Старые серии при этом не удаляются, а продолжают раздаваться! Eсли вы уже удалили старые серии, то предотвратить повторную закачку старых серий можно, отжав галочку в соответствующих местах при запуске нового торрента.

admin

Post 21-Jun-2022 21:06

[Quote]

Информация о фильме
Название: Детективное агентство Мухича
Год выхода: 2022
Жанр: Комедия
Режиссер: Илья Куликов, Алексей Зотов
В ролях: Роман Попов, София Каштанова, Рина Гришина, Александр Дерепко, Сергей Штатнов, Ирина Вилкова, Михаил Химичев, Максим Линников, Тамара Адамова, Кристина Айвазовская, Алёна Ицкова, Кирилл Волин, Ирина Чериченко, Юрий Брешин, Федор Чалов, Арсений Попов, Валерий Новиков, Александр Николаев, Ксения Новышева, Сергей Нечипоренко, Александр Румянцев, Александр Коротков, Владимир Кисаров, Андрей Мясников, Равиль Батыров, Екатерина Евсеева, Виктор Бутусов, Дмитрий Комов, Всеволод Макаров, Сергей Долготович, Степан Лапин, Мария Кудрявцева, Алик Гульханов, Никита Легостев, Иван Породнов, Злата Павлова, Дмитрий Попов, Сергей Давыдов, Варвара Антонова, Алена Глебова, Анна Асташкина, Андрей Луковников, Анна Арланова, Зинфира Арсланова, Олег Хализов, Иван Куколев, Иван Дементьев, Инга Фишлер, Геннадий Грезнев, Михаил Ефимов, Татьяна Макурина, Андрей Бабич, Андрей Снежко, Дмитрий Бедарев, Юлия Богатикова, Рубен Узлиян, Степан Губарьков, Павел Рязанов, Виктория Стаховская, Анна Екатерининская, Александр Лебедев, Артур Каспранов, Ирина Рудоминская, Егор Анисимов, Антон Кукушкин, Антон Никушин, Светлана Суханова, Ирина Ефремова, Игорь Оробей, Георгий Лежава, Юлия Егерева, Михаил Павлик, Елена Лущенко, Петр Таренко, Дмитрий Артаев, Мария Букнис, Татьяна Андреева, Евгений Крылов, Виктория Черненко, Захар Савченко, Евгений Симонян, Анатолий Федоренко, Евгений Шляпин, Бахтияр Ташбулатов
О фильме:
После очередного «успешного» дела по поимке вора Мухича и Кристину увольняют, и они открывают собственное детективное агентство в Барвихе. Напарники берутся за самые разные дела: от слежки за любовницей богатого предпринимателя до защиты директора IT-компании, в сознание которого кто-то пытается проникнуть во сне. Мухич и Кристина сделают все, чтобы ни одно преступление в Барвихе не осталось нераскрытым, а помогать в расследованиях им будут старые знакомые.

Страна: Россия
Студия: LEGIO FELIX
Продолжительность: 2 х ~ 00:24:00
Язык: Русский
Премьера: 20 июня 2022 года
Примечание: Без рекламы
Версия 18+
Файл
Формат: AVI
Качество: WEBRip
Видео: MPEG-4 AVC, ~ 1650 Кбит/с, 720x304
Звук: AC3, 2 ch, 192 Кбит/с
Субтитры: Отсутствуют
Семпл

Скриншоты

MI

Общее
Полное имя : D:Detektivnoe.agentstvo.Muhicha.S01.WEB-DLRip.25KuzmichDetektivnoe.agentstvo.Muhicha.s01.e01.WEB-DLRip.25Kuzmich.avi
Формат : AVI
Формат/Информация : Audio Video Interleave
Размер файла : 363 Мбайт
Продолжительность : 27 м. 23 с.
Общий поток : 1 852 Кбит/сек
Программа кодирования : VirtualDubMod 1.5.10.3 | www.virtualdub-fr.org || (build 2550/release)
Библиотека кодирования : VirtualDubMod build 2550/release
Видео
Идентификатор : 0
Формат : MPEG-4 Visual
Профиль формата : Advanced Simple@L5
Настройки формата : BVOP1
Параметр BVOP формата : 1
Параметр QPel формата : Нет
Параметр GMC формата : Без точки перехода
Параметр матрицы формата : Default (MPEG)
Идентификатор кодека : XVID
Идентификатор кодека/Подсказка : XviD
Продолжительность : 27 м. 23 с.
Битрейт : 1 650 Кбит/сек
Ширина : 720 пикселей
Высота : 304 пикселя
Соотношение сторон : 2,35:1
Частота кадров : 25,000 кадров/сек
Цветовое пространство : YUV
Субдискретизация насыщенности : 4:2:0
Битовая глубина : 8 бит
Тип развёртки : Прогрессивная
Метод сжатия : С потерями
Бит/(Пиксели*Кадры) : 0.301
Размер потока : 323 Мбайт (89%)
Библиотека кодирования : XviD 73
Аудио
Идентификатор : 1
Формат : AC-3
Формат/Информация : Audio Coding 3
Коммерческое название : Dolby Digital
Идентификатор кодека : 2000
Продолжительность : 27 м. 23 с.
Вид битрейта : Постоянный
Битрейт : 192 Кбит/сек
Каналы : 2 канала
Channel layout : L R
Частота : 48,0 КГц
Частота кадров : 31,250 кадров/сек (1536 SPF)
Метод сжатия : С потерями
Размер потока : 37,6 Мбайт (10%)
Выравнивание : Разделение по промежуткам
Продолжительность промежутка : 40 мс. (1,00 видеокадр)
Время предзагрузки промежутка : 500 мс.
Service kind : Complete Main

admin

Post 20-Jun-2022 15:30

[Quote]

Информация о фильме
Оригинальное название: Акула
Год выпуска: 2022
Жанр: Триллер, драма, криминал
Режиссер: Андрес Пуустусмаа
В ролях: Евгений Дятлов, Владимир Селезнёв, Артём Алексеев, Алексей Гришин, Азиз Бейшеналиев, Павел Гайдученко, Александр Коркунов, Виктория Заболотная, Ирина Горячева, Анастасия Обжигина, Борис Хасанов, Евгений Зайфрид, Виталий Крылов, Евгений Терских, Яков Шамшин, Олег Сенченко, Егор Долгополов, Игорь Качаев, Олег Фёдоров, Оксана Скакун, Егор Шмыга, Станислав Белозеров, Артур Федынко, Василий Щипицын, Игорь Головин, Евгений Кузьмин, Кира Кауфман, Паулина Врублевска, Алексей Ведерников
О фильме: Начальнику УгРо Александру Кулакову по прозвищу Акула, который находится по обе стороны добра и зла - полиции и бандитов, предстоит пройти долгий путь, чтобы искупить ошибки прошлого, попытаться выжить и спасти свою семью, и найти выход из, казалось бы, безнадёжной ситуации.
Страна: Россия
Студия: Кинокомпания "Амедиа Продакшн"
Продолжительность: 12 х ~ 00:47:25
Файл
Кодек: h.264
Качество: WEBRip-AVC
Видео: MPEG-4 AVC, ~ 2000 Кбит/с, 1024x432, 25 кадр/с
Аудио: AC3, 2 ch, 192 Кбит/с
Язык: Русский
Субтитры: Нет

Скриншоты


Борисыч

Post 12-Jun-2022 11:51

[Quote]

- Год выпуска: 2001
Страна: Россия
Жанр: Приключения
Продолжительность: 20 х 00:52:00
Режиссер: Юрий Кузьменко
В ролях: Владислав Галкин, Владимир Гостюхин, Наталья Егорова, Дарья Михайлова, Вадим Яцук, Виктор Яцук, Эммануил Виторган, Виктор Проскурин, Александр Пороховщиков, Виктор Сухоруков, Игорь Ясулович, Михаил Глузский, Борис Химичев, Полина Кутепова, Петр Зайченко, Сергей Векслер, Марина Полицеймако, Андрей Ростоцкий, Николай Чиндяйкин, Раиса Рязанова, Всеволод Шиловский
Описание: Два напарника - опытный водитель Федор, намотавший уже не одну тысячу километров, и его молодой коллега Сашко - отправляются вместе в дальний рейс. Два совершенно разных человека, принадлежащих двум разным поколениям, долго притираются друг к другу. Но постепенно общие трудности и испытания сближают героев, и между ними возникает настоящая мужская дружба. При всем разнообразии характеров оба они - положительные персонажи. В дороге герои попадают в кучу приключений...
Качество: DVDRip
Формат: AVI
Видео кодек: XviD
Аудио кодек: AC3
Видео: 688x512, 25 fps, 1485 kbps
Аудио: 48 kHz, 5 ch, 384 kbps

Скриншоты

- Год выпуска: 2004
Страна: Россия
Жанр: Приключения
Продолжительность: 12 х 00:48:00
Режиссер: Василий Бледнов
В ролях: Владислав Галкин, Владимир Гостюхин, Вадим Яцук, Виктор Яцук, Дарья Михайлова, Наталья Егорова, Кирилл Плетнёв, Александр Тараньжин, Виталий Абдулов, Самвел Асатрян, Виталий Баев, Егор Баринов, Вячеслав Ганенко, Екатерина Гольтянина, Юрий Дуванов, Станислав Дужников
Описание:
Приключения двух друзей, известных по сериалу «Дальнобойщики», продолжаются. Вновь их ждет дальняя дорога, новые встречи и знакомства. Напарники не всегда ладят друг с другом, между ними бывают и ссоры, но всегда их примиряет дорога. Фильм построен на живых диалогах, добром юморе, веселых и серьезных, а подчас и смертельно опасных ситуациях, в которые то и дело попадают Федор и Сашок...
Качество: DVDRip
Формат: AVI
Видео кодек: XviD
Аудио кодек: AC3
Видео: 704x512, 25 fps, 1597 kbps
Аудио: 48 kHz, 6 ch, 448 kbps

Скриншоты

- Год выпуска: 2011
Страна: Россия
Жанр: Приключения
Продолжительность: 12 х 00:47:00
Режиссер: Марина Видинеева
В ролях: Владимир Гостюхин, Сергей Друзьяк, Павел Сборщиков, Андрей Лавров, Наталья Егорова, Олег Мосалев, Сергей Рубеко, Юлиана Ромашина (Оррен), Анатолий Шаляпин, Дарья Повереннова, Александр Пятков, Михаил Богдасаров, Петр Зайченко, Сергей Глушко, Алексей Шевченков, Анатолий Калмыков, Екатерина Семёнова, Вадим Яцук, Александра Березовец-Скачкова, Виктор Яцук, Ксения Лаврова-Глинка, Елена Старостина (II), Алексей Огурцов, Александр Кудринский, Виталий Кудрявцев, Роман Чора, Роман Индык, Галина Фёдорова (II), Алексей Дайнеко, Андрей Леонов, Анна Цуканова, Сергей Мухин, Игорь Верник, Михаил Самохвалов, Сергей Колесников, Алексей Агрызков, Максим Коновалов, Ирина Даниленко (II)
Описание:
Прошло 10 лет. На автобазе, где, по-прежнему, работает Федор Иванович, больших изменений не произошло, он как и десять лет назад, крутит баранку, колесит на своей фуре по российским дорогам, но только один, без напарника. Нет второго такого, как Сашок, так и не нашел ему Федор замену...
Качество: DVDRip
Формат: AVI
Видео кодек: XviD
Аудио кодек: AC3
Видео: 720x400, 25 fps, 1425 kbps
Аудио: 48 kHz, 2 ch, 192 kbps

Скриншоты

admin

Post 10-Jun-2022 05:25

[Quote]

Оригинальное название: ЮЗЗЗ
Год выпуска: 2022
Жанр: драма, криминал
Выпущено: Россия, Russian World Studios
Режиссер: Стас Иванов
В ролях: Антон Кузнецов, Кузьма Котрелев, Мария Машкова, Маша Мацель, Дмитрий Чеботарёв, Гела Месхи, Полина Айнутдинова, Виталия Корниенко, Тимур Абитов, Таша Цветкова
Автор релиза: 25Kuzmich
Без рекламы
Версия 18+
О сериале: Ростов-на-Дону, наши дни. В одном из рабочих спальных районов на юго-западе города, окрещённого жителями "ЮЗ" кипит жизнь – местная группировка молодых парней то и дело меряется силой с ровесниками из "блатного" центра, ну а взрослые "хозяева" районов ворочают делами посерьезнее. Равиль – молодой программист, живущий на ЮЗе. Окончив техникум, парень мечтает уехать в США и там заниматься любимым делом. В ожидании гранта, Равиль подрабатывает курьером. Однако, молодого романтика манит соблазн быстрых криминальных денег. Чтобы осуществить заветную мечту о другой жизни и завоевать сердце юной красотки Эли из района богачей, Равиль ступает на скользкий путь.

Качество: WEBRip
Видео: XviD, ~ 1550 Кбит/с, 720x352
Аудио: AC3, 2 ch, 192 Кбит/с
Продолжительность: 7 х ~ 00:47:00
Язык: Русский

Скриншоты

admin

Post 08-Jun-2022 07:22

[Quote]

Информация о фильме
Название: Всё в твоих руках
Год выпуска: 2022
Жанр: Детектив
Режиссер: Роман Иванов
Ведущий: Александр Дуда
О фильме: Ведущий Александр Дуда и хиромант Алена Орлова на примерах реальных героев и жизненных ситуаций расскажут, как не совершить роковую ошибку, прочитав будущее по линиям на ладонях. Детективный проект «Всё в твоих руках» документально воссоздаст реальные криминальные происшествия и преступления. Случившееся с героями объединяет то, что каждый из них оказался перед выбором и был уверен, что сможет перехитрить судьбу.
Выпущено: Россия
Продолжительность: 13 х ~ 00:24:00
Перевод: Не требуется
Файл
Качество: WEBRip
Видео: XviD, ~ 1600 Кбит/с, 720x400
Аудио: AC3, 2 ch, 192 Кбит/с

Скриншоты

admin

Post 06-Jun-2022 07:32

[Quote]

Информация о фильме
Название: Спецотряд Шторм
Год выпуска: 2013
Жанр: Боевик
Режиссер: Валерий Ибрагимов
В ролях: Владислав Резник, Ярослав Гуревич, Виктория Полторак, Сергей Плотников (II), Геннадий Свирь, Игорь Ключников, Игорь Гнездилов, Кирилл Капица, Константин Кайнов, Валерий Ибрагимов, Сергей Акуленко, Саак Дурян, Владимир Мельник, Игорь Петрусенко, Роман Лукьянов
О фильме: В новом многосерийном остросюжетном криминальном сериале под названием «Спецотряд Шторм» (2013) от режиссера Валерия Ибрагимова, кстати, съемки этого телесериала проходили на Украине, в городе Одесса, рассказывается об очень нелегкой работе сотрудников специального отряда по предотвращению различных террористических актов и других диверсий. Главным местом действия в этой картине является город у моря. Небольшой портовый городок с головой окунется в очень интересные события. Недалеко от этого города находится пограничная застава, а под самим городом находятся катакомбы, хранящие множество тайн. Они то и являются прекрасным убежищем для укрытия преступников.

Выпущено: Россия, Украина
Студия: Star Media
Продолжительность: 16 х ~ 00:45:00
Перевод: Не требуется
Файл
Качество: WEB-DLRip
Видео: XviD, ~ 1600 Кбит/с, 720x400, 25 кадр/с
Аудио: Русский (AC3, 2 ch, 192 Кбит/с)

Скриншоты

admin

Post 04-Jun-2022 06:07

[Quote]

Информация о фильме
Оригинальное название: Эксперимент
Год выхода: 2021
Жанр: Комедия, мелодрама
Режиссер: Ольга Кандидатова
В ролях: Сергей Мардарь, Наталья Парашкина, Александра Куликова, Сергей Яценюк, Василий Щипицын, Светлана Письмиченко, Ирина Мазуркевич, Янина Лакоба, Анна Мигицко, Денис Пьянов, Александр Баргман, Андрей Некрасов, Екатерина Шмакова, Елена Мартыненко, Алёна Кучкова, Константин Гаёхо, Алексей Красноцветов, Полина Войченко, Михаил Разумовский, Никита Федяхин, Александр Саюталин
О фильме:
Популярный психолог Холмогоров, чтобы спасти бизнес, вынужден согласиться на предложенный эксперимент и взять к себе в напарницы уборщицу бизнес-центра Клаву, которая долгое время исправляла его профессиональные ошибки и помогала клиентам найти душевное равновесие.

Страна: Россия
Студия: Производство ООО "Петрофильм Продакшн" по заказу ООО "Epic Media"
Продолжительность: 5 х 00:24:40
Перевод: Не требуется
Файл
Кодек: XviD
Качество: WEBRip
Видео: XviD, ~ 1612 Кбит/с, 720x288, 25 кадр/с
Звук: AC3, 2 ch, 192 Кбит/с

Скриншоты


MediaInfo

General
Complete name : C:01.Эксперимент.s01.E01.(2021).WEBRip.by.Nicodem.Files-x.avi
Format : AVI
Format/Info : Audio Video Interleave
File size : 321 MiB
Duration : 24mn 43s
Overall bit rate : 1 814 Kbps
Writing application : VirtualDubMod 1.5.10.3 | www.virtualdub-fr.org || (build 2550/release)
Writing library : VirtualDubMod build 2550/release
Video
ID : 0
Format : MPEG-4 Visual
Format profile : Advanced Simple@L5
Format settings, BVOP : 1
Format settings, QPel : No
Format settings, GMC : No warppoints
Format settings, Matrix : Custom
Codec ID : XVID
Codec ID/Hint : XviD
Duration : 24mn 43s
Bit rate : 1 612 Kbps
Width : 720 pixels
Height : 288 pixels
Display aspect ratio : 2.500
Frame rate : 25.000 fps
Color space : YUV
Chroma subsampling : 4:2:0
Bit depth : 8 bits
Scan type : Progressive
Compression mode : Lossy
Bits/(Pixel*Frame) : 0.311
Stream size : 285 MiB (89%)
Writing library : XviD 73
Audio
ID : 1
Format : AC-3
Format/Info : Audio Coding 3
Mode extension : CM (complete main)
Codec ID : 2000
Duration : 24mn 43s
Bit rate mode : Constant
Bit rate : 192 Kbps
Channel(s) : 2 channels
Channel positions : Front: L R
Sampling rate : 48.0 KHz
Bit depth : 16 bits
Compression mode : Lossy
Stream size : 34.0 MiB (11%)
Alignment : Split accross interleaves
Interleave, duration : 40 ms (1.00 video frame)
Interleave, preload duration : 500 ms

admin

Post 03-Jun-2022 05:13

[Quote]

Информация о фильме
Название: Абсурд
Год выхода: 2022
Жанр: Комедия
Режиссер: Артем Насыбулин
В ролях: Андрей Мерзликин, Алексей Маклаков, Юрий Чурсин, Иван Мамонов, Сергей Ходьков, Александр Удальцов, Анна Старшенбаум, Виктория Полторак, Нодари Джанелидзе, Александр Тарасов, Сергей Гиргель, Игорь Сигов, Анатолий Голуб, Александра Алексеева, Олег Вебер, Таисия Орлова, Светлана Аникей, Арина Рябычина, Юлианна Михневич, Сергей Ефремов, Милана Иванова, Сергей Пукита, Андрей Милюхин, Олег Гарбуз, Василий Козлов, Антон Макуха, Дмитрий Пустильник, Виктор Молчан, Валерий Зеленский, Максим Пониматченко, Георгий Волчек, Игорь Денисов, Валерий Воротынский, Александр Одинец, Александр Ильин, Сергей Чекерес, Руслан Чернецкий, Ольга Никифорова, Антон Жуков, Сергей Шимко, Александр Подобед, Александр Абрамович, Константин Конюхов, Кирилл Андронов, Владислав Солодов, Олег Ткачёв, Владимир Божков, Александр Аверков, Виктор Васильев, Дмитрий Глазачев, Максим Брагинец, Ксения Демидович, Игорь Петров, Игорь Карпиевич, Николай Рыбчин, Лариса Карасина, Юрий Зинченко, Александр Зеленко, Инна Савенкова, Алексей Сенчило, Георгий Малявский, Валентина Карташова, Людмила Разумова, Михаил Есьман, Виктор Рыбчинский, Олег Коц, Сергей Савенков
О фильме:
Одному генералу пришла в голову гениальная на первый взгляд идея — отправить настоящих зеков в путешествие по России, а на их места нанять профессиональных актёров, чтобы те за хороший гонорар изобразили счастливых и довольных заключённых во время проверки комиссии, — но что-то, как это часто бывает, идёт не так.

Страна: Россия
Студия: ВайТ Медиа
Продолжительность: 8 х ~ 00:50:00
Язык: Русский
Премьера: 12 мая 2022 года
Примечание: Без рекламы
Файл
Формат: AVI
Качество: WEBRip
Видео: XviD, ~ 1650 Кбит/с, 720x400
Звук: AC3, 2 ch, 192 Кбит/с
Субтитры: Отсутствуют
Семпл

Скриншоты

MI

Общее
Полное имя : D:Absurd.S01.WEB-DLRip.25KuzmichAbsurd.s01e01.WEB-DLRip.25Kuzmich.avi
Формат : AVI
Формат/Информация : Audio Video Interleave
Размер файла : 643 Мбайт
Продолжительность : 48 м. 35 с.
Общий поток : 1 852 Кбит/сек
Программа кодирования : VirtualDubMod 1.5.10.3 | www.virtualdub-fr.org || (build 2550/release)
Библиотека кодирования : VirtualDubMod build 2550/release
Видео
Идентификатор : 0
Формат : MPEG-4 Visual
Профиль формата : Advanced Simple@L5
Настройки формата : BVOP1
Параметр BVOP формата : 1
Параметр QPel формата : Нет
Параметр GMC формата : Без точки перехода
Параметр матрицы формата : Default (MPEG)
Идентификатор кодека : XVID
Идентификатор кодека/Подсказка : XviD
Продолжительность : 48 м. 35 с.
Битрейт : 1 650 Кбит/сек
Ширина : 720 пикселей
Высота : 400 пикселей
Соотношение сторон : 16:9
Частота кадров : 25,000 кадров/сек
Цветовое пространство : YUV
Субдискретизация насыщенности : 4:2:0
Битовая глубина : 8 бит
Тип развёртки : Прогрессивная
Метод сжатия : С потерями
Бит/(Пиксели*Кадры) : 0.229
Размер потока : 573 Мбайт (89%)
Библиотека кодирования : XviD 73
Аудио
Идентификатор : 1
Формат : AC-3
Формат/Информация : Audio Coding 3
Коммерческое название : Dolby Digital
Идентификатор кодека : 2000
Продолжительность : 48 м. 35 с.
Вид битрейта : Постоянный
Битрейт : 192 Кбит/сек
Каналы : 2 канала
Channel layout : L R
Частота : 48,0 КГц
Частота кадров : 31,250 кадров/сек (1536 SPF)
Метод сжатия : С потерями
Размер потока : 66,7 Мбайт (10%)
Выравнивание : Разделение по промежуткам
Продолжительность промежутка : 40 мс. (1,00 видеокадр)
Время предзагрузки промежутка : 500 мс.
Service kind : Complete Main

admin

Post 03-Jun-2022 04:16

[Quote]

Информация о фильме
Оригинальное название: Эпидемия
Год выпуска: 2019
Жанр: Фильм-катастрофа, фэнтези, экранизация
Выпущено: Россия, PREMIER Studios
Режиссер: Павел Костомаров
В ролях: Кирилл Кяро, Виктория Исакова, Александр Робак, Марьяна Спивак, Савелий Кудряшов, Наталья Земцова, Юрий Кузнецов, Анна Михалкова, Александр Яценко, Игорь Савочкин, Павел Ворожцов, Артём Сучков, Константин Балакирев
О фильме: Жёсткая семейная драма на фоне глобальной катастрофы, «Эпидемия» основана на романе Яны Вагнер «Вонгозеро», переведённом на 11 языков. В основе сюжета - неизвестный смертельный вирус, который быстро разрастается до страшной эпидемии. Сергей в компании своей новой возлюбленной и её сына-аутиста, а также бывшей жены, их сына и ещё нескольких примкнувших к ним попутчиков пытается спастись за границами карантина. Где-то далеко, на необитаемом острове в Карелии, стоит охотничий домик, где они смогут начать все с нуля. Но дорога в новую жизнь будет непростой, ведь бегут герои не только от глобальной катастрофы, но и личной семейной драмы.

Файл
Качество: WEB-DLRip
Видео: XviD build 73, 720x304 (2.37:1), 25.000 fps, 1200 Kbps (0.220 bit/pixel)
Аудио: 48.0 kHz, mp3, 2/0 ch, 192 kbps
Продолжительность: 8 х ~ 00:55:00
Перевод: Не требуется [Русский]
Cубтитры: Английский хардсаб
Ненормативная лексика!

Скриншоты

MediaInfo

General
Complete name : D:RazdachiEpidemiya.2019.WEB-DLRip.GeneralFilms01.e01.Epidemiya.avi
Format : AVI
Format/Info : Audio Video Interleave
File size : 558 MiB
Duration : 56 min 36 s
Overall bit rate : 1 378 kb/s
Writing application : VirtualDubMod 1.5.10.3 | www.virtualdub-fr.org || (build 2550/release)
Writing library : VirtualDubMod build 2550/release
Video
ID : 0
Format : MPEG-4 Visual
Format profile : Advanced Simple@L5
Format settings : BVOP1
Format settings, BVOP : 1
Format settings, QPel : No
Format settings, GMC : No warppoints
Format settings, Matrix : Default (H.263)
Codec ID : XVID
Codec ID/Hint : XviD
Duration : 56 min 36 s
Bit rate : 1 176 kb/s
Width : 720 pixels
Height : 304 pixels
Display aspect ratio : 2.35:1
Frame rate : 25.000 FPS
Color space : YUV
Chroma subsampling : 4:2:0
Bit depth : 8 bits
Scan type : Progressive
Compression mode : Lossy
Bits/(Pixel*Frame) : 0.215
Stream size : 476 MiB (85%)
Writing library : XviD 69
Audio
ID : 1
Format : MPEG Audio
Format version : Version 1
Format profile : Layer 3
Codec ID : 55
Codec ID/Hint : MP3
Duration : 56 min 36 s
Bit rate mode : Constant
Bit rate : 192 kb/s
Channel(s) : 2 channels
Sampling rate : 48.0 kHz
Frame rate : 41.667 FPS (1152 SPF)
Compression mode : Lossy
Stream size : 77.7 MiB (14%)
Alignment : Aligned on interleaves
Interleave, duration : 40 ms (1.00 video frame)
Interleave, preload duratio : 504 ms
Writing library : LAME3.99r
Encoding settings : -m s -V 4 -q 2 -lowpass 18.6 -b 192

admin

Post 27-May-2022 05:36

[Quote]

Информация о фильме
Название: Чернобыль
Год выпуска: 2022
Жанр: История, драма, детектив
Режиссер: Алексей Мурадов
В ролях: Игорь Петренко, Надежда Михалкова, Дмитрий Ульянов (I), Мария Андреева, Александр Ильин мл., Владимир Юматов, Дмитрий Муляр, Александр Феклистов, Елена Яковлева, Юрий Цурило, Борис Каморзин, Елена Лотова, Владимир Матвеев, Виталия Корниенко, Андрей Пынзару, Сергей Петров, Руслан Банковский, Жан-Марк Биркхольц, Антон Ансимов, Ян Горбачевский, Николай Капустин, Никита Клютко, Станислав Савостин, Кирилл Новицкий, Денис Барановский, Анастасия Знаменщикова, Алеся Клочко, Сергей Гурьев, Юрий Шмак, Виталий Лойко, Юрий Нифонтов, Олег Вебер, Василий Мичков, Жорж Девдариани
О фильме: Действие разворачивается с апреля по декабрь 1986 года. Украинскому отделу КГБ СССР становится известно об интересе, проявляемом иностранными спецслужбами к Чернобыльской атомной электростанции. Для установления местонахождения на территории Припяти опытного сотрудника ЦРУ Альберта Ленца, которого подозревают в шпионаже, в город прибывает подполковник военной контрразведки Андрей Николаев.

Выпущено: Россия
Студия:Кинокомпания "Амальгама студия"
Продолжительность: 12 х ~ 00:51:06
Перевод: Не требуется
Файл
Качество: WEB-DLRip
Видео: XviD, ~ 1600 Кбит/с, 720x304, 25 кадр/с
Аудио: AC3, 2 ch, 192 Кбит/с

Скриншоты

admin

Post 27-May-2022 05:32

[Quote]

Информация о фильме
Оригинальное название: Вспышка
Год выпуска: 2019
Жанр: Боевик, комедия, детектив
Выпущено: Россия, Кинокомпания "IKa film"
Режиссер: Роман Ярославцев
В ролях: Иван Охлобыстин, Григорий Некрасов, Александр Ильин, Виктория Корлякова, Владимир Литвинов, Виктория Полторак, Анатолий Голуб, Ксения Дементьева, Дмитрий Есеневич, Валерий Зеленский (II), Кирилл Новицкий, Руслан Банковский, Антонина Иванова (II), Маргарита Киселите, Елена Дубровская, Николай Стонька, Марина Поддубная, Андрей Сенькин
О фильме: Следуя переводом из Главного управления МВД к новому месту назначения в Энск, молодой следователь Сева Пашин оказывается подозреваемым в убийстве. Отец, генерал-майор Евгений Александрович, в бешенстве: он даёт сыну всего два дня, чтобы тот со всем разобрался. Задача непосильная, но на удачу Севы в местном РОВД есть странный персонаж – криминальный фотограф Григорий Малинин по прозвищу Пыха. Вместе они быстро находят настоящего убийцу. Сева, впечатлённый способностями нового знакомого, простит отца помочь ему остаться в Энске. Так Сева становится старшим следователем энского РОВД, а Пыха – его помощником. Ассоциативный метод Малинина, замешанный на вдохновении, алкоголе и амурных похождениях, вступает в противоречие с жизненными принципами Пашина-младшего: разные характеры и разница в возрасте иногда порождают конфликты, но в целом они отлично дополняют друг друга.
Страна: Россия
Студия: Кинокомпания "IKa film"
Продолжительность: 20 х ~ 00:49:17
Файл
Кодек: h.264
Качество: WEBRip-AVC
Видео: MPEG-4 AVC, ~ 1600 Кбит/с, 1024x432, 25 кадр/с
Аудио: AC3, 2 ch, 192 Кбит/с
Язык: Русский
Субтитры: Русские

Скриншоты


Борисыч

Post 08-May-2022 07:13

[Quote]

- - -
Год выпуска: 2009 - 2013
Производство: Россия
Жанр: Военный
Продолжительность: 00:45:00
Режиссёр: Валерий Шалыга
В ролях: Александр Пашков, Иван Лапин, Дарья Баранова, Ольга Олексий, Йоханнес Габриель, Сергей Романюк, Владимир Горянский, Валентина Лосовская, Анатолий Котенёв, Ада Роговцева, Анатолий Ященко, Максим Максимюк, Владимир Башкиров, Свен Филлип, Сергей Стрельников, Хильмар Эйчхорн, Алексей Сиватский, Евгений Плиско-Куприн, Светлана Ткаченко, Инна Мирошниченко, Нина Касторф, Ольга Первеева, Галина Опанасенко, Григорий Боковенко, Юрий Мысенков, Дмитрий Махнич, Алексей Шевченков, Игорь Гнездилов, Андрей Павленко, Борис Георгиевский, Даниил Вулицкий, Руслан Сокольник, Дмитрий Сова, Николай Андрушко, Владислав Мамчур, Пётр Сова, Вячеслав Дудко, Андрей Шарапов...
Описание: Недалеко от пограничной зоны стоит обычная деревня. В ней живут простые люди: они влюбляются, встречаются, женятся, занимаются домашним хозяйством, работают в поле. Но за закрытыми дверьми в домах сельских жителей кипят свои страсти. А особенно в семьях двух старых друзей Петра и Василия, которые собираются поженить своих детей. Свадьбу отгуляли с размахом - все село пригласили. Вот только семейная жизнь у молодых так и не успела начаться. На следующий день после торжества до деревни донеслись плохие вести: "Началась война!". Мужчины уходят на фронт, и женщины остаются одни, и все их мелкие склоки и ссоры сразу становятся ненужными и незначительными. Потому что теперь они должны поддерживать друг друга, выживать, чтобы их мужьям, сыновьям и отцам было к кому возвращаться с поля боя.
Качество: DVDRip
Формат: AVI
Видео кодек: XviD
Аудио кодек: AC3
Видео: 720x400, 25 fps, 1890 kbps
Аудио: 48 kHz, 2 ch, 192 kbps

Скриншоты

Борисыч

Post 07-May-2022 11:51

[Quote]

- - -
Год выпуска: 1973
Страна: СССР
Жанр: Военный, драма
Продолжительность: 12 х 01:10:00
Режиссер: Татьяна Лиознова
В ролях: Вячеслав Тихонов, Леонид Броневой, Евгений Евстигнеев, Олег Табаков, Ростислав Плятт, Екатерина Градова, Ольга Сошникова, Отто Мелиес, Николай Прокопович, Николай Гриценко...
Описание:
Этот нестареющий фильм стал сенсацией. Он вошел в анналы советского кино, в анекдоты - и в жизнь нескольких поколений. Советская разведка обрела свое воплощение - Максима Максимовича фон Штирлица, а немцы - человеческое лицо.
Абсолютный лидер популярности среди телевизионных сериалов (12 частей) рассказывает о полковнике Исаеве/Штирлице, советском разведчике, работающем в самом логове фашистов. Редкой занимательности сюжет, великолепные подбор и игра актеров, диалоги - все это обеспечило картине завидное долгожительство. Трудно перечислить полностью актеров, снявшихся во всех сериях, так как на войне неизбежны потери и на места убитых обязательно приходит пополнение, но Вы помните их сами. Когда народ начинает слагать анекдоты о действующих лицах, а имена и фразы входят в обиход - это настоящее признание. Тихонов и Броневой надолго стали Штирлицем и Мюллером после этих ролей.
Качество: DVDRip
Формат: AVI
Видео кодек: DivX
Аудио кодек: МР3
Видео: 640x480, 25 fps, 1347 kbps
Аудио: 48 kHz, 2 ch, 119 kbps

Скриншоты

 

Current time is: 28-Jun 16:23

All times are UTC + 3