Search found 1 matches

Author Message

admin

Post 10-Sep-2019 06:41

[Quote]

US Open 2019
Финал
Daniil MEDVEDEV RUS - Rafael NADAL ESP
Год выпуска: 08.09.2019
Вид спорта: Теннис
Комментарий: Профессиональный
Язык комментариев: Русский (Кузмак, Сафин)-Описание: US Open 2019 / Финал / Даниил Медведев (Россия) - Рафаэль Надаль (Испания).
Доп. информация: Полный матч, с награждением.-Автор рипа: Настольный теннисист
Качество: HDTVRip
Формат: MKV
Видео кодек: AVC
Аудио кодек: AC3
Видео: MPEG4 Video (H264) 1280x720 (16:9) 50fps 3500kbps CRF 20.0 Medium
Аудио: Dolby AC3 48000Hz stereo 192kbps

Скриншоты

Продолжительность

05:13:49

MediaInfo

General
Unique ID : 65609105877401436848468902136440185836 (0x315BDAAA73755E6816B3E3EA19B063EC)
Complete name : Z:TorrentUS Open 2019 MS F Daniil MEDVEDEV RUS - Rafael NADAL ESP.mkv
Format : Matroska
Format version : Version 2
File size : 8.63 GiB
Duration : 5 h 13 min
Overall bit rate : 3 937 kb/s
Writing application : Lavf54.63.104
Writing library : Lavf54.63.104
Video
ID : 1
Format : AVC
Format/Info : Advanced Video Codec
Format profile : High@L4.1
Format settings : CABAC / 4 Ref Frames
Format settings, CABAC : Yes
Format settings, Reference frames : 4 frames
Codec ID : V_MPEG4/ISO/AVC
Duration : 5 h 13 min
Bit rate : 3 475 kb/s
Width : 1 280 pixels
Height : 720 pixels
Display aspect ratio : 16:9
Frame rate mode : Constant
Frame rate : 50.000 FPS
Color space : YUV
Chroma subsampling : 4:2:0
Bit depth : 8 bits
Scan type : Progressive
Bits/(Pixel*Frame) : 0.075
Stream size : 7.62 GiB (88%)
Default : No
Forced : No
Audio #1
ID : 2
Format : AC-3
Format/Info : Audio Coding 3
Commercial name : Dolby Digital
Codec ID : A_AC3
Duration : 5 h 13 min
Bit rate mode : Constant
Bit rate : 192 kb/s
Channel(s) : 2 channels
Channel layout : L R
Sampling rate : 48.0 kHz
Frame rate : 31.250 FPS (1536 SPF)
Bit depth : 16 bits
Compression mode : Lossy
Stream size : 431 MiB (5%)
Language : Russian
Service kind : Complete Main
Default : Yes
Forced : No
Audio #2
ID : 3
Format : AC-3
Format/Info : Audio Coding 3
Commercial name : Dolby Digital
Codec ID : A_AC3
Duration : 5 h 13 min
Bit rate mode : Constant
Bit rate : 192 kb/s
Channel(s) : 6 channels
ChannelLayout_Original : L R C LFE Ls Rs
Sampling rate : 48.0 kHz
Frame rate : 31.250 FPS (1536 SPF)
Bit depth : 16 bits
Compression mode : Lossy
Stream size : 431 MiB (5%)
Language : Russian
Service kind : Complete Main
Default : No
Forced : No

Счёт

Daniil MEDVEDEV RUS - Rafael NADAL ESP
5:7 3:6 7:5 6:4 4:6h
 

Current time is: 08-Dec 05:44

All times are UTC + 3