Search found 3 matches

Author Message

admin

Post 26-Jan-2022 06:30

[Quote]

Переключатель мертвеца — тайна крипто / Dead Man’s Switch a Crypto Mystery
Год выпуска: 2021
Выпущено: Канада / Dimestore Productions
Жанр: Документальный, IT-технологии
Режиссер: Шеона МакДональд / Sheona McDonald
В ролях: Эндрю Локенаут, Эми Кастор, Алан Депа, Дэвид Джерард, Имроз Мор
О фильме: В 2018 году Джерри Коттен, проницательный криптовалютный магнат, внезапно умирает, потеряв пароли к учетным записям клиентов на сумму более 215 000 000 долларов. Теперь журналисты, регулирующие органы и владельцы счетов хотят знать, действительно ли Коттен мертв или находится в бегах.

Продолжительность: 01:18:10
Перевод: одноголосый закадровый (Jaskier)
Субтитры: Английские
Голосовая реклама спонсора озвучки, в начале и конце фильма!!!
Фрмат: MKV
Качество: WEBRip 1080p
Видео: MPEG-4 AVC, 4907 Кбит/с, 1920x1080
Аудио #1: AC3, 2 ch, 128 Кбит/с | RUS |
Аудио #2: AAC, 2 ch, 127 Кбит/с | ENG |

Скриншоты

-

MediaInfo

Общее
Уникальный идентификатор : 6263628038406026053342251356860785885 (0x4B654B48CAD040A86EF5348BF8924DD)
Полное имя : E:TorrentsDead.Mans.Switch.A.Crypto.Mystery.2021.1080p_от New-Team.mkv
Формат : Matroska
Версия формата : Version 4
Размер файла : 2,82 Гбайт
Продолжительность : 1 ч. 18 м.
Общий поток : 5 164 Кбит/сек
Название фильма : Dead.Mans.Switch.A.Crypto.Mystery.2021.1080p_от New-Team
Дата кодирования : UTC 2022-01-25 19:50:43
Программа кодирования : mkvmerge v59.0.0 ('Shining Star') 64-bit
Библиотека кодирования : libebml v1.4.2 + libmatroska v1.6.4
Видео
Идентификатор : 1
Формат : AVC
Формат/Информация : Advanced Video Codec
Профиль формата : High@L4
Настройки формата : CABAC / 2 Ref Frames
Параметр CABAC формата : Да
Параметр RefFrames формата : 2 кадра
Параметр GOP формата : N=1
Идентификатор кодека : V_MPEG4/ISO/AVC
Продолжительность : 1 ч. 18 м.
Битрейт : 4 907 Кбит/сек
Ширина : 1 920 пикселей
Высота : 1 080 пикселей
Соотношение сторон : 16:9
Режим частоты кадров : Постоянный
Частота кадров : 29,970 (30000/1001) кадров/сек
Цветовое пространство : YUV
Субдискретизация насыщенности : 4:2:0
Битовая глубина : 8 бит
Тип развёртки : Прогрессивная
Бит/(Пиксели*Кадры) : 0.079
Размер потока : 2,68 Гбайт (95%)
Заголовок : AVC
Язык : English
Default : Да
Forced : Нет
Цветовой диапазон : Limited
Основные цвета : BT.709
Характеристики трансфера : BT.709
Коэффициенты матрицы : BT.709
Аудио #1
Идентификатор : 2
Формат : AC-3
Формат/Информация : Audio Coding 3
Коммерческое название : Dolby Digital
Идентификатор кодека : A_AC3
Продолжительность : 1 ч. 18 м.
Вид битрейта : Постоянный
Битрейт : 128 Кбит/сек
Каналы : 2 канала
Channel layout : L R
Частота : 48,0 КГц
Частота кадров : 31,250 кадров/сек (1536 SPF)
Метод сжатия : С потерями
Задержка видео : -33 мс.
Размер потока : 71,6 Мбайт (2%)
Заголовок : [VO] Jaskier
Язык : Russian
Service kind : Complete Main
Default : Да
Forced : Нет
Аудио #2
Идентификатор : 3
Формат : AAC LC SBR
Формат/Информация : Advanced Audio Codec Low Complexity with Spectral Band Replication
Коммерческое название : HE-AAC
Настройки формата : Implicit
Идентификатор кодека : A_AAC-2
Продолжительность : 1 ч. 18 м.
Битрейт : 127 Кбит/сек
Каналы : 2 канала
Channel layout : L R
Частота : 48,0 КГц
Частота кадров : 23,438 кадра/сек (2048 SPF)
Метод сжатия : С потерями
Задержка видео : -33 мс.
Размер потока : 70,9 Мбайт (2%)
Заголовок : AAC
Язык : English
Default : Нет
Forced : Нет
Текст
Идентификатор : 4
Формат : UTF-8
Идентификатор кодека : S_TEXT/UTF8
Идентификатор кодека/Информация : UTF-8 Plain Text
Продолжительность : 1 ч. 17 м.
Битрейт : 98 бит/сек
Count of elements : 1231
Размер потока : 56,0 Кбайт (0%)
Заголовок : English
Язык : English
Default : Нет
Forced : Нет

admin

Post 26-Jan-2022 06:24

[Quote]

Криптопия: Биткоин, блокчейны и будущее Интернета / Cryptopia Bitcoin and the Future of the Internet
Год выпуска: 2020
Выпущено: США, Германия, Австралия / 3D Content Hub
Жанр: Документальный, IT-технологии
Режиссер: Торстен Хоффманн / Torsten Hoffmann
В ролях: Андреас М. Антонопулос , Виталик Бутерин , Торстен Хоффманн , Роберт Кан , Прити Касиредди , Чарли Ли , Винни Лингхэм , Эндрю Локенаут , Самсон Моу , Лора Шин , Роджер Вер , Крэйг Стивен Райт
О фильме: Спустя пять лет после своего первого документального фильма отмеченный наградами продюсер и режиссер Торстен Хоффманн пересматривает Биткойн и намеревается исследовать эволюцию индустрии блокчейнов и ее новые перспективы. Может ли эта технология, предназначенная для работы независимо от доверия и в рамках децентрализованной сети, действительно обеспечить надежную альтернативу Интернету в том виде, в каком мы его знаем?

Продолжительность: 01:26:33
Перевод: одноголосый закадровый (Jaskier)
Субтитры: Английские
Голосовая реклама спонсора озвучки, в начале и конце фильма!!!
Фрмат: MKV
Качество: WEB-DL 1080p
Видео: MPEG-4 AVC, 8833 Кбит/с, 1920x1080
Аудио #1: AC3, 2 ch, 128 Кбит/с | RUS |
Аудио #2: E-AC3, 2 ch, 224 Кбит/с | ENG |

Скриноты

-

MediaInfo

Общее
Уникальный идентификатор : 274377089702957457109412254282202383164 (0xCE6B1AF5AE015F1D1F97626FDE02833C)
Полное имя : E:TorrentsCryptopia.Bitcoin.2020.1080p_от New-Team.mkv
Формат : Matroska
Версия формата : Version 4
Размер файла : 5,55 Гбайт
Продолжительность : 1 ч. 26 м.
Общий поток : 9 187 Кбит/сек
Название фильма : Cryptopia.Bitcoin.2020.1080p_от New-Team
Дата кодирования : UTC 2022-01-25 18:57:56
Программа кодирования : mkvmerge v59.0.0 ('Shining Star') 64-bit
Библиотека кодирования : libebml v1.4.2 + libmatroska v1.6.4
Видео
Идентификатор : 1
Формат : AVC
Формат/Информация : Advanced Video Codec
Профиль формата : High@L4
Настройки формата : CABAC / 4 Ref Frames
Параметр CABAC формата : Да
Параметр RefFrames формата : 4 кадра
Идентификатор кодека : V_MPEG4/ISO/AVC
Продолжительность : 1 ч. 26 м.
Битрейт : 8 833 Кбит/сек
Ширина : 1 920 пикселей
Высота : 1 080 пикселей
Соотношение сторон : 16:9
Режим частоты кадров : Постоянный
Частота кадров : 24,000 кадра/сек
Цветовое пространство : YUV
Субдискретизация насыщенности : 4:2:0
Битовая глубина : 8 бит
Тип развёртки : Прогрессивная
Бит/(Пиксели*Кадры) : 0.177
Размер потока : 5,34 Гбайт (96%)
Язык : English
Default : Да
Forced : Нет
Цветовой диапазон : Limited
Основные цвета : BT.709
Характеристики трансфера : BT.709
Коэффициенты матрицы : BT.709
Аудио #1
Идентификатор : 2
Формат : AC-3
Формат/Информация : Audio Coding 3
Коммерческое название : Dolby Digital
Идентификатор кодека : A_AC3
Продолжительность : 1 ч. 26 м.
Вид битрейта : Постоянный
Битрейт : 128 Кбит/сек
Каналы : 2 канала
Channel layout : L R
Частота : 48,0 КГц
Частота кадров : 31,250 кадров/сек (1536 SPF)
Метод сжатия : С потерями
Размер потока : 79,2 Мбайт (1%)
Заголовок : [VO] Jaskier
Язык : Russian
Service kind : Complete Main
Default : Да
Forced : Нет
Аудио #2
Идентификатор : 3
Формат : E-AC-3
Формат/Информация : Enhanced AC-3
Коммерческое название : Dolby Digital Plus
Идентификатор кодека : A_EAC3
Продолжительность : 1 ч. 26 м.
Вид битрейта : Постоянный
Битрейт : 224 Кбит/сек
Каналы : 2 канала
Channel layout : L R
Частота : 48,0 КГц
Частота кадров : 31,250 кадров/сек (1536 SPF)
Метод сжатия : С потерями
Размер потока : 139 Мбайт (2%)
Язык : English
Service kind : Complete Main
Default : Нет
Forced : Нет
Текст
Идентификатор : 4
Формат : UTF-8
Идентификатор кодека : S_TEXT/UTF8
Идентификатор кодека/Информация : UTF-8 Plain Text
Продолжительность : 1 ч. 25 м.
Битрейт : 115 бит/сек
Count of elements : 2087
Размер потока : 72,6 Кбайт (0%)
Заголовок : English (SDH)
Язык : English
Default : Нет
Forced : Нет

admin

Post 06-Nov-2017 20:33

[Quote]

Информация о фильме
Название: Другой атом
Год выхода: 2015
Жанр: Документальный, познавательный, исследование
Режиссер: Юрий Ручкин
О фильме:
Сегодня, казалось бы, человечество полностью подчинило ядерную энергию и "выжало" из нее максимум: атомную бомбу, подводные лодки, ледоколы и электростанции. Однако есть и другой атом, о существовании которого многие и не догадываются. Он способен решить некоторые глобальные проблемы современности. Другой атом готов вновь изменить наш мир и спасти будущее человечества.
Страна: Россия
Студия: ВГТРК
Продолжительность: 00:43:58
Язык: Русский
Файл
Кодек: AVC/H.264
Качество: HDTVRip 720p
Видео: 1280x720 (16:9), 25 fps, AVC (x264), High@L4.1, 4000 kbps avg, 0.174 bit/pixel
Звук: Русский 48 kHz, AC3 Dolby Digital, 2/0 (L,R) ch, ~192.00 kbps avg
Семпл

Скриншоты

Релиз от: kyba
 

Current time is: 28-Jun 15:45

All times are UTC + 3