Search found 3 matches

Author Message

admin

Post 26-Sep-2018 09:31

[Quote]

Земля: Один потрясающий день
Earth: One Amazing Day
«Один день. Одна планета. Невероятные чудеса»
Информация о фильме
Название: Земля: Один потрясающий день
Оригинальное название: Earth: One Amazing Day
Год выпуска: 2017
Жанр: Документальный, фауна, семейный
Выпущено: Великобритания, BBC
Режиссер: Ричард Дэйл, Фань Лисинь, Питер Веббер
В ролях: Роберт Редфорд, Джеки Чан
Продолжительность: 01:33:40
Перевод: Дублированный [Лицензия] [Николай Дроздов]
Описание:
Один обыкновенный и впечатляющий день из жизни разных представителей дикой природы: от неприметных насекомых до царственных хищников. Чем занимаются от рассвета до заката жители джунглей и ледников, морей и пустынь? Они выходят на охоту, борются за выживание, растят детенышей и втягиваются в круговорот удивительных приключений.


Файл
Контейнер: MKV
Качество: Blu-Ray Remux (2160p)
Видео: HEVC, 3840x2160 (16:9), 24.000 fps, 59.6 Mb/s (0.299 bit/pixel)
Аудио #1: DTS MA / Core, 48.0 kHz, 6 ch, 3 730 kb/s / 1 509 kb/s, VBR / CBR (Russian)
Аудио #2: TrueHD TrueHD+Atmos / TrueHD, / 48.0 kHz, Object Based / 8 ch, 6 085 kb/s, VBR (English)
Аудио #3: AC-3, 48.0 kHz, 6 ch, 640 kb/s, CBR (English)

Содержание:

01.Intro
02.Earth.One.Amazing.Day.2017 (Main Movie)
03.Behind the Scenes
04.Breaking the Ice
05.Clash of the Titans
06.Chasing Shadows
07.Raising a Family at the End of the World
08.Noah's Ark

Скриншоты



MI:

Общее
Уникальный идентификатор : 122751665837898997685054185039937693385 (0x5C591C63AF31DAA2A49B297C2F5466C9)
Полное имя : 02.Earth.One.Amazing.Day.2017.UHD.BDRemux.2160p.HEVC.HDR.IVA(RUS.ENG).ExKinoRay.mkv
Формат : Matroska
Версия формата : Version 4 / Version 2
Размер файла : 45,9 Гбайт
Продолжительность : 1 ч. 33 м.
Режим общего битрейта : Переменный
Общий поток : 70,1 Мбит/сек
Название фильма : BBC. Земля: Один потрясающий день / Earth: One Amazing Day ( 2017 ) UHD BDRemux | HDR, 4K | IVA(RUS.ENG) | ExKinoRay
Дата кодирования : UTC 2018-07-05 13:54:08
Программа кодирования : mkvmerge v24.0.0 ('Beyond The Pale') 64-bit
Библиотека кодирования : libebml v1.3.6 + libmatroska v1.4.9
Обложка : Yes
Attachments : cover
Видео
Идентификатор : 1
Формат : HEVC
Формат/Информация : High Efficiency Video Coding
Коммерческое название : HDR10
Профиль формата : Main 10@L5.1@High
Идентификатор кодека : V_MPEGH/ISO/HEVC
Продолжительность : 1 ч. 33 м.
Битрейт : 59,6 Мбит/сек
Ширина : 3840 пикселей
Высота : 2160 пикселей
Соотношение сторон : 16:9
Режим частоты кадров : Постоянный
Частота кадров : 24,000 кадра/сек
Цветовое пространство : YUV
Субдискретизация насыщенности : 4:2:0 (Type 2)
Битовая глубина : 10 бит
Бит/(Пиксели*Кадры) : 0.299
Размер потока : 39,0 Гбайт (85%)
Заголовок : Earth.One.Amazing.Day.2017.UHD.BDRemux.2160p.HEVC.HDR
Язык : English
Default : Да
Forced : Нет
Цветовой диапазон : Limited
Основные цвета : BT.2020
Характеристики трансфера : PQ
Коэффициенты матрицы : BT.2020 non-constant
MasteringDisplay_Luminance : min: 0.0050 cd/m2, max: 1000 cd/m2
MaxCLL : 1000 cd/m2
MaxFALL : 217 cd/m2
Аудио #1
Идентификатор : 2
Формат : DTS
Формат/Информация : Digital Theater Systems
Профиль формата : MA / Core
Идентификатор кодека : A_DTS
Продолжительность : 1 ч. 33 м.
Вид битрейта : Переменный / Постоянный
Битрейт : 3730 Кбит/сек / 1509 Кбит/сек
Каналы : 6 каналов
Расположение каналов : Front: L C R, Side: L R, LFE
Частота : 48,0 КГц
Частота кадров : 93,750 кадра/сек (512 SPF)
Битовая глубина : 24 бит
Метод сжатия : Без потерь / Lossy
Размер потока : 2,44 Гбайт (5%)
Заголовок : | Н. Дроздов |
Язык : Russian
Default : Да
Forced : Нет
Аудио #2
Идентификатор : 3
Формат : TrueHD
Профиль формата : TrueHD+Atmos / TrueHD
Идентификатор кодека : A_TRUEHD
Продолжительность : 1 ч. 33 м.
Вид битрейта : Переменный
Битрейт : 6085 Кбит/сек
Максимальный битрейт : 9063 Кбит/сек
Каналы : Object Based / 8 каналов
Расположение каналов : Object Based / Front: L C R, Side: L R, Back: L R, LFE
Частота : / 48,0 КГц
Частота кадров : 1200,000 кадров/сек (40 SPF)
Метод сжатия : Без потерь
Размер потока : 3,98 Гбайт (9%)
Заголовок : | Original |
Язык : English
Default : Нет
Forced : Нет
Аудио #3
Идентификатор : 4
Формат : AC-3
Формат/Информация : Audio Coding 3
Идентификатор кодека : A_AC3
Продолжительность : 1 ч. 33 м.
Вид битрейта : Постоянный
Битрейт : 640 Кбит/сек
Каналы : 6 каналов
Расположение каналов : Front: L C R, Side: L R, LFE
Частота : 48,0 КГц
Частота кадров : 31,250 кадров/сек (1536 SPF)
Битовая глубина : 16 бит
Метод сжатия : С потерями
Размер потока : 429 Мбайт (1%)
Заголовок : | Original, AC3 Core |
Язык : English
ServiceKind : Complete Main
Default : Нет
Forced : Нет
Текст #1
Идентификатор : 5
Формат : UTF-8
Идентификатор кодека : S_TEXT/UTF8
Идентификатор кодека/Информация : UTF-8 Plain Text
Продолжительность : 1 ч. 26 м.
Битрейт : 59 бит/сек
ElementCount : 452
Размер потока : 37,8 Кбайт (0%)
Заголовок : Full
Язык : Russian
Default : Нет
Forced : Нет
Текст #2
Идентификатор : 6
Формат : UTF-8
Идентификатор кодека : S_TEXT/UTF8
Идентификатор кодека/Информация : UTF-8 Plain Text
Продолжительность : 1 ч. 26 м.
Битрейт : 35 бит/сек
ElementCount : 452
Размер потока : 22,5 Кбайт (0%)
Заголовок : Full
Язык : English
Default : Нет
Forced : Нет
Меню
00:00:00.000 : en:Chapter 1
00:08:41.500 : en:Chapter 2
00:16:49.958 : en:Chapter 3
00:22:36.375 : en:Chapter 4
00:29:06.416 : en:Chapter 5
00:33:43.583 : en:Chapter 6
00:36:21.125 : en:Chapter 7
00:43:47.333 : en:Chapter 8
00:47:47.500 : en:Chapter 9
00:51:54.958 : en:Chapter 10
00:57:49.708 : en:Chapter 11
01:02:39.125 : en:Chapter 12
01:06:01.958 : en:Chapter 13
01:12:09.333 : en:Chapter 14
01:16:30.208 : en:Chapter 15
01:22:03.166 : en:Chapter 16

admin

Post 26-Sep-2018 09:19

[Quote]

Информация о фильме
Название: Земля: Один потрясающий день
Оригинальное название: Earth: One Amazing Day
Год выхода: 2017
Жанр: семейный, документальный
Режиссер: Ричард Дэйл, Фань Лисинь, Питер Веббер / Richard Dale, Fan Lixin, Peter Webbern
В ролях: Роберт Редфорд, Джеки Чан, Николай Дроздов
О фильме:
Солнце восходит над Землей, и множество живых существ начинают свой день, полный трогательных, увлекательных и опасных событий. Игуаны спасаются бегством от ядовитых змей, очаровательные панды лакомятся побегами бамбука, жирафы сражаются за сердце «прекрасной дамы»… Жизнь в африканской саванне, на безлюдных островах в Тихом океане, в лесах Азии и на морском дне разворачивается по законам остросюжетного боевика, сентиментальной мелодрамы или головокружительного триллера. Никогда прежде чудеса не были так близко.

Страна: Великобритания
Студия: Earth Film Productions
Продолжительность: 01:33:40
Перевод: Дублированный (Николай Дроздов) | Лицензия BD RUS |
Файл
Формат: MKV
Качество: BDRip (720p)
Видео: AVC, 1280x720, 24 fps, 7074 Кбит/сек
Звук: AC3, 6 ch, 640 kbps
Субтитры: Нет

Скриншоты

MediaInfo:

x264 [info]: frame I:1234 Avg QP:16.11 size:137030
x264 [info]: frame P:71201 Avg QP:19.08 size: 52810
x264 [info]: frame B:62446 Avg QP:20.70 size: 16567
-----------------------------------------------------------------------------------------------------------------------------
Формат : Matroska
Версия формата : Version 4 / Version 2
Размер файла : 5,04 Гбайт
Продолжительность : 1 ч. 33 м.
Общий поток : 7708 Кбит/сек
Дата кодирования : UTC 2018-07-22 17:12:11
Программа кодирования : mkvmerge v25.0.0 ('Prog Noir') 64-bit
Библиотека кодирования : libebml v1.3.6 + libmatroska v1.4.9
Видео
Идентификатор : 1
Формат : AVC
Формат/Информация : Advanced Video Codec
Профиль формата : High@L4.1
Настройки формата : CABAC / 10 Ref Frames
Параметр CABAC формата : Да
Параметр RefFrames формата : 10 кадров
Идентификатор кодека : V_MPEG4/ISO/AVC
Продолжительность : 1 ч. 33 м.
Битрейт : 7074 Кбит/сек
Ширина : 1280 пикселей
Высота : 720 пикселей
Соотношение сторон : 16:9
Режим частоты кадров : Постоянный
Частота кадров : 24,000 кадра/сек
Цветовое пространство : YUV
Субдискретизация насыщенности : 4:2:0
Битовая глубина : 8 бит
Тип развёртки : Прогрессивная
Бит/(Пиксели*Кадры) : 0.320
Размер потока : 4,62 Гбайт (92%)
Библиотека кодирования : x264 core 146 r2538 121396c
Настройки программы : cabac=1 / ref=10 / deblock=1:-3:-3 / analyse=0x3:0x133 / me=umh / subme=11 / psy=1 / psy_rd=1.00:0.00 / mixed_ref=1 / me_range=32 / chroma_me=1 / trellis=2 / 8x8dct=1 / cqm=0 / deadzone=21,11 / fast_pskip=0 / chroma_qp_offset=-2 / threads=24 / lookahead_threads=2 / sliced_threads=0 / nr=0 / decimate=0 / interlaced=0 / bluray_compat=0 / constrained_intra=0 / bframes=10 / b_pyramid=2 / b_adapt=1 / b_bias=0 / direct=3 / weightb=1 / open_gop=0 / weightp=2 / keyint=240 / keyint_min=23 / scenecut=40 / intra_refresh=0 / rc_lookahead=40 / rc=2pass / mbtree=0 / bitrate=7074 / ratetol=1.0 / qcomp=0.60 / qpmin=0 / qpmax=69 / qpstep=4 / cplxblur=20.0 / qblur=0.5 / vbv_maxrate=50000 / vbv_bufsize=62500 / nal_hrd=none / filler=0 / ip_ratio=1.40 / pb_ratio=1.30 / aq=1:1.00
Default : Да
Forced : Нет
Аудио
Идентификатор : 2
Формат : AC-3
Формат/Информация : Audio Coding 3
Идентификатор кодека : A_AC3
Продолжительность : 1 ч. 33 м.
Вид битрейта : Постоянный
Битрейт : 640 Кбит/сек
Каналы : 6 каналов
Расположение каналов : Front: L C R, Side: L R, LFE
Частота : 48,0 КГц
Частота кадров : 31,250 кадров/сек (1536 SPF)
Битовая глубина : 16 бит
Метод сжатия : С потерями
Размер потока : 429 Мбайт (8%)
Язык : Russian
ServiceKind/String : Complete Main
Default : Да
Forced : Нет
Меню
00:00:00.000 : en:Chapter 1
00:01:14.833 : en:Chapter 2
00:11:32.208 : en:Chapter 3
00:24:02.083 : en:Chapter 4
00:36:49.625 : en:Chapter 5
00:47:39.666 : en:Chapter 6
00:59:57.166 : en:Chapter 7
01:11:06.708 : en:Chapter 8
01:21:31.250 : en:Chapter 9

admin

Post 18-Apr-2018 21:50

[Quote]

Информация о фильме
Название: Земля: Один потрясающий день
Оригинальное название: Earth: One Amazing Day
Год выхода: 2017
Жанр: Документальный, семейный
Страна: Великобритания
Перевод: Одноголосый дублированный | iTunes
Продолжительность: 01:33:46
Режиссеры: Ричард Дэйл, Фань Лисинь, Питер Веббер
В ролях: Роберт Редфорд, Джеки Чан
Роли дублировали: Николай Дроздов
О фильме: Солнце восходит над Землей, и множество живых существ начинают свой день, полный трогательных, увлекательных и опасных событий. Игуаны спасаются бегством от ядовитых змей, очаровательные панды лакомятся побегами бамбука, жирафы сражаются за сердце «прекрасной дамы»… Жизнь в африканской саванне, на безлюдных островах в Тихом океане, в лесах Азии и на морском дне разворачивается по законам остросюжетного боевика, сентиментальной мелодрамы или головокружительного триллера. Никогда прежде чудеса не были так близко.

Файл
Качество: BDRip 1080p
Видео: MPEG-4 AVC, 1920x1080, 11500 kbps, 23,976 fps
Звук#1: русский, AC3, 6 ch, 48 kHz, 384 kbps
Звук#2: английский, AC3, 6 ch, 48 kHz, 640 kbps
Субтитры: русские, английские

MI

Общее
Уникальный идентификатор : 229659798526637460910573011238052084460 (0xACC6DE48F004E5C9AFFD1D883A5EBAEC)
Полное имя : E:UttorentEarthOneAmazingDayBDRip1080.mkv
Формат : Matroska
Версия формата : Version 4 / Version 2
Размер файла : 8,20 Гбайт
Продолжительность : 1 ч. 33 м.
Общий поток : 12,5 Мбит/сек
Название фильма : Earth.One.Amazing.Day.2017.720p.BluRay.x264.DD5.1-HDC
Дата кодирования : UTC 2018-04-17 16:54:04
Программа кодирования : mkvmerge v9.5.0 ('Quiet Fire') 64bit
Библиотека кодирования : libebml v1.3.4 + libmatroska v1.4.5
Обложка : Yes
Attachments : small_cover.jpg / small_cover_land.jpg / cover.jpg / cover_land.jpg
Видео
Идентификатор : 1
Формат : AVC
Формат/Информация : Advanced Video Codec
Профиль формата : High@L4.1
Настройки формата : CABAC / 5 Ref Frames
Параметр CABAC формата : Да
Параметр RefFrames формата : 5 кадров
Идентификатор кодека : V_MPEG4/ISO/AVC
Продолжительность : 1 ч. 33 м.
Битрейт : 11,5 Мбит/сек
Ширина : 1920 пикселей
Высота : 1080 пикселей
Соотношение сторон : 16:9
Режим частоты кадров : Постоянный
Частота кадров : 23,976 (24000/1001) кадра/сек
Цветовое пространство : YUV
Субдискретизация насыщенности : 4:2:0
Битовая глубина : 8 бит
Тип развёртки : Прогрессивная
Бит/(Пиксели*Кадры) : 0.231
Размер потока : 7,53 Гбайт (92%)
Библиотека кодирования : x264 core 142 r2479 dd79a61
Настройки программы : cabac=1 / ref=5 / deblock=1:-3:-3 / analyse=0x3:0x133 / me=umh / subme=11 / psy=1 / psy_rd=1.00:0.00 / mixed_ref=1 / me_range=32 / chroma_me=1 / trellis=2 / 8x8dct=1 / cqm=0 / deadzone=21,11 / fast_pskip=1 / chroma_qp_offset=-2 / threads=12 / lookahead_threads=3 / sliced_threads=0 / nr=0 / decimate=1 / interlaced=0 / bluray_compat=0 / constrained_intra=0 / bframes=10 / b_pyramid=2 / b_adapt=2 / b_bias=0 / direct=3 / weightb=1 / open_gop=0 / weightp=0 / keyint=240 / keyint_min=24 / scenecut=40 / intra_refresh=0 / rc_lookahead=40 / rc=2pass / mbtree=1 / bitrate=11500 / ratetol=1.0 / qcomp=0.60 / qpmin=0 / qpmax=69 / qpstep=4 / cplxblur=20.0 / qblur=0.5 / vbv_maxrate=62500 / vbv_bufsize=78125 / nal_hrd=none / filler=0 / ip_ratio=1.40 / aq=1:1.00
Default : Да
Forced : Нет
Цветовой диапазон : Limited
Основные цвета : BT.709
Характеристики трансфера : BT.709
Коэффициенты матрицы : BT.709
Аудио #1
Идентификатор : 2
Формат : AC-3
Формат/Информация : Audio Coding 3
Идентификатор кодека : A_AC3
Продолжительность : 1 ч. 33 м.
Вид битрейта : Постоянный
Битрейт : 384 Кбит/сек
Каналы : 6 каналов
Расположение каналов : Front: L C R, Side: L R, LFE
Частота : 48,0 КГц
Частота кадров : 31,250 кадров/сек (1536 SPF)
Битовая глубина : 16 бит
Метод сжатия : С потерями
Размер потока : 258 Мбайт (3%)
Язык : Russian
Default : Да
Forced : Нет
Аудио #2
Идентификатор : 3
Формат : AC-3
Формат/Информация : Audio Coding 3
Идентификатор кодека : A_AC3
Продолжительность : 1 ч. 33 м.
Вид битрейта : Постоянный
Битрейт : 640 Кбит/сек
Каналы : 6 каналов
Расположение каналов : Front: L C R, Side: L R, LFE
Частота : 48,0 КГц
Частота кадров : 31,250 кадров/сек (1536 SPF)
Битовая глубина : 16 бит
Метод сжатия : С потерями
Размер потока : 429 Мбайт (5%)
Язык : English
Default : Нет
Forced : Нет
Текст #1
Идентификатор : 4
Формат : UTF-8
Идентификатор кодека : S_TEXT/UTF8
Идентификатор кодека/Информация : UTF-8 Plain Text
Продолжительность : 1 ч. 26 м.
Битрейт : 59 бит/сек
ElementCount : 452
Размер потока : 37,8 Кбайт (0%)
Язык : Russian
Default : Да
Forced : Да
Текст #2
Идентификатор : 5
Формат : UTF-8
Идентификатор кодека : S_TEXT/UTF8
Идентификатор кодека/Информация : UTF-8 Plain Text
Продолжительность : 1 ч. 26 м.
Битрейт : 35 бит/сек
ElementCount : 452
Размер потока : 22,5 Кбайт (0%)
Язык : English
Default : Нет
Forced : Нет

Скриншоты


 

Current time is: 07-Dec 02:50

All times are UTC + 3