Search found 5 matches

Author Message

admin

Post 05-Mar-2018 00:14

[Quote]

Информация о фильме
Название: Экстрасенсы. Битва сильнейших
Год выхода: 2018
Жанр: Паранормальное шоу, экстрасенсы, мистика
Выпущено: Россия, ТНТ
Перевод: Не требуется
Продолжительность: ~ 01:11:26
Режиссер: Федор Торстенсен, Ольга Шмидт, Олег Чаурс
В ролях: Александр Шепс, Виктория Райдос, Елена Голунова, Мэрилин Керро, Свами Даши и др.
О фильме: Лучшие участники шоу "Битва экстрасенсов" ищут пропавших без вести, расследуют загадочные убийства и выясняют истинные мотивы преступлений. Когда полиция бессильна, родственники жертв в отчаянии, а самые опытные следователи заходят в тупик, за дело берутся люди, чьи сверхспособности позволяют пролить свет на тайны прошлого, настоящего и будущего.
Файл
Качество: HDTVRip 720p
Видео: MPEG-4 AVC, 1280x720, ~ 3500 kbps, 25,000 fps
Звук: Русский: AAC, 2 ch, 48 kHz, 192 kbps

MI

Общее
Уникальный идентификатор : 245339266870138090692829586154124167451 (0xB8929FC264178E0088D08270B3B7491B)
Полное имя : E:UttorentEkstrasensy�3.mkv
Формат : Matroska
Версия формата : Version 4 / Version 2
Размер файла : 1,83 Гбайт
Продолжительность : 1 ч. 10 м.
Общий поток : 3692 Кбит/сек
Дата кодирования : UTC 2018-03-03 21:04:51
Программа кодирования : mkvmerge v9.5.0 ('Quiet Fire') 64bit
Библиотека кодирования : libebml v1.3.4 + libmatroska v1.4.5
Видео
Идентификатор : 1
Формат : AVC
Формат/Информация : Advanced Video Codec
Профиль формата : High@L4.1
Настройки формата : CABAC / 5 Ref Frames
Параметр CABAC формата : Да
Параметр RefFrames формата : 5 кадров
Идентификатор кодека : V_MPEG4/ISO/AVC
Продолжительность : 1 ч. 10 м.
Битрейт : 3500 Кбит/сек
Ширина : 1280 пикселей
Высота : 720 пикселей
Соотношение сторон : 16:9
Режим частоты кадров : Постоянный
Частота кадров : 25,000 кадров/сек
Цветовое пространство : YUV
Субдискретизация насыщенности : 4:2:0
Битовая глубина : 8 бит
Тип развёртки : Прогрессивная
Бит/(Пиксели*Кадры) : 0.152
Размер потока : 1,73 Гбайт (95%)
Библиотека кодирования : x264 core 155 r2893
Настройки программы : cabac=1 / ref=5 / deblock=1:3:2 / analyse=0x3:0x113 / me=hex / subme=7 / psy=1 / psy_rd=1.00:0.15 / mixed_ref=0 / me_range=16 / chroma_me=1 / trellis=2 / 8x8dct=1 / cqm=0 / deadzone=21,11 / fast_pskip=1 / chroma_qp_offset=-3 / threads=12 / lookahead_threads=2 / sliced_threads=0 / nr=0 / decimate=1 / interlaced=0 / bluray_compat=0 / constrained_intra=0 / bframes=2 / b_pyramid=0 / b_adapt=2 / b_bias=0 / direct=3 / weightb=0 / open_gop=0 / weightp=2 / keyint=250 / keyint_min=25 / scenecut=40 / intra_refresh=0 / rc_lookahead=40 / rc=2pass / mbtree=1 / bitrate=3500 / ratetol=1.0 / qcomp=0.60 / qpmin=10 / qpmax=69 / qpstep=4 / cplxblur=20.0 / qblur=0.5 / vbv_maxrate=10000 / vbv_bufsize=24000 / nal_hrd=none / filler=0 / ip_ratio=1.40 / aq=3:1.00
Язык : English
Default : Да
Forced : Нет
Аудио
Идентификатор : 2
Формат : AAC
Формат/Информация : Advanced Audio Codec
Профиль формата : LC
Идентификатор кодека : A_AAC-2
Продолжительность : 1 ч. 10 м.
Битрейт : 192 Кбит/сек
Каналы : 2 канала
Расположение каналов : Front: L R
Частота : 48,0 КГц
Частота кадров : 46,875 кадров/сек (1024 SPF)
Метод сжатия : С потерями
Размер потока : 96,1 Мбайт (5%)
Язык : English
Default : Да
Forced : Нет

Скриншоты


admin

Post 05-Nov-2017 21:38

[Quote]

Информация о фильме
Название: Битва экстрасенсов
Год выхода: 2017
Жанр: Паранормальное шоу, документальный, мистика, экстрасенсы, сверхъестественное
Режиссер: Фёдор Торстенсен , Ольга Шмид , Олег Чаурс
Ведущий: Марат Башаров
О фильме:
«Битва экстрасенсов» на канале ТНТ доказывает: сверхъестественные способности существуют, а их обладатели могут спасти жизнь, найти пропавшего ребенка, рассказать о прошлом и будущем и просто вернуть потерянный телефон.
Дополнительно:
Раздача накопительная.
Рекламы нет

Страна: Россия
Студия: ТНТ
Продолжительность: 7 ~ 01:15:00
Язык: Русский
Файл
Качество: WEB-DLRip
Видео: XviD, ~ 1800 Кбит/с, 720x400
Звук: AC3, 2 ch, 192 Кбит/с

Скриншоты

admin

Post 05-Nov-2017 21:30

[Quote]

Информация о фильме
Название: Битва экстрасенсов
Год выхода: 2017
Жанр: Паранормальное шоу, документальный, мистика, экстрасенсы, сверхъестественное
Режиссер: Фёдор Торстенсен , Ольга Шмид , Олег Чаурс
Ведущий: Марат Башаров
О фильме:
«Битва экстрасенсов» на канале ТНТ доказывает: сверхъестественные способности существуют, а их обладатели могут спасти жизнь, найти пропавшего ребенка, рассказать о прошлом и будущем и просто вернуть потерянный телефон.
Дополнительно:
Раздача накопительная.
Рекламы нет

Страна: Россия
Студия: ТНТ
Продолжительность: 7 ~ 01:15:00
Язык: Русский
Файл
Качество: WEB-DLRip
Видео: XviD, ~ 1800 Кбит/с, 720x400
Звук: AC3, 2 ch, 192 Кбит/с

Скриншоты

admin

Post 16-Oct-2017 00:30

[Quote]

Информация о фильме
Название: Битва экстрасенсов
Год выхода: 2017
Жанр: Паранормальное шоу, экстрасенсы, мистика
Режиссер: Федор Торстенсен, Ольга Шмидт, Олег Чаурс
В ролях: Марат Башаров, братья Сафроновы, Вера Сотникова, Никита Турчин, Софья Егорова, Марина Зуева, Жан Алибеков, Дана Байдосова, Александр Кинжинов, Константин Гецати, Ирина Маклакова, Олеся Молчанова, Иван Шабанов, Максим Никитин, Ирина Волкова и другие.
О фильме:
Битва экстрасенсов возвращается на ваших экраны и уже в новом 18 сезоне. Именно этот сезон будет самым ожесточенным и захватывающим. В нем примут участие уже всем довольно известные ныне экстрасенсы и совершенно новые участники, которые раскроют всю силу магии и сверх возможностей.Восемнадцатый сезон принесет множество новых испытаний и раскроет силу настоящих магов и чародеев, которые долгое время скрывали себя от людского глаза. Этот сезон обещает быть одним из самых сильных и могущественных. Новые испытания, нереальная энергетика и супер сильные участники столкнутся в восемнадцатом сезоне телешоу. Именно тут мы увидим, как сильнейшие силы добра и зла противостоят друг другу.
Страна: Россия
Студия: ТНТ
Продолжительность: ~01:11:58
Перевод: Не требуется
Файл
Кодек: AVC
Качество: HDTV 1080
Видео: 1920x1080, ~10000 Кбит/с, 25,000 к/c
Звук: AC3, 2.0, 48 kHz, 128 kbps

Скриншоты

admin

Post 12-Oct-2017 23:37

[Quote]


Информация о фильме
Название: Битва экстрасенсов [18x02-03]
Год выхода: 2017
Жанр: Паранормальное шоу, экстрасенсы, мистика
Режиссер: Федор Торстенсен, Ольга Шмидт, Олег Чаурс
В ролях: Марат Башаров, братья Сафроновы, Вера Сотникова, Никита Турчин, Софья Егорова, Марина Зуева, Жан Алибеков, Дана Байдосова, Александр Кинжинов, Константин Гецати, Ирина Маклакова, Олеся Молчанова, Иван Шабанов, Максим Никитин, Ирина Волкова и другие.
О фильме:
Битва экстрасенсов возвращается на ваших экраны и уже в новом 18 сезоне. Именно этот сезон будет самым ожесточенным и захватывающим. В нем примут участие уже всем довольно известные ныне экстрасенсы и совершенно новые участники, которые раскроют всю силу магии и сверх возможностей.Восемнадцатый сезон принесет множество новых испытаний и раскроет силу настоящих магов и чародеев, которые долгое время скрывали себя от людского глаза. Этот сезон обещает быть одним из самых сильных и могущественных. Новые испытания, нереальная энергетика и супер сильные участники столкнутся в восемнадцатом сезоне телешоу. Именно тут мы увидим, как сильнейшие силы добра и зла противостоят друг другу.
Страна: Россия
Студия: ТНТ
Продолжительность: 01:11:58
Перевод: Не требуется
Файл
Кодек: H264
Качество: HDTV 1080p
Видео: 1920x1080, 10000 Кбит/с, 25,000 к/c
Звук: AC3, 2.0, 48 kHz, 128 kbps

Скриншоты

 

Current time is: 11-Dec 20:22

All times are UTC + 3