Search found 13 matches

Author Message

admin

Post 28-Feb-2019 02:19

[Quote]

Информация о фильме
Название: Волки и Овцы: Ход свиньёй
Год выпуска: 2018
Жанр: Мультфильм, семейный, комедия, приключения
Режиссер: Владимир Николаев
В ролях: Елизавета Боярская, Максим Матвеев, Галина Корнева, Антон Юрьев, Алексей Сигаев, Даниил Эльдаров
О фильме: В спокойной и размеренной жизни объединенного городка волков и овец появляются неожиданные гости — песец и маленькая овечка. Никто не ожидал, что они принесут с собой смертельную опасность, преодолеть которую можно лишь всем вместе. Ведь только сообща решаются большие проблемы и серьезные задачи — в единстве сила!

Выпущено: Россия, Кинокомпания CTB, Wizart Animation
Продолжительность: 01:11:45
Перевод: Не требуется
Файл
Качество: WEB-DL 1080p
Контейнер: MKV
Видео: MPEG-4 AVC, 1920x804, 4724 kbps, 25.000 fps
Аудио: Русский: AC3, 6 ch, 384 kbps - iTunes
Субтитры: Нет

Скриншоты


MediaInfo

General
Unique ID : 253585526810830193784384340085470751855 (0xBEC6CBC3B1ECBE008C993AC2824D6C6F)
Complete name : Volki.Ovcy.Hod.Svinjey.2018.WEB-DL.1080p.BLUEBIRD.mkv
Format : Matroska
Format version : Version 4 / Version 2
File size : 2.61 GiB
Duration : 1 h 11 min
Overall bit rate : 5 212 kb/s
Movie name : Volki.Ovcy.Hod.Svinjey.2018.WEB-DL.1080p.BLUEBIRD
Encoded date : UTC 2019-02-26 14:33:58
Writing application : mkvmerge v6.9.1 ('Blue Panther') 32bit built on Apr 18 2014 18:15:44
Writing library : libebml v1.3.0 + libmatroska v1.4.1
Cover : Yes
Attachments : cover.png
Video
ID : 1
Format : AVC
Format/Info : Advanced Video Codec
Format profile : High@L4
Format settings, CABAC : Yes
Format settings, RefFrames : 5 frames
Codec ID : V_MPEG4/ISO/AVC
Duration : 1 h 11 min
Bit rate : 4 724 kb/s
Width : 1 920 pixels
Height : 804 pixels
Display aspect ratio : 2.40:1
Frame rate mode : Constant
Frame rate : 25.000 FPS
Color space : YUV
Chroma subsampling : 4:2:0
Bit depth : 8 bits
Scan type : Progressive
Bits/(Pixel*Frame) : 0.122
Stream size : 2.37 GiB (91%)
Title : Volki.Ovcy.Hod.Svinjey.2018.WEB-DL.1080p.BLUEBIRD
Language : English
Default : Yes
Forced : No
Color range : Limited
Color primaries : BT.709
Transfer characteristics : BT.709
Matrix coefficients : BT.709
Audio
ID : 2
Format : AC-3
Format/Info : Audio Coding 3
Format settings, Endianness : Big
Codec ID : A_AC3
Duration : 1 h 11 min
Bit rate mode : Constant
Bit rate : 384 kb/s
Channel(s) : 6 channels
Channel positions : Front: L C R, Side: L R, LFE
Sampling rate : 48.0 kHz
Frame rate : 31.250 FPS (1536 SPF)
Bit depth : 16 bits
Compression mode : Lossy
Stream size : 197 MiB (7%)
Title : DD 5.1 @ 384 kbps (iTunes)
Language : Russian
Service kind : Complete Main
Default : Yes
Forced : No
Menu
00:00:00.000 : en:Глава 1
00:04:54.960 : en:Глава 2
00:11:02.200 : en:Глава 3
00:16:08.080 : en:Глава 4
00:22:05.560 : en:Глава 5
00:26:49.200 : en:Глава 6
00:30:52.080 : en:Глава 7
00:34:50.320 : en:Глава 8
00:40:21.120 : en:Глава 9
00:45:29.760 : en:Глава 10
00:51:37.320 : en:Глава 11
00:56:52.720 : en:Глава 12
01:02:29.080 : en:Глава 13

admin

Post 10-Feb-2019 15:56

[Quote]

Название мультфильма: Два хвоста
Год выхода: 2018
Жанр: Мультфильм, детский
Режиссер: Наталья Нилова, Виктор Азеев
В ролях: Сергей Бурунов, Диомид Виноградов, Ирина Киреева
О фильме:
История о невероятных приключениях двух друзей — Кота Макса и Бобра Боба. Трудно найти более непохожих друг на друга героев! «Правильный» Боб стремится к тишине и покою, а непоседа Макс хочет стать знаменитым и прославиться на весь мир. И, тем не менее, именно этой парочке предстоит отразить нашествие инопланетных охотников за животными и прославиться на всю галактику! Вас ждут шутки, аттракционы и погони на летающих тарелках. Ключ на старт! Полетели!

Страна: Россия
Продолжительность: 01:14:25
Перевод: Не требуется | iTunes
Субтитры: Отсутствуют
Качество: WEB-DL 1080p
Формат: mkv
Видео кодек: AVC
Аудио кодек: AC3
Видео: 1920x1080, 23.976 fps, 4989 Кбит/с
Аудио: AC3, 384 Кбит/с, 6 ch, 48.0 KHz

M/I

General
Unique ID : 193208668468367618804466537709204329468 (0x915AA2D1AC0B2B959DF0AFE932C2D3FC)
Complete name : C:UsersDoMiNoDesktopDva.hvosta.2018.WEB.DL.1080p.iTunes_RGNEWMOWER.mkv
Format : Matroska
Format version : Version 4 / Version 2
File size : 2.85 GiB
Duration : 1 h 14 min
Overall bit rate : 5 482 kb/s
Encoded date : UTC 2018-07-03 20:38:17
Writing application : mkvmerge v24.0.0 ('Beyond The Pale') 64-bit
Writing library : libebml v1.3.6 + libmatroska v1.4.9
Video
ID : 2
Format : AVC
Format/Info : Advanced Video Codec
Format profile : High@L4
Format settings : CABAC / 4 Ref Frames
Format settings, CABAC : Yes
Format settings, ReFrames : 4 frames
Codec ID : V_MPEG4/ISO/AVC
Duration : 1 h 14 min
Bit rate : 4 989 kb/s
Width : 1 920 pixels
Height : 1 080 pixels
Display aspect ratio : 16:9
Frame rate mode : Constant
Frame rate : 24.000 FPS
Color space : YUV
Chroma subsampling : 4:2:0
Bit depth : 8 bits
Scan type : Progressive
Bits/(Pixel*Frame) : 0.100
Stream size : 2.60 GiB (91%)
Language : English
Default : Yes
Forced : No
Color range : Limited
Color primaries : BT.709
Transfer characteristics : BT.709
Matrix coefficients : BT.709
Audio
ID : 1
Format : AC-3
Format/Info : Audio Coding 3
Codec ID : A_AC3
Duration : 1 h 14 min
Bit rate mode : Constant
Bit rate : 384 kb/s
Channel(s) : 6 channels
Channel positions : Front: L C R, Side: L R, LFE
Sampling rate : 48.0 kHz
Frame rate : 31.250 FPS (1536 SPF)
Bit depth : 16 bits
Compression mode : Lossy
Delay relative to video : -42 ms
Stream size : 205 MiB (7%)
Language : Russian
Service kind : Complete Main
Default : Yes
Forced : No
Menu
00:00:00.000 : en:Глава 1
00:03:00.875 : en:Глава 2
00:11:49.250 : en:Глава 3
00:16:13.916 : en:Глава 4
00:22:17.916 : en:Глава 5
00:30:12.416 : en:Глава 6
00:36:35.791 : en:Глава 7
00:43:53.082 : en:Глава 8
00:51:04.165 : en:Глава 9
00:57:06.831 : en:Глава 10
01:05:52.081 : en:Глава 11

Скриншоты

admin

Post 29-Jan-2019 16:11

[Quote]

Информация о фильме
Название: Ну, погоди!
Год выхода: 1969-1986
Жанр: мультфильм, короткометражка
Режиссер: Вячеслав Котёночкин
В ролях: Клара Румянова, Анатолий Папанов, Геннадий Хазанов, Владимир Сошальский
О фильме: Веселые приключения неразлучной парочки — хулигана Волка и смышленого Зайца. Любимые с детства сцены погонь, ссор и примирений, шутки и мелодии.

Выпущено: Союзмультфильм
Продолжительность: 16 выпусков по ~ 10 мин.
Перевод: Оригинал (лицензия)
Файл
Кодек: x264
Качество: BDRip (источник: Blu-ray Disc)
Видео: 960x720 (4:3), 25 fps, 5200 kbps
Аудио: AC-3, 1 ch, 224 kbps

Скриншоты

Encoding settings

cabac=1 / ref=9 / deblock=1:0:0 / analyse=0x3:0x133 / me=tesa / subme=11 / psy=1 / psy_rd=1.00:0.00 / mixed_ref=1 / me_range=32 / chroma_me=1 / trellis=2 / 8x8dct=1 / cqm=0 / deadzone=21,11 / fast_pskip=0 / chroma_qp_offset=-2 / threads=12 / lookahead_threads=2 / sliced_threads=0 / nr=0 / decimate=1 / interlaced=0 / bluray_compat=0 / constrained_intra=0 / bframes=7 / b_pyramid=2 / b_adapt=2 / b_bias=0 / direct=3 / weightb=1 / open_gop=0 / weightp=2 / keyint=250 / keyint_min=25 / scenecut=40 / intra_refresh=0 / rc=2pass / mbtree=0 / ratetol=1.0 / qcomp=0.60 / qpmin=0 / qpmax=69 / qpstep=4 / cplxblur=20.0 / qblur=0.5 / ip_ratio=1.40 / pb_ratio=1.30 / aq=1:1.00

admin

Post 29-Jan-2019 15:53

[Quote]

Информация о фильме
Название: Возвращение блудного попугая. Выпуски 1-3
Год выпуска: 1984-1988
Жанр: Мультфильм
Страна: СССР
Продолжительность: 00:29:02
Режиссёры: Валентин Караваев (выпуски 1, 3), Александр Давыдов (выпуск 2)
Роли озвучивали:
Геннадий Хазанов (Кеша)
Маргарита Корабельникова (Вовка)
Зинаида Нарышкина (Ворона)
Вячеслав Невинный (Кот)
Описание: «Возвращение блудного попугая» — советский и российский мультипликационный сериал, созданный режиссёром Валентином Караваевым и сценаристом Александром Курляндским в 1984 году. Кеша живёт в квартире школьника Вовки, однако из-за своего вспыльчивого, заносчивого характера периодически сбегает на вольные хлеба и непременно попадает в неприятности, в конце концов возвращаясь к Вовке с повинной. Критики единодушно признают, что Кеша — не простой мультипликационный герой. Его характер детально прописан и изначально задуман таким образом, чтобы завоевать симпатии зрителей. При этом мультфильм больше любят и ценят взрослые, нежели дети. Курляндского называют «человеком потрясающей фантазии», а мультфильм «Возвращение блудного попугая» — творением «с нестареющим советским юмором и иронией», фильмом, который «достоин быть пересмотренным не один десяток раз».

Файл
Качество: BDRip 1080p
Формат: MKV
Видео кодек: H264
Аудио кодек: AC3
Видео: MPEG-4 AVC, 1472x1080, 9000 Kbps, 25.000 fps
Аудио: Dolby AC3, 48000 Hz, 6ch, 448 kbps

Список серий

1. Возвращение блудного попугая (1984)- 00:09:42
2. Возвращение блудного попугая (второй выпуск) (1987) - 00:09:46
3. Возвращение блудного попугая (третий выпуск) (1988) - 00:09:33

Скриншоты


MediaInfo

General
Unique ID : 230243598962314607921526162297240743675 (0xAD374DDE614D0B64B1B8F6B93360EEFB)
Complete name : F:Torrent 21984-1988.Vozvrat.blud.likko.KORSAR.mkv
Format : Matroska
Format version : Version 4 / Version 2
File size : 656 MiB
Duration : 9 min 42 s
Overall bit rate : 9 457 kb/s
Movie name : Возвращение блудного попугая 1984-1988
Encoded date : UTC 2017-02-24 21:59:27
Writing application : mkvmerge v8.3.0 ('Over the Horizon') 64bit
Writing library : libebml v1.3.1 + libmatroska v1.4.2
Video
ID : 1
Format : AVC
Format/Info : Advanced Video Codec
Format profile : High@L4.1
Format settings, CABAC : Yes
Format settings, ReFrames : 5 frames
Codec ID : V_MPEG4/ISO/AVC
Duration : 9 min 42 s
Bit rate : 9 000 kb/s
Width : 1 472 pixels
Height : 1 080 pixels
Display aspect ratio : 4:3
Frame rate mode : Constant
Frame rate : 25.000 FPS
Color space : YUV
Chroma subsampling : 4:2:0
Bit depth : 8 bits
Scan type : Progressive
Bits/(Pixel*Frame) : 0.226
Stream size : 625 MiB (95%)
Title : Возвращение блудного попугая 1984-1988
Writing library : x264 core 146 r2538 121396c
Encoding settings : cabac=1 / ref=5 / deblock=1:-1:-1 / analyse=0x3:0x133 / me=umh / subme=11 / psy=1 / psy_rd=1.03:0.00 / mixed_ref=1 / me_range=24 / chroma_me=1 / trellis=2 / 8x8dct=1 / cqm=0 / deadzone=21,11 / fast_pskip=0 / chroma_qp_offset=-2 / threads=12 / lookahead_threads=2 / sliced_threads=0 / nr=0 / decimate=1 / interlaced=0 / bluray_compat=0 / constrained_intra=0 / bframes=8 / b_pyramid=2 / b_adapt=2 / b_bias=0 / direct=3 / weightb=1 / open_gop=0 / weightp=2 / keyint=250 / keyint_min=25 / scenecut=40 / intra_refresh=0 / rc=2pass / mbtree=0 / bitrate=9000 / ratetol=1.0 / qcomp=0.60 / qpmin=0 / qpmax=69 / qpstep=4 / cplxblur=20.0 / qblur=0.5 / ip_ratio=1.40 / pb_ratio=1.30 / aq=2:1.00
Language : Russian
Default : Yes
Forced : No
Audio
ID : 2
Format : AC-3
Format/Info : Audio Coding 3
Mode extension : CM (complete main)
Format settings, Endianness : Big
Codec ID : A_AC3
Duration : 9 min 42 s
Bit rate mode : Constant
Bit rate : 448 kb/s
Channel(s) : 6 channels
Channel positions : Front: L C R, Side: L R, LFE
Sampling rate : 48.0 kHz
Frame rate : 31.250 FPS (1536 spf)
Bit depth : 16 bits
Compression mode : Lossy
Stream size : 31.1 MiB (5%)
Language : Russian
Default : Yes
Forced : No

admin

Post 29-Oct-2018 19:42

[Quote]

Оригинальное название: Маша и медведь: Вот как бывает
Год выпуска: 2018
Жанр: Мультфильм, короткометражка, комедия, семейный
Режиссер: Владислав Байрамгулов
В ролях: Варвара Саранцева, Борис Кутневич
Описание: Какому ребёнку понравится жить по правилам? Куда интереснее отправиться в весёлое приключение с новыми друзьями. Маша решает бросить прежнюю жизнь и…. пропадает! Найдёт ли её Мишка?
Выпущено: Россия, Студия "Анимаккорд"
Продолжительность: 00:07:16
Перевод: Не требуется
Язык: Русский
Автор рипа: Алехаndr
Файл
Качество: WEBRip 1080p
Видео: MPEG-4 AVC, 3471 Кбит/с, 1920x1080
Аудио: AC3, 2 ch, 192 Кбит/с

Скриншоты

admin

Post 10-Jul-2018 21:04

[Quote]

Информация о фильме
Название: Смешарики. Дежавю
Год выхода: 2018
Жанр: Мультфильм, комедия, приключения, семейный
Страна: Россия
Перевод: Не требуется
Продолжительность: 01:25:03
Режиссер: Денис Чернов
Роли дублировали: Павел Деревянко, Антон Виноградов, Сергей Мардарь, Михаил Черняк, Владимир Постников, Светлана Письмиченко, Вадим Бочанов, Михаил Хрусталёв и др.
О фильме: Крош решает устроить незабываемый день рождения Копатыча — он обращается в агентство «Дежавю», которое обещает своим клиентам удивительные путешествия во времени. Но из-за несоблюдения условий договора всех смешариков раскидывает во времени, а Крошу придется собирать друзей по разным эпохам в компании своего второго «Я» — повзрослевшего и ворчливого Шорка, появившегося из-за временного парадокса.

Файл
Качество: BDRip 720p
Видео: MPEG-4 AVC, 1280x536, 5000 kbps, 24,000 fps
Звук#1: русский, DTS 5.1, 48 kHz, 1509 kbps | Лицензия
Звук#2: русский, AC3 5.1, 48 kHz, 640 kbps | Лицензия
Субтитры: нет

MI

General
Уникальный идентификатор : 170631887725385151285861216577762277903 (0x805E819691E38893B8854867B3E6BA0F)
Полное имя : F:TorrentSmeshariki2018BDRip720.mkv
Формат : Matroska
Версия формата : Version 4 / Version 2
Размер файла : 4.25 GiB
Продолжительность : 1 h 25 min
Общий поток : 7 150 kb/s
Дата кодирования : UTC 2018-07-10 10:51:56
Программа кодирования : mkvmerge v9.5.0 ('Quiet Fire') 64bit
Библиотека кодирования : libebml v1.3.4 + libmatroska v1.4.5
Video
Идентификатор : 1
Формат : AVC
Формат/Информация : Advanced Video Codec
Профиль формата : High@L4.1
Настройки формата : CABAC / 9 Ref Frames
Параметр CABAC формата : Yes
Параметр RefFrames формата : 9 frames
Идентификатор кодека : V_MPEG4/ISO/AVC
Продолжительность : 1 h 25 min
Битрейт : 5 000 kb/s
Ширина : 1 280 pixels
Высота : 536 pixels
Соотношение сторон : 2.40:1
Режим частоты кадров : Constant
Частота кадров : 24.000 FPS
Цветовое пространство : YUV
Субдискретизация насыщенности : 4:2:0
Битовая глубина : 8 bits
Тип развёртки : Progressive
Бит/(Пиксели*Кадры) : 0.304
Размер потока : 2.97 GiB (70%)
Библиотека кодирования : x264 core 155 r2901M 7d0ff22
Настройки программы : cabac=1 / ref=9 / deblock=1:-3:-3 / analyse=0x3:0x133 / me=umh / subme=11 / psy=1 / psy_rd=1.00:0.00 / mixed_ref=1 / me_range=48 / chroma_me=1 / trellis=2 / 8x8dct=1 / cqm=0 / deadzone=21,11 / fast_pskip=0 / chroma_qp_offset=-2 / threads=9 / lookahead_threads=2 / sliced_threads=0 / nr=0 / decimate=0 / interlaced=0 / bluray_compat=0 / constrained_intra=0 / bframes=10 / b_pyramid=2 / b_adapt=2 / b_bias=0 / direct=3 / weightb=1 / open_gop=0 / weightp=2 / keyint=240 / keyint_min=24 / scenecut=40 / intra_refresh=0 / rc_lookahead=120 / rc=2pass / mbtree=0 / bitrate=5000 / ratetol=1.0 / qcomp=0.70 / qpmin=0 / qpmax=69 / qpstep=4 / cplxblur=20.0 / qblur=0.5 / vbv_maxrate=50000 / vbv_bufsize=62500 / nal_hrd=none / filler=0 / ip_ratio=1.40 / pb_ratio=1.30 / aq=3:0.80
Default : Yes
Forced : No
Цветовой диапазон : Limited
Основные цвета : BT.709
Характеристики трансфера : BT.709
Коэффициенты матрицы : BT.709
Audio #1
Идентификатор : 2
Формат : DTS
Формат/Информация : Digital Theater Systems
Идентификатор кодека : A_DTS
Продолжительность : 1 h 25 min
Вид битрейта : Constant
Битрейт : 1 509 kb/s
Каналы : 6 channels
Расположение каналов : Front: L C R, Side: L R, LFE
Частота : 48.0 kHz
Частота кадров : 93.750 FPS (512 SPF)
Битовая глубина : 24 bits
Метод сжатия : Lossy
Размер потока : 918 MiB (21%)
Язык : Russian
Default : Yes
Forced : No
Audio #2
Идентификатор : 3
Формат : AC-3
Формат/Информация : Audio Coding 3
Идентификатор кодека : A_AC3
Продолжительность : 1 h 25 min
Вид битрейта : Constant
Битрейт : 640 kb/s
Каналы : 6 channels
Расположение каналов : Front: L C R, Side: L R, LFE
Частота : 48.0 kHz
Частота кадров : 31.250 FPS (1536 SPF)
Битовая глубина : 16 bits
Метод сжатия : Lossy
Размер потока : 389 MiB (9%)
Язык : Russian
Default : No
Forced : No
Menu
00:00:00.000 : en:Chapter 1
00:01:04.166 : en:Chapter 2
00:09:00.750 : en:Chapter 3
00:20:01.500 : en:Chapter 4
00:30:27.458 : en:Chapter 5
00:41:08.791 : en:Chapter 6
00:51:13.041 : en:Chapter 7
01:00:43.375 : en:Chapter 8
01:10:59.208 : en:Chapter 9

Скриншоты


admin

Post 07-Jun-2018 07:15

[Quote]

Название: Простоквашино: Сезон дождей
Год выхода: 2018
Жанр: Мультфильм, семейный
Режиссер: Михаил Солошенко
Роли озвучивали: Антон Табаков, Юлия Меньшова, Иван Охлобыстин, Гарик Сукачёв, Алексей Онежен
О мультфильме: Казалось, никакие бури внешнего мира не смогут поколебать привычный и размеренный ход деревенской жизни Простоквашино. Время как будто застыло. Все так же каждое утро Матроскин дегустирует свежее молоко, полученное от своей любимицы — коровы Мурки. Все так же Шарик проводит время в окрестных лесах, «фотоохотясь» на редкую дичь. Правда, теперь он научился выкладывать фотографии своей добычи в интернет. И все так же, при каждой возможности, их навещает Дядя Федор. И тогда они весело и дружно проводят время своей мужской компанией. И когда им уже стало казаться, что так будет всегда, внезапно все изменилось с появлением одной маленькой девочки, родной сестры Дяди Фёдора. И имя этой девочки — Вера Павловна.

Производство: Россия / Союзмультфильм
Продолжительность: 00:06:29
Перевод: Не требуется
Субтитры: Отсутствуют
Файл
Формат: MKV
Качество: WEB-DL 1080р
Видео: MPEG-4 AVC, 5036 Кбит/с, 1920x1080
Аудио: 48 kHz, AC3 Dolby Digital, 2/0 (L,R) ch, ~192 kbps

MediaInfo

Общее
Уникальный идентификатор : 108648647852282464286894528482031511286 (0x51BCF7EB21F53418ED9473D1FAAD26F6)
Полное имя : Простоквашино “Сезон дождей“ - 3 серия.mkv
Формат : Matroska
Версия формата : Version 4 / Version 2
Размер файла : 243 Мбайт
Продолжительность : 6 м. 29 с.
Общий поток : 5229 Кбит/сек
Дата кодирования : UTC 2018-06-06 09:01:54
Программа кодирования : mkvmerge v23.0.0 ('The Bride Said No') 64-bit
Библиотека кодирования : libebml v1.3.6 + libmatroska v1.4.9
Видео
Идентификатор : 1
Формат : AVC
Формат/Информация : Advanced Video Codec
Профиль формата : Main@L5.1
Настройки формата : CABAC / 1 Ref Frames
Параметр CABAC формата : Да
Параметр RefFrames формата : 1 кадр
Идентификатор кодека : V_MPEG4/ISO/AVC
Продолжительность : 6 м. 29 с.
Битрейт : 5036 Кбит/сек
Ширина : 1920 пикселей
Высота : 1080 пикселей
Соотношение сторон : 16:9
Режим частоты кадров : Постоянный
Частота кадров : 25,000 кадров/сек
Цветовое пространство : YUV
Субдискретизация насыщенности : 4:2:0
Битовая глубина : 8 бит
Тип развёртки : Прогрессивная
Бит/(Пиксели*Кадры) : 0.097
Размер потока : 234 Мбайт (96%)
Default : Да
Forced : Нет
Аудио
Идентификатор : 2
Формат : AC-3
Формат/Информация : Audio Coding 3
Идентификатор кодека : A_AC3
Продолжительность : 6 м. 29 с.
Вид битрейта : Постоянный
Битрейт : 192 Кбит/сек
Каналы : 2 канала
Расположение каналов : Front: L R
Частота : 48,0 КГц
Частота кадров : 31,250 кадров/сек (1536 SPF)
Битовая глубина : 16 бит
Метод сжатия : С потерями
Размер потока : 8,93 Мбайт (4%)
Default : Да
Forced : Нет

Скриншоты

admin

Post 16-Apr-2018 05:16

[Quote]

Оригинальное название: Маша и Медведь
Год выпуска: 2018
Жанр: Мультсериал, компьютерная анимация, сказка, детский, семейный
Выпущено: Россия, Студия "Анимаккорд"
Режиссер: Владислав Байрамгулов
В ролях: Варвара Саранцева, Борис Кутневич
Описание: Как вы думаете, сложно ли достать звезду с неба? Для наших героев нет ничего невозможного! Нужно только построить ракету и взять с собой парочку верных друзей, и незабываемые приключения вам обеспечены. Мишка, Маша и Панда не только побывали на луне, но и привезли Медведице желанный подарок. Какой? Конечно, космический!
Качество: WEB-DL 720p
Видео: MPEG-4 AVC, 1300 Кбит/с, 1280x720
Аудио: Русский (AC3, 2 ch, 192 Кбит/с)
Продолжительность: 00:07:51

Скриншоты

admin

Post 13-Apr-2018 05:13

[Quote]

Название: Маша и медведь: Звезда с неба
Год выпуска: 2018
Страна: Россия
Жанр: комедия, приключения
Продолжительность: 00:08:13
Перевод: Оригинал (русский)-Режиссер: Владислав Байрамгулов-Роли озвучивали: Варвара Саранцева, Борис Кутневич-Эпизод: 70
Описание:
Как вы думаете, сложно ли достать звезду с неба? Для наших героев нет ничего невозможного! Нужно только построить ракету и взять с собой парочку верных друзей, и незабываемые приключения вам обеспечены. Мишка, Маша и Панда не только побывали на луне, но и привезли Медведице желанный подарок. Какой? Конечно, космический!-Качество: WEB-DL 1080p
Формат: MKV
Видео: MPEG-4 AVC, 3553 Кбит/с, 1920x1080
Аудио: Русский (AC3, 2 ch, 192 Кбит/с)

Скриншоты

admin

Post 04-Apr-2018 03:19

[Quote]

Название: Простоквашино
Год выхода: 2018
Жанр: Мультфильм, семейный
Роли озвучивали: Антон Табаков, Юлия Меньшова, Иван Охлобыстин, Гарик Сукачёв, Алексей Онежен
О мультфильме: Союзмультфильм планирует снять несколько десятков новых эпизодов, которые станут продолжением серии анимационных лент Трое из Простоквашино. Задача нового проекта — показать, как изменилось "Простоквашино" вместе со страной, все-таки прошло 20 лет, а также вовлечь детей в новые приключения персонажей, которые говорят о вечных ценностях, таких как семья, дом, забота о близких - сказала председатель правления Союзмультфильма Юлиана Слащева. В период с 2018 по 2020 год в свет выйдет 30 серий мультфильма о деревне Простоквашино и ее героях.

Производство: Россия / Союзмультфильм
Продолжительность: 00:06:30
Перевод: Не требуется
Субтитры: Отсутствуют
Файл
Формат: MKV
Качество: WEB-DL 1080р
Видео: MPEG-4 AVC, 5037 Кбит/с, 1920x1080
Аудио: 48 kHz, AC3 Dolby Digital, 2/0 (L,R) ch, ~192 kbps

MediaInfo

Общее
Уникальный идентификатор : 328388245600085779339621698889891660196 (0xF70D468B02250CD50E168359408B41A4)
Полное имя : Возвращение в Простоквашино.mkv
Формат : Matroska
Версия формата : Version 4 / Version 2
Размер файла : 243 Мбайт
Продолжительность : 6 м. 30 с.
Общий поток : 5229 Кбит/сек
Программа кодирования : mkvmerge v21.0.0 ('Tardigrades Will Inherit The Earth') 64-bit
Библиотека кодирования : libebml v1.3.5 + libmatroska v1.4.8
Видео
Идентификатор : 1
Формат : AVC
Формат/Информация : Advanced Video Codec
Профиль формата : Main@L5.1
Настройки формата : CABAC / 1 Ref Frames
Параметр CABAC формата : Да
Параметр RefFrames формата : 1 кадр
Параметр GOP формата : N=1
Идентификатор кодека : V_MPEG4/ISO/AVC
Продолжительность : 6 м. 29 с.
Битрейт : 5037 Кбит/сек
Ширина : 1920 пикселей
Высота : 1080 пикселей
Соотношение сторон : 16:9
Режим частоты кадров : Постоянный
Частота кадров : 25,000 кадров/сек
Цветовое пространство : YUV
Субдискретизация насыщенности : 4:2:0
Битовая глубина : 8 бит
Тип развёртки : Прогрессивная
Бит/(Пиксели*Кадры) : 0.097
Размер потока : 234 Мбайт (96%)
Default : Да
Forced : Нет
Аудио
Идентификатор : 2
Формат : AC-3
Формат/Информация : Audio Coding 3
Идентификатор кодека : A_AC3
Продолжительность : 6 м. 30 с.
Вид битрейта : Постоянный
Битрейт : 192 Кбит/сек
Каналы : 2 канала
Расположение каналов : Front: L R
Частота : 48,0 КГц
Частота кадров : 31,250 кадров/сек (1536 SPF)
Битовая глубина : 16 бит
Метод сжатия : С потерями
Размер потока : 8,93 Мбайт (4%)
Default : Да
Forced : Нет

Скриншоты

admin

Post 27-Feb-2018 01:40

[Quote]

Информация о фильме
Название: Приключения капитана Врунгеля
Год выхода: 1976-1979
Жанр: Мультсериал, музыкальный, рисованный, детский, семейный, экранизация, комедия, приключения
Режиссер: Давид Черкасский
В ролях: Георгий Кишко, Зиновий Гердт, Семён Фарада, Эдуард Назаров, Евгений Паперный, Григорий Шпигель, Вениамин Смехов
О фильме:
Христофору Бонифатьевичу Врунгелю, известному мореходу, профессору навигации, приходит приглашение участвовать в международной парусной регате. Специально для соревнований помощник Врунгеля — матрос Лом — построил яхту «Победа», но во время отплытия две первые буквы её названия отпали с кормовой доски, и она получила название «Беда».

Страна: СССР
Студия: Киевнаучфильм
Продолжительность: 02:13:14
Перевод: Не требуется
Файл
Кодек: H.264
Качество: BDRip 720p
Видео: AVC, 972x720 (4:3), 24.000 fps, 4 506 Kbps (0.268 bit/pixel)
Аудио: AC-3, 48.0 KHz, 2 ch, 192 Kbps, CBR (Russian)

Скриншоты

admin

Post 25-Jan-2018 22:43

[Quote]

Информация о фильме
Название: Чудо-Юдо
Год выхода: 2017
Жанр: мультфильм, фэнтези
Режиссер: Артем Лукичев
В ролях: Антон Макарский, Ирина Медведева, Наталия Медведева, Александр Пожаров, Людмила Артемьева, Федор Добронравов, Иван Добронравов, Диомид Виноградов
О фильме:
В некотором царстве, в некотором государстве жил-был Царь Еремей с тремя сыновьями. Был он занят целыми днями важнейшим государственным делом — диктовал мемуары о своих несуществующих подвигах. И вот однажды, средь бела дня обнаружилось на границе Царства чудище драконьей породы, а проще говоря, Чудо-Юдо. И послал Царь сыновей чудище это победить и славу царского рода приумножить. Но пока старшие сыновья спали, а Иван с Чудом-Юдом сражался, выяснилось, что пропала Царевна Варвара из Соседнего Царства. И отправился Иван на её поиски. Ну и Чудо-Юдо с собой прихватил. На всякий случай. Вдруг в дороге пригодится! Не знал только Иван, что Дракон этот — совсем не тот, за кого себя выдаёт.

Страна: Россия
Продолжительность: 01:14:55
Файл
Формат: MKV
Видео: 1920x1038 at 24.000 fps, MPEG-4 AVC, ~5100 kbps avg
Аудио#1: 48 kHz, AC3, 3/2 (L,C,R,l,r) + LFE ch, ~384.00 kbps avg
Cубтитры: нет
Сэмпл

Скриншоты



admin

Post 31-Dec-2017 01:33

[Quote]

Название: Сказ о Петре и Февронии
Год выхода: 2017
Жанр: мультфильм, приключения, семейный
Режиссеры: Юрий Рязанов, Юрий Кулаков
В ролях: Иван Охлобыстин, Константин Карасик, Виктор Вержбицкий, Юлия Горохова, Диомид Виноградов, Вадим Медведев (II), Владимир Антоник, Владислав Юдин, Сергей Усков и др.
О сериале: XIII век. Злодей захватил власть в Муромском княжестве. Только отважный воин Петр выходит на бой со злодеем и побеждает его. Но ядовитая кровь колдуна отравляет спасителя княжества. Целительница Феврония готова применить свой дар, чтобы спасти Петра. Между молодыми людьми вспыхивает настоящее чистое чувство, которое им предстоит сохранить, несмотря на множество препятствий.
Производство: Россия / Киностудия "Вверх", Фонд поддержки развития общества «Наши дети»
Продолжительность: 01:18:04
Субтитры: Отсутствуют

Файл
Формат: MKV
Качество: WEB-DL 1080p
Видео: MPEG-4 AVC, 4072 Кбит/с, 1920x1080
Аудио RUS: AC3, 6 ch, 448 Кбит/с

MediaInfo

Общее
Уникальный идентификатор : 178987660663807957865858458286594941361 (0x86A7C5003BFA1F65B289E46B9EFF61B1)
Полное имя : Skaz.O.Petre.I.Fevronii_2017.WEBRip.1080p.mkv
Формат : Matroska
Версия формата : Version 4 / Version 2
Размер файла : 2,46 Гбайт
Продолжительность : 1 ч. 18 м.
Режим общего битрейта : Постоянный
Общий поток : 4518 Кбит/сек
Дата кодирования : UTC 2017-12-29 13:44:26
Программа кодирования : mkvmerge v7.8.0 ('River Man') 64bit built on Mar 27 2015 16:31:37
Библиотека кодирования : libebml v1.3.1 + libmatroska v1.4.2
Видео
Идентификатор : 1
Формат : AVC
Формат/Информация : Advanced Video Codec
Профиль формата : High@L4
Настройки формата : CABAC / 1 Ref Frames
Параметр CABAC формата : Да
Параметр RefFrames формата : 1 кадр
Параметр GOP формата : M=1, N=25
Идентификатор кодека : V_MPEG4/ISO/AVC
Продолжительность : 1 ч. 18 м.
Вид битрейта : Постоянный
Битрейт : 4072 Кбит/сек
Ширина : 1920 пикселей
Высота : 1080 пикселей
Соотношение сторон : 16:9
Режим частоты кадров : Постоянный
Частота кадров : 25,000 кадров/сек
Цветовое пространство : YUV
Субдискретизация насыщенности : 4:2:0
Битовая глубина : 8 бит
Тип развёртки : Прогрессивная
Бит/(Пиксели*Кадры) : 0.079
Размер потока : 2,22 Гбайт (90%)
Язык : Russian
Default : Да
Forced : Нет
Аудио
Идентификатор : 2
Формат : AC-3
Формат/Информация : Audio Coding 3
Идентификатор кодека : A_AC3
Продолжительность : 1 ч. 18 м.
Вид битрейта : Постоянный
Битрейт : 448 Кбит/сек
Каналы : 6 каналов
Расположение каналов : Front: L C R, Side: L R, LFE
Частота : 48,0 КГц
Частота кадров : 31,250 кадров/сек (1536 SPF)
Битовая глубина : 16 бит
Метод сжатия : С потерями
Размер потока : 250 Мбайт (10%)
Язык : Russian
Default : Да
Forced : Нет

Скриншоты

 

Current time is: 03-Dec 13:51

All times are UTC + 3