Search found 21 matches

Author Message

admin

Post 11-May-2022 00:10

[Quote]

Информация о фильме
Название: Мальчик-дельфин
Год выхода: 2021
Жанр: мультфильм, приключения, фэнтези, комедия
Режиссер: Андрей Гоглев, Мохаммад Хейрандиш
В ролях: Антонина Степакова, Иван Балдычев, Степан Степаков, Егор Петров, Дмитрий Мурашев, Лассе Линдберг, Владимир Ямненко, Сергей Евсеев, Александр Тютрюмов, Иван Батарев
О фильме:
Дельфиненок Снежок спасает в волнах маленького мальчика, выжившего в авиакатастрофе. С тех пор друзья, почти братья, беззаботно растут вместе, будоража морских обитателей своими веселыми проделками. Пока однажды покой их радостного мирка не разрушает злобный Осьминог. Он изгоняет мальчика на сушу, где тому предстоит научиться жить среди людей и разобраться в тайне своего происхождения. Новый друг, добрый капитан Мурварид, и верный Снежок помогут мальчику справиться со всеми невзгодами — будь то на дне морском или на загадочных далеких островах. Сказочные приключения ждут!

Выпущено: Россия / SkyFrame
Продолжительность: 01:25:11
Озвучивание: Оригинальное | КиноПоиск HD
Файл
Формат: MKV
Качество: WEB-DL 1080p
Видео: MPEG-4 AVC, 6000 Kb/s, 1920x1012
Аудио: Russian: AC3 / Е-AC3, 448 Kb/s (6 ch)
Субтитры: Russian (Full)
Дополнительно: Нет

Инфо-файл:

Complete name : Malchik.delfin.2021.WEB-DL.1080p.ELEKTRI4KA.UNIONGANG.mkv
Format : Matroska
Format version : Version 4
File size : 4.08 GiB
Duration : 1 h 25 min
Overall bit rate : 6 864 kb/s
Movie name : Malchik.delfin.2021.WEB-DL.1080p.ELEKTRI4KA.UNIONGANG.
Encoded date : UTC 2022-05-09 09:03:15
Writing application : mkvmerge v8.3.0 ('Over the Horizon') 32bit
Writing library : libebml v1.3.1 + libmatroska v1.4.2
Video
ID : 1
Format : AVC
Format/Info : Advanced Video Codec
Format profile : High@L4
Format settings : CABAC / 4 Ref Frames
Format settings, CABAC : Yes
Format settings, Reference frames : 4 frames
Codec ID : V_MPEG4/ISO/AVC
Duration : 1 h 25 min
Bit rate : 6 000 kb/s
Width : 1 920 pixels
Height : 1 012 pixels
Display aspect ratio : 1.897
Frame rate mode : Constant
Frame rate : 24.000 FPS
Color space : YUV
Chroma subsampling : 4:2:0
Bit depth : 8 bits
Scan type : Progressive
Bits/(Pixel*Frame) : 0.129
Stream size : 3.55 GiB (87%)
Writing library : x264 core 157
Encoding settings : cabac=1 / ref=4 / deblock=1:0:0 / analyse=0x3:0x133 / me=umh / subme=10 / psy=1 / psy_rd=1.00:0.00 / mixed_ref=1 / me_range=24 / chroma_me=1 / trellis=2 / 8x8dct=1 / cqm=0 / deadzone=21,11 / fast_pskip=1 / chroma_qp_offset=-2 / threads=32 / lookahead_threads=5 / sliced_threads=0 / nr=0 / decimate=1 / interlaced=0 / bluray_compat=0 / constrained_intra=0 / bframes=8 / b_pyramid=2 / b_adapt=2 / b_bias=0 / direct=3 / weightb=1 / open_gop=0 / weightp=2 / keyint=250 / keyint_min=24 / scenecut=40 / intra_refresh=0 / rc_lookahead=60 / rc=2pass / mbtree=1 / bitrate=6000 / ratetol=1.0 / qcomp=0.60 / qpmin=0 / qpmax=69 / qpstep=4 / cplxblur=20.0 / qblur=0.5 / vbv_maxrate=6600 / vbv_bufsize=24000 / nal_hrd=none / filler=0 / ip_ratio=1.40 / aq=1:1.00
Default : Yes
Forced : No
Audio #1
ID : 2
Format : AC-3
Format/Info : Audio Coding 3
Commercial name : Dolby Digital
Codec ID : A_AC3
Duration : 1 h 25 min
Bit rate mode : Constant
Bit rate : 448 kb/s
Channel(s) : 6 channels
Channel layout : L R C LFE Ls Rs
Sampling rate : 48.0 kHz
Frame rate : 31.250 FPS (1536 SPF)
Compression mode : Lossy
Stream size : 273 MiB (7%)
Title : Original AC3 (KP HD)
Language : Russian
Service kind : Complete Main
Default : Yes
Forced : Yes
Audio #2
ID : 3
Format : E-AC-3
Format/Info : Enhanced AC-3
Commercial name : Dolby Digital Plus
Codec ID : A_EAC3
Duration : 1 h 25 min
Bit rate mode : Constant
Bit rate : 448 kb/s
Channel(s) : 6 channels
Channel layout : L R C LFE Ls Rs
Sampling rate : 48.0 kHz
Frame rate : 31.250 FPS (1536 SPF)
Compression mode : Lossy
Stream size : 273 MiB (7%)
Title : Original E-AC3 (KP HD)
Language : Russian
Service kind : Complete Main
Default : No
Forced : No
Text
ID : 4
Format : UTF-8
Codec ID : S_TEXT/UTF8
Codec ID/Info : UTF-8 Plain Text
Duration : 1 h 24 min
Bit rate : 83 b/s
Count of elements : 916
Stream size : 51.4 KiB (0%)
Title : Full (KP HD)
Language : Russian
Default : No
Forced : No

Скриншоты

admin

Post 29-Apr-2022 01:48

[Quote]

Информация о фильме
Название: Финник
Год выхода: 2022
Жанр: Мультфильм, приключения, детский
Режиссер: Денис Чернов
В ролях: Михаил Хрусталёв, Вероника Голубева, Ида Галич, Борис Дергачев, Андрей Лёвин, Даня Милохин, Александр Гудков, Артур Бабич, Леша Янгер, Влад Левский
О фильме:
Мало кто знает, но в каждом доме живет… свой домовой! Это забавное мохнатое существо тайно обитает в мире людей и хранит домашний очаг. Домовой Финник — добрый, озорной, но немного вредный. Он любит подшутить над жильцами своего дома, поэтому ни одна семья не задерживается в его владениях надолго. Но все меняется, когда в дом въезжают находчивая девочка Кристина и ее родители: на них уловки домового совсем не действуют! Вскоре Кристина знакомится с Финником и узнает тайны жизни домовых. Тем временем, в их городке начинают происходить странные и пугающие события… Отважной девочке и домовому придется стать командой, чтобы разобраться в происходящем и спасти город.

Страна: Россия
Студия: Студия Анимации «Петербург»
Продолжительность: 01:27:20
Язык: Русский
Файл
Кодек: MPEG-4 AVC
Качество: WEB-DL 1080p
Видео: MPEG-4 AVC, 6000 Кбит/с, 1920x804
Звук: AC3, 2 ch, 192 Кбит/с
Реклама, любого вида, отсутствует.

Скриншоты

admin

Post 10-Feb-2022 07:10

[Quote]

Информация о фильме
Название: Кощей. Начало
Год выхода: 2021
Жанр: Мультфильм, приключения, фэнтези, семейный, детский, полнометражный
Режиссер: Андрей Колпин
В ролях: Никита Волков, Ирина Старшенбаум, Арсений Перель, Тимур Родригез, Юрий Гальцев, Павел Баршак, Владислав Ветров, Ирина Медведева, Юлия Зимина, Мирослава Карпович, Ольга Кузьмина, Юлия Александрова, Полина Кутепова, Диомид Виноградов, Андрей Рожков, Даниил Эльдаров
О фильме:
В давние времена люди и сказочные существа жили вместе. Пока в Дивноземское княжество не нагрянул Белый призрак, безжалостный монстр, способный уничтожить весь мир. Но лишь одному герою под силу остановить чудище. Он молод, силен, красив, а еще водит байк… Его зовут Кощей.

Страна: Россия
Студия: Паровоз
Продолжительность: 01:39:00
Язык: Русский
Файл
Кодек: MPEG-4 AVC
Качество: WEB-DL 1080p (Кинопоиск HD)
Видео: MPEG-4 AVC, ~ 6000 Кбит/с, 1920x804
Звук: Русский (AC3, 6 ch, 448 Кбит/с), (E-AC3, 6 ch, 448 Кбит/с)
Субтитры: Русские

MI

General
Complete name : Koshey.Nachalo.2021.WEB-DL.1080p.ExKinoRay.mkv
Format : Matroska
Format version : Version 2
File size : 4.73 GiB
Duration : 1 h 39 min
Overall bit rate : 6 845 kb/s
Encoded date : UTC 2021-10-28 12:36:21
Writing application : mkvmerge v5.8.0 ('No Sleep / Pillow') built on Sep 2 2012 15:37:04
Writing library : libebml v1.2.3 + libmatroska v1.3.0
Video
ID : 1
Format : AVC
Format/Info : Advanced Video Codec
Format profile : High@L4
Format settings : CABAC / 5 Ref Frames
Format settings, CABAC : Yes
Format settings, Reference : 5 frames
Codec ID : V_MPEG4/ISO/AVC
Duration : 1 h 39 min
Bit rate : 6 000 kb/s
Width : 1 920 pixels
Height : 804 pixels
Display aspect ratio : 2.40:1
Frame rate mode : Constant
Frame rate : 24.000 FPS
Color space : YUV
Chroma subsampling : 4:2:0
Bit depth : 8 bits
Scan type : Progressive
Bits/(Pixel*Frame) : 0.162
Stream size : 4.02 GiB (85%)
Writing library : x264 core 157
Encoding settings : cabac=1 / ref=5 / deblock=1:0:0 / analyse=0x3:0x133 / me=umh / subme=10 / psy=1 / psy_rd=1.00:0.00 / mixed_ref=1 / me_range=24 / chroma_me=1 / trellis=2 / 8x8dct=1 / cqm=0 / deadzone=21,11 / fast_pskip=1 / chroma_qp_offset=-2 / threads=25 / lookahead_threads=4 / sliced_threads=0 / nr=0 / decimate=1 / interlaced=0 / bluray_compat=0 / stitchable=1 / constrained_intra=0 / bframes=8 / b_pyramid=2 / b_adapt=2 / b_bias=0 / direct=3 / weightb=1 / open_gop=0 / weightp=2 / keyint=192 / keyint_min=96 / scenecut=40 / intra_refresh=0 / rc_lookahead=60 / rc=2pass / mbtree=1 / bitrate=6000 / ratetol=1.0 / qcomp=0.60 / qpmin=0 / qpmax=69 / qpstep=4 / cplxblur=20.0 / qblur=0.5 / vbv_maxrate=6600 / vbv_bufsize=9000 / nal_hrd=none / filler=0 / ip_ratio=1.40 / aq=1:1.00
Language : Russian
Default : Yes
Forced : No
Audio #1
ID : 2
Format : AC-3
Format/Info : Audio Coding 3
Commercial name : Dolby Digital
Codec ID : A_AC3
Duration : 1 h 39 min
Bit rate mode : Constant
Bit rate : 448 kb/s
Channel(s) : 6 channels
Channel layout : L R C LFE Ls Rs
Sampling rate : 48.0 kHz
Frame rate : 31.250 FPS (1536 SPF)
Compression mode : Lossy
Stream size : 317 MiB (7%)
Language : Russian
Service kind : Complete Main
Default : Yes
Forced : No
Audio #2
ID : 3
Format : E-AC-3
Format/Info : Enhanced AC-3
Commercial name : Dolby Digital Plus
Codec ID : A_EAC3
Duration : 1 h 39 min
Bit rate mode : Constant
Bit rate : 448 kb/s
Channel(s) : 6 channels
Channel layout : L R C LFE Ls Rs
Sampling rate : 48.0 kHz
Frame rate : 31.250 FPS (1536 SPF)
Compression mode : Lossy
Stream size : 317 MiB (7%)
Language : Russian
Service kind : Complete Main
Default : No
Forced : No
Text
ID : 4
Format : UTF-8
Codec ID : S_TEXT/UTF8
Codec ID/Info : UTF-8 Plain Text
Language : Russian
Default : No
Forced : No

Скриншоты

admin

Post 06-Feb-2022 06:10

[Quote]

Информация
Оригинальное название: Три богатыря и Конь на троне
Год выпуска: 2021
Жанр: Мультфильм, комедия, приключения
Режиссер: Дарина Шмидт, Константин Феоктистов
В ролях: Олег Куликович, Валерий Соловьёв, Дмитрий Быковский-Ромашов, Сергей Маковецкий, Дмитрий Высоцкий, Анатолий Петров, Елизавета Боярская, Мария Цветкова-Овсянникова
Описание: Как всегда, конь Юлий вляпался в историю. А заодно и Князю удружил они случайно поменялись телами, конечно, не без помощи старой знакомой Бабы Яги и небольшого колдовства. Теперь Юлий заседает во дворце и благоустраивает Киев, а Князь пашет поле. Вот такие игры престолов. Но долго так продолжаться не может, отечество в опасности! И как всегда, за дело берутся три богатыря.

Выпущено: Россия, Кинокомпания CTB / СТВ, Анимационная студия «Мельница»
Продолжительность: 01:27:25
Язык: Русский | КиноПоиск HD
Файл
Формат: mkv
Качество: WEB-DL 1080p
Видео: MPEG-4 AVC, 6000 Кбит/с, 1920x1080
Аудио#1: Русский (AC3, 6 ch, 448 Кбит/с)
Аудио#2: Русский (E-AC3, 6 ch, 448 Кбит/с)
Субтитры: Русские (Full)

Скриншоты

admin

Post 04-Feb-2022 05:30

[Quote]

Информация о фильме
Название: Три богатыря и Конь на троне
Год выхода: 2021
Жанр: Мультфильм, комедия, приключения
Режиссер: Дарина Шмидт, Константин Феоктистов
В ролях: Олег Куликович, Валерий Соловьев, Дмитрий Быковский-Ромашов, Сергей Маковецкий, Дмитрий Высоцкий, Анатолий Петров, Елизавета Боярская, Мария Цветкова-Овсянникова
О фильме:
Как всегда, конь Юлий вляпался в историю. А заодно и Князю удружил они случайно поменялись телами, конечно, не без помощи старой знакомой Бабы Яги и небольшого колдовства. Теперь Юлий заседает во дворце и благоустраивает Киев, а Князь пашет поле. Вот такие игры престолов. Но долго так продолжаться не может, отечество в опасности! И как всегда, за дело берутся три богатыря.

Страна: Россия
Студия: Кинокомпания CTB / СТВ, Анимационная студия «Мельница»
Продолжительность: 01:27:25
Язык: Русский | КиноПоиск HD
Цифровой релиз: 03 февраля 2022 года (КиноПоиск HD)
Примечание: Без рекламы
Файл
Формат: MKV
Качество: WEB-DL 720p
Видео: MPEG-4 AVC, 4000 Кбит/с, 1280x720
Звук: AC3, 2 ch, 192 Кбит/с
Субтитры: Русские (полные)

Скриншоты

MI

Общее
Уникальный идентификатор : 33854093152630893280500950373512962648 (0x19780FA91DFC7B6D3236D2E7C6D6E258)
Полное имя : D:Tri.bogatyirya.i.Kon.na.trone.2021.WEB-DL.720p.ELEKTRI4KA.UNIONGANG.mkv
Формат : Matroska
Версия формата : Version 4
Размер файла : 2,51 Гбайт
Продолжительность : 1 ч. 27 м.
Общий поток : 4 113 Кбит/сек
Название фильма : Tri.bogatyirya.i.Kon.na.trone.2021.WEB-DL.720p.ELEKTRI4KA.UNIONGANG.
Дата кодирования : UTC 2022-02-03 12:04:53
Программа кодирования : mkvmerge v63.0.0 ('Everything') 32-bit
Библиотека кодирования : libebml v1.4.2 + libmatroska v1.6.4
Видео
Идентификатор : 1
Формат : AVC
Формат/Информация : Advanced Video Codec
Профиль формата : High@L3.1
Настройки формата : CABAC / 5 Ref Frames
Параметр CABAC формата : Да
Параметр RefFrames формата : 5 кадров
Идентификатор кодека : V_MPEG4/ISO/AVC
Продолжительность : 1 ч. 27 м.
Битрейт : 4 000 Кбит/сек
Ширина : 1 280 пикселей
Высота : 720 пикселей
Соотношение сторон : 16:9
Режим частоты кадров : Постоянный
Частота кадров : 25,000 кадров/сек
Цветовое пространство : YUV
Субдискретизация насыщенности : 4:2:0
Битовая глубина : 8 бит
Тип развёртки : Прогрессивная
Бит/(Пиксели*Кадры) : 0.174
Размер потока : 2,39 Гбайт (95%)
Библиотека кодирования : x264 core 157
Настройки программы : cabac=1 / ref=5 / deblock=1:0:0 / analyse=0x3:0x133 / me=umh / subme=10 / psy=1 / psy_rd=1.00:0.00 / mixed_ref=1 / me_range=24 / chroma_me=1 / trellis=2 / 8x8dct=1 / cqm=0 / deadzone=21,11 / fast_pskip=1 / chroma_qp_offset=-2 / threads=22 / lookahead_threads=3 / sliced_threads=0 / nr=0 / decimate=1 / interlaced=0 / bluray_compat=0 / stitchable=1 / constrained_intra=0 / bframes=8 / b_pyramid=2 / b_adapt=2 / b_bias=0 / direct=3 / weightb=1 / open_gop=0 / weightp=2 / keyint=200 / keyint_min=100 / scenecut=40 / intra_refresh=0 / rc_lookahead=60 / rc=2pass / mbtree=1 / bitrate=4000 / ratetol=1.0 / qcomp=0.60 / qpmin=0 / qpmax=69 / qpstep=4 / cplxblur=20.0 / qblur=0.5 / vbv_maxrate=4400 / vbv_bufsize=6000 / nal_hrd=none / filler=0 / ip_ratio=1.40 / aq=1:1.00
Default : Да
Forced : Нет
Аудио
Идентификатор : 2
Формат : AC-3
Формат/Информация : Audio Coding 3
Коммерческое название : Dolby Digital
Идентификатор кодека : A_AC3
Продолжительность : 1 ч. 27 м.
Вид битрейта : Постоянный
Битрейт : 192 Кбит/сек
Каналы : 2 канала
Channel layout : L R
Частота : 48,0 КГц
Частота кадров : 31,250 кадров/сек (1536 SPF)
Метод сжатия : С потерями
Размер потока : 120 Мбайт (5%)
Заголовок : Original (KinoPoisk HD)
Язык : Russian
Service kind : Complete Main
Default : Да
Forced : Да
Текст
Идентификатор : 3
Формат : UTF-8
Идентификатор кодека : S_TEXT/UTF8
Идентификатор кодека/Информация : UTF-8 Plain Text
Продолжительность : 1 ч. 22 м.
Битрейт : 88 бит/сек
Count of elements : 1053
Размер потока : 53,9 Кбайт (0%)
Язык : Russian
Default : Нет
Forced : Нет

admin

Post 22-May-2021 04:55

[Quote]

Название: Маша и Медведь
Год выпуска: 2020-2021
Жанр: Мультсериал, сказка, детский, семейный
Режиссер: Андрей Беляев, Илья Трусов
В ролях: Юлия Зуникова, Борис Кутневич, Катерина Кутневич
О фильме: Мультсериал про девочку Машу, которая никому не дает покоя, и в первую очередь — своему другу Медведю. Сериал рассчитан в первую очередь на детскую аудиторию от 3 до 9 лет. Тем не менее мультфильм семейный, интересный для всех возрастов, взрослые тоже могут посмеяться над приключениями Маши и Медведя.

Выпущено: Россия, Студия "Анимаккорд"
Продолжительность: 12 x ~ 00:07:50
Язык: Русский

Содержание

01. Большой поход
02. Что внутри?
03. Что-нибудь вкусненькое
04. Первая ласточка
05. Грибной дождь
06. Медовый день
07. Крути педали
08. Живая шляпа
09. Калинка-малинка
10. День хороших манер
11. Остров сокровищ
12. Лучшая няня на свете
Формат: MKV
Качество: WEB-DL 1080p
Видео: MPEG-4 AVC, ~ 4500 Kbps, 1920x1080 (16:9), 25.000 fps
Аудио: AC3, 2.0, 192 Kbps

Скриншоты

admin

Post 14-May-2021 05:08

[Quote]

Информация о фильме
Название: От винта 2
Год выхода: 2021
Жанр: Мультфильм, детский, приключения, комедия, семейный
Режиссер: Ваге Саргсян
В ролях: Илья Зудин, Юлия Проскурякова, Игорь Богомазов, Вячеслав Даньков, Борис Токарев, Константин Карасик, Лина Иванова, Иван Породнов, Евгений Толоконников, Дмитрий Курта, Михаил Белякович, Степан Середа, Татьяна Курта, Беата Гюлумян, Григорий Середа, Евгений Андрухов, Дмитрий Филимонов, Александр Игнатенко, Оксана Старынина, Александр Парфёнов, Ольга Кузнецова, Валерий Сторожик, Ольга Курта, Альфия Абрамова, Наталья Ткачева
О фильме:
Современные электролеты пришли на смену старой дизельной технике, и Витязь был отправлен в запас. Но когда на город нападают пришельцы, которые охотятся за энергией, Витязь вновь взмывает в небо, чтобы спасти землю. На новых виражах ему помогают старые добрые друзья и лайнер Молния, в которую он снова влюбляется как мальчишка.

Страна: Россия
Студия: Touch FX Animation Studio, Продюсерский центр «Парадиз»
Продолжительность: 01:25:33
Язык: Русский
Примечание: Без рекламы
Файл
Формат: MKV
Качество: WEBRip 1080p
Видео: MPEG-4 AVC, ~ 4500 Кбит/с, 1920x1024
Звук: AC3, 2 ch, 192 Кбит/с
Субтитры: Отсутствуют

Скриншоты

MI

Общее
Уникальный идентификатор : 138072432293054701781383319793753265612 (0x67DFC87ECBD76D81EED8E0CC143E15CC)
Полное имя : D:Ot.vinta.2.2021.WEB-DL.1080p.mkv
Формат : Matroska
Версия формата : Version 4
Размер файла : 2,75 Гбайт
Продолжительность : 1 ч. 25 м.
Режим общего битрейта : Переменный
Общий поток : 4 597 Кбит/сек
Название фильма : Ot.vinta.2.2021.WEB-DL.1080p
Дата кодирования : UTC 2021-05-13 15:31:45
Программа кодирования : mkvmerge v56.1.0 ('My Friend') 64-bit
Библиотека кодирования : libebml v1.4.2 + libmatroska v1.6.4
Attachments : poster.jpg
Видео
Идентификатор : 1
Формат : AVC
Формат/Информация : Advanced Video Codec
Профиль формата : High@L4
Настройки формата : CABAC / 1 Ref Frames
Параметр CABAC формата : Да
Параметр RefFrames формата : 1 кадр
Параметр GOP формата : M=1, N=48
Идентификатор кодека : V_MPEG4/ISO/AVC
Продолжительность : 1 ч. 25 м.
Вид битрейта : Переменный
Битрейт : 4 403 Кбит/сек
Максимальный битрейт : 4 500 Кбит/сек
Ширина : 1 920 пикселей
Высота : 1 024 пикселя
Соотношение сторон : 1,85:1
Режим частоты кадров : Постоянный
Частота кадров : 24,000 кадра/сек
Цветовое пространство : YUV
Субдискретизация насыщенности : 4:2:0
Битовая глубина : 8 бит
Тип развёртки : Прогрессивная
Бит/(Пиксели*Кадры) : 0.093
Размер потока : 2,63 Гбайт (96%)
Default : Да
Forced : Нет
Аудио
Идентификатор : 2
Формат : AC-3
Формат/Информация : Audio Coding 3
Коммерческое название : Dolby Digital
Идентификатор кодека : A_AC3
Продолжительность : 1 ч. 25 м.
Вид битрейта : Постоянный
Битрейт : 192 Кбит/сек
Каналы : 2 канала
Channel layout : L R
Частота : 48,0 КГц
Частота кадров : 31,250 кадров/сек (1536 SPF)
Метод сжатия : С потерями
Размер потока : 118 Мбайт (4%)
Service kind : Complete Main
Default : Да
Forced : Нет

admin

Post 14-May-2021 05:06

[Quote]

Информация о фильме
Название: От винта 2
Год выхода: 2021
Жанр: Мультфильм, детский, приключения, комедия, семейный
Режиссер: Ваге Саргсян
В ролях: Илья Зудин, Юлия Проскурякова, Игорь Богомазов, Вячеслав Даньков, Борис Токарев, Константин Карасик, Лина Иванова, Иван Породнов, Евгений Толоконников, Дмитрий Курта, Михаил Белякович, Степан Середа, Татьяна Курта, Беата Гюлумян, Григорий Середа, Евгений Андрухов, Дмитрий Филимонов, Александр Игнатенко, Оксана Старынина, Александр Парфёнов, Ольга Кузнецова, Валерий Сторожик, Ольга Курта, Альфия Абрамова, Наталья Ткачева
О фильме:
Современные электролеты пришли на смену старой дизельной технике, и Витязь был отправлен в запас. Но когда на город нападают пришельцы, которые охотятся за энергией, Витязь вновь взмывает в небо, чтобы спасти землю. На новых виражах ему помогают старые добрые друзья и лайнер Молния, в которую он снова влюбляется как мальчишка.

Страна: Россия
Студия: Touch FX Animation Studio, Продюсерский центр «Парадиз»
Продолжительность: 01:25:33
Язык: Русский
Примечание: Без рекламы
Файл
Формат: MKV
Качество: WEBRip 720p
Видео: MPEG-4 AVC, ~ 3000 Кбит/с, 1280x688
Звук: AC3, 2 ch, 192 Кбит/с
Субтитры: Отсутствуют

Скриншоты

MI

Общее
Уникальный идентификатор : 214738538791708819919233433588112487648 (0xA18D23618D93CC082EAA87724FF2F4E0)
Полное имя : D:Ot.vinta.2.2021.WEB-DL.720p.mkv
Формат : Matroska
Версия формата : Version 4
Размер файла : 1,87 Гбайт
Продолжительность : 1 ч. 25 м.
Режим общего битрейта : Переменный
Общий поток : 3 131 Кбит/сек
Название фильма : Ot.vinta.2.2021.WEB-DL.720p
Дата кодирования : UTC 2021-05-13 15:58:03
Программа кодирования : mkvmerge v56.1.0 ('My Friend') 64-bit
Библиотека кодирования : libebml v1.4.2 + libmatroska v1.6.4
Attachments : poster.jpg
Видео
Идентификатор : 1
Формат : AVC
Формат/Информация : Advanced Video Codec
Профиль формата : High@L3.1
Настройки формата : CABAC / 1 Ref Frames
Параметр CABAC формата : Да
Параметр RefFrames формата : 1 кадр
Параметр GOP формата : M=1, N=48
Идентификатор кодека : V_MPEG4/ISO/AVC
Продолжительность : 1 ч. 25 м.
Вид битрейта : Переменный
Битрейт : 2 937 Кбит/сек
Максимальный битрейт : 3 000 Кбит/сек
Ширина : 1 280 пикселей
Высота : 688 пикселей
Соотношение сторон : 1,85:1
Режим частоты кадров : Постоянный
Частота кадров : 24,000 кадра/сек
Цветовое пространство : YUV
Субдискретизация насыщенности : 4:2:0
Битовая глубина : 8 бит
Тип развёртки : Прогрессивная
Бит/(Пиксели*Кадры) : 0.139
Размер потока : 1,76 Гбайт (94%)
Default : Да
Forced : Нет
Аудио
Идентификатор : 2
Формат : AC-3
Формат/Информация : Audio Coding 3
Коммерческое название : Dolby Digital
Идентификатор кодека : A_AC3
Продолжительность : 1 ч. 25 м.
Вид битрейта : Постоянный
Битрейт : 192 Кбит/сек
Каналы : 2 канала
Channel layout : L R
Частота : 48,0 КГц
Частота кадров : 31,250 кадров/сек (1536 SPF)
Метод сжатия : С потерями
Размер потока : 118 Мбайт (6%)
Service kind : Complete Main
Default : Да
Forced : Нет

admin

Post 28-Feb-2019 02:19

[Quote]

Информация о фильме
Название: Волки и Овцы: Ход свиньёй
Год выпуска: 2018
Жанр: Мультфильм, семейный, комедия, приключения
Режиссер: Владимир Николаев
В ролях: Елизавета Боярская, Максим Матвеев, Галина Корнева, Антон Юрьев, Алексей Сигаев, Даниил Эльдаров
О фильме: В спокойной и размеренной жизни объединенного городка волков и овец появляются неожиданные гости — песец и маленькая овечка. Никто не ожидал, что они принесут с собой смертельную опасность, преодолеть которую можно лишь всем вместе. Ведь только сообща решаются большие проблемы и серьезные задачи — в единстве сила!

Выпущено: Россия, Кинокомпания CTB, Wizart Animation
Продолжительность: 01:11:45
Перевод: Не требуется
Файл
Качество: WEB-DL 1080p
Контейнер: MKV
Видео: MPEG-4 AVC, 1920x804, 4724 kbps, 25.000 fps
Аудио: Русский: AC3, 6 ch, 384 kbps - iTunes
Субтитры: Нет

Скриншоты


MediaInfo

General
Unique ID : 253585526810830193784384340085470751855 (0xBEC6CBC3B1ECBE008C993AC2824D6C6F)
Complete name : Volki.Ovcy.Hod.Svinjey.2018.WEB-DL.1080p.BLUEBIRD.mkv
Format : Matroska
Format version : Version 4 / Version 2
File size : 2.61 GiB
Duration : 1 h 11 min
Overall bit rate : 5 212 kb/s
Movie name : Volki.Ovcy.Hod.Svinjey.2018.WEB-DL.1080p.BLUEBIRD
Encoded date : UTC 2019-02-26 14:33:58
Writing application : mkvmerge v6.9.1 ('Blue Panther') 32bit built on Apr 18 2014 18:15:44
Writing library : libebml v1.3.0 + libmatroska v1.4.1
Cover : Yes
Attachments : cover.png
Video
ID : 1
Format : AVC
Format/Info : Advanced Video Codec
Format profile : High@L4
Format settings, CABAC : Yes
Format settings, RefFrames : 5 frames
Codec ID : V_MPEG4/ISO/AVC
Duration : 1 h 11 min
Bit rate : 4 724 kb/s
Width : 1 920 pixels
Height : 804 pixels
Display aspect ratio : 2.40:1
Frame rate mode : Constant
Frame rate : 25.000 FPS
Color space : YUV
Chroma subsampling : 4:2:0
Bit depth : 8 bits
Scan type : Progressive
Bits/(Pixel*Frame) : 0.122
Stream size : 2.37 GiB (91%)
Title : Volki.Ovcy.Hod.Svinjey.2018.WEB-DL.1080p.BLUEBIRD
Language : English
Default : Yes
Forced : No
Color range : Limited
Color primaries : BT.709
Transfer characteristics : BT.709
Matrix coefficients : BT.709
Audio
ID : 2
Format : AC-3
Format/Info : Audio Coding 3
Format settings, Endianness : Big
Codec ID : A_AC3
Duration : 1 h 11 min
Bit rate mode : Constant
Bit rate : 384 kb/s
Channel(s) : 6 channels
Channel positions : Front: L C R, Side: L R, LFE
Sampling rate : 48.0 kHz
Frame rate : 31.250 FPS (1536 SPF)
Bit depth : 16 bits
Compression mode : Lossy
Stream size : 197 MiB (7%)
Title : DD 5.1 @ 384 kbps (iTunes)
Language : Russian
Service kind : Complete Main
Default : Yes
Forced : No
Menu
00:00:00.000 : en:Глава 1
00:04:54.960 : en:Глава 2
00:11:02.200 : en:Глава 3
00:16:08.080 : en:Глава 4
00:22:05.560 : en:Глава 5
00:26:49.200 : en:Глава 6
00:30:52.080 : en:Глава 7
00:34:50.320 : en:Глава 8
00:40:21.120 : en:Глава 9
00:45:29.760 : en:Глава 10
00:51:37.320 : en:Глава 11
00:56:52.720 : en:Глава 12
01:02:29.080 : en:Глава 13

admin

Post 10-Feb-2019 15:56

[Quote]

Название мультфильма: Два хвоста
Год выхода: 2018
Жанр: Мультфильм, детский
Режиссер: Наталья Нилова, Виктор Азеев
В ролях: Сергей Бурунов, Диомид Виноградов, Ирина Киреева
О фильме:
История о невероятных приключениях двух друзей — Кота Макса и Бобра Боба. Трудно найти более непохожих друг на друга героев! «Правильный» Боб стремится к тишине и покою, а непоседа Макс хочет стать знаменитым и прославиться на весь мир. И, тем не менее, именно этой парочке предстоит отразить нашествие инопланетных охотников за животными и прославиться на всю галактику! Вас ждут шутки, аттракционы и погони на летающих тарелках. Ключ на старт! Полетели!

Страна: Россия
Продолжительность: 01:14:25
Перевод: Не требуется | iTunes
Субтитры: Отсутствуют
Качество: WEB-DL 1080p
Формат: mkv
Видео кодек: AVC
Аудио кодек: AC3
Видео: 1920x1080, 23.976 fps, 4989 Кбит/с
Аудио: AC3, 384 Кбит/с, 6 ch, 48.0 KHz

M/I

General
Unique ID : 193208668468367618804466537709204329468 (0x915AA2D1AC0B2B959DF0AFE932C2D3FC)
Complete name : C:UsersDoMiNoDesktopDva.hvosta.2018.WEB.DL.1080p.iTunes_RGNEWMOWER.mkv
Format : Matroska
Format version : Version 4 / Version 2
File size : 2.85 GiB
Duration : 1 h 14 min
Overall bit rate : 5 482 kb/s
Encoded date : UTC 2018-07-03 20:38:17
Writing application : mkvmerge v24.0.0 ('Beyond The Pale') 64-bit
Writing library : libebml v1.3.6 + libmatroska v1.4.9
Video
ID : 2
Format : AVC
Format/Info : Advanced Video Codec
Format profile : High@L4
Format settings : CABAC / 4 Ref Frames
Format settings, CABAC : Yes
Format settings, ReFrames : 4 frames
Codec ID : V_MPEG4/ISO/AVC
Duration : 1 h 14 min
Bit rate : 4 989 kb/s
Width : 1 920 pixels
Height : 1 080 pixels
Display aspect ratio : 16:9
Frame rate mode : Constant
Frame rate : 24.000 FPS
Color space : YUV
Chroma subsampling : 4:2:0
Bit depth : 8 bits
Scan type : Progressive
Bits/(Pixel*Frame) : 0.100
Stream size : 2.60 GiB (91%)
Language : English
Default : Yes
Forced : No
Color range : Limited
Color primaries : BT.709
Transfer characteristics : BT.709
Matrix coefficients : BT.709
Audio
ID : 1
Format : AC-3
Format/Info : Audio Coding 3
Codec ID : A_AC3
Duration : 1 h 14 min
Bit rate mode : Constant
Bit rate : 384 kb/s
Channel(s) : 6 channels
Channel positions : Front: L C R, Side: L R, LFE
Sampling rate : 48.0 kHz
Frame rate : 31.250 FPS (1536 SPF)
Bit depth : 16 bits
Compression mode : Lossy
Delay relative to video : -42 ms
Stream size : 205 MiB (7%)
Language : Russian
Service kind : Complete Main
Default : Yes
Forced : No
Menu
00:00:00.000 : en:Глава 1
00:03:00.875 : en:Глава 2
00:11:49.250 : en:Глава 3
00:16:13.916 : en:Глава 4
00:22:17.916 : en:Глава 5
00:30:12.416 : en:Глава 6
00:36:35.791 : en:Глава 7
00:43:53.082 : en:Глава 8
00:51:04.165 : en:Глава 9
00:57:06.831 : en:Глава 10
01:05:52.081 : en:Глава 11

Скриншоты

admin

Post 29-Jan-2019 16:11

[Quote]

Информация о фильме
Название: Ну, погоди!
Год выхода: 1969-1986
Жанр: мультфильм, короткометражка
Режиссер: Вячеслав Котёночкин
В ролях: Клара Румянова, Анатолий Папанов, Геннадий Хазанов, Владимир Сошальский
О фильме: Веселые приключения неразлучной парочки — хулигана Волка и смышленого Зайца. Любимые с детства сцены погонь, ссор и примирений, шутки и мелодии.

Выпущено: Союзмультфильм
Продолжительность: 16 выпусков по ~ 10 мин.
Перевод: Оригинал (лицензия)
Файл
Кодек: x264
Качество: BDRip (источник: Blu-ray Disc)
Видео: 960x720 (4:3), 25 fps, 5200 kbps
Аудио: AC-3, 1 ch, 224 kbps

Скриншоты

Encoding settings

cabac=1 / ref=9 / deblock=1:0:0 / analyse=0x3:0x133 / me=tesa / subme=11 / psy=1 / psy_rd=1.00:0.00 / mixed_ref=1 / me_range=32 / chroma_me=1 / trellis=2 / 8x8dct=1 / cqm=0 / deadzone=21,11 / fast_pskip=0 / chroma_qp_offset=-2 / threads=12 / lookahead_threads=2 / sliced_threads=0 / nr=0 / decimate=1 / interlaced=0 / bluray_compat=0 / constrained_intra=0 / bframes=7 / b_pyramid=2 / b_adapt=2 / b_bias=0 / direct=3 / weightb=1 / open_gop=0 / weightp=2 / keyint=250 / keyint_min=25 / scenecut=40 / intra_refresh=0 / rc=2pass / mbtree=0 / ratetol=1.0 / qcomp=0.60 / qpmin=0 / qpmax=69 / qpstep=4 / cplxblur=20.0 / qblur=0.5 / ip_ratio=1.40 / pb_ratio=1.30 / aq=1:1.00

admin

Post 29-Jan-2019 15:53

[Quote]

Информация о фильме
Название: Возвращение блудного попугая. Выпуски 1-3
Год выпуска: 1984-1988
Жанр: Мультфильм
Страна: СССР
Продолжительность: 00:29:02
Режиссёры: Валентин Караваев (выпуски 1, 3), Александр Давыдов (выпуск 2)
Роли озвучивали:
Геннадий Хазанов (Кеша)
Маргарита Корабельникова (Вовка)
Зинаида Нарышкина (Ворона)
Вячеслав Невинный (Кот)
Описание: «Возвращение блудного попугая» — советский и российский мультипликационный сериал, созданный режиссёром Валентином Караваевым и сценаристом Александром Курляндским в 1984 году. Кеша живёт в квартире школьника Вовки, однако из-за своего вспыльчивого, заносчивого характера периодически сбегает на вольные хлеба и непременно попадает в неприятности, в конце концов возвращаясь к Вовке с повинной. Критики единодушно признают, что Кеша — не простой мультипликационный герой. Его характер детально прописан и изначально задуман таким образом, чтобы завоевать симпатии зрителей. При этом мультфильм больше любят и ценят взрослые, нежели дети. Курляндского называют «человеком потрясающей фантазии», а мультфильм «Возвращение блудного попугая» — творением «с нестареющим советским юмором и иронией», фильмом, который «достоин быть пересмотренным не один десяток раз».

Файл
Качество: BDRip 1080p
Формат: MKV
Видео кодек: H264
Аудио кодек: AC3
Видео: MPEG-4 AVC, 1472x1080, 9000 Kbps, 25.000 fps
Аудио: Dolby AC3, 48000 Hz, 6ch, 448 kbps

Список серий

1. Возвращение блудного попугая (1984)- 00:09:42
2. Возвращение блудного попугая (второй выпуск) (1987) - 00:09:46
3. Возвращение блудного попугая (третий выпуск) (1988) - 00:09:33

Скриншоты


MediaInfo

General
Unique ID : 230243598962314607921526162297240743675 (0xAD374DDE614D0B64B1B8F6B93360EEFB)
Complete name : F:Torrent 21984-1988.Vozvrat.blud.likko.KORSAR.mkv
Format : Matroska
Format version : Version 4 / Version 2
File size : 656 MiB
Duration : 9 min 42 s
Overall bit rate : 9 457 kb/s
Movie name : Возвращение блудного попугая 1984-1988
Encoded date : UTC 2017-02-24 21:59:27
Writing application : mkvmerge v8.3.0 ('Over the Horizon') 64bit
Writing library : libebml v1.3.1 + libmatroska v1.4.2
Video
ID : 1
Format : AVC
Format/Info : Advanced Video Codec
Format profile : High@L4.1
Format settings, CABAC : Yes
Format settings, ReFrames : 5 frames
Codec ID : V_MPEG4/ISO/AVC
Duration : 9 min 42 s
Bit rate : 9 000 kb/s
Width : 1 472 pixels
Height : 1 080 pixels
Display aspect ratio : 4:3
Frame rate mode : Constant
Frame rate : 25.000 FPS
Color space : YUV
Chroma subsampling : 4:2:0
Bit depth : 8 bits
Scan type : Progressive
Bits/(Pixel*Frame) : 0.226
Stream size : 625 MiB (95%)
Title : Возвращение блудного попугая 1984-1988
Writing library : x264 core 146 r2538 121396c
Encoding settings : cabac=1 / ref=5 / deblock=1:-1:-1 / analyse=0x3:0x133 / me=umh / subme=11 / psy=1 / psy_rd=1.03:0.00 / mixed_ref=1 / me_range=24 / chroma_me=1 / trellis=2 / 8x8dct=1 / cqm=0 / deadzone=21,11 / fast_pskip=0 / chroma_qp_offset=-2 / threads=12 / lookahead_threads=2 / sliced_threads=0 / nr=0 / decimate=1 / interlaced=0 / bluray_compat=0 / constrained_intra=0 / bframes=8 / b_pyramid=2 / b_adapt=2 / b_bias=0 / direct=3 / weightb=1 / open_gop=0 / weightp=2 / keyint=250 / keyint_min=25 / scenecut=40 / intra_refresh=0 / rc=2pass / mbtree=0 / bitrate=9000 / ratetol=1.0 / qcomp=0.60 / qpmin=0 / qpmax=69 / qpstep=4 / cplxblur=20.0 / qblur=0.5 / ip_ratio=1.40 / pb_ratio=1.30 / aq=2:1.00
Language : Russian
Default : Yes
Forced : No
Audio
ID : 2
Format : AC-3
Format/Info : Audio Coding 3
Mode extension : CM (complete main)
Format settings, Endianness : Big
Codec ID : A_AC3
Duration : 9 min 42 s
Bit rate mode : Constant
Bit rate : 448 kb/s
Channel(s) : 6 channels
Channel positions : Front: L C R, Side: L R, LFE
Sampling rate : 48.0 kHz
Frame rate : 31.250 FPS (1536 spf)
Bit depth : 16 bits
Compression mode : Lossy
Stream size : 31.1 MiB (5%)
Language : Russian
Default : Yes
Forced : No

admin

Post 29-Oct-2018 19:42

[Quote]

Оригинальное название: Маша и медведь: Вот как бывает
Год выпуска: 2018
Жанр: Мультфильм, короткометражка, комедия, семейный
Режиссер: Владислав Байрамгулов
В ролях: Варвара Саранцева, Борис Кутневич
Описание: Какому ребёнку понравится жить по правилам? Куда интереснее отправиться в весёлое приключение с новыми друзьями. Маша решает бросить прежнюю жизнь и…. пропадает! Найдёт ли её Мишка?
Выпущено: Россия, Студия "Анимаккорд"
Продолжительность: 00:07:16
Перевод: Не требуется
Язык: Русский
Автор рипа: Алехаndr
Файл
Качество: WEBRip 1080p
Видео: MPEG-4 AVC, 3471 Кбит/с, 1920x1080
Аудио: AC3, 2 ch, 192 Кбит/с

Скриншоты

admin

Post 10-Jul-2018 21:04

[Quote]

Информация о фильме
Название: Смешарики. Дежавю
Год выхода: 2018
Жанр: Мультфильм, комедия, приключения, семейный
Страна: Россия
Перевод: Не требуется
Продолжительность: 01:25:03
Режиссер: Денис Чернов
Роли дублировали: Павел Деревянко, Антон Виноградов, Сергей Мардарь, Михаил Черняк, Владимир Постников, Светлана Письмиченко, Вадим Бочанов, Михаил Хрусталёв и др.
О фильме: Крош решает устроить незабываемый день рождения Копатыча — он обращается в агентство «Дежавю», которое обещает своим клиентам удивительные путешествия во времени. Но из-за несоблюдения условий договора всех смешариков раскидывает во времени, а Крошу придется собирать друзей по разным эпохам в компании своего второго «Я» — повзрослевшего и ворчливого Шорка, появившегося из-за временного парадокса.

Файл
Качество: BDRip 720p
Видео: MPEG-4 AVC, 1280x536, 5000 kbps, 24,000 fps
Звук#1: русский, DTS 5.1, 48 kHz, 1509 kbps | Лицензия
Звук#2: русский, AC3 5.1, 48 kHz, 640 kbps | Лицензия
Субтитры: нет

MI

General
Уникальный идентификатор : 170631887725385151285861216577762277903 (0x805E819691E38893B8854867B3E6BA0F)
Полное имя : F:TorrentSmeshariki2018BDRip720.mkv
Формат : Matroska
Версия формата : Version 4 / Version 2
Размер файла : 4.25 GiB
Продолжительность : 1 h 25 min
Общий поток : 7 150 kb/s
Дата кодирования : UTC 2018-07-10 10:51:56
Программа кодирования : mkvmerge v9.5.0 ('Quiet Fire') 64bit
Библиотека кодирования : libebml v1.3.4 + libmatroska v1.4.5
Video
Идентификатор : 1
Формат : AVC
Формат/Информация : Advanced Video Codec
Профиль формата : High@L4.1
Настройки формата : CABAC / 9 Ref Frames
Параметр CABAC формата : Yes
Параметр RefFrames формата : 9 frames
Идентификатор кодека : V_MPEG4/ISO/AVC
Продолжительность : 1 h 25 min
Битрейт : 5 000 kb/s
Ширина : 1 280 pixels
Высота : 536 pixels
Соотношение сторон : 2.40:1
Режим частоты кадров : Constant
Частота кадров : 24.000 FPS
Цветовое пространство : YUV
Субдискретизация насыщенности : 4:2:0
Битовая глубина : 8 bits
Тип развёртки : Progressive
Бит/(Пиксели*Кадры) : 0.304
Размер потока : 2.97 GiB (70%)
Библиотека кодирования : x264 core 155 r2901M 7d0ff22
Настройки программы : cabac=1 / ref=9 / deblock=1:-3:-3 / analyse=0x3:0x133 / me=umh / subme=11 / psy=1 / psy_rd=1.00:0.00 / mixed_ref=1 / me_range=48 / chroma_me=1 / trellis=2 / 8x8dct=1 / cqm=0 / deadzone=21,11 / fast_pskip=0 / chroma_qp_offset=-2 / threads=9 / lookahead_threads=2 / sliced_threads=0 / nr=0 / decimate=0 / interlaced=0 / bluray_compat=0 / constrained_intra=0 / bframes=10 / b_pyramid=2 / b_adapt=2 / b_bias=0 / direct=3 / weightb=1 / open_gop=0 / weightp=2 / keyint=240 / keyint_min=24 / scenecut=40 / intra_refresh=0 / rc_lookahead=120 / rc=2pass / mbtree=0 / bitrate=5000 / ratetol=1.0 / qcomp=0.70 / qpmin=0 / qpmax=69 / qpstep=4 / cplxblur=20.0 / qblur=0.5 / vbv_maxrate=50000 / vbv_bufsize=62500 / nal_hrd=none / filler=0 / ip_ratio=1.40 / pb_ratio=1.30 / aq=3:0.80
Default : Yes
Forced : No
Цветовой диапазон : Limited
Основные цвета : BT.709
Характеристики трансфера : BT.709
Коэффициенты матрицы : BT.709
Audio #1
Идентификатор : 2
Формат : DTS
Формат/Информация : Digital Theater Systems
Идентификатор кодека : A_DTS
Продолжительность : 1 h 25 min
Вид битрейта : Constant
Битрейт : 1 509 kb/s
Каналы : 6 channels
Расположение каналов : Front: L C R, Side: L R, LFE
Частота : 48.0 kHz
Частота кадров : 93.750 FPS (512 SPF)
Битовая глубина : 24 bits
Метод сжатия : Lossy
Размер потока : 918 MiB (21%)
Язык : Russian
Default : Yes
Forced : No
Audio #2
Идентификатор : 3
Формат : AC-3
Формат/Информация : Audio Coding 3
Идентификатор кодека : A_AC3
Продолжительность : 1 h 25 min
Вид битрейта : Constant
Битрейт : 640 kb/s
Каналы : 6 channels
Расположение каналов : Front: L C R, Side: L R, LFE
Частота : 48.0 kHz
Частота кадров : 31.250 FPS (1536 SPF)
Битовая глубина : 16 bits
Метод сжатия : Lossy
Размер потока : 389 MiB (9%)
Язык : Russian
Default : No
Forced : No
Menu
00:00:00.000 : en:Chapter 1
00:01:04.166 : en:Chapter 2
00:09:00.750 : en:Chapter 3
00:20:01.500 : en:Chapter 4
00:30:27.458 : en:Chapter 5
00:41:08.791 : en:Chapter 6
00:51:13.041 : en:Chapter 7
01:00:43.375 : en:Chapter 8
01:10:59.208 : en:Chapter 9

Скриншоты


admin

Post 07-Jun-2018 07:15

[Quote]

Название: Простоквашино: Сезон дождей
Год выхода: 2018
Жанр: Мультфильм, семейный
Режиссер: Михаил Солошенко
Роли озвучивали: Антон Табаков, Юлия Меньшова, Иван Охлобыстин, Гарик Сукачёв, Алексей Онежен
О мультфильме: Казалось, никакие бури внешнего мира не смогут поколебать привычный и размеренный ход деревенской жизни Простоквашино. Время как будто застыло. Все так же каждое утро Матроскин дегустирует свежее молоко, полученное от своей любимицы — коровы Мурки. Все так же Шарик проводит время в окрестных лесах, «фотоохотясь» на редкую дичь. Правда, теперь он научился выкладывать фотографии своей добычи в интернет. И все так же, при каждой возможности, их навещает Дядя Федор. И тогда они весело и дружно проводят время своей мужской компанией. И когда им уже стало казаться, что так будет всегда, внезапно все изменилось с появлением одной маленькой девочки, родной сестры Дяди Фёдора. И имя этой девочки — Вера Павловна.

Производство: Россия / Союзмультфильм
Продолжительность: 00:06:29
Перевод: Не требуется
Субтитры: Отсутствуют
Файл
Формат: MKV
Качество: WEB-DL 1080р
Видео: MPEG-4 AVC, 5036 Кбит/с, 1920x1080
Аудио: 48 kHz, AC3 Dolby Digital, 2/0 (L,R) ch, ~192 kbps

MediaInfo

Общее
Уникальный идентификатор : 108648647852282464286894528482031511286 (0x51BCF7EB21F53418ED9473D1FAAD26F6)
Полное имя : Простоквашино “Сезон дождей“ - 3 серия.mkv
Формат : Matroska
Версия формата : Version 4 / Version 2
Размер файла : 243 Мбайт
Продолжительность : 6 м. 29 с.
Общий поток : 5229 Кбит/сек
Дата кодирования : UTC 2018-06-06 09:01:54
Программа кодирования : mkvmerge v23.0.0 ('The Bride Said No') 64-bit
Библиотека кодирования : libebml v1.3.6 + libmatroska v1.4.9
Видео
Идентификатор : 1
Формат : AVC
Формат/Информация : Advanced Video Codec
Профиль формата : Main@L5.1
Настройки формата : CABAC / 1 Ref Frames
Параметр CABAC формата : Да
Параметр RefFrames формата : 1 кадр
Идентификатор кодека : V_MPEG4/ISO/AVC
Продолжительность : 6 м. 29 с.
Битрейт : 5036 Кбит/сек
Ширина : 1920 пикселей
Высота : 1080 пикселей
Соотношение сторон : 16:9
Режим частоты кадров : Постоянный
Частота кадров : 25,000 кадров/сек
Цветовое пространство : YUV
Субдискретизация насыщенности : 4:2:0
Битовая глубина : 8 бит
Тип развёртки : Прогрессивная
Бит/(Пиксели*Кадры) : 0.097
Размер потока : 234 Мбайт (96%)
Default : Да
Forced : Нет
Аудио
Идентификатор : 2
Формат : AC-3
Формат/Информация : Audio Coding 3
Идентификатор кодека : A_AC3
Продолжительность : 6 м. 29 с.
Вид битрейта : Постоянный
Битрейт : 192 Кбит/сек
Каналы : 2 канала
Расположение каналов : Front: L R
Частота : 48,0 КГц
Частота кадров : 31,250 кадров/сек (1536 SPF)
Битовая глубина : 16 бит
Метод сжатия : С потерями
Размер потока : 8,93 Мбайт (4%)
Default : Да
Forced : Нет

Скриншоты

 

Current time is: 24-May 06:31

All times are UTC + 3