Search found 29 matches

Author Message

admin

Post 01-Jul-2019 19:48

[Quote]

Информация о фильме
Название: Большое путешествие
Год выпуска: 2019
Жанр: Мультфильм, комедия, приключения, семейный
Режиссер: Василий Ровенский, Наталья Нилова
В ролях: Дмитрий Назаров, Максим Галкин, Филипп Киркоров, Алексей Воробьёв, Татьяна Навка, Диомид Виноградов
О фильме: Однажды бестолковый аист из центра доставки детей перепутал адреса и вместо того, чтобы доставить малыша в семью панд, приносит его медведю по имени Мик-Мик. Мик-Мик во всём любит порядок и решает доставить малыша панду его родителям в южную часть Китая. В путешествие с ним увязывается непутёвый сосед заяц Оскар. По дороге они встречают хвастливого пеликана Дюка, трусливого волка Януса и романтичного тигра Амура.

Выпущено: Россия, США, Licensing Brands
Продолжительность: 01:20:21
Язык: Русский | iTunes
Файл
Качество: WEB-DL 1080p
Контейнер: MKV
Видео: MPEG-4 AVC, 1920x804, 4451 kbps, 25.000 fps
Аудио: Russian: AC3, 48.0 KHz, 6 ch, 384 kbps - iTunes
Субтитры: Нет

Скриншоты


MediaInfo

Общее
Уникальный идентификатор : 254223818142543242511661837893235420506 (0xBF41B9F4F04E6DFBADC46B9DF00CAD5A)
Полное имя : Bolishoe.puteshestvie.2019.WEB-DL.1080p.mkv
Формат : Matroska
Версия формата : Version 2
Размер файла : 2,77 Гбайт
Продолжительность : 1 ч. 20 м.
Общий поток : 4933 Кбит/сек
Дата кодирования : UTC 2019-06-26 00:16:39
Программа кодирования : mkvmerge v5.8.0 ('No Sleep / Pillow') built on Sep 2 2012 15:37:04
Библиотека кодирования : libebml v1.2.3 + libmatroska v1.3.0
Видео
Идентификатор : 1
Формат : AVC
Формат/Информация : Advanced Video Codec
Профиль формата : High@L4
Параметр CABAC формата : Да
Параметр RefFrames формата : 5 кадров
Параметр GOP формата : N=1
Идентификатор кодека : V_MPEG4/ISO/AVC
Продолжительность : 1 ч. 20 м.
Битрейт : 4451 Кбит/сек
Ширина : 1920 пикселей
Высота : 804 пикселя
Соотношение сторон : 2,40:1
Режим частоты кадров : Постоянный
Частота кадров : 25,000 кадров/сек
Цветовое пространство : YUV
Субдискретизация насыщенности : 4:2:0
Битовая глубина : 8 бит
Тип развёртки : Прогрессивная
Бит/(Пиксели*Кадры) : 0.115
Размер потока : 2,50 Гбайт (90%)
Заголовок : Bolishoe.puteshestvie.2019.WEB-DL.1080p
Язык : English
Default : Да
Forced : Нет
Цветовой диапазон : Limited
Основные цвета : BT.709
Характеристики трансфера : BT.709
Коэффициенты матрицы : BT.709
Аудио
Идентификатор : 2
Формат : AC-3
Формат/Информация : Audio Coding 3
Параметр Endianness формата : Big
Идентификатор кодека : A_AC3
Продолжительность : 1 ч. 20 м.
Вид битрейта : Постоянный
Битрейт : 384 Кбит/сек
Каналы : 6 каналов
Расположение каналов : Front: L C R, Side: L R, LFE
Частота : 48,0 КГц
Частота кадров : 31,250 кадров/сек (1536 SPF)
Битовая глубина : 16 бит
Метод сжатия : С потерями
Размер потока : 221 Мбайт (8%)
Заголовок : iTunes
Язык : Russian
Default : Да
Forced : Нет
Меню
00:00:00.000 : en:Глава 1
00:04:13.920 : en:Глава 2
00:11:27.920 : en:Глава 3
00:19:19.800 : en:Глава 4
00:24:41.200 : en:Глава 5
00:29:27.040 : en:Глава 6
00:38:44.480 : en:Глава 7
00:45:08.760 : en:Глава 8
00:49:43.680 : en:Глава 9
00:56:14.920 : en:Глава 10
01:02:21.320 : en:Глава 11
01:08:59.760 : en:Глава 12
01:13:23.840 : en:Глава 13

admin

Post 28-Feb-2019 02:19

[Quote]

Информация о фильме
Название: Волки и Овцы: Ход свиньёй
Год выпуска: 2018
Жанр: Мультфильм, семейный, комедия, приключения
Режиссер: Владимир Николаев
В ролях: Елизавета Боярская, Максим Матвеев, Галина Корнева, Антон Юрьев, Алексей Сигаев, Даниил Эльдаров
О фильме: В спокойной и размеренной жизни объединенного городка волков и овец появляются неожиданные гости — песец и маленькая овечка. Никто не ожидал, что они принесут с собой смертельную опасность, преодолеть которую можно лишь всем вместе. Ведь только сообща решаются большие проблемы и серьезные задачи — в единстве сила!

Выпущено: Россия, Кинокомпания CTB, Wizart Animation
Продолжительность: 01:11:45
Перевод: Не требуется
Файл
Качество: WEB-DL 1080p
Контейнер: MKV
Видео: MPEG-4 AVC, 1920x804, 4724 kbps, 25.000 fps
Аудио: Русский: AC3, 6 ch, 384 kbps - iTunes
Субтитры: Нет

Скриншоты


MediaInfo

General
Unique ID : 253585526810830193784384340085470751855 (0xBEC6CBC3B1ECBE008C993AC2824D6C6F)
Complete name : Volki.Ovcy.Hod.Svinjey.2018.WEB-DL.1080p.BLUEBIRD.mkv
Format : Matroska
Format version : Version 4 / Version 2
File size : 2.61 GiB
Duration : 1 h 11 min
Overall bit rate : 5 212 kb/s
Movie name : Volki.Ovcy.Hod.Svinjey.2018.WEB-DL.1080p.BLUEBIRD
Encoded date : UTC 2019-02-26 14:33:58
Writing application : mkvmerge v6.9.1 ('Blue Panther') 32bit built on Apr 18 2014 18:15:44
Writing library : libebml v1.3.0 + libmatroska v1.4.1
Cover : Yes
Attachments : cover.png
Video
ID : 1
Format : AVC
Format/Info : Advanced Video Codec
Format profile : High@L4
Format settings, CABAC : Yes
Format settings, RefFrames : 5 frames
Codec ID : V_MPEG4/ISO/AVC
Duration : 1 h 11 min
Bit rate : 4 724 kb/s
Width : 1 920 pixels
Height : 804 pixels
Display aspect ratio : 2.40:1
Frame rate mode : Constant
Frame rate : 25.000 FPS
Color space : YUV
Chroma subsampling : 4:2:0
Bit depth : 8 bits
Scan type : Progressive
Bits/(Pixel*Frame) : 0.122
Stream size : 2.37 GiB (91%)
Title : Volki.Ovcy.Hod.Svinjey.2018.WEB-DL.1080p.BLUEBIRD
Language : English
Default : Yes
Forced : No
Color range : Limited
Color primaries : BT.709
Transfer characteristics : BT.709
Matrix coefficients : BT.709
Audio
ID : 2
Format : AC-3
Format/Info : Audio Coding 3
Format settings, Endianness : Big
Codec ID : A_AC3
Duration : 1 h 11 min
Bit rate mode : Constant
Bit rate : 384 kb/s
Channel(s) : 6 channels
Channel positions : Front: L C R, Side: L R, LFE
Sampling rate : 48.0 kHz
Frame rate : 31.250 FPS (1536 SPF)
Bit depth : 16 bits
Compression mode : Lossy
Stream size : 197 MiB (7%)
Title : DD 5.1 @ 384 kbps (iTunes)
Language : Russian
Service kind : Complete Main
Default : Yes
Forced : No
Menu
00:00:00.000 : en:Глава 1
00:04:54.960 : en:Глава 2
00:11:02.200 : en:Глава 3
00:16:08.080 : en:Глава 4
00:22:05.560 : en:Глава 5
00:26:49.200 : en:Глава 6
00:30:52.080 : en:Глава 7
00:34:50.320 : en:Глава 8
00:40:21.120 : en:Глава 9
00:45:29.760 : en:Глава 10
00:51:37.320 : en:Глава 11
00:56:52.720 : en:Глава 12
01:02:29.080 : en:Глава 13

admin

Post 14-Feb-2019 01:13

[Quote]

Информация о фильме
Название: Снежная Королева: Зазеркалье
Год выпуска: 2018
Жанр: Мультфильм, приключения, семейный, фэнтези
Режиссер: Алексей Цицилин, Роберт Ленс
Роли озвучивали: Лина Иванова, Владимир Зайцев, Ольга Зубкова, Никита Прозоровский, Всеволод Кузнецов, Ляйсан Утяшева, Ирина Безрукова, Надежда Ангарская, Николай Быстров
Описание: Могущественный король Харальд чуть не потерял семью из-за Снежной Королевы. Он находит способ очистить мир от волшебства — все обладатели магических способностей отныне заточены в Зазеркалье. Остановить его и не дать сказке навсегда исчезнуть из нашего мира может только Герда. Ведь ее главная сила не в волшебстве, а вере в добро и дружбу. В новом приключении на помощь Герде придут тролли, пираты и даже сама Снежная Королева.

Страна: Россия
Студия: Централ Партнершип, Союзмультфильм, Wizart Animation
Продолжительность: 01:23:21
Перевод: Не требуется
Файл
Качество: WEB-DL 1080p
Формат: MKV
Видео: MPEG4 AVC Video, H264, 2.40:1, 1920x804, 25 fps, 4431 kbps, 0.115 bit/pixel
Аудио: Russian: AC3, 6 ch, 384 kbps, 16 bits, 48.0 KHz
Субтитры: Нет

MediaInfo

General
Unique ID : 252280967938961620990850562558635855258 (0xBDCB8C0BD0550268A62131D7AFF4CD9A)
Complete name : J:Снежная Королева. Зазеркалье 2018 WEB-DL 1080p.mkv
Format : Matroska
Format version : Version 4 / Version 2
File size : 2.86 GiB
Duration : 1 h 23 min
Overall bit rate : 4 913 kb/s
Encoded date : UTC 2019-02-13 01:44:30
Writing application : mkvmerge v6.1.0 ('Old Devil') built on Mar 2 2013 14:32:37
Writing library : libebml v1.3.0 + libmatroska v1.4.0
Video
ID : 1
Format : AVC
Format/Info : Advanced Video Codec
Format profile : High@L4
Format settings : CABAC / 5 Ref Frames
Format settings, CABAC : Yes
Format settings, ReFrames : 5 frames
Codec ID : V_MPEG4/ISO/AVC
Duration : 1 h 23 min
Bit rate : 4 431 kb/s
Width : 1 920 pixels
Height : 804 pixels
Display aspect ratio : 2.40:1
Frame rate mode : Constant
Frame rate : 25.000 FPS
Color space : YUV
Chroma subsampling : 4:2:0
Bit depth : 8 bits
Scan type : Progressive
Bits/(Pixel*Frame) : 0.115
Stream size : 2.58 GiB (90%)
Language : Russian
Default : Yes
Forced : No
Color range : Limited
Color primaries : BT.709
Transfer characteristics : BT.709
Matrix coefficients : BT.709
Audio
ID : 2
Format : AC-3
Format/Info : Audio Coding 3
Codec ID : A_AC3
Duration : 1 h 23 min
Bit rate mode : Constant
Bit rate : 384 kb/s
Channel(s) : 6 channels
Channel positions : Front: L C R, Side: L R, LFE
Sampling rate : 48.0 kHz
Frame rate : 31.250 FPS (1536 SPF)
Bit depth : 16 bits
Compression mode : Lossy
Stream size : 229 MiB (8%)
Language : Russian
Service kind : Complete Main
Default : Yes
Forced : No
Menu
00:00:00.000 : en:Глава 1
00:05:03.080 : en:Глава 2
00:09:57.400 : en:Глава 3
00:14:21.240 : en:Глава 4
00:19:11.960 : en:Глава 5
00:24:50.720 : en:Глава 6
00:29:49.640 : en:Глава 7
00:35:07.519 : en:Глава 8
00:41:00.359 : en:Глава 9
00:47:09.719 : en:Глава 10
00:52:03.119 : en:Глава 11
00:57:20.158 : en:Глава 12
01:01:07.598 : en:Глава 13
01:05:57.637 : en:Глава 14
01:11:37.156 : en:Глава 15

Скриншоты


admin

Post 10-Feb-2019 15:56

[Quote]

Название мультфильма: Два хвоста
Год выхода: 2018
Жанр: Мультфильм, детский
Режиссер: Наталья Нилова, Виктор Азеев
В ролях: Сергей Бурунов, Диомид Виноградов, Ирина Киреева
О фильме:
История о невероятных приключениях двух друзей — Кота Макса и Бобра Боба. Трудно найти более непохожих друг на друга героев! «Правильный» Боб стремится к тишине и покою, а непоседа Макс хочет стать знаменитым и прославиться на весь мир. И, тем не менее, именно этой парочке предстоит отразить нашествие инопланетных охотников за животными и прославиться на всю галактику! Вас ждут шутки, аттракционы и погони на летающих тарелках. Ключ на старт! Полетели!

Страна: Россия
Продолжительность: 01:14:25
Перевод: Не требуется | iTunes
Субтитры: Отсутствуют
Качество: WEB-DL 1080p
Формат: mkv
Видео кодек: AVC
Аудио кодек: AC3
Видео: 1920x1080, 23.976 fps, 4989 Кбит/с
Аудио: AC3, 384 Кбит/с, 6 ch, 48.0 KHz

M/I

General
Unique ID : 193208668468367618804466537709204329468 (0x915AA2D1AC0B2B959DF0AFE932C2D3FC)
Complete name : C:UsersDoMiNoDesktopDva.hvosta.2018.WEB.DL.1080p.iTunes_RGNEWMOWER.mkv
Format : Matroska
Format version : Version 4 / Version 2
File size : 2.85 GiB
Duration : 1 h 14 min
Overall bit rate : 5 482 kb/s
Encoded date : UTC 2018-07-03 20:38:17
Writing application : mkvmerge v24.0.0 ('Beyond The Pale') 64-bit
Writing library : libebml v1.3.6 + libmatroska v1.4.9
Video
ID : 2
Format : AVC
Format/Info : Advanced Video Codec
Format profile : High@L4
Format settings : CABAC / 4 Ref Frames
Format settings, CABAC : Yes
Format settings, ReFrames : 4 frames
Codec ID : V_MPEG4/ISO/AVC
Duration : 1 h 14 min
Bit rate : 4 989 kb/s
Width : 1 920 pixels
Height : 1 080 pixels
Display aspect ratio : 16:9
Frame rate mode : Constant
Frame rate : 24.000 FPS
Color space : YUV
Chroma subsampling : 4:2:0
Bit depth : 8 bits
Scan type : Progressive
Bits/(Pixel*Frame) : 0.100
Stream size : 2.60 GiB (91%)
Language : English
Default : Yes
Forced : No
Color range : Limited
Color primaries : BT.709
Transfer characteristics : BT.709
Matrix coefficients : BT.709
Audio
ID : 1
Format : AC-3
Format/Info : Audio Coding 3
Codec ID : A_AC3
Duration : 1 h 14 min
Bit rate mode : Constant
Bit rate : 384 kb/s
Channel(s) : 6 channels
Channel positions : Front: L C R, Side: L R, LFE
Sampling rate : 48.0 kHz
Frame rate : 31.250 FPS (1536 SPF)
Bit depth : 16 bits
Compression mode : Lossy
Delay relative to video : -42 ms
Stream size : 205 MiB (7%)
Language : Russian
Service kind : Complete Main
Default : Yes
Forced : No
Menu
00:00:00.000 : en:Глава 1
00:03:00.875 : en:Глава 2
00:11:49.250 : en:Глава 3
00:16:13.916 : en:Глава 4
00:22:17.916 : en:Глава 5
00:30:12.416 : en:Глава 6
00:36:35.791 : en:Глава 7
00:43:53.082 : en:Глава 8
00:51:04.165 : en:Глава 9
00:57:06.831 : en:Глава 10
01:05:52.081 : en:Глава 11

Скриншоты

admin

Post 06-Feb-2019 20:26

[Quote]

Информация о фильме
Оригинальное название: Три богатыря и Наследница престола
Год выпуска: 2018
Жанр: Мультфильм, приключения, семейный, детский, полнометражный
Режиссер: Константин Бронзит
В ролях: Михаил Черняк, Сергей Маковецкий, Дмитрий Быковский-Ромашов, Валерий Соловьёв, Олег Куликович, Дмитрий Высоцкий, Александр Боярский, Екатерина Гороховская, Юрий Тарасов, Юрий Кузнецов
Описание: Князь Киевский решил назначить наследника престола, только вот незадача — кто это может быть? Родственник, друг семьи или может быть, заморская принцесса? Недолго думая, Князь-батюшка выбирает почти принцессу, а главное родственницу — племянницу Забаву. Нынче она вместе со своим мужем Елисеем (помните верного ученика Добрыни Никитича?) получает образование в далеком Царьграде, где правит коварный Василевс. Чтобы вернуть наследницу на родные просторы за тридевять земель в спешном порядке отправляются три богатыря и, конечно же, главный придворный конь Юлий.
Выпущено: Россия, Кинокомпания CTB, Анимационная студия Мельница
Продолжительность: 01:21:10
Перевод: Не требуется [iTunes]
Файл
Формат:mkv
Качество: WEB-DL 720p
Видео: MPEG-4 AVC, 4200 Кбит/с, 1280х720
Аудио: АС3, 6 ch, 384 Кбит/с

Скриншоты

admin

Post 29-Jan-2019 16:11

[Quote]

Информация о фильме
Название: Ну, погоди!
Год выхода: 1969-1986
Жанр: мультфильм, короткометражка
Режиссер: Вячеслав Котёночкин
В ролях: Клара Румянова, Анатолий Папанов, Геннадий Хазанов, Владимир Сошальский
О фильме: Веселые приключения неразлучной парочки — хулигана Волка и смышленого Зайца. Любимые с детства сцены погонь, ссор и примирений, шутки и мелодии.

Выпущено: Союзмультфильм
Продолжительность: 16 выпусков по ~ 10 мин.
Перевод: Оригинал (лицензия)
Файл
Кодек: x264
Качество: BDRip (источник: Blu-ray Disc)
Видео: 960x720 (4:3), 25 fps, 5200 kbps
Аудио: AC-3, 1 ch, 224 kbps

Скриншоты

Encoding settings

cabac=1 / ref=9 / deblock=1:0:0 / analyse=0x3:0x133 / me=tesa / subme=11 / psy=1 / psy_rd=1.00:0.00 / mixed_ref=1 / me_range=32 / chroma_me=1 / trellis=2 / 8x8dct=1 / cqm=0 / deadzone=21,11 / fast_pskip=0 / chroma_qp_offset=-2 / threads=12 / lookahead_threads=2 / sliced_threads=0 / nr=0 / decimate=1 / interlaced=0 / bluray_compat=0 / constrained_intra=0 / bframes=7 / b_pyramid=2 / b_adapt=2 / b_bias=0 / direct=3 / weightb=1 / open_gop=0 / weightp=2 / keyint=250 / keyint_min=25 / scenecut=40 / intra_refresh=0 / rc=2pass / mbtree=0 / ratetol=1.0 / qcomp=0.60 / qpmin=0 / qpmax=69 / qpstep=4 / cplxblur=20.0 / qblur=0.5 / ip_ratio=1.40 / pb_ratio=1.30 / aq=1:1.00

admin

Post 29-Jan-2019 15:53

[Quote]

Информация о фильме
Название: Возвращение блудного попугая. Выпуски 1-3
Год выпуска: 1984-1988
Жанр: Мультфильм
Страна: СССР
Продолжительность: 00:29:02
Режиссёры: Валентин Караваев (выпуски 1, 3), Александр Давыдов (выпуск 2)
Роли озвучивали:
Геннадий Хазанов (Кеша)
Маргарита Корабельникова (Вовка)
Зинаида Нарышкина (Ворона)
Вячеслав Невинный (Кот)
Описание: «Возвращение блудного попугая» — советский и российский мультипликационный сериал, созданный режиссёром Валентином Караваевым и сценаристом Александром Курляндским в 1984 году. Кеша живёт в квартире школьника Вовки, однако из-за своего вспыльчивого, заносчивого характера периодически сбегает на вольные хлеба и непременно попадает в неприятности, в конце концов возвращаясь к Вовке с повинной. Критики единодушно признают, что Кеша — не простой мультипликационный герой. Его характер детально прописан и изначально задуман таким образом, чтобы завоевать симпатии зрителей. При этом мультфильм больше любят и ценят взрослые, нежели дети. Курляндского называют «человеком потрясающей фантазии», а мультфильм «Возвращение блудного попугая» — творением «с нестареющим советским юмором и иронией», фильмом, который «достоин быть пересмотренным не один десяток раз».

Файл
Качество: BDRip 1080p
Формат: MKV
Видео кодек: H264
Аудио кодек: AC3
Видео: MPEG-4 AVC, 1472x1080, 9000 Kbps, 25.000 fps
Аудио: Dolby AC3, 48000 Hz, 6ch, 448 kbps

Список серий

1. Возвращение блудного попугая (1984)- 00:09:42
2. Возвращение блудного попугая (второй выпуск) (1987) - 00:09:46
3. Возвращение блудного попугая (третий выпуск) (1988) - 00:09:33

Скриншоты


MediaInfo

General
Unique ID : 230243598962314607921526162297240743675 (0xAD374DDE614D0B64B1B8F6B93360EEFB)
Complete name : F:Torrent 21984-1988.Vozvrat.blud.likko.KORSAR.mkv
Format : Matroska
Format version : Version 4 / Version 2
File size : 656 MiB
Duration : 9 min 42 s
Overall bit rate : 9 457 kb/s
Movie name : Возвращение блудного попугая 1984-1988
Encoded date : UTC 2017-02-24 21:59:27
Writing application : mkvmerge v8.3.0 ('Over the Horizon') 64bit
Writing library : libebml v1.3.1 + libmatroska v1.4.2
Video
ID : 1
Format : AVC
Format/Info : Advanced Video Codec
Format profile : High@L4.1
Format settings, CABAC : Yes
Format settings, ReFrames : 5 frames
Codec ID : V_MPEG4/ISO/AVC
Duration : 9 min 42 s
Bit rate : 9 000 kb/s
Width : 1 472 pixels
Height : 1 080 pixels
Display aspect ratio : 4:3
Frame rate mode : Constant
Frame rate : 25.000 FPS
Color space : YUV
Chroma subsampling : 4:2:0
Bit depth : 8 bits
Scan type : Progressive
Bits/(Pixel*Frame) : 0.226
Stream size : 625 MiB (95%)
Title : Возвращение блудного попугая 1984-1988
Writing library : x264 core 146 r2538 121396c
Encoding settings : cabac=1 / ref=5 / deblock=1:-1:-1 / analyse=0x3:0x133 / me=umh / subme=11 / psy=1 / psy_rd=1.03:0.00 / mixed_ref=1 / me_range=24 / chroma_me=1 / trellis=2 / 8x8dct=1 / cqm=0 / deadzone=21,11 / fast_pskip=0 / chroma_qp_offset=-2 / threads=12 / lookahead_threads=2 / sliced_threads=0 / nr=0 / decimate=1 / interlaced=0 / bluray_compat=0 / constrained_intra=0 / bframes=8 / b_pyramid=2 / b_adapt=2 / b_bias=0 / direct=3 / weightb=1 / open_gop=0 / weightp=2 / keyint=250 / keyint_min=25 / scenecut=40 / intra_refresh=0 / rc=2pass / mbtree=0 / bitrate=9000 / ratetol=1.0 / qcomp=0.60 / qpmin=0 / qpmax=69 / qpstep=4 / cplxblur=20.0 / qblur=0.5 / ip_ratio=1.40 / pb_ratio=1.30 / aq=2:1.00
Language : Russian
Default : Yes
Forced : No
Audio
ID : 2
Format : AC-3
Format/Info : Audio Coding 3
Mode extension : CM (complete main)
Format settings, Endianness : Big
Codec ID : A_AC3
Duration : 9 min 42 s
Bit rate mode : Constant
Bit rate : 448 kb/s
Channel(s) : 6 channels
Channel positions : Front: L C R, Side: L R, LFE
Sampling rate : 48.0 kHz
Frame rate : 31.250 FPS (1536 spf)
Bit depth : 16 bits
Compression mode : Lossy
Stream size : 31.1 MiB (5%)
Language : Russian
Default : Yes
Forced : No

admin

Post 29-Jan-2019 15:28

[Quote]

Информация о фильме
Название: Простоквашино
Год выхода: 2018
Жанр: Мультфильм, семейный
Режиссер: Михаил Солошенко
В ролях: Антон Табаков, Юлия Меньшова, Иван Охлобыстин, Ольга Голованова, Андрей Тенетко, Гарик Сукачёв, Алексей Онежен
О фильме:
Казалось, никакие бури внешнего мира не смогут поколебать привычный и размеренный ход деревенской жизни Простоквашино. Время как будто застыло. Все так же каждое утро Матроскин дегустирует свежее молоко, полученное от своей любимицы — коровы Мурки. Все так же Шарик проводит время в окрестных лесах, «фотоохотясь» на редкую дичь. Правда, теперь он научился выкладывать фотографии своей добычи в интернет. И все так же, при каждой возможности, их навещает Дядя Федор. И тогда они весело и дружно проводят время своей мужской компанией. И когда им уже стало казаться, что так будет всегда, внезапно все изменилось с появлением одной маленькой девочки, родной сестры Дяди Фёдора. И имя этой девочки — Вера Павловна.

Страна: Россия
Продолжительность: 10 ~ 00:06:00
Перевод: Не требуется
Файл
Формат: MKV
Качество: WEB-DLRip 1080p
Видео: High@L4.1, ~4000 Кбит/с, 1920x1080
Аудио: 48 kHz, AC3 Dolby Digital, 2/0 (L,R) ch, ~192 kbps
***Релиз от: -=DoMiNo=-.--

Список серий:

Новые серии выходят 10 числа - каждого последующего месяца
01. Возвращение в Простоквашино - часть 1
02. Возвращение в Простоквашино - часть 2
03. Сезон дождей
04. Диета Матроскина
05. Шарик хочет телефон
06. Чудовище из Простоквашино
07. Ген героя
08. Ненастоящий детектив
09. Мама и Тама
10. Как бы не было зимы

Краткое содержание серий:

01. Возвращение в Простоквашино - часть 1
В Простоквашино что-то стряслось, неведомый зверь погрыз на ферме все провода. Дяде Фёдору нужно срочно ехать к Шарику и Матроскину. Только папа с мамой, кажется, его не слышат: они заняты Верой Павловной. Тем временем Шарик и Матроскин устраивают грызуну засаду…
02. Возвращение в Простоквашино - часть 2
В Простоквашино по-прежнему нет света. Дядя Фёдор решает вырабатывать собственное электричество, только для того, чтобы план сработал, нужен велосипед Почтальона Печкина. Тем временем в Простоквашино едут папа с мамой – они напуганы новым зверьком, который завёлся на ферме. Каким будет это знакомство?
03. Сезон дождей
В Простоквашино затянулись дожди. Ферма Матроскина снова под угрозой – коровы приуныли и не хотят давать молоко. Шарик предлагает их развеселить, только ничего не работает, пока… Пока простоквашинская ферма не превращается в Карибы! В этом старым друзьям помогает новый жилец – грызун Тама-Тама.
04. Диета Матроскина
Чтобы влезть в новую пижаму, Матроскин садится на диету. Друзья помогают ему похудеть, но безрезультатно, ведь Матроскин не желает менять свои привычки. Дядя Федор и Шарик растягивают пижаму Матроскина до нужного размера c помощью Гаврюши.
05. Шарик хочет телефон
Шарик решает прославить ферму Простоквашино, сняв "бактериальный" ролик для YouTube и в качестве награды ждет, что Матроскин купит ему новый телефон...
06. Чудовище из Простоквашино
В местно газете опубликовано объявление о розыске опасного животного, отдалённо напоминающего Таму-Таму, за информацию о месте нахождения которого объявлено вознаграждение. Почтальон Печкин не может упустить такую возможность и начинает розыск. Кто же такая Тама-Тама на самом деле...?
07. Ген героя
Однажды Шарик показал фотографию своего папы Деде Фёдору, который предположил, что папа был пожарным. Это очень вдохновило Шарика на подвиги, но оказалось, что почтальон Печкин знает о папе чуть больше. Как же это повлияет на его судьбу или судьбу всех жителей Простоквашино?

В чем ошибаются критикующие новое «Простоквашино»:

«Почему Вера Павловна, если папу зовут Дима?»
По словам креативного продюсера нового «Простоквашина» Алены Оятьевой, «Союзмультфильм» нигде не говорил о том, что этот мультсериал будет сделан по книгам Успенского. А имя Дмитрий встречается только в книгах, в мультфильме мама и папа по именам друг друга не называют. Девочка не подкидыш и не нагулена от «мужчины с большими усами», как думают многие. В этом мультфильме папу зовут Павел, поэтому она — Вера Павловна. А Дядя Федор соответственно — Федор Павлович.
И еще одно близкое к этому заблуждение. Вспоминая книги Успенского все в один голос утверждают: «Они были Дима и Римма Свекольниковы!». Но это не совсем так. В книге «Зима в Простоквашино» есть такой отрывок:
Цитата:
Песни сменялись гирями, гири — кадрилями, кадрили — художественным чтением. Маме дяди Фёдора было интересно и страшно.
И вот очередь дошла до неё. Ведущий программы, такой манекеноподобный гражданин Маслёнков, таким специально объявлятельным голосом говорит:
— Выступает продавец отдела женской галантереи и духов певица Римма Свекольникова.
(Мама из застенчивости свою первую фамилию назвала, ещё допапину.)
Выходит, что только мама была Свекольниковой, а потом-то фамилию поменяла. А на какую — тайна. Так что фамилии семьи Дяди Федора мы не знаем.
«Зачем все эти гаджеты, блоги и смайлики? У Успенского такого не было!»
У него и не то было! Например, в 1997 году вышла книга с названием «Новые порядки в Простоквашино», где были доллары, рэкет и приватизация. В 1999 году издали книгу «Дядя Фёдор идёт в школу, или Нэнси из Интернета в Простоквашино», где Печкину выписали по Интернету невесту-афроамериканку.
А в 2007-ом году вышла «Новая жизнь в Простоквашино» с папой на иномарке, производством мороженого и компьютером.
Так что «Простоквашино» осовременили еще давным-давно. Причем, сам автор.
«Совсем не тот Дядя Федор, что в нашем детстве»
И сюда же еще «не та озвучка». Но если в случае с голосами это чистая вкусовщина и синдром утенка, то про внешность Дяди Федора стоит уточнить — а какой тот? В одной только любимой всеми трилогии их было три разных. Лопоухий и краснощекий в «Трое из Простоквашино». С длинными волосами — в «Каникулах в Простоквашино». И уже с короткими волосами в «Зиме в Простоквашино». А еще же были и другие мультфильмы по книгам Успенского, где Дядя Федор тоже «совсем не тот».
Над разными сериями «Простоквашино» трудились разные мультипликаторы, и каждый рисовал мальчика по-своему, как и маму с ее бюстовыми изменениями.
Новое «Простоквашино» рисуют для современных детей, поэтому не нужно удивляться, что мальчика обули в кеды, подвернули ему джинсы и подстригли. К тому же создатели уверяют, что его внешность будет со временем меняться, следуя за тенденциями реальности.
«Компьютерная графика — уже не то, от руки как-то душевнее…»
Создатели уверяют, что новое «Простоквашино» и нарисовано от руки. Только вместо бумажного блокнота используется графический планшет. И никакой компьютерной графики.
«Это ж сколько лет прошло со времени прошлого „Простоквашино“, что у них столько техники возникло?»
Два года. Об этом говорили сами авторы. За это время Дядя Федор чуть подрос и появилась Вера Павловна. Почему за эти два года так скакнул технический прогресс — другой вопрос.
Это кинематографическая условность. Никого же не смущают разговаривающие животные?
Современным детям было бы неинтересно смотреть про 70−80-е годы. Только ностальгирующим взрослым. Малышам интересно видеть актуальные и насущные проблемы и типы поведения. И потому создатели немного ускорили развитие технологий.
«Ужас! Детям показывать не буду!»
Это личное дело каждого. Но вы можете поискать комментарии родителей, показавших мультик детям. Мы нашли минимум отзывов, что ребенку мультик не нравится. В большинстве случаев дети принимают его очень хорошо.

M/I

x264 info: frame I:124 Avg QP:10.32 size:301867
x264 info: frame P:2908 Avg QP:15.18 size: 40872
x264 info: frame B:6719 Avg QP:19.76 size: 5798
x264 info: consecutive B-frames: 7.7% 9.1% 13.6% 32.3% 17.4% 6.9% 4.0% 2.6% 6.4%
General
Unique ID : 228582203214546180295479515695067985824 (0xABF754BBEC80F609536BDE9A6B7C77A0)
Complete name : 04_Диета Матроскина_WEB_DLRIP.1080p_[-=DoMiNo=-].mkv
Format : Matroska
Format version : Version 4
File size : 195 MiB
Duration : 6 min 30 s
Overall bit rate : 4 201 kb/s
Attachments : poster.jpg
Language : und
Video
ID : 1
Format : AVC
Format/Info : Advanced Video Codec
Format profile : High@L4.1
Format settings : CABAC / 4 Ref Frames
Format settings, CABAC : Yes
Format settings, ReFrames : 4 frames
Codec ID : V_MPEG4/ISO/AVC
Duration : 6 min 30 s
Bit rate : 4 000 kb/s
Width : 1 920 pixels
Height : 1 080 pixels
Display aspect ratio : 16:9
Frame rate mode : Constant
Frame rate : 25.000 FPS
Color space : YUV
Chroma subsampling : 4:2:0
Bit depth : 8 bits
Scan type : Progressive
Bits/(Pixel*Frame) : 0.077
Stream size : 183 MiB (93%)
Title : RIP_BY_-=DoMiNo=-
Writing library : x264 core 155 r2901M 7d0ff22
Encoding settings : cabac=1 / ref=4 / deblock=1:-3:-3 / analyse=0x3:0x113 / me=umh / subme=11 / psy=1 / psy_rd=1.10:0.20 / mixed_ref=1 / me_range=32 / chroma_me=1 / trellis=2 / 8x8dct=1 / cqm=0 / deadzone=21,11 / fast_pskip=0 / chroma_qp_offset=-3 / threads=6 / lookahead_threads=1 / sliced_threads=0 / nr=0 / decimate=1 / interlaced=0 / bluray_compat=0 / constrained_intra=0 / bframes=8 / b_pyramid=2 / b_adapt=2 / b_bias=0 / direct=3 / weightb=1 / open_gop=0 / weightp=2 / keyint=250 / keyint_min=25 / scenecut=40 / intra_refresh=0 / rc_lookahead=40 / rc=2pass / mbtree=1 / bitrate=4000 / ratetol=1.0 / qcomp=0.70 / qpmin=0 / qpmax=69 / qpstep=4 / cplxblur=20.0 / qblur=0.5 / vbv_maxrate=50000 / vbv_bufsize=62500 / nal_hrd=none / filler=0 / ip_ratio=1.40 / aq=2:0.95
Default : Yes
Forced : No
Color range : Limited
Matrix coefficients : BT.709
Audio
ID : 2
Format : AC-3
Format/Info : Audio Coding 3
Commercial name : Dolby Digital
Codec ID : A_AC3
Duration : 6 min 30 s
Bit rate mode : Constant
Bit rate : 192 kb/s
Channel(s) : 2 channels
Channel layout : L R
Sampling rate : 48.0 kHz
Frame rate : 31.250 FPS (1536 SPF)
Bit depth : 16 bits
Compression mode : Lossy
Stream size : 8.93 MiB (5%)
Service kind : Complete Main
Default : Yes
Forced : No

Скриншоты

--

admin

Post 29-Jan-2019 15:19

[Quote]

Информация о фильме
Название: Трое из Простоквашино
Год выхода: 1978-1984
Жанр: мультфильм, короткометражка
Режиссер: Владимир Попов
В ролях: Мария Виноградова, Олег Табаков, Лев Дуров, Борис Новиков, Герман Качин, Валентина Талызина
О фильме: Жил-был мальчик по прозвищу Дядя Федор. Он очень любил животных, но его родители и слышать ничего не хотели о том, чтобы в их квартире завелся кто-то хвостатый и лохматый. И пришлось Дяде Федору со своими новыми приятелями — котом Матроскиным и верным песиком Шариком — отправиться в деревню Простоквашино.



Выпущено: Союзмультфильм
Продолжительность: 3 мульта по ~ 17 мин.
Перевод: Оригинал (лицензия)
Файл
Кодек: x264
Качество: BDRip (источник: Blu-ray Disc)
Видео: 952x720 (4:3), 25 fps, 3200 kbps
Аудио: AC-3, 6 ch, 448 kbps

Скриншоты

Encoding settings

cabac=1 / ref=9 / deblock=1:0:0 / analyse=0x3:0x133 / me=tesa / subme=11 / psy=1 / psy_rd=1.00:0.00 / mixed_ref=1 / me_range=32 / chroma_me=1 / trellis=2 / 8x8dct=1 / cqm=0 / deadzone=21,11 / fast_pskip=0 / chroma_qp_offset=-2 / threads=12 / lookahead_threads=2 / sliced_threads=0 / nr=0 / decimate=1 / interlaced=0 / bluray_compat=0 / constrained_intra=0 / bframes=9 / b_pyramid=2 / b_adapt=2 / b_bias=0 / direct=3 / weightb=1 / open_gop=0 / weightp=2 / keyint=250 / keyint_min=25 / scenecut=40 / intra_refresh=0 / rc=2pass / mbtree=0 / ratetol=1.0 / qcomp=0.60 / qpmin=0 / qpmax=69 / qpstep=4 / cplxblur=20.0 / qblur=0.5 / ip_ratio=1.40 / pb_ratio=1.30 / aq=1:1.00

admin

Post 29-Oct-2018 19:42

[Quote]

Оригинальное название: Маша и медведь: Вот как бывает
Год выпуска: 2018
Жанр: Мультфильм, короткометражка, комедия, семейный
Режиссер: Владислав Байрамгулов
В ролях: Варвара Саранцева, Борис Кутневич
Описание: Какому ребёнку понравится жить по правилам? Куда интереснее отправиться в весёлое приключение с новыми друзьями. Маша решает бросить прежнюю жизнь и…. пропадает! Найдёт ли её Мишка?
Выпущено: Россия, Студия "Анимаккорд"
Продолжительность: 00:07:16
Перевод: Не требуется
Язык: Русский
Автор рипа: Алехаndr
Файл
Качество: WEBRip 1080p
Видео: MPEG-4 AVC, 3471 Кбит/с, 1920x1080
Аудио: AC3, 2 ch, 192 Кбит/с

Скриншоты

admin

Post 11-Aug-2018 02:29

[Quote]

Информация о фильме
Название: Простоквашино
Год выхода: 2018
Жанр: Мультфильм, семейный
Режиссер: Михаил Солошенко
В ролях: Антон Табаков, Юлия Меньшова, Иван Охлобыстин, Ольга Голованова, Андрей Тенетко, Гарик Сукачёв, Алексей Онежен
О фильме:
Казалось, никакие бури внешнего мира не смогут поколебать привычный и размеренный ход деревенской жизни Простоквашино. Время как будто застыло. Все так же каждое утро Матроскин дегустирует свежее молоко, полученное от своей любимицы — коровы Мурки. Все так же Шарик проводит время в окрестных лесах, «фотоохотясь» на редкую дичь. Правда, теперь он научился выкладывать фотографии своей добычи в интернет. И все так же, при каждой возможности, их навещает Дядя Федор. И тогда они весело и дружно проводят время своей мужской компанией. И когда им уже стало казаться, что так будет всегда, внезапно все изменилось с появлением одной маленькой девочки, родной сестры Дяди Фёдора. И имя этой девочки — Вера Павловна.

Страна: Россия
Продолжительность: 5 ~ 00:06:00
Перевод: Не требуется
Файл
Формат: MKV
Качество: WEB-DLRip 720p
Видео: High@L4.1, ~2500 Кбит/с, 1280x720
Аудио: 48 kHz, AC3 Dolby Digital, 2/0 (L,R) ch, ~192 kbps--

Список серий:

01. Возвращение в Простоквашино - часть 1
02. Возвращение в Простоквашино - часть 2
03. Сезон дождей
04. Диета Матроскина
05. Шарик хочет телефон

M/I

x264 info:
x264 info: frame I:108 Avg QP:11.25 size:241704
x264 info: frame P:3132 Avg QP:16.84 size: 22613
x264 info: frame B:6507 Avg QP:21.68 size: 3877
x264 info: consecutive B-frames: 8.8% 7.7% 17.3% 45.7% 10.7% 3.3% 1.0% 1.7% 1.8% 0.9% 0.2% 0.5% 0.4%
General
Unique ID : 4604783132012294258489585055417142296 (0x376D9563CE3C763B319BF2CDE028C18)
Complete name : E:ВИДЕО_2Простоквашино (2018) WEB-DLRip_720p1_Простоквашино_WEB_DLRIP.720p_[-=DoMiNo=-].mkv
Format : Matroska
Format version : Version 4 / Version 2
File size : 125 MiB
Duration : 6 min 30 s
Overall bit rate : 2 695 kb/s
Writing application : XviD4PSP 7.0.452 DAILY
Writing library : Lavf57.71.100
ErrorDetectionType : Per level 1
Attachments : poster.jpg
ENCODING_INFO : MATROSKA,WEBM > MKV 720p / H264 > X264 VBR-2P 2500kbps Пользовательский / AC3 > COPY Безопасное
Language : und
Video
ID : 1
Format : AVC
Format/Info : Advanced Video Codec
Format profile : High@L4.1
Format settings : CABAC / 9 Ref Frames
Format settings, CABAC : Yes
Format settings, ReFrames : 9 frames
Codec ID : V_MPEG4/ISO/AVC
Duration : 6 min 30 s
Bit rate : 2 500 kb/s
Width : 1 280 pixels
Height : 720 pixels
Display aspect ratio : 16:9
Frame rate mode : Constant
Frame rate : 25.000 FPS
Color space : YUV
Chroma subsampling : 4:2:0
Bit depth : 8 bits
Scan type : Progressive
Bits/(Pixel*Frame) : 0.109
Stream size : 114 MiB (91%)
Title : RIP_BY_-=DoMiNo=-
Writing library : x264 core 155 r2901M 7d0ff22
Encoding settings : cabac=1 / ref=9 / deblock=1:0:0 / analyse=0x3:0x133 / me=umh / subme=11 / psy=1 / psy_rd=1.05:0.20 / mixed_ref=1 / me_range=32 / chroma_me=1 / trellis=2 / 8x8dct=1 / cqm=0 / deadzone=21,11 / fast_pskip=0 / chroma_qp_offset=-3 / threads=6 / lookahead_threads=1 / sliced_threads=0 / nr=0 / decimate=1 / interlaced=0 / bluray_compat=0 / constrained_intra=0 / bframes=12 / b_pyramid=2 / b_adapt=2 / b_bias=0 / direct=3 / weightb=1 / open_gop=0 / weightp=2 / keyint=250 / keyint_min=25 / scenecut=40 / intra_refresh=0 / rc_lookahead=50 / rc=2pass / mbtree=1 / bitrate=2500 / ratetol=1.0 / qcomp=0.65 / qpmin=0 / qpmax=69 / qpstep=4 / cplxblur=20.0 / qblur=0.5 / vbv_maxrate=50000 / vbv_bufsize=62500 / nal_hrd=none / filler=0 / ip_ratio=1.40 / aq=2:0.95
Default : Yes
Forced : No
Audio
ID : 2
Format : AC-3
Format/Info : Audio Coding 3
Codec ID : A_AC3
Duration : 6 min 30 s
Bit rate mode : Constant
Bit rate : 192 kb/s
Channel(s) : 2 channels
Channel positions : Front: L R
Sampling rate : 48.0 kHz
Frame rate : 31.250 FPS (1536 SPF)
Bit depth : 16 bits
Compression mode : Lossy
Stream size : 8.93 MiB (7%)
Language : Russian
Service kind : Complete Main
Default : Yes
Forced : No

Скриншоты

--

admin

Post 11-Jul-2018 22:00

[Quote]

Информация о фильме
Название: Садко
Год выхода: 2017
Жанр: комедия, семейный
Режиссер: Максим Волков, Виталий Мухаметзянов
В ролях: Тимур Гарипов, Любовь Аксенова, Екатерина Варнава, Мария Шалаева, Михаил Ефремов, Дмитрий Филимонов, Данис Галиуллин, Руслан Ронич, Анатолий Константинов, Диомид Виноградов
О фильме:
Хоть беги, хоть не беги, а от любви нигде не скрыться. Ни в палатах новгородского князя, ни на дне морском. Особенно, если зовут тебя Садко, и ты симпатичный веселый парень. К тому же, на гуслях играть мастак. Вот только за настоящую любовь еще и повоевать придется. Да не с кем-нибудь, а с подводной ведьмой Барракудой. Но любовь все равно победит. Вот увидите!

Страна: Россия
Студия: Кинокомпания СТВ, Анимационная студия Мельница
Продолжительность: 01:17:50
Перевод: не требуется
Файл
Кодек: H.264
Качество: WEB-DL 1080p
Видео: AVC, 1920x804 (2.40:1), 25 fps ~ 4540 Kbps
Звук: AC3, 48 KHz, 6 ch ~ 384 Kb/s
Субтитры: отсутствуют

MI:

Общее
Уникальный идентификатор : 222995541716978274534281071210798369729 (0xA7C3610E62BC536BB7E4C73F9011CBC1)
Полное имя : Q:TorFSadk0.2017.WEB-DL1080p.mkv
Формат : Matroska
Версия формата : Version 2
Размер файла : 2,73 Гбайт
Продолжительность : 1 ч. 17 м.
Общий поток : 5023 Кбит/сек
Название фильма : Садко 2017
Дата кодирования : UTC 2018-07-10 08:13:11
Программа кодирования : mkvmerge v7.6.0 ('Garden of Dreams') 32bit built on Feb 11 2015 00:18:47
Библиотека кодирования : libebml v1.3.1 + libmatroska v1.4.2
Видео
Идентификатор : 1
Формат : AVC
Формат/Информация : Advanced Video Codec
Профиль формата : High@L4.0
Параметр CABAC формата : Да
Параметр ReFrames формата : 5 кадров
Идентификатор кодека : V_MPEG4/ISO/AVC
Продолжительность : 1 ч. 17 м.
Битрейт : 4539 Кбит/сек
Ширина : 1920 пикселей
Высота : 804 пикселя
Соотношение сторон : 2,40:1
Частота кадров : 25,000 кадров/сек
Цветовое пространство : YUV
Субдискретизация насыщенности : 4:2:0
Битовая глубина : 8 бит
Тип развёртки : Прогрессивная
Бит/(Пиксели*Кадры) : 0.118
Размер потока : 2,47 Гбайт (90%)
Язык : English
Default : Да
Forced : Нет
Основные цвета : BT.709-5, BT.1361, IEC 61966-2-4, SMPTE RP177
Характеристики трансфера : BT.709-5, BT.1361
Коэффициенты матрицы : BT.709-5, BT.1361, IEC 61966-2-4 709, SMPTE RP177
Аудио
Идентификатор : 2
Формат : AC-3
Формат/Информация : Audio Coding 3
Расширение режима : CM (complete main)
Идентификатор кодека : A_AC3
Продолжительность : 1 ч. 17 м.
Вид битрейта : Постоянный
Битрейт : 384 Кбит/сек
Каналы : 6 каналов
Расположение каналов : Front: L C R, Side: L R, LFE
Частота : 48,0 КГц
Битовая глубина : 16 бит
Метод сжатия : С потерями
Задержка видео : -40 мс.
Размер потока : 214 Мбайт (8%)
Заголовок : iTunes
Язык : Russian
Default : Да
Forced : Нет
Меню
00:00:00.000 : en:Глава 1
00:03:48.120 : en:Глава 2
00:09:16.920 : en:Глава 3
00:15:20.040 : en:Глава 4
00:21:35.040 : en:Глава 5
00:27:05.560 : en:Глава 6
00:32:45.280 : en:Глава 7
00:38:49.280 : en:Глава 8
00:45:06.080 : en:Глава 9
00:51:28.040 : en:Глава 10
00:56:01.440 : en:Глава 11
01:01:33.000 : en:Глава 12
01:07:03.440 : en:Глава 13
СЭМПЛ

Скриншоты

admin

Post 10-Jul-2018 21:07

[Quote]

Информация о фильме
Название: Смешарики. Дежавю
Год выхода: 2018
Жанр: Мультфильм, комедия, приключения, семейный
Страна: Россия
Перевод: Не требуется
Продолжительность: 01:25:03
Режиссер: Денис Чернов
Роли дублировали: Павел Деревянко, Антон Виноградов, Сергей Мардарь, Михаил Черняк, Владимир Постников, Светлана Письмиченко, Вадим Бочанов, Михаил Хрусталёв и др.
О фильме: Крош решает устроить незабываемый день рождения Копатыча — он обращается в агентство «Дежавю», которое обещает своим клиентам удивительные путешествия во времени. Но из-за несоблюдения условий договора всех смешариков раскидывает во времени, а Крошу придется собирать друзей по разным эпохам в компании своего второго «Я» — повзрослевшего и ворчливого Шорка, появившегося из-за временного парадокса.

Файл
Качество: BDRip 1080p
Видео: MPEG-4 AVC, 1920x804, 9500 kbps, 24,000 fps
Звук#1: русский, DTS 5.1, 48 kHz, 1509 kbps | Лицензия
Звук#2: русский, AC3 5.1, 48 kHz, 640 kbps | Лицензия
Субтитры: нет

MI

General
Уникальный идентификатор : 177123166102170139173612193200711887833 (0x8540AE5259FCC351AE44F025CFCB6BD9)
Полное имя : F:TorrentSmeshariki2018BDRip1080p.mkv
Формат : Matroska
Версия формата : Version 4 / Version 2
Размер файла : 6.92 GiB
Продолжительность : 1 h 25 min
Общий поток : 11.6 Mb/s
Дата кодирования : UTC 2018-07-10 10:55:34
Программа кодирования : mkvmerge v9.5.0 ('Quiet Fire') 64bit
Библиотека кодирования : libebml v1.3.4 + libmatroska v1.4.5
Video
Идентификатор : 1
Формат : AVC
Формат/Информация : Advanced Video Codec
Профиль формата : High@L4.1
Настройки формата : CABAC / 5 Ref Frames
Параметр CABAC формата : Yes
Параметр RefFrames формата : 5 frames
Идентификатор кодека : V_MPEG4/ISO/AVC
Продолжительность : 1 h 25 min
Битрейт : 9 500 kb/s
Ширина : 1 920 pixels
Высота : 804 pixels
Соотношение сторон : 2.40:1
Режим частоты кадров : Constant
Частота кадров : 24.000 FPS
Цветовое пространство : YUV
Субдискретизация насыщенности : 4:2:0
Битовая глубина : 8 bits
Тип развёртки : Progressive
Бит/(Пиксели*Кадры) : 0.256
Размер потока : 5.64 GiB (82%)
Библиотека кодирования : x264 core 155 r2901M 7d0ff22
Настройки программы : cabac=1 / ref=5 / deblock=1:-3:-3 / analyse=0x3:0x113 / me=umh / subme=11 / psy=1 / psy_rd=1.00:0.00 / mixed_ref=1 / me_range=48 / chroma_me=1 / trellis=2 / 8x8dct=1 / cqm=0 / deadzone=21,11 / fast_pskip=0 / chroma_qp_offset=-2 / threads=9 / lookahead_threads=2 / sliced_threads=0 / nr=0 / decimate=0 / interlaced=0 / bluray_compat=0 / constrained_intra=0 / bframes=10 / b_pyramid=2 / b_adapt=2 / b_bias=0 / direct=3 / weightb=1 / open_gop=0 / weightp=2 / keyint=240 / keyint_min=24 / scenecut=40 / intra_refresh=0 / rc_lookahead=120 / rc=2pass / mbtree=0 / bitrate=9500 / ratetol=1.0 / qcomp=0.70 / qpmin=0 / qpmax=69 / qpstep=4 / cplxblur=20.0 / qblur=0.5 / vbv_maxrate=50000 / vbv_bufsize=62500 / nal_hrd=none / filler=0 / ip_ratio=1.40 / pb_ratio=1.30 / aq=3:0.80
Default : Yes
Forced : No
Цветовой диапазон : Limited
Основные цвета : BT.709
Характеристики трансфера : BT.709
Коэффициенты матрицы : BT.709
Audio #1
Идентификатор : 2
Формат : DTS
Формат/Информация : Digital Theater Systems
Идентификатор кодека : A_DTS
Продолжительность : 1 h 25 min
Вид битрейта : Constant
Битрейт : 1 509 kb/s
Каналы : 6 channels
Расположение каналов : Front: L C R, Side: L R, LFE
Частота : 48.0 kHz
Частота кадров : 93.750 FPS (512 SPF)
Битовая глубина : 24 bits
Метод сжатия : Lossy
Размер потока : 918 MiB (13%)
Язык : Russian
Default : Yes
Forced : No
Audio #2
Идентификатор : 3
Формат : AC-3
Формат/Информация : Audio Coding 3
Идентификатор кодека : A_AC3
Продолжительность : 1 h 25 min
Вид битрейта : Constant
Битрейт : 640 kb/s
Каналы : 6 channels
Расположение каналов : Front: L C R, Side: L R, LFE
Частота : 48.0 kHz
Частота кадров : 31.250 FPS (1536 SPF)
Битовая глубина : 16 bits
Метод сжатия : Lossy
Размер потока : 389 MiB (5%)
Язык : Russian
Default : No
Forced : No
Menu
00:00:00.000 : en:Chapter 1
00:01:04.166 : en:Chapter 2
00:09:00.750 : en:Chapter 3
00:20:01.500 : en:Chapter 4
00:30:27.458 : en:Chapter 5
00:41:08.791 : en:Chapter 6
00:51:13.041 : en:Chapter 7
01:00:43.375 : en:Chapter 8
01:10:59.208 : en:Chapter 9

Скриншоты


admin

Post 10-Jul-2018 21:04

[Quote]

Информация о фильме
Название: Смешарики. Дежавю
Год выхода: 2018
Жанр: Мультфильм, комедия, приключения, семейный
Страна: Россия
Перевод: Не требуется
Продолжительность: 01:25:03
Режиссер: Денис Чернов
Роли дублировали: Павел Деревянко, Антон Виноградов, Сергей Мардарь, Михаил Черняк, Владимир Постников, Светлана Письмиченко, Вадим Бочанов, Михаил Хрусталёв и др.
О фильме: Крош решает устроить незабываемый день рождения Копатыча — он обращается в агентство «Дежавю», которое обещает своим клиентам удивительные путешествия во времени. Но из-за несоблюдения условий договора всех смешариков раскидывает во времени, а Крошу придется собирать друзей по разным эпохам в компании своего второго «Я» — повзрослевшего и ворчливого Шорка, появившегося из-за временного парадокса.

Файл
Качество: BDRip 720p
Видео: MPEG-4 AVC, 1280x536, 5000 kbps, 24,000 fps
Звук#1: русский, DTS 5.1, 48 kHz, 1509 kbps | Лицензия
Звук#2: русский, AC3 5.1, 48 kHz, 640 kbps | Лицензия
Субтитры: нет

MI

General
Уникальный идентификатор : 170631887725385151285861216577762277903 (0x805E819691E38893B8854867B3E6BA0F)
Полное имя : F:TorrentSmeshariki2018BDRip720.mkv
Формат : Matroska
Версия формата : Version 4 / Version 2
Размер файла : 4.25 GiB
Продолжительность : 1 h 25 min
Общий поток : 7 150 kb/s
Дата кодирования : UTC 2018-07-10 10:51:56
Программа кодирования : mkvmerge v9.5.0 ('Quiet Fire') 64bit
Библиотека кодирования : libebml v1.3.4 + libmatroska v1.4.5
Video
Идентификатор : 1
Формат : AVC
Формат/Информация : Advanced Video Codec
Профиль формата : High@L4.1
Настройки формата : CABAC / 9 Ref Frames
Параметр CABAC формата : Yes
Параметр RefFrames формата : 9 frames
Идентификатор кодека : V_MPEG4/ISO/AVC
Продолжительность : 1 h 25 min
Битрейт : 5 000 kb/s
Ширина : 1 280 pixels
Высота : 536 pixels
Соотношение сторон : 2.40:1
Режим частоты кадров : Constant
Частота кадров : 24.000 FPS
Цветовое пространство : YUV
Субдискретизация насыщенности : 4:2:0
Битовая глубина : 8 bits
Тип развёртки : Progressive
Бит/(Пиксели*Кадры) : 0.304
Размер потока : 2.97 GiB (70%)
Библиотека кодирования : x264 core 155 r2901M 7d0ff22
Настройки программы : cabac=1 / ref=9 / deblock=1:-3:-3 / analyse=0x3:0x133 / me=umh / subme=11 / psy=1 / psy_rd=1.00:0.00 / mixed_ref=1 / me_range=48 / chroma_me=1 / trellis=2 / 8x8dct=1 / cqm=0 / deadzone=21,11 / fast_pskip=0 / chroma_qp_offset=-2 / threads=9 / lookahead_threads=2 / sliced_threads=0 / nr=0 / decimate=0 / interlaced=0 / bluray_compat=0 / constrained_intra=0 / bframes=10 / b_pyramid=2 / b_adapt=2 / b_bias=0 / direct=3 / weightb=1 / open_gop=0 / weightp=2 / keyint=240 / keyint_min=24 / scenecut=40 / intra_refresh=0 / rc_lookahead=120 / rc=2pass / mbtree=0 / bitrate=5000 / ratetol=1.0 / qcomp=0.70 / qpmin=0 / qpmax=69 / qpstep=4 / cplxblur=20.0 / qblur=0.5 / vbv_maxrate=50000 / vbv_bufsize=62500 / nal_hrd=none / filler=0 / ip_ratio=1.40 / pb_ratio=1.30 / aq=3:0.80
Default : Yes
Forced : No
Цветовой диапазон : Limited
Основные цвета : BT.709
Характеристики трансфера : BT.709
Коэффициенты матрицы : BT.709
Audio #1
Идентификатор : 2
Формат : DTS
Формат/Информация : Digital Theater Systems
Идентификатор кодека : A_DTS
Продолжительность : 1 h 25 min
Вид битрейта : Constant
Битрейт : 1 509 kb/s
Каналы : 6 channels
Расположение каналов : Front: L C R, Side: L R, LFE
Частота : 48.0 kHz
Частота кадров : 93.750 FPS (512 SPF)
Битовая глубина : 24 bits
Метод сжатия : Lossy
Размер потока : 918 MiB (21%)
Язык : Russian
Default : Yes
Forced : No
Audio #2
Идентификатор : 3
Формат : AC-3
Формат/Информация : Audio Coding 3
Идентификатор кодека : A_AC3
Продолжительность : 1 h 25 min
Вид битрейта : Constant
Битрейт : 640 kb/s
Каналы : 6 channels
Расположение каналов : Front: L C R, Side: L R, LFE
Частота : 48.0 kHz
Частота кадров : 31.250 FPS (1536 SPF)
Битовая глубина : 16 bits
Метод сжатия : Lossy
Размер потока : 389 MiB (9%)
Язык : Russian
Default : No
Forced : No
Menu
00:00:00.000 : en:Chapter 1
00:01:04.166 : en:Chapter 2
00:09:00.750 : en:Chapter 3
00:20:01.500 : en:Chapter 4
00:30:27.458 : en:Chapter 5
00:41:08.791 : en:Chapter 6
00:51:13.041 : en:Chapter 7
01:00:43.375 : en:Chapter 8
01:10:59.208 : en:Chapter 9

Скриншоты


admin

Post 09-Jul-2018 20:56

[Quote]

Оригинальное название: Маша и Медведь
Год выпуска: 2018
Жанр: Мультфильм, короткометражка, комедия, семейный
Режиссер: Владислав Байрамгулов
В ролях: Варвара Саранцева, Борис Кутневич
Описание: В гости к Мишке приезжает давний друг и привозит с собой удивительную игру – бильярд. Чем не повод повеселиться и посоревноваться? Однако всё не так просто, когда в игру вступает Маша, способная всё запутать и перевернуть с ног на голову. Кто же станет лучшем игроком в этом увлекательном соревновании?
Выпущено: Россия, Студия "Анимаккорд"
Продолжительность: 00:07:24
Перевод: Не требуется
Язык: Русский
Автор рипа: Алехаndr
Файл
Качество: WEB-DL 1080p
Видео: MPEG-4 AVC, 2201 Кбит/с, 1920x1080
Аудио: AC3, 2 ch, 192 Кбит/с

Скриншоты

 

Current time is: 14-Dec 00:37

All times are UTC + 3