Search found 64 matches

Author Message

admin

Post 18-Jan-2022 04:20

[Quote]

Этот дом / The House
Год выпуска: 2022
Выпущено: США, Великобритания
Жанр: Комедия, Триллер, Драма, Мультфильм
Режиссер: Ники Линдрот фон Бар / Niki Lindroth von Bahr, Emma de Swaef / Эмма де Свааф
В ролях: Мэттью Гуд, Хелена Бонем Картер, Миранда Ричардсон, Пол Кэй, Миа Гот, Уилл Шарп, Клоди Блейкли, Сьюзан Уокома, Марк Хип, Стефани Коул, Джарвис Кокер, Джейсон Барнетт, Свен Воллтер, Аеша Антуан, Дэвид Холт
О фильме: В этой мрачной анимационной комедии бедная семья, тревожный проектировщик и уставшая от жизни хозяйка сквозь эпохи оказываются связаны с одним таинственным домом.

Продолжительность: 01:37:16
Перевод: Профессиональный, дублированный (Невафильм по заказу Netflix)
Субтитры: Русские, английские, украинские
Фрмат: MKV
Качество: WEB-DL 1080p
Видео: MPEG-4 AVC, 4662 Кбит/с, 1920x1080
Аудио #1: AC3, 6 ch, 448 Кбит/с | RUS |
Аудио #2: E-AC3 JOC, 6 ch, 768 Кбит/с | ENG |

Скриншоты

-

MediaInfo

Общее
Уникальный идентификатор : 264121055991411608434229401896272530639 (0xC6B3DD7513B85FDE72C40D2700A80CCF)
Полное имя : E:TorrentsThe.House.2022.1080p_от New-Team.mkv
Формат : Matroska
Версия формата : Version 4
Размер файла : 3,99 Гбайт
Продолжительность : 1 ч. 37 м.
Режим общего битрейта : Переменный
Общий поток : 5 879 Кбит/сек
Название фильма : The.House.2022.1080p_от New-Team
Дата кодирования : UTC 2022-01-17 09:51:39
Программа кодирования : mkvmerge v59.0.0 ('Shining Star') 64-bit
Библиотека кодирования : libebml v1.4.2 + libmatroska v1.6.4
Видео
Идентификатор : 1
Формат : AVC
Формат/Информация : Advanced Video Codec
Профиль формата : High@L4
Настройки формата : CABAC / 4 Ref Frames
Параметр CABAC формата : Да
Параметр RefFrames формата : 4 кадра
Идентификатор кодека : V_MPEG4/ISO/AVC
Продолжительность : 1 ч. 37 м.
Вид битрейта : Переменный
Битрейт : 4 662 Кбит/сек
Максимальный битрейт : 20,0 Мбит/сек
Ширина : 1 920 пикселей
Высота : 1 080 пикселей
Соотношение сторон : 16:9
Режим частоты кадров : Постоянный
Частота кадров : 24,000 кадра/сек
Цветовое пространство : YUV
Субдискретизация насыщенности : 4:2:0
Битовая глубина : 8 бит
Тип развёртки : Прогрессивная
Бит/(Пиксели*Кадры) : 0.094
Размер потока : 3,17 Гбайт (79%)
Библиотека кодирования : x264 core 148 r2727 7d026e8
Настройки программы : cabac=1 / ref=4 / deblock=1:0:0 / analyse=0x3:0x111 / me=umh / subme=10 / psy=1 / psy_rd=1.00:0.00 / mixed_ref=1 / me_range=120 / chroma_me=1 / trellis=2 / 8x8dct=1 / cqm=0 / deadzone=21,11 / fast_pskip=1 / chroma_qp_offset=-2 / threads=8 / lookahead_threads=2 / sliced_threads=0 / nr=0 / decimate=1 / interlaced=0 / bluray_compat=0 / stitchable=1 / constrained_intra=0 / bframes=16 / b_pyramid=2 / b_adapt=2 / b_bias=0 / direct=3 / weightb=1 / open_gop=0 / weightp=2 / keyint=240 / keyint_min=121 / scenecut=0 / intra_refresh=0 / rc_lookahead=240 / rc=crf / mbtree=1 / crf=16.0 / qcomp=0.50 / qpmin=6 / qpmax=51 / qpstep=4 / vbv_maxrate=20000 / vbv_bufsize=25000 / crf_max=0.0 / nal_hrd=vbr / filler=0 / ip_ratio=1.40 / aq=1:0.80
Язык : English
Default : Да
Forced : Нет
Аудио #1
Идентификатор : 2
Формат : AC-3
Формат/Информация : Audio Coding 3
Коммерческое название : Dolby Digital
Идентификатор кодека : A_AC3
Продолжительность : 1 ч. 37 м.
Вид битрейта : Постоянный
Битрейт : 448 Кбит/сек
Каналы : 6 каналов
Channel layout : L R C LFE Ls Rs
Частота : 48,0 КГц
Частота кадров : 31,250 кадров/сек (1536 SPF)
Метод сжатия : С потерями
Размер потока : 312 Мбайт (8%)
Заголовок : [DUB] Невафильм
Язык : Russian
Service kind : Complete Main
Default : Да
Forced : Нет
Аудио #2
Идентификатор : 3
Формат : E-AC-3 JOC
Формат/Информация : Enhanced AC-3 with Joint Object Coding
Коммерческое название : Dolby Digital Plus with Dolby Atmos
Идентификатор кодека : A_EAC3
Продолжительность : 1 ч. 37 м.
Вид битрейта : Постоянный
Битрейт : 768 Кбит/сек
Каналы : 6 каналов
Channel layout : L R C LFE Ls Rs
Частота : 48,0 КГц
Частота кадров : 31,250 кадров/сек (1536 SPF)
Метод сжатия : С потерями
Размер потока : 534 Мбайт (13%)
Язык : English
Service kind : Complete Main
Default : Нет
Forced : Нет
Complexity index : 16
Number of dynamic objects : 15
Bed channel count : 1 канал
Bed channel configuration : LFE
Текст #1
Идентификатор : 4
Формат : UTF-8
Идентификатор кодека : S_TEXT/UTF8
Идентификатор кодека/Информация : UTF-8 Plain Text
Продолжительность : 1 ч. 35 м.
Битрейт : 58 бит/сек
Count of elements : 917
Размер потока : 40,9 Кбайт (0%)
Заголовок : Russian
Язык : Russian
Default : Нет
Forced : Нет
Текст #2
Идентификатор : 5
Формат : UTF-8
Идентификатор кодека : S_TEXT/UTF8
Идентификатор кодека/Информация : UTF-8 Plain Text
Продолжительность : 1 ч. 35 м.
Битрейт : 56 бит/сек
Count of elements : 1476
Размер потока : 39,7 Кбайт (0%)
Заголовок : English (SDH)
Язык : English
Default : Нет
Forced : Нет
Текст #3
Идентификатор : 6
Формат : UTF-8
Идентификатор кодека : S_TEXT/UTF8
Идентификатор кодека/Информация : UTF-8 Plain Text
Продолжительность : 1 ч. 35 м.
Битрейт : 60 бит/сек
Count of elements : 906
Размер потока : 42,5 Кбайт (0%)
Заголовок : Ukrainan
Язык : Ukrainian
Default : Нет
Forced : Нет

admin

Post 16-Jan-2022 05:20

[Quote]

Информация о фильме
Название: Риверданс: Анимационное Приключение
Оригинальное название: Riverdance: The Animated Adventure
Год выхода: 2021
Жанр: мультфильм, фэнтези
Режиссер: Имонн Батлер, Дэйв Розенбаум
В ролях: Брендан Глисон, Пирс Броснан, Жермен Фаулер, Лилли Сингх, Джон Кэвэна, Полин Маклин, Сэм Харди, Томас Лаппин, Дэнни МакКолган
О фильме:
Ирландский мальчик по имени Киган и испанская девочка по имени Мойа отправляются в мифический мир Мегалосеросов, чтобы научиться ценить Риверденс как праздник жизни. Вдохновленное сенсацией мировой сцены и новой музыкой лауреата Грэмми Билла Уилана, это зрелищное анимационное приключение, какого вы раньше не видели.

Выпущено: Великобритания, Ирландия / Aniventure, Cinesite, River Production
Продолжительность: 01:33:37
Озвучивание: Дублированное | Невафильм по заказу Netflix
Файл
Формат: MKV
Качество: WEB-DL 1080p
Видео: MPEG-4 AVC, 3393 Kb/s, 1920x1080
Аудио: Russian: AC3, 448 Kb/s (6 ch) / E-AC3, 640 Kb/s (6 ch), English: E-AC-3 JOC, 768 Kb/s (6 ch)
Субтитры: Russian (Forced, Full), English
Дополнительно: Нет

Инфо-файл:

Complete name : Riverdans.Animatsionnoe.Priklyuchenie.2021.NF.WEB-DL.1080p.ELEKTRI4KA.UNIONGANG.mkv
Format : Matroska
Format version : Version 4
File size : 3.43 GiB
Duration : 1 h 33 min
Overall bit rate mode : Variable
Overall bit rate : 5 251 kb/s
Encoded date : UTC 2022-01-14 15:49:01
Writing application : mkvmerge v8.3.0 ('Over the Horizon') 32bit
Writing library : libebml v1.3.1 + libmatroska v1.4.2
Video
ID : 1
Format : AVC
Format/Info : Advanced Video Codec
Format profile : Main@L4
Format settings : CABAC / 3 Ref Frames
Format settings, CABAC : Yes
Format settings, Reference frames : 3 frames
Codec ID : V_MPEG4/ISO/AVC
Duration : 1 h 33 min
Bit rate mode : Variable
Bit rate : 3 393 kb/s
Nominal bit rate : 2 566 kb/s
Maximum bit rate : 7 305 kb/s
Width : 1 920 pixels
Height : 1 080 pixels
Display aspect ratio : 16:9
Frame rate mode : Constant
Frame rate : 24.000 FPS
Color space : YUV
Chroma subsampling : 4:2:0
Bit depth : 8 bits
Scan type : Progressive
Bits/(Pixel*Frame) : 0.068
Stream size : 2.22 GiB (65%)
Writing library : x264 core 148 r2727 7d026e8
Encoding settings : cabac=1 / ref=3 / deblock=1:0:0 / analyse=0x1:0x111 / me=umh / subme=10 / psy=1 / psy_rd=1.00:0.00 / mixed_ref=1 / me_range=24 / chroma_me=1 / trellis=2 / 8x8dct=0 / cqm=0 / deadzone=21,11 / fast_pskip=1 / chroma_qp_offset=-2 / threads=8 / lookahead_threads=1 / sliced_threads=0 / nr=0 / decimate=1 / interlaced=0 / bluray_compat=0 / stitchable=1 / constrained_intra=0 / bframes=2 / b_pyramid=0 / b_adapt=2 / b_bias=0 / direct=3 / weightb=1 / open_gop=0 / weightp=2 / keyint=250 / keyint_min=24 / scenecut=0 / intra_refresh=0 / rc_lookahead=48 / rc=2pass / mbtree=1 / bitrate=2566 / ratetol=1.0 / qcomp=0.50 / qpmin=6 / qpmax=51 / qpstep=4 / cplxblur=20.0 / qblur=0.5 / vbv_maxrate=7305 / vbv_bufsize=9740 / nal_hrd=vbr / filler=0 / ip_ratio=1.40 / aq=1:1.00
Language : English
Default : Yes
Forced : No
Audio #1
ID : 2
Format : AC-3
Format/Info : Audio Coding 3
Commercial name : Dolby Digital
Codec ID : A_AC3
Duration : 1 h 33 min
Bit rate mode : Constant
Bit rate : 448 kb/s
Channel(s) : 6 channels
Channel layout : L R C LFE Ls Rs
Sampling rate : 48.0 kHz
Frame rate : 31.250 FPS (1536 SPF)
Compression mode : Lossy
Stream size : 300 MiB (9%)
Title : DUB AC3 (Nevafilm)
Language : Russian
Service kind : Complete Main
Default : Yes
Forced : Yes
Audio #2
ID : 3
Format : E-AC-3
Format/Info : Enhanced AC-3
Commercial name : Dolby Digital Plus
Codec ID : A_EAC3
Duration : 1 h 33 min
Bit rate mode : Constant
Bit rate : 640 kb/s
Channel(s) : 6 channels
Channel layout : L R C LFE Ls Rs
Sampling rate : 48.0 kHz
Frame rate : 31.250 FPS (1536 SPF)
Compression mode : Lossy
Stream size : 429 MiB (12%)
Title : DUB E-AC3 (Nevafilm)
Language : Russian
Service kind : Complete Main
Default : No
Forced : No
Audio #3
ID : 4
Format : E-AC-3 JOC
Format/Info : Enhanced AC-3 with Joint Object Coding
Commercial name : Dolby Digital Plus with Dolby Atmos
Codec ID : A_EAC3
Duration : 1 h 33 min
Bit rate mode : Constant
Bit rate : 768 kb/s
Channel(s) : 6 channels
Channel layout : L R C LFE Ls Rs
Sampling rate : 48.0 kHz
Frame rate : 31.250 FPS (1536 SPF)
Compression mode : Lossy
Stream size : 514 MiB (15%)
Language : English
Service kind : Complete Main
Default : No
Forced : No
Complexity index : 16
Number of dynamic objects : 15
Bed channel count : 1 channel
Bed channel configuration : LFE
Text #1
ID : 5
Format : UTF-8
Codec ID : S_TEXT/UTF8
Codec ID/Info : UTF-8 Plain Text
Duration : 1 h 29 min
Bit rate : 10 b/s
Count of elements : 165
Stream size : 6.98 KiB (0%)
Title : Forced
Language : Russian
Default : Yes
Forced : No
Text #2
ID : 6
Format : UTF-8
Codec ID : S_TEXT/UTF8
Codec ID/Info : UTF-8 Plain Text
Duration : 1 h 29 min
Bit rate : 61 b/s
Count of elements : 973
Stream size : 40.2 KiB (0%)
Title : Full
Language : Russian
Default : No
Forced : No
Text #3
ID : 7
Format : UTF-8
Codec ID : S_TEXT/UTF8
Codec ID/Info : UTF-8 Plain Text
Duration : 1 h 29 min
Bit rate : 52 b/s
Count of elements : 834
Stream size : 34.8 KiB (0%)
Language : Ukrainian
Default : No
Forced : No
Text #4
ID : 8
Format : UTF-8
Codec ID : S_TEXT/UTF8
Codec ID/Info : UTF-8 Plain Text
Duration : 1 h 26 min
Bit rate : 54 b/s
Count of elements : 1507
Stream size : 34.2 KiB (0%)
Title : SDH
Language : English
Default : No
Forced : No

Скриншоты

admin

Post 16-Jan-2022 05:20

[Quote]

Информация о фильме
Название: Риверданс: Анимационное приключение
Оригинальное название: Riverdance: The Animated Adventure
Год выхода: 2021
Жанр: Мультфильм, фэнтези
Режиссер: Имонн Батлер, Дэйв Розенбаум
Роли озвучивают: Пирс Броснан, Брендан Глисон, Лилли Сингх, Жермен Фаулер, Джон Кэвэна, Полин Маклин, Stephen Delahunty, Конор Драм, Сэм Харди, Hannah Herman
О фильме:
После горькой утраты ирландский мальчик Киган и его испанская подруга Мойя учатся справляться с опасностями и отчаянием, а в этом им помогут танцы и волшебные олени.

Страна: Великобритания, Ирландия
Студия: Cinesite, Comic Animations, River Production
Продолжительность: 01:33:37
Перевод: Профессиональный (полное дублирование) | Невафильм по заказу Netflix
Субтитры: Русские (форсированные, полные), украинские (полные), английские
Файл
Формат: Matroska
Качество: WEB-DL 720p
Видео: 1280x720 at 24.000 fps, x264@L4.1, ~2136 kbps
Аудио: AC3, 6 ch, ~448 kbps - | Русский |
Формат субтитров: softsub (SRT)

M/I

General
Unique ID : 205875520590897460353901937927735474540 (0x9AE22ED8943405FA45DBE8D9E983F96C)
Complete name : L:Riverdance.The.Animated.Adventure.2021.NF.DUB.WEB-DL.x264.720p.mkv
Format : Matroska
Format version : Version 4
File size : 1.69 GiB
Duration : 1 h 33 min
Overall bit rate mode : Variable
Overall bit rate : 2 586 kb/s
Movie name : -=DoMiNo=-
Encoded date : UTC 2022-01-15 08:47:24
Writing application : mkvmerge v64.0.0 ('Willows') 64-bit
Writing library : libebml v1.4.2 + libmatroska v1.6.4
Cover : Yes
Attachments : cover.jpg / cover 2.jpg
Video
ID : 1
Format : AVC
Format/Info : Advanced Video Codec
Format profile : Main@L3.1
Format settings : CABAC / 3 Ref Frames
Format settings, CABAC : Yes
Format settings, Reference : 3 frames
Codec ID : V_MPEG4/ISO/AVC
Duration : 1 h 33 min
Bit rate mode : Variable
Bit rate : 2 136 kb/s
Nominal bit rate : 1 571 kb/s
Maximum bit rate : 4 740 kb/s
Width : 1 280 pixels
Height : 720 pixels
Display aspect ratio : 16:9
Frame rate mode : Constant
Frame rate : 24.000 FPS
Color space : YUV
Chroma subsampling : 4:2:0
Bit depth : 8 bits
Scan type : Progressive
Bits/(Pixel*Frame) : 0.097
Stream size : 1.40 GiB (83%)
Writing library : x264 core 148 r2727 7d026e8
Encoding settings : cabac=1 / ref=3 / deblock=1:0:0 / analyse=0x1:0x111 / me=umh / subme=10 / psy=1 / psy_rd=1.00:0.00 / mixed_ref=1 / me_range=24 / chroma_me=1 / trellis=2 / 8x8dct=0 / cqm=0 / deadzone=21,11 / fast_pskip=1 / chroma_qp_offset=-2 / threads=8 / lookahead_threads=1 / sliced_threads=0 / nr=0 / decimate=1 / interlaced=0 / bluray_compat=0 / stitchable=1 / constrained_intra=0 / bframes=2 / b_pyramid=0 / b_adapt=2 / b_bias=0 / direct=3 / weightb=1 / open_gop=0 / weightp=2 / keyint=250 / keyint_min=24 / scenecut=0 / intra_refresh=0 / rc_lookahead=48 / rc=2pass / mbtree=1 / bitrate=1571 / ratetol=1.0 / qcomp=0.50 / qpmin=6 / qpmax=51 / qpstep=4 / cplxblur=20.0 / qblur=0.5 / vbv_maxrate=4740 / vbv_bufsize=6320 / nal_hrd=vbr / filler=0 / ip_ratio=1.40 / aq=1:1.00
Language : English
Default : Yes
Forced : No
Audio
ID : 2
Format : AC-3
Format/Info : Audio Coding 3
Commercial name : Dolby Digital
Codec ID : A_AC3
Duration : 1 h 33 min
Bit rate mode : Constant
Bit rate : 448 kb/s
Channel(s) : 6 channels
Channel layout : L R C LFE Ls Rs
Sampling rate : 48.0 kHz
Frame rate : 31.250 FPS (1536 SPF)
Compression mode : Lossy
Stream size : 300 MiB (17%)
Title : DUB
Language : Russian
Service kind : Complete Main
Default : Yes
Forced : No
Text #1
ID : 3
Format : UTF-8
Codec ID : S_TEXT/UTF8
Codec ID/Info : UTF-8 Plain Text
Duration : 1 h 29 min
Bit rate : 10 b/s
Count of elements : 165
Stream size : 6.98 KiB (0%)
Title : Forced
Language : Russian
Default : Yes
Forced : No
Text #2
ID : 4
Format : UTF-8
Codec ID : S_TEXT/UTF8
Codec ID/Info : UTF-8 Plain Text
Duration : 1 h 29 min
Bit rate : 61 b/s
Count of elements : 973
Stream size : 40.2 KiB (0%)
Language : Russian
Default : No
Forced : No
Text #3
ID : 5
Format : UTF-8
Codec ID : S_TEXT/UTF8
Codec ID/Info : UTF-8 Plain Text
Duration : 1 h 29 min
Bit rate : 52 b/s
Count of elements : 834
Stream size : 34.8 KiB (0%)
Language : Ukrainian
Default : No
Forced : No
Text #4
ID : 6
Format : UTF-8
Codec ID : S_TEXT/UTF8
Codec ID/Info : UTF-8 Plain Text
Duration : 1 h 26 min
Bit rate : 54 b/s
Count of elements : 1507
Stream size : 34.2 KiB (0%)
Title : English (SDH)
Language : English
Default : No
Forced : No

Скриншоты

admin

Post 15-Jan-2022 06:09

[Quote]

Информация о фильме
Название: Монстры на каникулах: Трансформания
Оригинальное название: Hotel Transylvania: Transformania
Год выхода: 2022
Жанр: Мультфильм, ужасы, фэнтези, комедия, приключения, семейный
Режиссер: Дерек Драймон, Дженнифер Клуска
В ролях: Брайан Халл, Энди Сэмберг, Селена Гомес, Кэтрин Хан, Стив Бушеми, Дэвид Спейд, Кигэн-Майкл Ки, Эшер Блинкофф, Брэд Эбрелл, Фрэн Дрешер

О фильме: Все смешалось в отеле «Трансильвания»: таинственное изобретение Ван Хельсинга, «монстрифицирующий луч», ломается и случайно превращает Дракулу и его приятелей в людей, а Джонни — наоборот, в монстра. Лишенные своих способностей и привычного облика Драк с друзьями и Джонни, с неожиданным удовольствием раскрывающий свою монстрическую сущность, отправляются в кругосветное путешествие на поиски средства от трансформании. И, конечно, им не обойтись без помощи Мэвис, пока не стало слишком поздно и они не свели друг друга с ума.
Страна: США
Студия: Columbia Pictures Corporation, Media Rights Capital, Sony Pictures Animation
Продолжительность: 01:27:31
Перевод: Дублированный | Amazon Prime Video
Качество: WEB-DL 1080p
Видео: MPEG-4 AVC, 1920x1040, 10.0 Mbit/s, 23.976 fps
Аудио #01: 48 kHz, E-AC3, 5.1, 640 Kbps | Дублированный | Amazon Prime Video | RUS |
Аудио #02: 48 kHz, AC3, 5.1, 640 Kbps | Дублированный | Amazon Prime Video | RUS |
Аудио #03: 48 kHz, E-AC3, 5.1, 640 Kbps | Оригинал | ENG |
Субтитры: Русские (Forced, full), украинские (Full), английские

Скриншоты

MI

General
Unique ID : 173653844312419686644600755056721852617 (0x82A4838D1C476AD796775D7C743CF8C9)
Complete name : E:VideoHotel.Transylvania.4.Transformania.2022.AMZN.WEB-DL.1080p.seleZen.mkv
Format : Matroska
Format version : Version 4
File size : 6.51 GiB
Duration : 1 h 27 min
Overall bit rate : 10.6 Mb/s
Movie name : Hotel Transylvania 4 Transformania 2022 from seleZen
Encoded date : UTC 2022-01-14 02:30:08
Writing application : mkvmerge v59.0.0 ('Shining Star') 64-bit
Writing library : libebml v1.4.2 + libmatroska v1.6.4
Video
ID : 1
Format : AVC
Format/Info : Advanced Video Codec
Format profile : High@L4
Format settings : CABAC / 4 Ref Frames
Format settings, CABAC : Yes
Format settings, Reference : 4 frames
Codec ID : V_MPEG4/ISO/AVC
Duration : 1 h 27 min
Bit rate mode : Constant
Bit rate : 8 720 kb/s
Nominal bit rate : 10 000 kb/s
Width : 1 920 pixels
Height : 1 040 pixels
Display aspect ratio : 1.85:1
Frame rate mode : Constant
Frame rate : 23.976 (24000/1001) FPS
Color space : YUV
Chroma subsampling : 4:2:0
Bit depth : 8 bits
Scan type : Progressive
Bits/(Pixel*Frame) : 0.182
Stream size : 5.33 GiB (82%)
Language : English
Default : Yes
Forced : No
Color range : Limited
Color primaries : BT.709
Transfer characteristics : BT.709
Matrix coefficients : BT.709
Audio #1
ID : 2
Format : E-AC-3
Format/Info : Enhanced AC-3
Commercial name : Dolby Digital Plus
Codec ID : A_EAC3
Duration : 1 h 27 min
Bit rate mode : Constant
Bit rate : 640 kb/s
Channel(s) : 6 channels
Channel layout : L R C LFE Ls Rs
Sampling rate : 48.0 kHz
Frame rate : 31.250 FPS (1536 SPF)
Compression mode : Lossy
Stream size : 401 MiB (6%)
Title : Dub
Language : Russian
Service kind : Complete Main
Default : Yes
Forced : Yes
Audio #2
ID : 3
Format : AC-3
Format/Info : Audio Coding 3
Commercial name : Dolby Digital
Codec ID : A_AC3
Duration : 1 h 27 min
Bit rate mode : Constant
Bit rate : 640 kb/s
Channel(s) : 6 channels
Channel layout : L R C LFE Ls Rs
Sampling rate : 48.0 kHz
Frame rate : 31.250 FPS (1536 SPF)
Compression mode : Lossy
Stream size : 401 MiB (6%)
Title : Dub
Language : Russian
Service kind : Complete Main
Default : No
Forced : No
Audio #3
ID : 4
Format : E-AC-3
Format/Info : Enhanced AC-3
Commercial name : Dolby Digital Plus
Codec ID : A_EAC3
Duration : 1 h 27 min
Bit rate mode : Constant
Bit rate : 640 kb/s
Channel(s) : 6 channels
Channel layout : L R C LFE Ls Rs
Sampling rate : 48.0 kHz
Frame rate : 31.250 FPS (1536 SPF)
Compression mode : Lossy
Stream size : 401 MiB (6%)
Title : Original
Language : English
Service kind : Complete Main
Default : No
Forced : No
Text #1
ID : 5
Format : UTF-8
Codec ID : S_TEXT/UTF8
Codec ID/Info : UTF-8 Plain Text
Duration : 1 h 25 min
Bit rate : 1 b/s
Count of elements : 20
Stream size : 787 Bytes (0%)
Title : Forced
Language : Russian
Default : Yes
Forced : Yes
Text #2
ID : 6
Format : UTF-8
Codec ID : S_TEXT/UTF8
Codec ID/Info : UTF-8 Plain Text
Duration : 1 h 26 min
Bit rate : 74 b/s
Count of elements : 1030
Stream size : 47.4 KiB (0%)
Title : Full
Language : Russian
Default : No
Forced : No
Text #3
ID : 7
Format : UTF-8
Codec ID : S_TEXT/UTF8
Codec ID/Info : UTF-8 Plain Text
Duration : 1 h 26 min
Bit rate : 73 b/s
Count of elements : 1029
Stream size : 46.7 KiB (0%)
Title : Full
Language : Ukrainian
Default : No
Forced : No
Text #4
ID : 8
Format : UTF-8
Codec ID : S_TEXT/UTF8
Codec ID/Info : UTF-8 Plain Text
Duration : 1 h 27 min
Bit rate : 61 b/s
Count of elements : 1749
Stream size : 39.1 KiB (0%)
Title : Full
Language : English
Default : No
Forced : No
Text #5
ID : 9
Format : UTF-8
Codec ID : S_TEXT/UTF8
Codec ID/Info : UTF-8 Plain Text
Duration : 1 h 27 min
Bit rate : 68 b/s
Count of elements : 1878
Stream size : 43.6 KiB (0%)
Title : SDH
Language : English
Default : No
Forced : No
Menu
00:00:00.000 : Amazon Original
00:00:06.000 : Studio Logo
00:00:39.000 : Scene 3
00:06:19.000 : Scene 4
00:09:44.000 : Scene 5
00:15:49.000 : Scene 6
00:18:10.000 : Scene 7
00:22:49.000 : Scene 8
00:26:39.000 : Scene 9
00:28:54.000 : Scene 10
00:31:21.000 : Scene 11
00:33:01.000 : Scene 12
00:34:11.000 : Scene 13
00:36:28.000 : Scene 14
00:37:07.000 : Scene 15
00:38:13.000 : Scene 16
00:40:54.000 : Scene 17
00:45:33.000 : Scene 18
00:47:15.000 : Scene 19
00:48:32.000 : Scene 20
00:51:44.000 : Scene 21
00:57:04.000 : Scene 22
01:05:33.000 : Scene 23
01:13:43.000 : Scene 24
01:17:02.000 : Scene 25
01:17:48.000 : End Credits

admin

Post 15-Jan-2022 06:07

[Quote]

Информация о фильме
Название: Монстры на каникулах: Трансформания
Оригинальное название: Hotel Transylvania: Transformania
Год выхода: 2022
Жанр: Мультфильм, ужасы, фэнтези, комедия, приключения, семейный
Режиссер: Дерек Драймон, Дженнифер Клуска
В ролях: Брайан Халл, Энди Сэмберг, Селена Гомес, Кэтрин Хан, Стив Бушеми, Дэвид Спейд, Кигэн-Майкл Ки, Эшер Блинкофф, Брэд Эбрелл, Фрэн Дрешер

О фильме: Все смешалось в отеле «Трансильвания»: таинственное изобретение Ван Хельсинга, «монстрифицирующий луч», ломается и случайно превращает Дракулу и его приятелей в людей, а Джонни — наоборот, в монстра. Лишенные своих способностей и привычного облика Драк с друзьями и Джонни, с неожиданным удовольствием раскрывающий свою монстрическую сущность, отправляются в кругосветное путешествие на поиски средства от трансформании. И, конечно, им не обойтись без помощи Мэвис, пока не стало слишком поздно и они не свели друг друга с ума.
Страна: США
Студия: Columbia Pictures Corporation, Media Rights Capital, Sony Pictures Animation
Продолжительность: 01:27:31
Перевод: Дублированный | Amazon Prime Video
Качество: WEB-DL 720p
Видео: MPEG-4 AVC, 1280x688, 4000 Кbit/s, 23.976 fps
Аудио #01: 48 kHz, E-AC3, 5.1, 640 Kbps | Дублированный | Amazon Prime Video | RUS |
Аудио #02: 48 kHz, AC3, 5.1, 640 Kbps | Дублированный | Amazon Prime Video | RUS |
Аудио #03: 48 kHz, E-AC3, 5.1, 640 Kbps | Оригинал | ENG |
Субтитры: Русские (Forced, full), украинские (Full), английские

Скриншоты

MI

General
Unique ID : 201591470557394674353225058603124276125 (0x97A91ADF2E0B5EBE6F53483F71023B9D)
Complete name : E:VideoHotel.Transylvania.4.Transformania.2022.AMZN.WEB-DL.720p.seleZen.mkv
Format : Matroska
Format version : Version 4
File size : 3.34 GiB
Duration : 1 h 27 min
Overall bit rate : 5 468 kb/s
Movie name : Hotel Transylvania 4 Transformania 2022 from seleZen
Encoded date : UTC 2022-01-14 03:39:44
Writing application : mkvmerge v59.0.0 ('Shining Star') 64-bit
Writing library : libebml v1.4.2 + libmatroska v1.6.4
Video
ID : 1
Format : AVC
Format/Info : Advanced Video Codec
Format profile : High@L3.1
Format settings : CABAC / 4 Ref Frames
Format settings, CABAC : Yes
Format settings, Reference : 4 frames
Codec ID : V_MPEG4/ISO/AVC
Duration : 1 h 27 min
Bit rate mode : Constant
Bit rate : 3 545 kb/s
Nominal bit rate : 4 000 kb/s
Width : 1 280 pixels
Height : 688 pixels
Display aspect ratio : 1.85:1
Frame rate mode : Constant
Frame rate : 23.976 (24000/1001) FPS
Color space : YUV
Chroma subsampling : 4:2:0
Bit depth : 8 bits
Scan type : Progressive
Bits/(Pixel*Frame) : 0.168
Stream size : 2.17 GiB (65%)
Language : English
Default : Yes
Forced : No
Color range : Limited
Color primaries : BT.709
Transfer characteristics : BT.709
Matrix coefficients : BT.709
Audio #1
ID : 2
Format : E-AC-3
Format/Info : Enhanced AC-3
Commercial name : Dolby Digital Plus
Codec ID : A_EAC3
Duration : 1 h 27 min
Bit rate mode : Constant
Bit rate : 640 kb/s
Channel(s) : 6 channels
Channel layout : L R C LFE Ls Rs
Sampling rate : 48.0 kHz
Frame rate : 31.250 FPS (1536 SPF)
Compression mode : Lossy
Stream size : 401 MiB (12%)
Title : Dub
Language : Russian
Service kind : Complete Main
Default : Yes
Forced : Yes
Audio #2
ID : 3
Format : AC-3
Format/Info : Audio Coding 3
Commercial name : Dolby Digital
Codec ID : A_AC3
Duration : 1 h 27 min
Bit rate mode : Constant
Bit rate : 640 kb/s
Channel(s) : 6 channels
Channel layout : L R C LFE Ls Rs
Sampling rate : 48.0 kHz
Frame rate : 31.250 FPS (1536 SPF)
Compression mode : Lossy
Stream size : 401 MiB (12%)
Title : Dub
Language : Russian
Service kind : Complete Main
Default : No
Forced : No
Audio #3
ID : 4
Format : E-AC-3
Format/Info : Enhanced AC-3
Commercial name : Dolby Digital Plus
Codec ID : A_EAC3
Duration : 1 h 27 min
Bit rate mode : Constant
Bit rate : 640 kb/s
Channel(s) : 6 channels
Channel layout : L R C LFE Ls Rs
Sampling rate : 48.0 kHz
Frame rate : 31.250 FPS (1536 SPF)
Compression mode : Lossy
Stream size : 401 MiB (12%)
Title : Original
Language : English
Service kind : Complete Main
Default : No
Forced : No
Text #1
ID : 5
Format : UTF-8
Codec ID : S_TEXT/UTF8
Codec ID/Info : UTF-8 Plain Text
Duration : 1 h 25 min
Bit rate : 1 b/s
Count of elements : 20
Stream size : 787 Bytes (0%)
Title : Forced
Language : Russian
Default : Yes
Forced : Yes
Text #2
ID : 6
Format : UTF-8
Codec ID : S_TEXT/UTF8
Codec ID/Info : UTF-8 Plain Text
Duration : 1 h 26 min
Bit rate : 74 b/s
Count of elements : 1030
Stream size : 47.4 KiB (0%)
Title : Full
Language : Russian
Default : No
Forced : No
Text #3
ID : 7
Format : UTF-8
Codec ID : S_TEXT/UTF8
Codec ID/Info : UTF-8 Plain Text
Duration : 1 h 26 min
Bit rate : 73 b/s
Count of elements : 1029
Stream size : 46.7 KiB (0%)
Title : Full
Language : Ukrainian
Default : No
Forced : No
Text #4
ID : 8
Format : UTF-8
Codec ID : S_TEXT/UTF8
Codec ID/Info : UTF-8 Plain Text
Duration : 1 h 27 min
Bit rate : 61 b/s
Count of elements : 1749
Stream size : 39.1 KiB (0%)
Title : Full
Language : English
Default : No
Forced : No
Text #5
ID : 9
Format : UTF-8
Codec ID : S_TEXT/UTF8
Codec ID/Info : UTF-8 Plain Text
Duration : 1 h 27 min
Bit rate : 68 b/s
Count of elements : 1878
Stream size : 43.6 KiB (0%)
Title : SDH
Language : English
Default : No
Forced : No
Menu
00:00:00.000 : Amazon Original
00:00:06.000 : Studio Logo
00:00:39.000 : Scene 3
00:06:19.000 : Scene 4
00:09:44.000 : Scene 5
00:15:49.000 : Scene 6
00:18:10.000 : Scene 7
00:22:49.000 : Scene 8
00:26:39.000 : Scene 9
00:28:54.000 : Scene 10
00:31:21.000 : Scene 11
00:33:01.000 : Scene 12
00:34:11.000 : Scene 13
00:36:28.000 : Scene 14
00:37:07.000 : Scene 15
00:38:13.000 : Scene 16
00:40:54.000 : Scene 17
00:45:33.000 : Scene 18
00:47:15.000 : Scene 19
00:48:32.000 : Scene 20
00:51:44.000 : Scene 21
00:57:04.000 : Scene 22
01:05:33.000 : Scene 23
01:13:43.000 : Scene 24
01:17:02.000 : Scene 25
01:17:48.000 : End Credits

admin

Post 12-Jan-2022 04:58

[Quote]

Зверопой 2 / Sing 2
Год выпуска: 2021
Выпущено: США, Япония, Франция
Жанр: Комедия, Фэнтези, Семейный, Приключения, Музыкальный, Мультфильм
Режиссер: Гарт Дженнингс / Garth Jennings, Кристоф Лурделе / Christophe Lourdelet
В ролях: Тори Келли, Риз Уизерспун, Тэрон Эджертон, Ник Кролл, Мэттью МакКонахи, Сет МакФарлейн, Гарт Дженнингс, Дженнифер Сондерс, Челси Перетти, Скарлетт Йоханссон, Бобби Каннавале, Ник Офферман, Адам Бакстон, Эрик Андре, Холзи
О фильме: Тяжело быть продюсером, когда ты коала и у тебя лапки. Еще сложнее, когда твоя верная помощница древнее печатной машинки. И совсем весело, когда твоя труппа — это танцующий без остановки пухляш, колючая девочка-панк, застенчивая школьница, верзила-гангстер и многодетная мама, чьи дети — поросята в прямом смысле слова. Рецепт успеха прост — рвануть в мировую столицу развлечений, завербовать легендарного рок-музыканта и взорвать сцену новым шоу.

Продолжительность: 01:49:48
Перевод: Профессиональный (многолосый, закадровый) Jaskier
Субтитры: английские
Фрмат: MKV
Качество: WEB-DL 1080p
Видео: MPEG-4 AVC, 6540 Кбит/с, 1918x1036
Аудио #1: AC3, 6 ch, 448 Кбит/с | RUS | Tnx.KinoPub
Аудио #2: E-AC3 JOC, 6 ch, 768 Кбит/с | ENG |

Скриншоты

-

MediaInfo

Общее
Уникальный идентификатор : 44426004756670829675828709333181893767 (0x216C23253E42B2B5E8A5370939278C87)
Полное имя : E:TorrentsSing.2.2021.1080p_от New-Team.mkv
Формат : Matroska
Версия формата : Version 4
Размер файла : 5,95 Гбайт
Продолжительность : 1 ч. 49 м.
Общий поток : 7 759 Кбит/сек
Название фильма : Sing.2.2021.1080p_от New-Team
Дата кодирования : UTC 2022-01-11 19:45:56
Программа кодирования : mkvmerge v59.0.0 ('Shining Star') 64-bit
Библиотека кодирования : libebml v1.4.2 + libmatroska v1.6.4
Видео
Идентификатор : 1
Формат : AVC
Формат/Информация : Advanced Video Codec
Профиль формата : High@L4
Настройки формата : CABAC / 4 Ref Frames
Параметр CABAC формата : Да
Параметр RefFrames формата : 4 кадра
Идентификатор кодека : V_MPEG4/ISO/AVC
Продолжительность : 1 ч. 49 м.
Битрейт : 6 540 Кбит/сек
Ширина : 1 918 пикселей
Высота : 1 036 пикселей
Соотношение сторон : 1,85:1
Режим частоты кадров : Постоянный
Частота кадров : 23,976 (24000/1001) кадра/сек
Цветовое пространство : YUV
Субдискретизация насыщенности : 4:2:0
Битовая глубина : 8 бит
Тип развёртки : Прогрессивная
Бит/(Пиксели*Кадры) : 0.137
Размер потока : 5,02 Гбайт (84%)
Default : Да
Forced : Нет
Цветовой диапазон : Limited
Основные цвета : BT.709
Характеристики трансфера : BT.709
Коэффициенты матрицы : BT.709
Аудио #1
Идентификатор : 2
Формат : AC-3
Формат/Информация : Audio Coding 3
Коммерческое название : Dolby Digital
Идентификатор кодека : A_AC3
Продолжительность : 1 ч. 49 м.
Вид битрейта : Постоянный
Битрейт : 448 Кбит/сек
Каналы : 6 каналов
Channel layout : L R C LFE Ls Rs
Частота : 48,0 КГц
Частота кадров : 31,250 кадров/сек (1536 SPF)
Метод сжатия : С потерями
Размер потока : 352 Мбайт (6%)
Заголовок : [MVO] Jaskier
Язык : Russian
Service kind : Complete Main
Default : Да
Forced : Нет
Аудио #2
Идентификатор : 3
Формат : E-AC-3 JOC
Формат/Информация : Enhanced AC-3 with Joint Object Coding
Коммерческое название : Dolby Digital Plus with Dolby Atmos
Идентификатор кодека : A_EAC3
Продолжительность : 1 ч. 49 м.
Вид битрейта : Постоянный
Битрейт : 768 Кбит/сек
Каналы : 6 каналов
Channel layout : L R C LFE Ls Rs
Частота : 48,0 КГц
Частота кадров : 31,250 кадров/сек (1536 SPF)
Метод сжатия : С потерями
Размер потока : 603 Мбайт (10%)
Заголовок : English
Язык : English
Service kind : Complete Main
Default : Нет
Forced : Нет
Complexity index : 16
Number of dynamic objects : 15
Bed channel count : 1 канал
Bed channel configuration : LFE
Текст #1
Идентификатор : 4
Формат : UTF-8
Идентификатор кодека : S_TEXT/UTF8
Идентификатор кодека/Информация : UTF-8 Plain Text
Продолжительность : 1 ч. 44 м.
Битрейт : 81 бит/сек
Count of elements : 2072
Размер потока : 62,1 Кбайт (0%)
Язык : English
Default : Нет
Forced : Нет
Текст #2
Идентификатор : 5
Формат : UTF-8
Идентификатор кодека : S_TEXT/UTF8
Идентификатор кодека/Информация : UTF-8 Plain Text
Продолжительность : 1 ч. 49 м.
Битрейт : 90 бит/сек
Count of elements : 2403
Размер потока : 72,4 Кбайт (0%)
Заголовок : SDH
Язык : English
Default : Нет
Forced : Нет

admin

Post 12-Jan-2022 04:37

[Quote]

Информация о фильме
Название: Барашек Шон: Полет перед Рождеством
Оригинальное название: Shaun the Sheep: The Flight Before Christmas
Год выхода: 2021
Жанр: Мультфильм, короткометражка, комедия, семейный
Режиссер: Steve Cox
В ролях: Бригсток, Кейт Харбор, Анна Леонг Брофи, Саймон Гринолл, Энди Найман, Эмма Тейт, Ричард Веббер
О фильме: Накануне Рождества вся ферма готовится к празднику. Барашку Шону и Тимми очень хочется заранее узнать, какие подарки они получат. Но их любопытство не доводит до добра — Тимми случайно оказывается в мешке с подарками. Теперь Шону нужно успеть до праздника вернуть друга обратно на ферму.

Выпущено: США / Aardman Animations
Продолжительность: 00:30:12
Перевод: не требуется (нет диалогов), субтитры (русские – на звуки) Netflix
Файл
Качество: WEB-DL 720p
Формат: MKV
Видео: MPEG-4 AVC/H.264, 3175 Кбит/сек, 1280x720
Аудио #1: Оригинал (Английский) AC3, 6 ch, 448 Кбит/сек
Аудио #2: Оригинал (Английский) E-AC3, 6 ch, 768 Кбит/сек
Субтитры: русские, английские (на звуки) [вшитые отключаемые]

MediaInfo:

Общее
Уникальный идентификатор : 51069153170937530563619074133559972195 (0x266B8FA66384808EF1C49A7B9DA59163)
Полное имя : F:1.ФИЛЬМЫ3. МУЛЬТФИЛЬМЫБарашек Шон Полет перед Рождеством Shaun the Sheep The Flight Before Christmas 2021Shaun the Sheep The Flight Before Christmas (2021) WEB-DL 720p.mkv
Формат : Matroska
Версия формата : Version 4
Размер файла : 949 Мбайт
Продолжительность : 30 м. 12 с.
Режим общего битрейта : Переменный
Общий поток : 4 392 Кбит/сек
Дата кодирования : UTC 2022-01-10 22:59:50
Программа кодирования : mkvmerge v64.0.0 ('Willows') 64-bit
Библиотека кодирования : libebml v1.4.2 + libmatroska v1.6.4
Видео
Идентификатор : 1
Формат : AVC
Формат/Информация : Advanced Video Codec
Профиль формата : High@L4.1
Настройки формата : CABAC / 2 Ref Frames
Параметр CABAC формата : Да
Параметр RefFrames формата : 2 кадра
Идентификатор кодека : V_MPEG4/ISO/AVC
Продолжительность : 30 м. 10 с.
Вид битрейта : Переменный
Битрейт : 3 175 Кбит/сек
Максимальный битрейт : 9 660 Кбит/сек
Ширина : 1 280 пикселей
Высота : 720 пикселей
Соотношение сторон : 16:9
Режим частоты кадров : Постоянный
Частота кадров : 25,000 кадров/сек
Цветовое пространство : YUV
Субдискретизация насыщенности : 4:2:0
Битовая глубина : 8 бит
Тип развёртки : Прогрессивная
Бит/(Пиксели*Кадры) : 0.138
Размер потока : 685 Мбайт (72%)
Заголовок : USA (Aardman Animations)
Язык : English
Default : Да
Forced : Нет
Цветовой диапазон : Limited
Основные цвета : BT.709
Характеристики трансфера : BT.709
Коэффициенты матрицы : BT.709
Аудио #1
Идентификатор : 2
Формат : AC-3
Формат/Информация : Audio Coding 3
Коммерческое название : Dolby Digital
Идентификатор кодека : A_AC3
Продолжительность : 30 м. 12 с.
Вид битрейта : Постоянный
Битрейт : 448 Кбит/сек
Каналы : 6 каналов
Channel layout : L R C LFE Ls Rs
Частота : 48,0 КГц
Частота кадров : 31,250 кадров/сек (1536 SPF)
Метод сжатия : С потерями
Размер потока : 96,8 Мбайт (10%)
Заголовок : Original (English)
Язык : zxx
Service kind : Complete Main
Default : Да
Forced : Нет
Аудио #2
Идентификатор : 3
Формат : E-AC-3 JOC
Формат/Информация : Enhanced AC-3 with Joint Object Coding
Коммерческое название : Dolby Digital Plus with Dolby Atmos
Идентификатор кодека : A_EAC3
Продолжительность : 30 м. 12 с.
Вид битрейта : Постоянный
Битрейт : 768 Кбит/сек
Каналы : 6 каналов
Channel layout : L R C LFE Ls Rs
Частота : 48,0 КГц
Частота кадров : 31,250 кадров/сек (1536 SPF)
Метод сжатия : С потерями
Размер потока : 166 Мбайт (17%)
Заголовок : Original (English)
Язык : zxx
Service kind : Complete Main
Default : Да
Forced : Нет
Complexity index : 16
Number of dynamic objects : 15
Bed channel count : 1 канал
Bed channel configuration : LFE
Текст #1
Идентификатор : 4
Формат : ASS
Идентификатор кодека : S_TEXT/ASS
Идентификатор кодека/Информация : Advanced Sub Station Alpha
Продолжительность : 29 м. 56 с.
Битрейт : 162 бит/сек
Count of elements : 721
Метод сжатия : Без потерь
Размер потока : 35,6 Кбайт (0%)
Язык : Russian
Default : Да
Forced : Нет
Текст #2
Идентификатор : 5
Формат : UTF-8
Идентификатор кодека : S_TEXT/UTF8
Идентификатор кодека/Информация : UTF-8 Plain Text
Продолжительность : 29 м. 56 с.
Битрейт : 52 бит/сек
Count of elements : 721
Размер потока : 11,5 Кбайт (0%)
Заголовок : English
Язык : English
Default : Нет
Forced : Нет
СЭМПЛ

admin

Post 06-Jan-2022 01:37

[Quote]

Информация о фильме
Название: Лига монстров
Оригинальное название: Rumble
Год выхода: 2021
Жанр: Мультфильм, фэнтези, комедия, приключения, семейный, спорт, полномтеражный
Режиссер: Хамиш Грив
В ролях: Уилл Арнетт, Терри Крюс, Джеральдин Вишванатан, Джо Аноаи, Тони Данза, Бен Шварц, Джимми Татро, Фред Меламед, Бриджет Эверетт, Карлос Гомес
О фильме:
В мире, где монстрический реслинг – обожаемый вид спорта, а монстры-спортсмены – настоящие звезды, девушка Винни мечтает пойти по стопам отца и начинает тренировать монстра-аутсайдера. Милашке-неудачнику предстоит пройти непростой путь под руководством юной, но суровой наставницы, чтобы стать чемпионом.

Страна: США, Австралия, Канада
Студия: Paramount Animation, Paramount Pictures, Reel FX Creative Studios, Walden Media, WWE Studios
Продолжительность: 01:34:53
Перевод: Дублированный | IVI
Примечание: Без рекламы
Цифровой релиз: 05 января 2022 года (IVI)
Файл
Формат: MKV
Качество: WEB-DL 1080p
Видео: MPEG-4 AVC, 7914 Кбит/с, 1920x800
Аудио #01: АС3, 2 ch, 192 Кбит/с | RUS
Аудио #02: E-AC3, 6 ch, 640 Кбит/с | ENG
Субтитры: Русские (полные), английские

Скриншоты

MI

Complete name : Liga.monstrov.2021.WEB-DL.1080p.ELEKTRI4KA.UNIONGANG.mkv
Format : Matroska
Format version : Version 4
File size : 5.80 GiB
Duration : 1 h 34 min
Overall bit rate : 8 748 kb/s
Movie name : Liga.monstrov.2021.WEB-DL.1080p.ELEKTRI4KA.UNIONGANG.
Encoded date : UTC 2022-01-05 12:34:17
Writing application : mkvmerge v8.3.0 ('Over the Horizon') 32bit
Writing library : libebml v1.3.1 + libmatroska v1.4.2
Video
ID : 1
Format : AVC
Format/Info : Advanced Video Codec
Format profile : High@L4
Format settings : CABAC / 4 Ref Frames
Format settings, CABAC : Yes
Format settings, Reference frames : 4 frames
Codec ID : V_MPEG4/ISO/AVC
Duration : 1 h 34 min
Bit rate mode : Constant
Bit rate : 7 914 kb/s
Nominal bit rate : 10 000 kb/s
Width : 1 920 pixels
Height : 800 pixels
Display aspect ratio : 2.40:1
Frame rate mode : Constant
Frame rate : 24.000 FPS
Color space : YUV
Chroma subsampling : 4:2:0
Bit depth : 8 bits
Scan type : Progressive
Bits/(Pixel*Frame) : 0.215
Stream size : 5.24 GiB (90%)
Default : Yes
Forced : No
Color range : Limited
Color primaries : BT.709
Transfer characteristics : BT.709
Matrix coefficients : BT.709
Audio #1
ID : 2
Format : AC-3
Format/Info : Audio Coding 3
Commercial name : Dolby Digital
Codec ID : A_AC3
Duration : 1 h 34 min
Bit rate mode : Constant
Bit rate : 192 kb/s
Channel(s) : 2 channels
Channel layout : L R
Sampling rate : 48.0 kHz
Frame rate : 31.250 FPS (1536 SPF)
Compression mode : Lossy
Stream size : 130 MiB (2%)
Title : DUB (IVI)
Language : Russian
Service kind : Complete Main
Default : Yes
Forced : Yes
Audio #2
ID : 3
Format : E-AC-3
Format/Info : Enhanced AC-3
Commercial name : Dolby Digital Plus
Codec ID : A_EAC3
Duration : 1 h 34 min
Bit rate mode : Constant
Bit rate : 640 kb/s
Channel(s) : 6 channels
Channel layout : L R C LFE Ls Rs
Sampling rate : 48.0 kHz
Frame rate : 31.250 FPS (1536 SPF)
Compression mode : Lossy
Stream size : 434 MiB (7%)
Title : Original
Language : English
Service kind : Complete Main
Default : No
Forced : No
Text #1
ID : 4
Format : UTF-8
Codec ID : S_TEXT/UTF8
Codec ID/Info : UTF-8 Plain Text
Duration : 1 h 27 min
Bit rate : 112 b/s
Count of elements : 1433
Stream size : 72.3 KiB (0%)
Title : Full
Language : Russian
Default : No
Forced : No
Text #2
ID : 5
Format : UTF-8
Codec ID : S_TEXT/UTF8
Codec ID/Info : UTF-8 Plain Text
Duration : 1 h 31 min
Bit rate : 83 b/s
Count of elements : 1633
Stream size : 55.8 KiB (0%)
Title : English
Language : English
Default : No
Forced : No

admin

Post 02-Jan-2022 01:29

[Quote]

Информация о фильме
Название: Приключения Пильи
Оригинальное название: Pil
Год выхода: 2021
Жанр: мультфильм, фэнтези, приключения
Режиссер: Жюльен Фурне
В ролях: Кэйси Чейз, Пол Борн, Жюльен Крампон, Пьер Тессьер, Готье Батту, Барбара Тиссье, Эммануэль Кюртиль, Энрике Карбальидо, Лоран Морель, Мартин Ирзенски
О фильме:
Пилья — озорная девчонка-сирота, живущая на улицах города Туманвиль. Однажды, чтобы не попасться стражам замка, она наряжается принцессой и оказывается втянута в невероятные приключения. Жестокий Тристан хочет захватить трон и с помощью магического зелья превращает принца Роланда в… котоцыпа (наполовину кота, наполовину курицу). Пилья — единственная, кто может спасти принца и все королевство. Вместе со своими немножко безумными помощниками — шутом, стражем и тремя ласками — Пилья отправляется на поиски противоядия. И, если все получится (а на пути их ждёт немало опасностей), они смогут обрести не только спасительное снадобье, но и дружную семью, которой у них никогда не было.

Выпущено: Франция / TAT Productions, SND Groupe M6, France 3 Cinéma
Продолжительность: 01:28:44
Озвучивание: Дублированное | КиноПоиск HD
Файл
Формат: MKV
Качество: WEB-DL 1080p
Видео: MPEG-4 AVC, 6000 Kb/s, 1920x804
Аудио: Russian: AC3, 448 Kb/s (6 ch) / Е-AC3, 448 Kb/s (6 ch)
Субтитры: Нет
Дополнительно: Нет

Инфо-файл:

Complete name : Priklyucheniya.Pili.2021.KP.WEB-DL.1080p.ELEKTRI4KA.UNIONGANG.mkv
Format : Matroska
Format version : Version 4
File size : 4.26 GiB
Duration : 1 h 28 min
Overall bit rate : 6 877 kb/s
Movie name : Priklyucheniya.Pili.2021.KP.WEB-DL.1080p.ELEKTRI4KA.UNIONGANG.
Encoded date : UTC 2022-01-01 01:19:44
Writing application : mkvmerge v63.0.0 ('Everything') 32-bit
Writing library : libebml v1.4.2 + libmatroska v1.6.4
Video
ID : 1
Format : AVC
Format/Info : Advanced Video Codec
Format profile : High@L4
Format settings : CABAC / 5 Ref Frames
Format settings, CABAC : Yes
Format settings, Reference frames : 5 frames
Codec ID : V_MPEG4/ISO/AVC
Duration : 1 h 28 min
Bit rate : 6 000 kb/s
Width : 1 920 pixels
Height : 804 pixels
Display aspect ratio : 2.40:1
Frame rate mode : Constant
Frame rate : 24.000 FPS
Color space : YUV
Chroma subsampling : 4:2:0
Bit depth : 8 bits
Scan type : Progressive
Bits/(Pixel*Frame) : 0.162
Stream size : 3.71 GiB (87%)
Writing library : x264 core 157
Encoding settings : cabac=1 / ref=5 / deblock=1:0:0 / analyse=0x3:0x133 / me=umh / subme=10 / psy=1 / psy_rd=1.00:0.00 / mixed_ref=1 / me_range=24 / chroma_me=1 / trellis=2 / 8x8dct=1 / cqm=0 / deadzone=21,11 / fast_pskip=1 / chroma_qp_offset=-2 / threads=25 / lookahead_threads=4 / sliced_threads=0 / nr=0 / decimate=1 / interlaced=0 / bluray_compat=0 / constrained_intra=0 / bframes=8 / b_pyramid=2 / b_adapt=2 / b_bias=0 / direct=3 / weightb=1 / open_gop=0 / weightp=2 / keyint=192 / keyint_min=96 / scenecut=40 / intra_refresh=0 / rc_lookahead=60 / rc=2pass / mbtree=1 / bitrate=6000 / ratetol=1.0 / qcomp=0.60 / qpmin=0 / qpmax=69 / qpstep=4 / cplxblur=20.0 / qblur=0.5 / vbv_maxrate=6600 / vbv_bufsize=9000 / nal_hrd=none / filler=0 / ip_ratio=1.40 / aq=1:1.00
Default : Yes
Forced : No
Audio #1
ID : 2
Format : AC-3
Format/Info : Audio Coding 3
Commercial name : Dolby Digital
Codec ID : A_AC3
Duration : 1 h 28 min
Bit rate mode : Constant
Bit rate : 448 kb/s
Channel(s) : 6 channels
Channel layout : L R C LFE Ls Rs
Sampling rate : 48.0 kHz
Frame rate : 31.250 FPS (1536 SPF)
Compression mode : Lossy
Stream size : 284 MiB (7%)
Title : Original AC3 (KinoPoisk HD)
Language : Russian
Service kind : Complete Main
Default : Yes
Forced : Yes
Audio #2
ID : 3
Format : E-AC-3
Format/Info : Enhanced AC-3
Commercial name : Dolby Digital Plus
Codec ID : A_EAC3
Duration : 1 h 28 min
Bit rate mode : Constant
Bit rate : 448 kb/s
Channel(s) : 6 channels
Channel layout : L R C LFE Ls Rs
Sampling rate : 48.0 kHz
Frame rate : 31.250 FPS (1536 SPF)
Compression mode : Lossy
Stream size : 284 MiB (7%)
Title : Original AC3 (KinoPoisk HD)
Language : Russian
Service kind : Complete Main
Default : No
Forced : No

Скриншоты

admin

Post 11-Dec-2021 03:40

[Quote]

Информация о фильме
Название: Дорога домой
Оригинальное название: Back to the Outback
Год выхода: 2021
Жанр: мультфильм, комедия, приключения, семейный
Режиссер: Гарри Криппс, Клер Де Шеню
В ролях: Джеки Уивер, Рэйчел Хаус, Айла Фишер, Гай Пирс, Уэйн Найт, Эрик Бана, Дизель Ла Торрака, Тим Минчин, Джиа Каридес, Энгус Имри

О фильме: Самые опасные животные Австралии устали быть запертыми в террариуме под взглядами любопытных посетителей. Они совершают побег, чтобы вернуться на природу и жить свободно. Бунт возглавляет ядовитая змея Мэдди, ее первый помощник — ящерица Зои, «шипастый дьявол», в компанию также входят волосатый паук Фрэнк и скорпион Найджел. В последний момент к ним присоединяется и коала Красавчик, хотя с ним друзья не в ладах и брать его с собой никто не собирался. Так начинается жуткое и веселое путешествие по Австралии.
Страна: Австралия, США
Студия: Netflix Animation, Reel FX Creative Studios, Weed Road Pictures
Продолжительность: 01:35:41
Перевод: Дублированный | Netflix
Качество: WEB-DL 1080p
Видео: MPEG-4 AVC, 1920x1080, 4051 Kbit/s, 24.000 fps
Аудио #01: 48 kHz, E-AC3, 5.1, 640 Kbps | Дублированный | Netflix | RUS |
Аудио #02: 48 kHz, AC3, 5.1, 640 Kbps | Дублированный | Netflix | RUS |
Аудио #03: 48 kHz, E-AC3, 5.1, 640 Kbps | Дублированный | Netflix | UKR |
Аудио #04: 48 kHz, E-AC3+Atmos, 5.1, 768 Kbps | Оригинал | ENG |
Субтитры: Русские (Forced, full), украинские (Forced, Full), английские

Скриншоты

MI

General
Unique ID : 208385269814867830605244564918404741617 (0x9CC58B094B4A51EF9AC6FD3AF31D79F1)
Complete name : D:VideoBack.to.the.Outback.2021.NF.WEB-DL1080p.seleZen.mkv
Format : Matroska
Format version : Version 4
File size : 4.08 GiB
Duration : 1 h 35 min
Overall bit rate mode : Variable
Overall bit rate : 6 103 kb/s
Movie name : Back to the Outback 2021 from seleZen
Encoded date : UTC 2021-12-10 09:05:21
Writing application : mkvmerge v59.0.0 ('Shining Star') 64-bit
Writing library : libebml v1.4.2 + libmatroska v1.6.4
Video
ID : 1
Format : AVC
Format/Info : Advanced Video Codec
Format profile : Main@L4
Format settings : CABAC / 3 Ref Frames
Format settings, CABAC : Yes
Format settings, Reference : 3 frames
Codec ID : V_MPEG4/ISO/AVC
Duration : 1 h 35 min
Bit rate mode : Variable
Bit rate : 3 411 kb/s
Nominal bit rate : 4 051 kb/s
Maximum bit rate : 6 960 kb/s
Width : 1 920 pixels
Height : 1 080 pixels
Display aspect ratio : 16:9
Frame rate mode : Constant
Frame rate : 24.000 FPS
Color space : YUV
Chroma subsampling : 4:2:0
Bit depth : 8 bits
Scan type : Progressive
Bits/(Pixel*Frame) : 0.069
Stream size : 2.28 GiB (56%)
Writing library : x264 core 148 r2724 dbe0335
Encoding settings : cabac=1 / ref=3 / deblock=1:0:0 / analyse=0x1:0x111 / me=umh / subme=10 / psy=1 / psy_rd=1.00:0.00 / mixed_ref=1 / me_range=24 / chroma_me=1 / trellis=2 / 8x8dct=0 / cqm=0 / deadzone=21,11 / fast_pskip=1 / chroma_qp_offset=-2 / threads=8 / lookahead_threads=1 / sliced_threads=0 / nr=0 / decimate=1 / interlaced=0 / bluray_compat=0 / stitchable=1 / constrained_intra=0 / bframes=2 / b_pyramid=0 / b_adapt=2 / b_bias=0 / direct=3 / weightb=1 / open_gop=0 / weightp=2 / keyint=250 / keyint_min=24 / scenecut=0 / intra_refresh=0 / rc_lookahead=48 / rc=2pass / mbtree=1 / bitrate=4051 / ratetol=1.0 / qcomp=0.50 / qpmin=6 / qpmax=51 / qpstep=4 / cplxblur=20.0 / qblur=0.5 / vbv_maxrate=6960 / vbv_bufsize=9280 / nal_hrd=vbr / filler=0 / ip_ratio=1.40 / aq=1:1.00
Language : English
Default : Yes
Forced : No
Audio #1
ID : 2
Format : E-AC-3
Format/Info : Enhanced AC-3
Commercial name : Dolby Digital Plus
Codec ID : A_EAC3
Duration : 1 h 35 min
Bit rate mode : Constant
Bit rate : 640 kb/s
Channel(s) : 6 channels
Channel layout : L R C LFE Ls Rs
Sampling rate : 48.0 kHz
Frame rate : 31.250 FPS (1536 SPF)
Compression mode : Lossy
Stream size : 438 MiB (10%)
Title : Dub [Netflix]
Language : Russian
Service kind : Complete Main
Default : Yes
Forced : Yes
Audio #2
ID : 3
Format : AC-3
Format/Info : Audio Coding 3
Commercial name : Dolby Digital
Codec ID : A_AC3
Duration : 1 h 35 min
Bit rate mode : Constant
Bit rate : 640 kb/s
Channel(s) : 6 channels
Channel layout : L R C LFE Ls Rs
Sampling rate : 48.0 kHz
Frame rate : 31.250 FPS (1536 SPF)
Compression mode : Lossy
Stream size : 438 MiB (10%)
Title : Dub [Netflix]
Language : Russian
Service kind : Complete Main
Default : No
Forced : No
Audio #3
ID : 4
Format : E-AC-3
Format/Info : Enhanced AC-3
Commercial name : Dolby Digital Plus
Codec ID : A_EAC3
Duration : 1 h 35 min
Bit rate mode : Constant
Bit rate : 640 kb/s
Channel(s) : 6 channels
Channel layout : L R C LFE Ls Rs
Sampling rate : 48.0 kHz
Frame rate : 31.250 FPS (1536 SPF)
Compression mode : Lossy
Stream size : 438 MiB (10%)
Title : Dub [Netflix]
Language : Ukrainian
Service kind : Complete Main
Default : No
Forced : No
Audio #4
ID : 5
Format : E-AC-3 JOC
Format/Info : Enhanced AC-3 with Joint Object Coding
Commercial name : Dolby Digital Plus with Dolby Atmos
Codec ID : A_EAC3
Duration : 1 h 35 min
Bit rate mode : Constant
Bit rate : 768 kb/s
Channel(s) : 6 channels
Channel layout : L R C LFE Ls Rs
Sampling rate : 48.0 kHz
Frame rate : 31.250 FPS (1536 SPF)
Compression mode : Lossy
Stream size : 526 MiB (13%)
Title : Original
Language : English
Service kind : Complete Main
Default : No
Forced : No
Complexity index : 16
Number of dynamic objects : 15
Bed channel count : 1 channel
Bed channel configuration : LFE
Text #1
ID : 6
Format : UTF-8
Codec ID : S_TEXT/UTF8
Codec ID/Info : UTF-8 Plain Text
Duration : 1 h 31 min
Bit rate : 2 b/s
Count of elements : 36
Stream size : 1.88 KiB (0%)
Title : Forced
Language : Russian
Default : Yes
Forced : Yes
Text #2
ID : 7
Format : UTF-8
Codec ID : S_TEXT/UTF8
Codec ID/Info : UTF-8 Plain Text
Duration : 1 h 31 min
Bit rate : 94 b/s
Count of elements : 1257
Stream size : 63.4 KiB (0%)
Title : Full
Language : Russian
Default : No
Forced : No
Text #3
ID : 8
Format : UTF-8
Codec ID : S_TEXT/UTF8
Codec ID/Info : UTF-8 Plain Text
Duration : 1 h 31 min
Bit rate : 2 b/s
Count of elements : 32
Stream size : 1.75 KiB (0%)
Title : Forced
Language : Ukrainian
Default : No
Forced : No
Text #4
ID : 9
Format : UTF-8
Codec ID : S_TEXT/UTF8
Codec ID/Info : UTF-8 Plain Text
Duration : 1 h 31 min
Bit rate : 89 b/s
Count of elements : 1240
Stream size : 60.1 KiB (0%)
Title : Full
Language : Ukrainian
Default : No
Forced : No
Text #5
ID : 10
Format : UTF-8
Codec ID : S_TEXT/UTF8
Codec ID/Info : UTF-8 Plain Text
Duration : 1 h 23 min
Bit rate : 70 b/s
Count of elements : 1298
Stream size : 42.6 KiB (0%)
Title : Full
Language : English
Default : No
Forced : No
Text #6
ID : 11
Format : UTF-8
Codec ID : S_TEXT/UTF8
Codec ID/Info : UTF-8 Plain Text
Duration : 1 h 31 min
Bit rate : 89 b/s
Count of elements : 1820
Stream size : 60.5 KiB (0%)
Title : SDH
Language : English
Default : No
Forced : No

admin

Post 07-Dec-2021 05:11

[Quote]

Информация о фильме
Название: Митчеллы против машин
Оригинальное название: The Mitchells vs. the Machines
Год выхода: 2021
Жанр: Мультфильм, фантастика, комедия, приключения, семейный
Режиссер: Майкл Рианда, Джефф Роу
В ролях: Дэйв Фоли, Эбби Джейкобсон, Дэнни МакБрайд, Майя Рудольф, Эрик Андре, Майкл Рианда

О фильме: Мультфильм рассказывает о не самой дружной, но все же любящей семье Митчеллов, которые отправляются в поездку и сталкиваются с восстанием машин. Оказывается, что по всему миру все электронные устройства, от мобильных до автомобилей с автопилотом, настроились против людей. Митчеллам приходится отложить все личные проблемы, чтобы спасти человечество.
Страна: США, Канада, Франция
Студия: Columbia Pictures Corporation, Lord Miller, Sony Pictures Animation
Продолжительность: 01:49:38
Перевод: Дублированный | Netflix
Качество: BDRip 1080p
Видео: MPEG-4 AVC, 1920x1038, 24.3 Mbit/s, 23.976 fps
Аудио #01: 48 kHz, E-AC3, 5.1, 640 Kbps | Дублированный | Netflix | RUS |
Аудио #02: 48 kHz, AC3, 5.1, 640 Kbps | Дублированный | Netflix | RUS |
Аудио #03: 48 kHz, AC3, 5.1, 640 Kbps | Оригинал | ENG |
Субтитры: Русские (Forced, full), английские

Скриншоты

MI

General
Unique ID : 91745101288912382459221516854288593121 (0x450576BA70161D06B5EB890EE6AE30E1)
Complete name : E:VideoThe.Mitchells.vs.the.Machines.2021.BDRip.1080p.seleZen.mkv
Format : Matroska
Format version : Version 4
File size : 20.1 GiB
Duration : 1 h 54 min
Overall bit rate : 25.3 Mb/s
Movie name : The Mitchells vs. the Machines 2021 from seleZen
Encoded date : UTC 2021-12-05 21:50:08
Writing application : mkvmerge v59.0.0 ('Shining Star') 64-bit
Writing library : libebml v1.4.2 + libmatroska v1.6.4
Video
ID : 1
Format : AVC
Format/Info : Advanced Video Codec
Format profile : High@L4.1
Format settings : CABAC / 4 Ref Frames
Format settings, CABAC : Yes
Format settings, Reference frames : 4 frames
Codec ID : V_MPEG4/ISO/AVC
Duration : 1 h 49 min
Bit rate : 24.3 Mb/s
Width : 1 920 pixels
Height : 1 038 pixels
Display aspect ratio : 1.85:1
Frame rate mode : Constant
Frame rate : 23.976 (24000/1001) FPS
Color space : YUV
Chroma subsampling : 4:2:0
Bit depth : 8 bits
Scan type : Progressive
Bits/(Pixel*Frame) : 0.509
Stream size : 18.6 GiB (92%)
Title : MTeam
Writing library : x264 core 157 r2938 2b00a84 TnP@MTeam Mod
Encoding settings : cabac=1 / ref=4 / deblock=1:-3:-3 / analyse=0x3:0x133 / me=umh / subme=10 / psy=1 / psy_rd=1.05:0.00 / mixed_ref=1 / me_range=32 / chroma_me=1 / trellis=2 / 8x8dct=1 / cqm=0 / deadzone=21,11 / fast_pskip=0 / chroma_qp_offset=-2 / threads=12 / lookahead_threads=2 / sliced_threads=0 / nr=0 / decimate=0 / interlaced=0 / bluray_compat=0 / constrained_intra=0 / bframes=8 / b_pyramid=2 / b_adapt=2 / b_bias=0 / direct=3 / weightb=1 / open_gop=0 / weightp=2 / keyint=250 / keyint_min=24 / scenecut=40 / intra_refresh=0 / rc_lookahead=250 / rc=crf / mbtree=0 / crf=16.8 / qcomp=0.60 / qpmin=0 / qpmax=69 / qpstep=4 / vbv_maxrate=62500 / vbv_bufsize=78125 / crf_max=0.0 / nal_hrd=none / filler=0 / ip_ratio=1.30 / pb_ratio=1.20 / aq=3:0.80
Language : English
Default : Yes
Forced : No
Color range : Limited
Color primaries : BT.709
Matrix coefficients : BT.709
Audio #1
ID : 2
Format : E-AC-3
Format/Info : Enhanced AC-3
Commercial name : Dolby Digital Plus
Codec ID : A_EAC3
Duration : 1 h 54 min
Bit rate mode : Constant
Bit rate : 640 kb/s
Channel(s) : 6 channels
Channel layout : L R C LFE Ls Rs
Sampling rate : 48.0 kHz
Frame rate : 31.250 FPS (1536 SPF)
Compression mode : Lossy
Stream size : 522 MiB (3%)
Title : Dub [Netflix]
Language : Russian
Service kind : Complete Main
Default : Yes
Forced : Yes
Audio #2
ID : 3
Format : AC-3
Format/Info : Audio Coding 3
Commercial name : Dolby Digital
Codec ID : A_AC3
Duration : 1 h 54 min
Bit rate mode : Constant
Bit rate : 640 kb/s
Channel(s) : 6 channels
Channel layout : L R C LFE Ls Rs
Sampling rate : 48.0 kHz
Frame rate : 31.250 FPS (1536 SPF)
Compression mode : Lossy
Stream size : 522 MiB (3%)
Title : Dub [Netflix]
Language : Russian
Service kind : Complete Main
Default : No
Forced : No
Audio #3
ID : 4
Format : AC-3
Format/Info : Audio Coding 3
Commercial name : Dolby Digital
Codec ID : A_AC3
Duration : 1 h 49 min
Bit rate mode : Constant
Bit rate : 640 kb/s
Channel(s) : 6 channels
Channel layout : L R C LFE Ls Rs
Sampling rate : 48.0 kHz
Frame rate : 31.250 FPS (1536 SPF)
Compression mode : Lossy
Stream size : 502 MiB (2%)
Title : Original
Language : English
Service kind : Complete Main
Default : No
Forced : No
Text #1
ID : 5
Format : UTF-8
Codec ID : S_TEXT/UTF8
Codec ID/Info : UTF-8 Plain Text
Duration : 1 h 48 min
Bit rate : 5 b/s
Count of elements : 129
Stream size : 4.05 KiB (0%)
Title : Forced
Language : Russian
Default : Yes
Forced : Yes
Text #2
ID : 6
Format : UTF-8
Codec ID : S_TEXT/UTF8
Codec ID/Info : UTF-8 Plain Text
Duration : 1 h 48 min
Bit rate : 99 b/s
Count of elements : 1558
Stream size : 79.6 KiB (0%)
Title : Russian
Language : Russian
Default : No
Forced : No
Text #3
ID : 7
Format : UTF-8
Codec ID : S_TEXT/UTF8
Codec ID/Info : UTF-8 Plain Text
Duration : 24 min 10 s
Bit rate : 1 b/s
Count of elements : 9
Stream size : 248 Bytes (0%)
Title : English [Forced]
Language : English
Default : No
Forced : Yes
Text #4
ID : 8
Format : UTF-8
Codec ID : S_TEXT/UTF8
Codec ID/Info : UTF-8 Plain Text
Duration : 1 h 49 min
Bit rate : 113 b/s
Count of elements : 2179
Stream size : 90.8 KiB (0%)
Title : English
Language : English
Default : No
Forced : No
Menu
00:00:00.000 : Chapter 01
00:06:16.042 : Chapter 02
00:14:18.483 : Chapter 03
00:18:56.385 : Chapter 04
00:24:53.575 : Chapter 05
00:31:55.831 : Chapter 06
00:36:30.271 : Chapter 07
00:45:45.117 : Chapter 08
00:49:55.492 : Chapter 09
00:54:17.004 : Chapter 10
01:02:29.829 : Chapter 11
01:08:49.333 : Chapter 12
01:15:51.505 : Chapter 13
01:25:21.032 : Chapter 14
01:30:32.051 : Chapter 15
01:38:45.294 : Chapter 16

admin

Post 07-Dec-2021 05:10

[Quote]

Информация о фильме
Название: Митчеллы против машин
Оригинальное название: The Mitchells vs. the Machines
Год выхода: 2021
Жанр: Мультфильм, фантастика, комедия, приключения, семейный
Режиссер: Майкл Рианда, Джефф Роу
В ролях: Дэйв Фоли, Эбби Джейкобсон, Дэнни МакБрайд, Майя Рудольф, Эрик Андре, Майкл Рианда

О фильме: Мультфильм рассказывает о не самой дружной, но все же любящей семье Митчеллов, которые отправляются в поездку и сталкиваются с восстанием машин. Оказывается, что по всему миру все электронные устройства, от мобильных до автомобилей с автопилотом, настроились против людей. Митчеллам приходится отложить все личные проблемы, чтобы спасти человечество.
Страна: США, Канада, Франция
Студия: Columbia Pictures Corporation, Lord Miller, Sony Pictures Animation
Продолжительность: 01:49:38
Перевод: Дублированный | Netflix
Качество: BDRip 720p
Видео: MPEG-4 AVC, 1280x692, 9642 Kbit/s, 23.976 fps
Аудио #01: 48 kHz, E-AC3, 5.1, 640 Kbps | Дублированный | Netflix | RUS |
Аудио #02: 48 kHz, AC3, 5.1, 640 Kbps | Дублированный | Netflix | RUS |
Аудио #03: 48 kHz, AC3, 5.1, 640 Kbps | Оригинал | ENG |
Субтитры: Русские (Forced, full), английские

Скриншоты

MI

General
Unique ID : 221916233344440278439291537165854170058 (0xA6F3830B8262BC1FC192E7867FCBDBCA)
Complete name : E:VideoThe.Mitchells.vs.the.Machines.2021.BDRip.720p.seleZen.mkv
Format : Matroska
Format version : Version 4
File size : 8.90 GiB
Duration : 1 h 54 min
Overall bit rate : 11.2 Mb/s
Movie name : The Mitchells vs. the Machines 2021 from seleZen
Encoded date : UTC 2021-12-05 22:08:39
Writing application : mkvmerge v59.0.0 ('Shining Star') 64-bit
Writing library : libebml v1.4.2 + libmatroska v1.6.4
Video
ID : 1
Format : AVC
Format/Info : Advanced Video Codec
Format profile : High@L4.1
Format settings : CABAC / 9 Ref Frames
Format settings, CABAC : Yes
Format settings, Reference frames : 9 frames
Codec ID : V_MPEG4/ISO/AVC
Duration : 1 h 49 min
Bit rate : 9 642 kb/s
Width : 1 280 pixels
Height : 692 pixels
Display aspect ratio : 1.85:1
Frame rate mode : Constant
Frame rate : 23.976 (24000/1001) FPS
Color space : YUV
Chroma subsampling : 4:2:0
Bit depth : 8 bits
Scan type : Progressive
Bits/(Pixel*Frame) : 0.454
Stream size : 7.38 GiB (83%)
Title : MTeam
Writing library : x264 core 157 r2938 2b00a84 TnP@MTeam Mod
Encoding settings : cabac=1 / ref=9 / deblock=1:-3:-3 / analyse=0x3:0x133 / me=umh / subme=10 / psy=1 / psy_rd=1.05:0.00 / mixed_ref=1 / me_range=32 / chroma_me=1 / trellis=2 / 8x8dct=1 / cqm=0 / deadzone=21,11 / fast_pskip=0 / chroma_qp_offset=-2 / threads=12 / lookahead_threads=2 / sliced_threads=0 / nr=0 / decimate=0 / interlaced=0 / bluray_compat=0 / constrained_intra=0 / bframes=8 / b_pyramid=2 / b_adapt=2 / b_bias=0 / direct=3 / weightb=1 / open_gop=0 / weightp=2 / keyint=250 / keyint_min=24 / scenecut=40 / intra_refresh=0 / rc_lookahead=250 / rc=crf / mbtree=0 / crf=16.8 / qcomp=0.60 / qpmin=0 / qpmax=69 / qpstep=4 / vbv_maxrate=62500 / vbv_bufsize=78125 / crf_max=0.0 / nal_hrd=none / filler=0 / ip_ratio=1.30 / pb_ratio=1.20 / aq=3:0.80
Language : English
Default : Yes
Forced : No
Color range : Limited
Color primaries : BT.709
Matrix coefficients : BT.709
Audio #1
ID : 2
Format : E-AC-3
Format/Info : Enhanced AC-3
Commercial name : Dolby Digital Plus
Codec ID : A_EAC3
Duration : 1 h 54 min
Bit rate mode : Constant
Bit rate : 640 kb/s
Channel(s) : 6 channels
Channel layout : L R C LFE Ls Rs
Sampling rate : 48.0 kHz
Frame rate : 31.250 FPS (1536 SPF)
Compression mode : Lossy
Stream size : 522 MiB (6%)
Title : Dub [Netflix]
Language : Russian
Service kind : Complete Main
Default : Yes
Forced : Yes
Audio #2
ID : 3
Format : AC-3
Format/Info : Audio Coding 3
Commercial name : Dolby Digital
Codec ID : A_AC3
Duration : 1 h 54 min
Bit rate mode : Constant
Bit rate : 640 kb/s
Channel(s) : 6 channels
Channel layout : L R C LFE Ls Rs
Sampling rate : 48.0 kHz
Frame rate : 31.250 FPS (1536 SPF)
Compression mode : Lossy
Stream size : 522 MiB (6%)
Title : Dub [Netflix]
Language : Russian
Service kind : Complete Main
Default : No
Forced : No
Audio #3
ID : 4
Format : AC-3
Format/Info : Audio Coding 3
Commercial name : Dolby Digital
Codec ID : A_AC3
Duration : 1 h 49 min
Bit rate mode : Constant
Bit rate : 640 kb/s
Channel(s) : 6 channels
Channel layout : L R C LFE Ls Rs
Sampling rate : 48.0 kHz
Frame rate : 31.250 FPS (1536 SPF)
Compression mode : Lossy
Stream size : 502 MiB (6%)
Title : Original
Language : English
Service kind : Complete Main
Default : No
Forced : No
Text #1
ID : 5
Format : UTF-8
Codec ID : S_TEXT/UTF8
Codec ID/Info : UTF-8 Plain Text
Duration : 1 h 48 min
Bit rate : 5 b/s
Count of elements : 129
Stream size : 4.05 KiB (0%)
Title : Forced
Language : Russian
Default : Yes
Forced : Yes
Text #2
ID : 6
Format : UTF-8
Codec ID : S_TEXT/UTF8
Codec ID/Info : UTF-8 Plain Text
Duration : 1 h 48 min
Bit rate : 99 b/s
Count of elements : 1558
Stream size : 79.6 KiB (0%)
Title : Russian
Language : Russian
Default : No
Forced : No
Text #3
ID : 7
Format : UTF-8
Codec ID : S_TEXT/UTF8
Codec ID/Info : UTF-8 Plain Text
Duration : 24 min 10 s
Bit rate : 1 b/s
Count of elements : 9
Stream size : 248 Bytes (0%)
Title : English [Forced]
Language : English
Default : No
Forced : Yes
Text #4
ID : 8
Format : UTF-8
Codec ID : S_TEXT/UTF8
Codec ID/Info : UTF-8 Plain Text
Duration : 1 h 49 min
Bit rate : 113 b/s
Count of elements : 2179
Stream size : 90.8 KiB (0%)
Title : English
Language : English
Default : No
Forced : No
Menu
00:00:00.000 : Chapter 01
00:06:16.042 : Chapter 02
00:14:18.483 : Chapter 03
00:18:56.385 : Chapter 04
00:24:53.575 : Chapter 05
00:31:55.831 : Chapter 06
00:36:30.271 : Chapter 07
00:45:45.117 : Chapter 08
00:49:55.492 : Chapter 09
00:54:17.004 : Chapter 10
01:02:29.829 : Chapter 11
01:08:49.333 : Chapter 12
01:15:51.505 : Chapter 13
01:25:21.032 : Chapter 14
01:30:32.051 : Chapter 15
01:38:45.294 : Chapter 16

admin

Post 06-Dec-2021 05:51

[Quote]


Информация о фильме
Название: Вокруг света за 80 дней
Оригинальное название: Around the World in 80 Days
Год выхода: 2021
Жанр: Мультфильм, комедия, приключения, семейный
Режиссер: Самуэль Турно
Роли озвучивают: Жюльен Крампон, Дамиен Фретте, Кэйси Чейз, Селин Ронте, Вероник Огеро, Эммануэль Гариджо, Гэбриел Ле Дозе, Серж Биаван, Мишель Арагоне, Грегори Кидель
О фильме:
Умнейший Паспарту всегда мечтал о путешествиях. На его удачу безрассудный Филеас согласился на безумное пари — обогнуть земной шар всего за 80 дней. Теперь двум совершенно непохожим друзьям предстоит совершить невозможное, а заодно увидеть весь мир, полный фантастических созданий, живописных мест и умопомрачительных приключений.


Страна: Франция, Бельгия
Студия: 22h22, Canal+ [fr], Centre National de la Cinématographie (CNC), Cinécap 3, Cinémage 14, Circus, Cottonwood Media, France 3 Cinéma, France Télévision, Indéfilms 8, Le Tax Shelter du Gouvernement Fédéral de Belgique, Mac Guff Ligne, OCS, Palatine Etoile 17, Procirep/Angicoa, Région de Bruxelles-Capitale, SG Image 2018, Sofica Manon 10, Studio Canal, uFund, uMedia Family
Продолжительность: 01:22:16
Перевод: Профессиональный (полное дублирование) | CPI Films | iTunes
Файл
Качество: BDRip 720p
Исходник: Around.the.World.in.80.Days.2021.FRENCH.COMPLETE.BLURAY-4FR
Формат: MKV
Кодек: MPEG-4 AVC
Видео: 1280x532 (2.40:1), 24 fps, MPEG-4 AVC ~ 3500 Kbps avg, 0.214 bit/pixel
Аудио: AC3, 48 kHz, 6 ch, ~384.00 kbps avg | русский | iTunes
Аудио: AC3, 48 kHz, 6 ch, ~640.00 kbps avg | французский |
Субтитры: Русские (форсированные)

Инфо-файл

Общее
Уникальный идентификатор : 243089117790370094578802258890036946156 (0xB6E142D826DD6EA09E4DCC9D4F1524EC)
Полное имя : Around.the.World.in.80.Days.2021.720p.BluRay.DD.5.1.x264.MegaPeer.mkv
Формат : Matroska
Версия формата : Version 4
Размер файла : 2,60 Гбайт
Продолжительность : 1 ч. 22 м.
Общий поток : 4 523 Кбит/сек
Название фильма : Вокруг света за 80 дней / Around the World in 80 Days (2021) от stillet@MegaPeer
Дата кодирования : UTC 2021-12-05 02:22:04
Программа кодирования : mkvmerge v15.0.0 ('Duel with the Devil') 64-bit
Библиотека кодирования : libebml v1.3.5 + libmatroska v1.4.5
Обложка : Yes
Attachments : cover.jpg
Видео
Идентификатор : 1
Формат : AVC
Формат/Информация : Advanced Video Codec
Профиль формата : High@L4.1
Настройки формата : CABAC / 11 Ref Frames
Параметр CABAC формата : Да
Параметр RefFrames формата : 11 кадров
Идентификатор кодека : V_MPEG4/ISO/AVC
Продолжительность : 1 ч. 22 м.
Битрейт : 3 500 Кбит/сек
Ширина : 1 280 пикселей
Высота : 532 пикселя
Соотношение сторон : 2,40:1
Режим частоты кадров : Постоянный
Частота кадров : 24,000 кадра/сек
Цветовое пространство : YUV
Субдискретизация насыщенности : 4:2:0
Битовая глубина : 8 бит
Тип развёртки : Прогрессивная
Бит/(Пиксели*Кадры) : 0.214
Размер потока : 2,01 Гбайт (77%)
Заголовок : stillet@MegaPeer
Библиотека кодирования : x264 core 161 r3018 db0d417
Настройки программы : cabac=1 / ref=11 / deblock=1:-3:-3 / analyse=0x3:0x113 / me=umh / subme=10 / psy=1 / psy_rd=1.00:0.00 / mixed_ref=1 / me_range=48 / chroma_me=1 / trellis=2 / 8x8dct=1 / cqm=0 / deadzone=21,11 / fast_pskip=0 / chroma_qp_offset=-2 / threads=17 / lookahead_threads=4 / sliced_threads=0 / nr=0 / decimate=0 / interlaced=0 / bluray_compat=0 / constrained_intra=0 / bframes=14 / b_pyramid=2 / b_adapt=2 / b_bias=0 / direct=3 / weightb=1 / open_gop=0 / weightp=2 / keyint=240 / keyint_min=24 / scenecut=40 / intra_refresh=0 / rc_lookahead=40 / rc=2pass / mbtree=0 / bitrate=3500 / ratetol=1.0 / qcomp=0.60 / qpmin=0 / qpmax=69 / qpstep=4 / cplxblur=20.0 / qblur=0.5 / vbv_maxrate=50000 / vbv_bufsize=62500 / nal_hrd=none / filler=0 / ip_ratio=1.40 / pb_ratio=1.30 / aq=1:1.10
Язык : English
Default : Да
Forced : Нет
Аудио #1
Идентификатор : 2
Формат : AC-3
Формат/Информация : Audio Coding 3
Коммерческое название : Dolby Digital
Идентификатор кодека : A_AC3
Продолжительность : 1 ч. 22 м.
Вид битрейта : Постоянный
Битрейт : 384 Кбит/сек
Каналы : 6 каналов
Channel layout : L R C LFE Ls Rs
Частота : 48,0 КГц
Частота кадров : 31,250 кадров/сек (1536 SPF)
Метод сжатия : С потерями
Размер потока : 226 Мбайт (8%)
Заголовок : DUB | CPI Films | iTunes
Язык : Russian
Service kind : Complete Main
Default : Да
Forced : Нет
Аудио #2
Идентификатор : 3
Формат : AC-3
Формат/Информация : Audio Coding 3
Коммерческое название : Dolby Digital
Идентификатор кодека : A_AC3
Продолжительность : 1 ч. 22 м.
Вид битрейта : Постоянный
Битрейт : 640 Кбит/сек
Каналы : 6 каналов
Channel layout : L R C LFE Ls Rs
Частота : 48,0 КГц
Частота кадров : 31,250 кадров/сек (1536 SPF)
Метод сжатия : С потерями
Размер потока : 377 Мбайт (14%)
Язык : French
Service kind : Complete Main
Default : Нет
Forced : Нет
Текст
Идентификатор : 4
Формат : UTF-8
Идентификатор кодека : S_TEXT/UTF8
Идентификатор кодека/Информация : UTF-8 Plain Text
Продолжительность : 1 ч. 3 м.
Битрейт : 0 бит/сек
Count of elements : 11
Размер потока : 215 байт (0%)
Заголовок : Forced
Язык : Russian
Default : Да
Forced : Нет
Меню
00:00:00.000 : :fre: 01
00:07:18.582 : :fre: 02
00:15:15.375 : :fre: 03
00:21:38.540 : :fre: 04
00:30:15.790 : :fre: 05
00:35:38.541 : :fre: 06
00:42:56.041 : :fre: 07
00:49:22.541 : :fre: 08
00:57:01.083 : :fre: 09
01:01:43.250 : :fre: 10
01:05:47.833 : :fre: 11
01:16:28.000 : :fre: 12
01:22:15.625 : :fre: 13

Скриншоты

admin

Post 06-Dec-2021 05:51

[Quote]


Информация о фильме
Название: Вокруг света за 80 дней
Оригинальное название: Around the World in 80 Days
Год выхода: 2021
Жанр: Мультфильм, комедия, приключения, семейный
Режиссер: Самуэль Турно
Роли озвучивают: Жюльен Крампон, Дамиен Фретте, Кэйси Чейз, Селин Ронте, Вероник Огеро, Эммануэль Гариджо, Гэбриел Ле Дозе, Серж Биаван, Мишель Арагоне, Грегори Кидель
О фильме:
Умнейший Паспарту всегда мечтал о путешествиях. На его удачу безрассудный Филеас согласился на безумное пари — обогнуть земной шар всего за 80 дней. Теперь двум совершенно непохожим друзьям предстоит совершить невозможное, а заодно увидеть весь мир, полный фантастических созданий, живописных мест и умопомрачительных приключений.


Страна: Франция, Бельгия
Студия: 22h22, Canal+ [fr], Centre National de la Cinématographie (CNC), Cinécap 3, Cinémage 14, Circus, Cottonwood Media, France 3 Cinéma, France Télévision, Indéfilms 8, Le Tax Shelter du Gouvernement Fédéral de Belgique, Mac Guff Ligne, OCS, Palatine Etoile 17, Procirep/Angicoa, Région de Bruxelles-Capitale, SG Image 2018, Sofica Manon 10, Studio Canal, uFund, uMedia Family
Продолжительность: 01:22:16
Перевод: Профессиональный (полное дублирование) | CPI Films | iTunes
Файл
Качество: BDRip 1080p
Исходник: Around.the.World.in.80.Days.2021.FRENCH.COMPLETE.BLURAY-4FR
Формат: MKV
Кодек: MPEG-4 AVC
Видео: 1920x800 (2.40:1), 24 fps, MPEG-4 AVC ~ 10 000 Kbps avg, 0.271 bit/pixel
Аудио: AC3, 48 kHz, 6 ch, ~384.00 kbps avg | русский | iTunes
Аудио: AC3, 48 kHz, 6 ch, ~640.00 kbps avg | французский |
Субтитры: Русские (форсированные)

Инфо-файл

Общее
Уникальный идентификатор : 253022402750428255715021809977792104028 (0xBE5A579ACC621E70BF5DCB29CC87865C)
Полное имя : Around.the.World.in.80.Days.2021.1080p.BluRay.DD.5.1.x264.MegaPeer.mkv
Формат : Matroska
Версия формата : Version 4
Размер файла : 6,33 Гбайт
Продолжительность : 1 ч. 22 м.
Общий поток : 11,0 Мбит/сек
Название фильма : Вокруг света за 80 дней / Around the World in 80 Days (2021)
Дата кодирования : UTC 2021-12-04 21:29:23
Программа кодирования : mkvmerge v15.0.0 ('Duel with the Devil') 64-bit
Библиотека кодирования : libebml v1.3.5 + libmatroska v1.4.5
Обложка : Yes
Attachments : cover.jpg / cover.jpg
Видео
Идентификатор : 1
Формат : AVC
Формат/Информация : Advanced Video Codec
Профиль формата : High@L4.1
Настройки формата : CABAC / 4 Ref Frames
Параметр CABAC формата : Да
Параметр RefFrames формата : 4 кадра
Идентификатор кодека : V_MPEG4/ISO/AVC
Продолжительность : 1 ч. 22 м.
Битрейт : 10 000 Кбит/сек
Ширина : 1 920 пикселей
Высота : 800 пикселей
Соотношение сторон : 2,40:1
Режим частоты кадров : Постоянный
Частота кадров : 24,000 кадра/сек
Цветовое пространство : YUV
Субдискретизация насыщенности : 4:2:0
Битовая глубина : 8 бит
Тип развёртки : Прогрессивная
Бит/(Пиксели*Кадры) : 0.271
Размер потока : 5,74 Гбайт (91%)
Заголовок : stillet@MegaPeer
Библиотека кодирования : x264 core 161 r3018 db0d417
Настройки программы : cabac=1 / ref=4 / deblock=1:-3:-3 / analyse=0x3:0x113 / me=umh / subme=10 / psy=1 / psy_rd=1.00:0.00 / mixed_ref=1 / me_range=48 / chroma_me=1 / trellis=2 / 8x8dct=1 / cqm=0 / deadzone=21,11 / fast_pskip=0 / chroma_qp_offset=-2 / threads=24 / lookahead_threads=6 / sliced_threads=0 / nr=0 / decimate=0 / interlaced=0 / bluray_compat=0 / constrained_intra=0 / bframes=12 / b_pyramid=2 / b_adapt=2 / b_bias=0 / direct=3 / weightb=1 / open_gop=0 / weightp=2 / keyint=240 / keyint_min=24 / scenecut=40 / intra_refresh=0 / rc_lookahead=40 / rc=2pass / mbtree=0 / bitrate=10000 / ratetol=1.0 / qcomp=0.60 / qpmin=0 / qpmax=69 / qpstep=4 / cplxblur=20.0 / qblur=0.5 / vbv_maxrate=50000 / vbv_bufsize=62500 / nal_hrd=none / filler=0 / ip_ratio=1.40 / pb_ratio=1.30 / aq=1:1.10
Язык : French
Default : Да
Forced : Нет
Аудио #1
Идентификатор : 2
Формат : AC-3
Формат/Информация : Audio Coding 3
Коммерческое название : Dolby Digital
Идентификатор кодека : A_AC3
Продолжительность : 1 ч. 22 м.
Вид битрейта : Постоянный
Битрейт : 384 Кбит/сек
Каналы : 6 каналов
Channel layout : L R C LFE Ls Rs
Частота : 48,0 КГц
Частота кадров : 31,250 кадров/сек (1536 SPF)
Метод сжатия : С потерями
Размер потока : 226 Мбайт (3%)
Заголовок : DUB | CPI Films | iTunes
Язык : Russian
Service kind : Complete Main
Default : Да
Forced : Нет
Аудио #2
Идентификатор : 3
Формат : AC-3
Формат/Информация : Audio Coding 3
Коммерческое название : Dolby Digital
Идентификатор кодека : A_AC3
Продолжительность : 1 ч. 22 м.
Вид битрейта : Постоянный
Битрейт : 640 Кбит/сек
Каналы : 6 каналов
Channel layout : L R C LFE Ls Rs
Частота : 48,0 КГц
Частота кадров : 31,250 кадров/сек (1536 SPF)
Метод сжатия : С потерями
Размер потока : 377 Мбайт (6%)
Язык : French
Service kind : Complete Main
Default : Нет
Forced : Нет
Текст
Идентификатор : 4
Формат : UTF-8
Идентификатор кодека : S_TEXT/UTF8
Идентификатор кодека/Информация : UTF-8 Plain Text
Продолжительность : 1 ч. 3 м.
Битрейт : 0 бит/сек
Count of elements : 11
Размер потока : 215 байт (0%)
Заголовок : Forced
Язык : Russian
Default : Да
Forced : Нет
Меню
00:00:00.000 : :fre: 01
00:07:18.582 : :fre: 02
00:15:15.375 : :fre: 03
00:21:38.540 : :fre: 04
00:30:15.790 : :fre: 05
00:35:38.541 : :fre: 06
00:42:56.041 : :fre: 07
00:49:22.541 : :fre: 08
00:57:01.083 : :fre: 09
01:01:43.250 : :fre: 10
01:05:47.833 : :fre: 11
01:16:28.000 : :fre: 12
01:22:15.625 : :fre: 13

Скриншоты

admin

Post 22-Aug-2021 23:30

[Quote]

Информация о фильме
Название: Спирит Непокорный
Оригинальное название: Spirit Untamed
Год выхода: 2021
Жанр: Мультфильм, приключения, семейный, вестерн, полнометражный
Режиссер: Илэйн Боган, Эннио Торресан
В ролях: Изабела Мерсед, Джулианна Мур, Джейк Джилленхол, Марсаи Мартин, Маккенна Грэйс, Уолтон Гоггинс, Гари А. Хэккер, Эйса Гонсалес, Андре Брауэр, Джино Монтесинос

О фильме: Лаки Прескотт — юная бунтарка, совсем как ее мама, легендарная бесстрашная наездница, которую дочь почти не помнит. После очередной шалости заботливая тетушка Кора, вырастившая девочку, отправляет ее жить к отцу. Теперь все, о чем мечтает Лаки — вырваться на волю из крошечного сонного городка. Все меняется, когда она знакомится со Спиритом — диким мустангом, таким же упрямым и независимым, как и она сама. После того как Спирит попадает в руки бессердечного ковбоя и его подельников, Лаки в сопровождении новых друзей отправляется в полное опасностей путешествие, чтобы его спасти.
Страна: США
Студия: DreamWorks Animation, Walden Media
Продолжительность: 01:27:40
Перевод: Дублированный | Пифагор
Качество: BDRip 1080p
Видео: MPEG-4 AVC, 1920x804, 7359 Кbit/s, 23.976 fps
Аудио #01: 48 kHz, AC3, 5.1, 448 Kbps | Дублированный | RUS |
Аудио #02: 48 kHz, AC3, 5.1, 640 Kbps | Оригинал | ENG |
Субтитры: Русские (Full), английские

Скриншоты

MI

General
Unique ID : 155385226553084531827651507221946819478 (0x74E61B27A04F71AEE559C938D6A9E396)
Complete name : F:VideoSpirit.Untamed.2021.BDRip.1080p.seleZen.mkv
Format : Matroska
Format version : Version 4
File size : 5.18 GiB
Duration : 1 h 27 min
Overall bit rate : 8 445 kb/s
Movie name : Spirit Untamed 2021 from seleZen
Encoded date : UTC 2021-08-21 11:01:12
Writing application : mkvmerge v59.0.0 ('Shining Star') 64-bit
Writing library : libebml v1.4.2 + libmatroska v1.6.4
Video
ID : 1
Format : AVC
Format/Info : Advanced Video Codec
Format profile : High@L4.1
Format settings : CABAC / 5 Ref Frames
Format settings, CABAC : Yes
Format settings, Reference : 5 frames
Codec ID : V_MPEG4/ISO/AVC
Duration : 1 h 27 min
Bit rate : 7 359 kb/s
Width : 1 920 pixels
Height : 804 pixels
Display aspect ratio : 2.40:1
Frame rate mode : Constant
Frame rate : 23.976 (24000/1001) FPS
Color space : YUV
Chroma subsampling : 4:2:0
Bit depth : 8 bits
Scan type : Progressive
Bits/(Pixel*Frame) : 0.199
Stream size : 4.51 GiB (87%)
Title : MTeam
Writing library : x264 core 157 r2938 2b00a84 TnP@MTeam Mod
Encoding settings : cabac=1 / ref=5 / deblock=1:-3:-3 / analyse=0x3:0x133 / me=umh / subme=10 / psy=1 / psy_rd=1.05:0.00 / mixed_ref=1 / me_range=32 / chroma_me=1 / trellis=2 / 8x8dct=1 / cqm=0 / deadzone=21,11 / fast_pskip=0 / chroma_qp_offset=-2 / threads=12 / lookahead_threads=2 / sliced_threads=0 / nr=0 / decimate=0 / interlaced=0 / bluray_compat=0 / constrained_intra=0 / bframes=8 / b_pyramid=2 / b_adapt=2 / b_bias=0 / direct=3 / weightb=1 / open_gop=0 / weightp=2 / keyint=250 / keyint_min=24 / scenecut=40 / intra_refresh=0 / rc_lookahead=250 / rc=crf / mbtree=0 / crf=16.8 / qcomp=0.60 / qpmin=0 / qpmax=69 / qpstep=4 / vbv_maxrate=62500 / vbv_bufsize=78125 / crf_max=0.0 / nal_hrd=none / filler=0 / ip_ratio=1.30 / pb_ratio=1.20 / aq=3:0.80
Language : English
Default : Yes
Forced : No
Color range : Limited
Color primaries : BT.709
Matrix coefficients : BT.709
Audio #1
ID : 2
Format : AC-3
Format/Info : Audio Coding 3
Commercial name : Dolby Digital
Codec ID : A_AC3
Duration : 1 h 27 min
Bit rate mode : Constant
Bit rate : 448 kb/s
Channel(s) : 6 channels
Channel layout : L R C LFE Ls Rs
Sampling rate : 48.0 kHz
Frame rate : 31.250 FPS (1536 SPF)
Compression mode : Lossy
Stream size : 281 MiB (5%)
Title : Dub [Пифагор]
Language : Russian
Service kind : Complete Main
Default : Yes
Forced : Yes
Audio #2
ID : 3
Format : AC-3
Format/Info : Audio Coding 3
Commercial name : Dolby Digital
Codec ID : A_AC3
Duration : 1 h 27 min
Bit rate mode : Constant
Bit rate : 640 kb/s
Channel(s) : 6 channels
Channel layout : L R C LFE Ls Rs
Sampling rate : 48.0 kHz
Frame rate : 31.250 FPS (1536 SPF)
Compression mode : Lossy
Stream size : 401 MiB (8%)
Title : Original
Language : English
Service kind : Complete Main
Default : No
Forced : No
Text #1
ID : 4
Format : UTF-8
Codec ID : S_TEXT/UTF8
Codec ID/Info : UTF-8 Plain Text
Duration : 1 h 26 min
Bit rate : 87 b/s
Count of elements : 1176
Stream size : 55.7 KiB (0%)
Title : Full
Language : Russian
Default : No
Forced : No
Text #2
ID : 5
Format : UTF-8
Codec ID : S_TEXT/UTF8
Codec ID/Info : UTF-8 Plain Text
Duration : 1 h 26 min
Bit rate : 64 b/s
Count of elements : 1673
Stream size : 41.0 KiB (0%)
Title : Full
Language : English
Default : No
Forced : No
Text #3
ID : 6
Format : UTF-8
Codec ID : S_TEXT/UTF8
Codec ID/Info : UTF-8 Plain Text
Duration : 1 h 27 min
Bit rate : 80 b/s
Count of elements : 2041
Stream size : 51.5 KiB (0%)
Title : SDH
Language : English
Default : No
Forced : No
Menu
00:00:00.000 : Chapter 01
00:01:57.659 : Chapter 02
00:04:28.894 : Chapter 03
00:09:05.962 : Chapter 04
00:14:41.714 : Chapter 05
00:19:34.799 : Chapter 06
00:24:50.030 : Chapter 07
00:30:29.536 : Chapter 08
00:35:04.060 : Chapter 09
00:40:08.489 : Chapter 10
00:44:55.568 : Chapter 11
00:50:02.833 : Chapter 12
00:54:44.823 : Chapter 13
01:01:02.450 : Chapter 14
01:04:27.822 : Chapter 15
01:06:34.073 : Chapter 16
01:11:45.468 : Chapter 17
01:16:49.188 : Chapter 18
01:19:48.534 : Chapter 19
01:21:48.904 : Chapter 20
 

Current time is: 29-Jan 07:20

All times are UTC + 3