Search found 79 matches

Author Message

admin

Post 09-Jun-2022 06:43

[Quote]

Информация о фильме
Название: Кролецып и Хомяк Тьмы
Оригинальное название: Chickenhare and the Hamster of Darkness (Hopper et le hamster des ténèbres)
Год выхода: 2022
Жанр: Мультфильм, мелодрама, комедия, приключения, семейный
Режиссер: Бен Стассен, Бенжамен Муске
В ролях: Тома Соливерес, Хлоя Жуанне, Николя Мори, Фредерик Попович, Антуан Шумский, Ричард Ле Руссель, Антуан Фере, Лорен Жаке, Николя Бушу, Алан Обер
О фильме:
Харизматичный и отважный Кролецып больше всего на свете мечтает стать искателем приключений. Наполовину кролик, наполовину цыплёнок — он сочетает лучшие качества обоих животных. Когда его дому угрожает опасность, он отправляется в авантюрное путешествие по удивительным местам, чтобы найти древний артефакт — таинственного Хомяка Тьмы.

Страна: Бельгия, Франция
Студия: Dark Horse Comics, nWave Pictures, Octopolis
Продолжительность: 01:27:58
Перевод: Дублированный
Файл
Кодек: MPEG-4 AVC
Качество: WEB-DL 1080p
Видео: MPEG-4 AVC, 6000 Кбит/с, 1920x804
Звук: Русский (AC3, 6 ch, 448 Кбит/с), (E-AC3, 6 ch, 448 Кбит/с)
Субтитры: Русские
Реклама, любого вида, отсутствует.

Скриншоты

admin

Post 06-Jun-2022 06:43

[Quote]

Информация о фильме
Название: Плохие парни
Оригинальное название: The Bad Guys
Год выхода: 2022
Жанр: Мультфильм, комедия, криминал, приключения, семейный
Режиссер: Пьер Перифел
В ролях: Сэм Рокуэлл, Марк Мэрон, Аквафина, Крэйг Робинсон, Энтони Рамос, Ричард Айоади, Зази Битц, Алекс Борштейн, Лилли Сингх, Барбара Гудсон

О фильме: Мир еще не видел столь искусных авантюристов: ловкий карманник Мистер Волк, опытный взломщик сейфов Мистер Змей, хладнокровный мастер маскировки Мистер Акула, вспыльчивый и мускулистый Мистер Пиранья, а также остроумная хакер высшего класса Мисс Тарантула. Однако даже самые умные преступники иногда допускают ошибки. Чтобы спастись от неминуемый тюрьмы, главарь банды Мистер Волк вынужден идти на крайние меры: «Плохие парни» должны измениться в лучшую сторону. Или сделать вид? Но когда новый злодей угрожает городу, сможет ли Мистер Волк убедить остальных действительно стать… хорошими ребятами?
Страна: США
Студия: DreamWorks Animation, Universal Pictures
Продолжительность: 01:40:07
Перевод(ы):
#1: Дублированный | Пифагор
#2: Профессиональный многоголосый | Jaskier
#3: Профессиональный многоголосый | TVShows

Качество: BDRip 1080p
Видео: MPEG-4 AVC, 1920x804, 20.3 Mbit/s, 23.976 fps
Аудио #01: 48 kHz, AC3, 5.1, 384 Kbps | Дублированный | Пифагор | RUS |
Аудио #02: 48 kHz, AC3, 5.1, 448 Kbps | Профессиональный многоголосый | Jaskier | RUS |
Аудио #03: 48 kHz, AC3, 2.0, 192 Kbps | Профессиональный многоголосый | TVShows | RUS |
Аудио #04: 48 kHz, AC3, 5.1, 640 Kbps | Оригинал | ENG |
Субтитры: Русские (Forced (songs), full), английские

Скриншоты

MI

General
Unique ID : 15322395055690503471176999441421448328 (0xB86FC66F0C98DA21E673AE5CEBA3488)
Complete name : E:Video1The.Bad.Guys.2022.BDRip.1080p.seleZen.mkv
Format : Matroska
Format version : Version 4
File size : 15.4 GiB
Duration : 1 h 40 min
Overall bit rate : 22.0 Mb/s
Movie name : The Bad Guys 2022 from seleZen
Encoded date : UTC 2022-06-05 16:29:39
Writing application : mkvmerge v59.0.0 ('Shining Star') 64-bit
Writing library : libebml v1.4.2 + libmatroska v1.6.4
Video
ID : 1
Format : AVC
Format/Info : Advanced Video Codec
Format profile : High@L4.1
Format settings : CABAC / 5 Ref Frames
Format settings, CABAC : Yes
Format settings, Reference : 5 frames
Codec ID : V_MPEG4/ISO/AVC
Duration : 1 h 40 min
Bit rate : 20.3 Mb/s
Width : 1 920 pixels
Height : 804 pixels
Display aspect ratio : 2.40:1
Frame rate mode : Constant
Frame rate : 23.976 (24000/1001) FPS
Color space : YUV
Chroma subsampling : 4:2:0
Bit depth : 8 bits
Scan type : Progressive
Bits/(Pixel*Frame) : 0.548
Stream size : 14.2 GiB (92%)
Title : playHD
Writing library : x264 core 164 r3094 bfc87b7
Encoding settings : cabac=1 / ref=5 / deblock=1:-3:-3 / analyse=0x3:0x133 / me=umh / subme=10 / psy=1 / psy_rd=1.00:0.00 / mixed_ref=1 / me_range=32 / chroma_me=1 / trellis=2 / 8x8dct=1 / cqm=0 / deadzone=21,11 / fast_pskip=0 / chroma_qp_offset=-2 / threads=20 / lookahead_threads=3 / sliced_threads=0 / nr=0 / decimate=0 / interlaced=0 / bluray_compat=0 / constrained_intra=0 / bframes=8 / b_pyramid=2 / b_adapt=2 / b_bias=0 / direct=3 / weightb=1 / open_gop=0 / weightp=2 / keyint=250 / keyint_min=23 / scenecut=40 / intra_refresh=0 / rc=crf / mbtree=0 / crf=18.6 / qcomp=0.60 / qpmin=0 / qpmax=69 / qpstep=4 / ip_ratio=1.25 / pb_ratio=1.15 / aq=3:0.85 / zones=135335,143880,b=0.7
Language : English
Default : Yes
Forced : No
Audio #1
ID : 2
Format : AC-3
Format/Info : Audio Coding 3
Commercial name : Dolby Digital
Codec ID : A_AC3
Duration : 1 h 40 min
Bit rate mode : Constant
Bit rate : 384 kb/s
Channel(s) : 6 channels
Channel layout : L R C LFE Ls Rs
Sampling rate : 48.0 kHz
Frame rate : 31.250 FPS (1536 SPF)
Compression mode : Lossy
Stream size : 275 MiB (2%)
Title : Dub
Language : Russian
Service kind : Complete Main
Default : Yes
Forced : Yes
Audio #2
ID : 3
Format : AC-3
Format/Info : Audio Coding 3
Commercial name : Dolby Digital
Codec ID : A_AC3
Duration : 1 h 40 min
Bit rate mode : Constant
Bit rate : 448 kb/s
Channel(s) : 6 channels
Channel layout : L R C LFE Ls Rs
Sampling rate : 48.0 kHz
Frame rate : 31.250 FPS (1536 SPF)
Compression mode : Lossy
Stream size : 321 MiB (2%)
Title : MVO [Jaskier]
Language : Russian
Service kind : Complete Main
Default : No
Forced : No
Audio #3
ID : 4
Format : AC-3
Format/Info : Audio Coding 3
Commercial name : Dolby Digital
Codec ID : A_AC3
Duration : 1 h 40 min
Bit rate mode : Constant
Bit rate : 192 kb/s
Channel(s) : 2 channels
Channel layout : L R
Sampling rate : 48.0 kHz
Frame rate : 31.250 FPS (1536 SPF)
Compression mode : Lossy
Stream size : 137 MiB (1%)
Title : MVO [TVShows]
Language : Russian
Service kind : Complete Main
Default : No
Forced : No
Audio #4
ID : 5
Format : AC-3
Format/Info : Audio Coding 3
Commercial name : Dolby Digital
Codec ID : A_AC3
Duration : 1 h 40 min
Bit rate mode : Constant
Bit rate : 640 kb/s
Channel(s) : 6 channels
Channel layout : L R C LFE Ls Rs
Sampling rate : 48.0 kHz
Frame rate : 31.250 FPS (1536 SPF)
Compression mode : Lossy
Stream size : 458 MiB (3%)
Title : Original
Language : English
Service kind : Complete Main
Default : No
Forced : No
Text #1
ID : 6
Format : UTF-8
Codec ID : S_TEXT/UTF8
Codec ID/Info : UTF-8 Plain Text
Duration : 1 h 28 min
Bit rate : 13 b/s
Count of elements : 151
Stream size : 8.64 KiB (0%)
Title : Forced [Songs]
Language : Russian
Default : Yes
Forced : Yes
Text #2
ID : 7
Format : UTF-8
Codec ID : S_TEXT/UTF8
Codec ID/Info : UTF-8 Plain Text
Duration : 1 h 34 min
Bit rate : 150 b/s
Count of elements : 1931
Stream size : 105 KiB (0%)
Title : Full
Language : Russian
Default : No
Forced : No
Text #3
ID : 8
Format : UTF-8
Codec ID : S_TEXT/UTF8
Codec ID/Info : UTF-8 Plain Text
Duration : 1 h 39 min
Bit rate : 76 b/s
Count of elements : 1990
Stream size : 55.6 KiB (0%)
Title : Full
Language : English
Default : No
Forced : No
Text #4
ID : 9
Format : UTF-8
Codec ID : S_TEXT/UTF8
Codec ID/Info : UTF-8 Plain Text
Duration : 1 h 39 min
Bit rate : 90 b/s
Count of elements : 2288
Stream size : 66.4 KiB (0%)
Title : SDH
Language : English
Default : No
Forced : No
Menu
00:00:00.000 : :Chapter 01
00:03:09.439 : :Chapter 02
00:09:08.965 : :Chapter 03
00:14:07.847 : :Chapter 04
00:20:35.484 : :Chapter 05
00:27:24.977 : :Chapter 06
00:32:08.927 : :Chapter 07
00:36:16.549 : :Chapter 08
00:41:26.776 : :Chapter 09
00:45:50.164 : :Chapter 10
00:49:08.821 : :Chapter 11
00:55:01.089 : :Chapter 12
00:58:38.890 : :Chapter 13
01:05:41.020 : :Chapter 14
01:10:36.232 : :Chapter 15
01:12:40.439 : :Chapter 16
01:15:45.166 : :Chapter 17
01:20:25.195 : :Chapter 18
01:25:28.832 : :Chapter 19
01:30:56.326 : :Chapter 20

admin

Post 06-Jun-2022 06:36

[Quote]

Информация о фильме
Название: Плохие парни
Оригинальное название: The Bad Guys
Год выхода: 2022
Жанр: Мультфильм, комедия, криминал, приключения, семейный
Режиссер: Пьер Перифел
В ролях: Сэм Рокуэлл, Марк Мэрон, Аквафина, Крэйг Робинсон, Энтони Рамос, Ричард Айоади, Зази Битц, Алекс Борштейн, Лилли Сингх, Барбара Гудсон

О фильме: Мир еще не видел столь искусных авантюристов: ловкий карманник Мистер Волк, опытный взломщик сейфов Мистер Змей, хладнокровный мастер маскировки Мистер Акула, вспыльчивый и мускулистый Мистер Пиранья, а также остроумная хакер высшего класса Мисс Тарантула. Однако даже самые умные преступники иногда допускают ошибки. Чтобы спастись от неминуемый тюрьмы, главарь банды Мистер Волк вынужден идти на крайние меры: «Плохие парни» должны измениться в лучшую сторону. Или сделать вид? Но когда новый злодей угрожает городу, сможет ли Мистер Волк убедить остальных действительно стать… хорошими ребятами?
Страна: США
Студия: DreamWorks Animation, Universal Pictures
Продолжительность: 01:40:07
Перевод(ы):
#1: Дублированный | Пифагор
#2: Профессиональный многоголосый | Jaskier
#3: Профессиональный многоголосый | TVShows

Качество: BDRip 720p
Видео: MPEG-4 AVC, 1280x536, 9489 Kbit/s, 23.976 fps
Аудио #01: 48 kHz, AC3, 5.1, 384 Kbps | Дублированный | Пифагор | RUS |
Аудио #02: 48 kHz, AC3, 5.1, 448 Kbps | Профессиональный многоголосый | Jaskier | RUS |
Аудио #03: 48 kHz, AC3, 2.0, 192 Kbps | Профессиональный многоголосый | TVShows | RUS |
Аудио #04: 48 kHz, AC3, 5.1, 640 Kbps | Оригинал | ENG |
Субтитры: Русские (Forced (songs), full), английские

Скриншоты

MI

General
Unique ID : 253884019248915635376586336078883186779 (0xBF004893EEFEB45773AC614DA993E85B)
Complete name : E:Video1The.Bad.Guys.2022.BDRip.720p.seleZen.mkv
Format : Matroska
Format version : Version 4
File size : 7.80 GiB
Duration : 1 h 40 min
Overall bit rate : 11.2 Mb/s
Movie name : The Bad Guys 2022 from seleZen
Encoded date : UTC 2022-06-05 17:12:26
Writing application : mkvmerge v59.0.0 ('Shining Star') 64-bit
Writing library : libebml v1.4.2 + libmatroska v1.6.4
Video
ID : 1
Format : AVC
Format/Info : Advanced Video Codec
Format profile : High@L4.1
Format settings : CABAC / 12 Ref Frames
Format settings, CABAC : Yes
Format settings, Reference : 12 frames
Codec ID : V_MPEG4/ISO/AVC
Duration : 1 h 40 min
Bit rate : 9 489 kb/s
Width : 1 280 pixels
Height : 536 pixels
Display aspect ratio : 2.40:1
Frame rate mode : Constant
Frame rate : 23.976 (24000/1001) FPS
Color space : YUV
Chroma subsampling : 4:2:0
Bit depth : 8 bits
Scan type : Progressive
Bits/(Pixel*Frame) : 0.577
Stream size : 6.64 GiB (85%)
Title : playHD
Writing library : x264 core 164 r3075+55M t_mod ~ Encoded by luvBB: JigSaw & droops16
Encoding settings : cabac=1 / ref=12 / deblock=1:-3:-3 / analyse=0x3:0x133 / me=umh / subme=10 / psy=1 / fade_compensate=0.00 / psy_rd=1.00:0.00 / mixed_ref=1 / me_range=32 / chroma_me=1 / trellis=2 / 8x8dct=1 / cqm=0 / deadzone=21,11 / fast_pskip=0 / chroma_qp_offset=-2 / threads=12 / lookahead_threads=2 / sliced_threads=0 / nr=0 / decimate=0 / interlaced=0 / bluray_compat=0 / constrained_intra=0 / fgo=0 / bframes=9 / b_pyramid=2 / b_adapt=2 / b_bias=0 / direct=3 / weightb=1 / open_gop=0 / weightp=2 / keyint=250 / keyint_min=23 / scenecut=40 / intra_refresh=0 / rc=crf / mbtree=0 / crf=16.5000 / qcomp=0.60 / qpmin=0:0:0 / qpmax=69:69:69 / qpstep=4 / ip_ratio=1.30 / pb_ratio=1.20 / aq=3:0.85 / aq-sensitivity=10.00 / aq-factor=1.00:1.00:1.00 / aq2=0 / aq3=0
Language : English
Default : Yes
Forced : No
Audio #1
ID : 2
Format : AC-3
Format/Info : Audio Coding 3
Commercial name : Dolby Digital
Codec ID : A_AC3
Duration : 1 h 40 min
Bit rate mode : Constant
Bit rate : 384 kb/s
Channel(s) : 6 channels
Channel layout : L R C LFE Ls Rs
Sampling rate : 48.0 kHz
Frame rate : 31.250 FPS (1536 SPF)
Compression mode : Lossy
Stream size : 275 MiB (3%)
Title : Dub
Language : Russian
Service kind : Complete Main
Default : Yes
Forced : Yes
Audio #2
ID : 3
Format : AC-3
Format/Info : Audio Coding 3
Commercial name : Dolby Digital
Codec ID : A_AC3
Duration : 1 h 40 min
Bit rate mode : Constant
Bit rate : 448 kb/s
Channel(s) : 6 channels
Channel layout : L R C LFE Ls Rs
Sampling rate : 48.0 kHz
Frame rate : 31.250 FPS (1536 SPF)
Compression mode : Lossy
Stream size : 321 MiB (4%)
Title : MVO [Jaskier]
Language : Russian
Service kind : Complete Main
Default : No
Forced : No
Audio #3
ID : 4
Format : AC-3
Format/Info : Audio Coding 3
Commercial name : Dolby Digital
Codec ID : A_AC3
Duration : 1 h 40 min
Bit rate mode : Constant
Bit rate : 192 kb/s
Channel(s) : 2 channels
Channel layout : L R
Sampling rate : 48.0 kHz
Frame rate : 31.250 FPS (1536 SPF)
Compression mode : Lossy
Stream size : 137 MiB (2%)
Title : MVO [TVShows]
Language : Russian
Service kind : Complete Main
Default : No
Forced : No
Audio #4
ID : 5
Format : AC-3
Format/Info : Audio Coding 3
Commercial name : Dolby Digital
Codec ID : A_AC3
Duration : 1 h 40 min
Bit rate mode : Constant
Bit rate : 640 kb/s
Channel(s) : 6 channels
Channel layout : L R C LFE Ls Rs
Sampling rate : 48.0 kHz
Frame rate : 31.250 FPS (1536 SPF)
Compression mode : Lossy
Stream size : 458 MiB (6%)
Title : Original
Language : English
Service kind : Complete Main
Default : No
Forced : No
Text #1
ID : 6
Format : UTF-8
Codec ID : S_TEXT/UTF8
Codec ID/Info : UTF-8 Plain Text
Duration : 1 h 28 min
Bit rate : 13 b/s
Count of elements : 151
Stream size : 8.64 KiB (0%)
Title : Forced [Songs]
Language : Russian
Default : Yes
Forced : Yes
Text #2
ID : 7
Format : UTF-8
Codec ID : S_TEXT/UTF8
Codec ID/Info : UTF-8 Plain Text
Duration : 1 h 34 min
Bit rate : 150 b/s
Count of elements : 1931
Stream size : 105 KiB (0%)
Title : Full
Language : Russian
Default : No
Forced : No
Text #3
ID : 8
Format : UTF-8
Codec ID : S_TEXT/UTF8
Codec ID/Info : UTF-8 Plain Text
Duration : 1 h 39 min
Bit rate : 76 b/s
Count of elements : 1990
Stream size : 55.6 KiB (0%)
Title : Full
Language : English
Default : No
Forced : No
Text #4
ID : 9
Format : UTF-8
Codec ID : S_TEXT/UTF8
Codec ID/Info : UTF-8 Plain Text
Duration : 1 h 39 min
Bit rate : 90 b/s
Count of elements : 2288
Stream size : 66.4 KiB (0%)
Title : SDH
Language : English
Default : No
Forced : No
Menu
00:00:00.000 : :Chapter 01
00:03:09.439 : :Chapter 02
00:09:08.965 : :Chapter 03
00:14:07.847 : :Chapter 04
00:20:35.484 : :Chapter 05
00:27:24.977 : :Chapter 06
00:32:08.927 : :Chapter 07
00:36:16.549 : :Chapter 08
00:41:26.776 : :Chapter 09
00:45:50.164 : :Chapter 10
00:49:08.821 : :Chapter 11
00:55:01.089 : :Chapter 12
00:58:38.890 : :Chapter 13
01:05:41.020 : :Chapter 14
01:10:36.232 : :Chapter 15
01:12:40.439 : :Chapter 16
01:15:45.166 : :Chapter 17
01:20:25.195 : :Chapter 18
01:25:28.832 : :Chapter 19
01:30:56.326 : :Chapter 20

admin

Post 31-May-2022 05:55

[Quote]

Информация о фильме
Название: Пламенное сердце
Оригинальное название: Vaillante / Fireheart
Год выхода: 2022
Жанр: Мультфильм, комедия, приключения, семейный
Режиссер: Теодор Ти, Лоран Зэйтун
В ролях: Оливия Кук, Кеннет Брана, Лори Холден, Уильям Шетнер, Мара Жюно, Уайлекс Ли, Райан В. Гарсиа, Алис Поль, Венсан Кассель, Валери Лемерсье, Клаудия Тагбо, Эли Семун, Эммануэль Кюртиль, Эммануэль Гариджо, Александр Н’Гуэн

О фильме: С самого детства у Джорджии Нолан была только одна мечта: стать пожарным, как ее папа! К сожалению, законы того времени не оставляли шанса этой мечте осуществиться. Но когда в городе стали один за другим пропадать пожарные, а таинственные пожары — сжигать дотла городские театры, Джорджиа поняла: вот она, ее возможность! Переодевшись в «Джо», неуклюжего парня с усиками, она присоединяется к команде пожарных-добровольцев, которым поручено остановить загадочного поджигателя. Джорджии придется здорово постараться, чтобы ее не раскрыли, особенно учитывая, что возглавляет рискованное расследование ее отец.
Страна: Франция, Канада
Студия: Entertainment One, L'Atelier Animation, Anton Capital Entertainment, Main Journey, Caramel Film
Продолжительность: 01:32:17
Перевод: Дублированный | IYUNO SDI Group
Качество: BDRip 1080p
Видео: MPEG-4 AVC, 1920x804, 12.3 Mbit/s, 24.000 fps
Аудио #01: 48 kHz, AC3, 5.1, 448 Kbps | Дублированный | IYUNO SDI Group | RUS |
Аудио #02: 48 kHz, AC3, 5.1, 640 Kbps | Оригинал | FRE |
Субтитры: Английские

Скриншоты

MI

General
Unique ID : 18611164404144124927128215674626921455 (0xE00613FFC310AA45D40CBB4B56253EF)
Complete name : E:Video1Vaillante.2022.BDRip.1080p.seleZen.mkv
Format : Matroska
Format version : Version 4
File size : 8.63 GiB
Duration : 1 h 32 min
Overall bit rate : 13.4 Mb/s
Movie name : Fireheart 2022 from seleZen
Encoded date : UTC 2022-05-30 10:15:43
Writing application : mkvmerge v59.0.0 ('Shining Star') 64-bit
Writing library : libebml v1.4.2 + libmatroska v1.6.4
Video
ID : 1
Format : AVC
Format/Info : Advanced Video Codec
Format profile : High@L4.1
Format settings : CABAC / 5 Ref Frames
Format settings, CABAC : Yes
Format settings, Reference : 5 frames
Codec ID : V_MPEG4/ISO/AVC
Duration : 1 h 32 min
Bit rate : 12.3 Mb/s
Width : 1 920 pixels
Height : 804 pixels
Display aspect ratio : 2.40:1
Frame rate mode : Constant
Frame rate : 24.000 FPS
Color space : YUV
Chroma subsampling : 4:2:0
Bit depth : 8 bits
Scan type : Progressive
Bits/(Pixel*Frame) : 0.332
Stream size : 7.93 GiB (92%)
Writing library : x264 core 146 -from seleZen
Encoding settings : cabac=1 / ref=5 / deblock=1:-2:-2 / analyse=0x3:0x133 / me=umh / subme=10 / psy=1 / psy_rd=1.05:0.03 / mixed_ref=1 / me_range=48 / chroma_me=1 / trellis=2 / 8x8dct=1 / cqm=0 / deadzone=21,11 / fast_pskip=0 / chroma_qp_offset=-3 / threads=48 / lookahead_threads=6 / sliced_threads=0 / nr=0 / decimate=0 / interlaced=0 / bluray_compat=0 / constrained_intra=0 / bframes=9 / b_pyramid=2 / b_adapt=2 / b_bias=0 / direct=3 / weightb=1 / open_gop=0 / weightp=2 / keyint=240 / keyint_min=23 / scenecut=40 / intra_refresh=0 / rc_lookahead=50 / rc=2pass / mbtree=0 / bitrate=12300 / ratetol=1.0 / qcomp=0.60 / qpmin=0 / qpmax=51 / qpstep=4 / cplxblur=20.0 / qblur=0.5 / vbv_maxrate=50000 / vbv_bufsize=62500 / nal_hrd=none / filler=0 / ip_ratio=1.40 / pb_ratio=1.30 / aq=3:0.80
Language : English
Default : Yes
Forced : No
Audio #1
ID : 2
Format : AC-3
Format/Info : Audio Coding 3
Commercial name : Dolby Digital
Codec ID : A_AC3
Duration : 1 h 32 min
Bit rate mode : Constant
Bit rate : 448 kb/s
Channel(s) : 6 channels
Channel layout : L R C LFE Ls Rs
Sampling rate : 48.0 kHz
Frame rate : 31.250 FPS (1536 SPF)
Compression mode : Lossy
Stream size : 296 MiB (3%)
Title : Dub
Language : Russian
Service kind : Complete Main
Default : Yes
Forced : Yes
Audio #2
ID : 3
Format : AC-3
Format/Info : Audio Coding 3
Commercial name : Dolby Digital
Codec ID : A_AC3
Duration : 1 h 32 min
Bit rate mode : Constant
Bit rate : 640 kb/s
Channel(s) : 6 channels
Channel layout : L R C LFE Ls Rs
Sampling rate : 48.0 kHz
Frame rate : 31.250 FPS (1536 SPF)
Bit depth : 16 bits
Compression mode : Lossy
Stream size : 422 MiB (5%)
Title : Original
Language : French
Service kind : Complete Main
Default : No
Forced : No
Text #1
ID : 4
Format : UTF-8
Codec ID : S_TEXT/UTF8
Codec ID/Info : UTF-8 Plain Text
Duration : 1 h 26 min
Bit rate : 70 b/s
Count of elements : 1492
Stream size : 44.8 KiB (0%)
Title : Full
Language : English
Default : No
Forced : No
Text #2
ID : 5
Format : UTF-8
Codec ID : S_TEXT/UTF8
Codec ID/Info : UTF-8 Plain Text
Duration : 1 h 28 min
Bit rate : 80 b/s
Count of elements : 1782
Stream size : 51.6 KiB (0%)
Title : SDH
Language : English
Default : No
Forced : No
Menu
00:00:00.000 : fr:Chapter 01
00:07:17.791 : fr:Chapter 02
00:15:19.166 : fr:Chapter 03
00:22:57.041 : fr:Chapter 04
00:29:16.541 : fr:Chapter 05
00:36:29.500 : fr:Chapter 06
00:42:55.333 : fr:Chapter 07
00:51:36.500 : fr:Chapter 08
00:58:35.041 : fr:Chapter 09
01:05:06.750 : fr:Chapter 10
01:13:05.833 : fr:Chapter 11
01:19:56.333 : fr:Chapter 12

admin

Post 26-May-2022 05:31

[Quote]

Чип и Дейл спешат на помощь / Chip 'n Dale: Rescue Rangers
Год выпуска: 2022
Выпущено: США, Mandeville Films, Walt Disney Pictures, Big Flick Rentals, The Moving Picture Company, Technicolor Limited
Жанр: Мультфильм, комедия, детектив, приключения, семейный
Режиссер: Акива Шаффер / Akiva Schaffer
В ролях: Энди Сэмберг, Джон Малэйни, КиКи Лэйн, Уилл Арнетт, Эрик Бана, Флула Борг, Дэннис Хэйсбёрт, Кигэн-Майкл Ки, Тресс МакНилл, Тим Робинсон-О фильме: «Чип и Дейл спешат на помощь» — известное шоу, в котором когда-то снимались бурундуки и их друзья. Прошло 30 лет. Чип стал страховым агентом, а Дейл зарабатывает, рассказывая о своих прежних успехах на разных фестивалях. Но когда пропадает их друг, бурундуки снова объединяются, чтобы спасти товарища.
-Продолжительность: 01:36:45
Перевод: Профессиональный, многоголосый закадровый (Jaskier)
Субтитры: Русские (Cool Story Blog), английские
Формат: MKV
Качество: WEB-DL 1080p
Видео: MPEG-4 AVC, 6873 Кбит/с, 1920x1080
Аудио #1: AC3, 6 ch, 448 Кбит/с | RUS | Tnx.KinoPub
Аудио #2: AC3 JOC, 6 ch, 768 Кбит/с | ENG |

Скриншоты

-

MediaInfo

General
Unique ID : 173417851284212605919363227420691516634 (0x827710325428D7231AACA01EA31BCCDA)
Complete name : E:TorrentsChip.n.Dale.2022.1080p_от New-Team.mkv
Format : Matroska
Format version : Version 4
File size : 5.47 GiB
Duration : 1 h 36 min
Overall bit rate mode : Variable
Overall bit rate : 8 091 kb/s
Movie name : Chip.n.Dale.2022.1080p_от New-Team
Encoded date : UTC 2022-05-25 03:29:59
Writing application : mkvmerge v59.0.0 ('Shining Star') 64-bit
Writing library : libebml v1.4.2 + libmatroska v1.6.4
Video
ID : 1
Format : AVC
Format/Info : Advanced Video Codec
Format profile : High@L4
Format settings : CABAC / 4 Ref Frames
Format settings, CABAC : Yes
Format settings, Reference : 4 frames
Codec ID : V_MPEG4/ISO/AVC
Duration : 1 h 36 min
Bit rate mode : Variable
Bit rate : 6 873 kb/s
Maximum bit rate : 12.7 Mb/s
Width : 1 920 pixels
Height : 1 080 pixels
Display aspect ratio : 16:9
Frame rate mode : Constant
Frame rate : 24.000 FPS
Color space : YUV
Chroma subsampling : 4:2:0
Bit depth : 8 bits
Scan type : Progressive
Bits/(Pixel*Frame) : 0.138
Stream size : 4.65 GiB (85%)
Language : English
Default : Yes
Forced : No
Color range : Limited
Color primaries : BT.709
Transfer characteristics : BT.709
Matrix coefficients : BT.709
Audio #1
ID : 2
Format : AC-3
Format/Info : Audio Coding 3
Commercial name : Dolby Digital
Codec ID : A_AC3
Duration : 1 h 36 min
Bit rate mode : Constant
Bit rate : 448 kb/s
Channel(s) : 6 channels
Channel layout : L R C LFE Ls Rs
Sampling rate : 48.0 kHz
Frame rate : 31.250 FPS (1536 SPF)
Compression mode : Lossy
Stream size : 310 MiB (6%)
Title : MVO - Jaskier
Language : Russian
Service kind : Complete Main
Default : Yes
Forced : No
Audio #2
ID : 3
Format : E-AC-3 JOC
Format/Info : Enhanced AC-3 with Joint Object Coding
Commercial name : Dolby Digital Plus with Dolby Atmos
Codec ID : A_EAC3
Duration : 1 h 36 min
Bit rate mode : Constant
Bit rate : 768 kb/s
Channel(s) : 6 channels
Channel layout : L R C LFE Ls Rs
Sampling rate : 48.0 kHz
Frame rate : 31.250 FPS (1536 SPF)
Compression mode : Lossy
Stream size : 532 MiB (9%)
Language : English
Service kind : Complete Main
Default : No
Forced : No
Complexity index : 16
Number of dynamic objects : 15
Bed channel count : 1 channel
Bed channel configuration : LFE
Text #1
ID : 4
Format : UTF-8
Codec ID : S_TEXT/UTF8
Codec ID/Info : UTF-8 Plain Text
Duration : 1 h 28 min
Bit rate : 155 b/s
Count of elements : 1447
Stream size : 101 KiB (0%)
Title : Cool Story Blog
Language : Russian
Default : No
Forced : No
Text #2
ID : 5
Format : UTF-8
Codec ID : S_TEXT/UTF8
Codec ID/Info : UTF-8 Plain Text
Duration : 1 h 35 min
Bit rate : 95 b/s
Count of elements : 1688
Stream size : 67.0 KiB (0%)
Title : SDH
Language : English
Default : No
Forced : No
Text #3
ID : 6
Format : UTF-8
Codec ID : S_TEXT/UTF8
Codec ID/Info : UTF-8 Plain Text
Duration : 1 h 28 min
Bit rate : 90 b/s
Count of elements : 1490
Stream size : 59.2 KiB (0%)
Language : English
Default : No
Forced : No

admin

Post 15-May-2022 16:09

[Quote]

Информация о фильме
Название: Стражи терракоты
Оригинальное название: Yong zhi cheng / Realm of Terracotta
Год выхода: 2021
Жанр: мультфильм, боевик, фэнтези, полнометражный
Режиссер: Дин Лян, Линь Юнчан
В ролях: Цзыю Чжоу, Сяо Тан, Чжу Гуанцзу, Минг Чжан, Пэй Лю, Дин Лян, Лю Бэй
О фильме:Стражи волшебной Терракоты и магические существа Ониксы на протяжении многих столетий ведут войны друг с другом в подземном царстве. Молодой человек Магнус мечтает стать терракотовым воином, а для этого ему необходимо поймать одного из Ониксов. Магнус отправляется на поиски таинственного создания и встречает молодую девушку Джейд, которая также ищет Оникса. Герои влюбляются и объединяются, чтобы узнать настоящую причину вторжения монстров…

Выпущено: Китай / Fantawild Animation Inc.
Продолжительность: 01:49:06
Озвучивание: Дублированное [IVI]
Файл
Формат: MKV (x264)
Качество: WEB-DL 1080p
Видео: 5120 Kb/s, 1920x804
Аудио: Russian: AC3, 384 Kb/s (6 ch)
Субтитры: Нет
Дополнительно: Нет

Инфо-файл:

Complete name : Strazhi.terrakotyi.2021.WEB-DL.1080p.ELEKTRI4KA.UNIONGANG.mkv
Format : Matroska
Format version : Version 4
File size : 4.19 GiB
Duration : 1 h 49 min
Overall bit rate : 5 494 kb/s
Movie name : Strazhi.terrakotyi.2021.WEB-DL.1080p.ELEKTRI4KA.UNIONGANG.
Encoded date : UTC 2022-05-14 15:10:00
Writing application : mkvmerge v8.3.0 ('Over the Horizon') 32bit
Writing library : libebml v1.3.1 + libmatroska v1.4.2
Video
ID : 1
Format : AVC
Format/Info : Advanced Video Codec
Format profile : High@L4
Format settings : CABAC / 4 Ref Frames
Format settings, CABAC : Yes
Format settings, Reference frames : 4 frames
Codec ID : V_MPEG4/ISO/AVC
Duration : 1 h 49 min
Bit rate : 5 120 kb/s
Width : 1 920 pixels
Height : 804 pixels
Display aspect ratio : 2.40:1
Frame rate mode : Constant
Frame rate : 24.000 FPS
Color space : YUV
Chroma subsampling : 4:2:0
Bit depth : 8 bits
Scan type : Progressive
Bits/(Pixel*Frame) : 0.138
Stream size : 3.89 GiB (93%)
Writing library : x264 core 152 r2854 e9a5903
Encoding settings : cabac=1 / ref=3 / deblock=1:0:0 / analyse=0x3:0x113 / me=hex / subme=7 / psy=1 / psy_rd=1.00:0.00 / mixed_ref=1 / me_range=16 / chroma_me=1 / trellis=1 / 8x8dct=1 / cqm=0 / deadzone=21,11 / fast_pskip=1 / chroma_qp_offset=-2 / threads=25 / lookahead_threads=4 / sliced_threads=0 / nr=0 / decimate=1 / interlaced=0 / bluray_compat=0 / constrained_intra=0 / bframes=6 / b_pyramid=2 / b_adapt=1 / b_bias=0 / direct=1 / weightb=1 / open_gop=0 / weightp=2 / keyint=48 / keyint_min=25 / scenecut=0 / intra_refresh=0 / rc_lookahead=40 / rc=2pass / mbtree=1 / bitrate=5120 / ratetol=1.0 / qcomp=0.60 / qpmin=0 / qpmax=69 / qpstep=4 / cplxblur=20.0 / qblur=0.5 / vbv_maxrate=7680 / vbv_bufsize=20480 / nal_hrd=none / filler=0 / ip_ratio=1.40 / aq=1:1.00
Default : Yes
Forced : No
Audio
ID : 2
Format : AC-3
Format/Info : Audio Coding 3
Commercial name : Dolby Digital
Codec ID : A_AC3
Duration : 1 h 49 min
Bit rate mode : Constant
Bit rate : 384 kb/s
Channel(s) : 6 channels
Channel layout : L R C LFE Ls Rs
Sampling rate : 48.0 kHz
Frame rate : 31.250 FPS (1536 SPF)
Compression mode : Lossy
Stream size : 300 MiB (7%)
Title : DUB (IVI)
Language : Russian
Service kind : Complete Main
Default : Yes
Forced : Yes

Скриншоты

admin

Post 25-Apr-2022 02:12

[Quote]

Информация о фильме
Название: Я краснею
Оригинальное название: Turning Red
Год выхода: 2022
Жанр: Мультфильм, фэнтези, комедия, приключения, семейный
Режиссер: Доми Ши
В ролях: Розали Чян, Сандра О, Ава Морс, Майтреи Рамакришнан, Пак Хе-ин, Джеймс Хонг, Саша Ройз, Джордан Фишер, Финнеас О’Коннелл, Вай Чин Хо

О фильме: 13-летней Мей Ли непросто дается подростковый возраст — девочка разрывается между своими проблемами и между тем, чтобы оставаться прилежной и любящей маминой дочкой. Но кроме перемен в собственном теле, в интересах и отношениях, Мей Ли сталкивается с еще одной очень странной своей особенностью. Всякий раз, когда она слишком волнуется (а с подростком это случается практически всегда), героиня тут же превращается в гигантскую красную панду.
Страна: США, Канада
Студия: Pixar Animation Studios, Walt Disney Pictures
Продолжительность: 01:39:40
Перевод: Профессиональный многоголосый | Jaskier
Качество: BDRip 720p
Видео: MPEG-4 AVC, 1280x692, 6451 Кbit/s, 23.976 fps
Аудио #01: 48 kHz, AC3, 5.1, 448 Kbps | Профессиональный многоголосый | Jaskier | RUS |
Аудио #02: 48 kHz, AC3, 5.1, 640 Kbps | Оригинал | ENG |
Субтитры: Русские (Full), английские

Скриншоты

MI

General
Unique ID : 139980031910917845012835908360396836727 (0x694F2C6AFA51625416297BCD6A0B8F77)
Complete name : D:Video1Turning.Red.2022.BDRip.720p.seleZen.mkv
Format : Matroska
Format version : Version 4
File size : 5.25 GiB
Duration : 1 h 39 min
Overall bit rate : 7 540 kb/s
Movie name : Turning Red 2022 from seleZen
Encoded date : UTC 2022-04-24 10:10:32
Writing application : mkvmerge v59.0.0 ('Shining Star') 64-bit
Writing library : libebml v1.4.2 + libmatroska v1.6.4
Video
ID : 1
Format : AVC
Format/Info : Advanced Video Codec
Format profile : High@L4.1
Format settings : CABAC / 9 Ref Frames
Format settings, CABAC : Yes
Format settings, Reference : 9 frames
Codec ID : V_MPEG4/ISO/AVC
Duration : 1 h 39 min
Bit rate : 6 451 kb/s
Width : 1 280 pixels
Height : 692 pixels
Display aspect ratio : 1.85:1
Frame rate mode : Constant
Frame rate : 23.976 (24000/1001) FPS
Color space : YUV
Chroma subsampling : 4:2:0
Bit depth : 8 bits
Scan type : Progressive
Bits/(Pixel*Frame) : 0.304
Stream size : 4.49 GiB (86%)
Title : MTeam
Writing library : x264 core 157 r2938 2b00a84 TnP@MTeam Mod
Encoding settings : cabac=1 / ref=9 / deblock=1:-3:-3 / analyse=0x3:0x133 / me=umh / subme=10 / psy=1 / psy_rd=1.05:0.00 / mixed_ref=1 / me_range=32 / chroma_me=1 / trellis=2 / 8x8dct=1 / cqm=0 / deadzone=21,11 / fast_pskip=0 / chroma_qp_offset=-2 / threads=12 / lookahead_threads=2 / sliced_threads=0 / nr=0 / decimate=0 / interlaced=0 / bluray_compat=0 / constrained_intra=0 / bframes=8 / b_pyramid=2 / b_adapt=2 / b_bias=0 / direct=3 / weightb=1 / open_gop=0 / weightp=2 / keyint=250 / keyint_min=24 / scenecut=40 / intra_refresh=0 / rc_lookahead=250 / rc=crf / mbtree=0 / crf=16.8 / qcomp=0.60 / qpmin=0 / qpmax=69 / qpstep=4 / vbv_maxrate=62500 / vbv_bufsize=78125 / crf_max=0.0 / nal_hrd=none / filler=0 / ip_ratio=1.30 / pb_ratio=1.20 / aq=3:0.80
Language : English
Default : Yes
Forced : No
Color range : Limited
Color primaries : BT.709
Matrix coefficients : BT.709
Audio #1
ID : 2
Format : AC-3
Format/Info : Audio Coding 3
Commercial name : Dolby Digital
Codec ID : A_AC3
Duration : 1 h 39 min
Bit rate mode : Constant
Bit rate : 448 kb/s
Channel(s) : 6 channels
Channel layout : L R C LFE Ls Rs
Sampling rate : 48.0 kHz
Frame rate : 31.250 FPS (1536 SPF)
Compression mode : Lossy
Stream size : 319 MiB (6%)
Title : MVO [Jaskier]
Language : Russian
Service kind : Complete Main
Default : Yes
Forced : Yes
Audio #2
ID : 3
Format : AC-3
Format/Info : Audio Coding 3
Commercial name : Dolby Digital
Codec ID : A_AC3
Duration : 1 h 39 min
Bit rate mode : Constant
Bit rate : 640 kb/s
Channel(s) : 6 channels
Channel layout : L R C LFE Ls Rs
Sampling rate : 48.0 kHz
Frame rate : 31.250 FPS (1536 SPF)
Compression mode : Lossy
Stream size : 456 MiB (8%)
Title : Original
Language : English
Service kind : Complete Main
Default : No
Forced : No
Text #1
ID : 4
Format : UTF-8
Codec ID : S_TEXT/UTF8
Codec ID/Info : UTF-8 Plain Text
Duration : 1 h 37 min
Bit rate : 92 b/s
Count of elements : 1487
Stream size : 66.2 KiB (0%)
Title : Full [FOCS]
Language : Russian
Default : No
Forced : No
Text #2
ID : 5
Format : UTF-8
Codec ID : S_TEXT/UTF8
Codec ID/Info : UTF-8 Plain Text
Duration : 1 h 37 min
Bit rate : 58 b/s
Count of elements : 1694
Stream size : 42.0 KiB (0%)
Title : Full
Language : English
Default : No
Forced : No
Text #3
ID : 6
Format : UTF-8
Codec ID : S_TEXT/UTF8
Codec ID/Info : UTF-8 Plain Text
Duration : 1 h 38 min
Bit rate : 76 b/s
Count of elements : 2138
Stream size : 54.7 KiB (0%)
Title : SDH
Language : English
Default : No
Forced : No
Menu
00:00:00.000 : Chapter 01
00:03:18.323 : Chapter 02
00:06:09.494 : Chapter 03
00:09:26.816 : Chapter 04
00:10:48.481 : Chapter 05
00:15:19.210 : Chapter 06
00:16:06.549 : Chapter 07
00:19:56.111 : Chapter 08
00:23:50.721 : Chapter 09
00:26:51.902 : Chapter 10
00:31:08.783 : Chapter 11
00:36:04.704 : Chapter 12
00:37:58.401 : Chapter 13
00:39:56.018 : Chapter 14
00:42:44.812 : Chapter 15
00:45:28.434 : Chapter 16
00:48:08.427 : Chapter 17
00:50:08.130 : Chapter 18
00:52:51.876 : Chapter 19
00:55:07.887 : Chapter 20
00:56:27.592 : Chapter 21
00:59:53.506 : Chapter 22
01:01:54.001 : Chapter 23
01:03:31.432 : Chapter 24
01:05:53.240 : Chapter 25
01:11:10.224 : Chapter 26
01:14:42.144 : Chapter 27
01:18:46.179 : Chapter 28
01:21:37.350 : Chapter 29
01:26:53.791 : Chapter 30
01:28:56.956 : Chapter 31
01:38:38.328 : Chapter 32

admin

Post 25-Apr-2022 02:08

[Quote]

Информация о фильме
Название: Я краснею
Оригинальное название: Turning Red
Год выхода: 2022
Жанр: Мультфильм, фэнтези, комедия, приключения, семейный
Режиссер: Доми Ши
В ролях: Розали Чян, Сандра О, Ава Морс, Майтреи Рамакришнан, Пак Хе-ин, Джеймс Хонг, Саша Ройз, Джордан Фишер, Финнеас О’Коннелл, Вай Чин Хо

О фильме: 13-летней Мей Ли непросто дается подростковый возраст — девочка разрывается между своими проблемами и между тем, чтобы оставаться прилежной и любящей маминой дочкой. Но кроме перемен в собственном теле, в интересах и отношениях, Мей Ли сталкивается с еще одной очень странной своей особенностью. Всякий раз, когда она слишком волнуется (а с подростком это случается практически всегда), героиня тут же превращается в гигантскую красную панду.
Страна: США, Канада
Студия: Pixar Animation Studios, Walt Disney Pictures
Продолжительность: 01:39:40
Перевод: Профессиональный многоголосый | Jaskier
Качество: BDRip 1080p
Видео: MPEG-4 AVC, 1920x1036, 16.6 Mbit/s, 23.976 fps
Аудио #01: 48 kHz, AC3, 5.1, 448 Kbps | Профессиональный многоголосый | Jaskier | RUS |
Аудио #02: 48 kHz, AC3, 5.1, 640 Kbps | Оригинал | ENG |
Субтитры: Русские (Full), английские

Скриншоты

MI

General
Unique ID : 272403815157974274860608148108472714016 (0xCCEF110360FAE2C92FDD68BEB9878320)
Complete name : D:Video1Turning.Red.2022.BDRip.1080p.seleZen.mkv
Format : Matroska
Format version : Version 4
File size : 12.3 GiB
Duration : 1 h 39 min
Overall bit rate : 17.7 Mb/s
Movie name : Turning Red 2022 from seleZen
Encoded date : UTC 2022-04-24 09:55:50
Writing application : mkvmerge v59.0.0 ('Shining Star') 64-bit
Writing library : libebml v1.4.2 + libmatroska v1.6.4
Video
ID : 1
Format : AVC
Format/Info : Advanced Video Codec
Format profile : High@L4.1
Format settings : CABAC / 4 Ref Frames
Format settings, CABAC : Yes
Format settings, Reference : 4 frames
Codec ID : V_MPEG4/ISO/AVC
Duration : 1 h 39 min
Bit rate : 16.6 Mb/s
Width : 1 920 pixels
Height : 1 036 pixels
Display aspect ratio : 1.85:1
Frame rate mode : Constant
Frame rate : 23.976 (24000/1001) FPS
Color space : YUV
Chroma subsampling : 4:2:0
Bit depth : 8 bits
Scan type : Progressive
Bits/(Pixel*Frame) : 0.348
Stream size : 11.5 GiB (94%)
Title : MTeam
Writing library : x264 core 157 r2938 2b00a84 TnP@MTeam Mod
Encoding settings : cabac=1 / ref=4 / deblock=1:-3:-3 / analyse=0x3:0x133 / me=umh / subme=10 / psy=1 / psy_rd=1.05:0.00 / mixed_ref=1 / me_range=32 / chroma_me=1 / trellis=2 / 8x8dct=1 / cqm=0 / deadzone=21,11 / fast_pskip=0 / chroma_qp_offset=-2 / threads=12 / lookahead_threads=2 / sliced_threads=0 / nr=0 / decimate=0 / interlaced=0 / bluray_compat=0 / constrained_intra=0 / bframes=8 / b_pyramid=2 / b_adapt=2 / b_bias=0 / direct=3 / weightb=1 / open_gop=0 / weightp=2 / keyint=250 / keyint_min=24 / scenecut=40 / intra_refresh=0 / rc_lookahead=250 / rc=crf / mbtree=0 / crf=16.8 / qcomp=0.60 / qpmin=0 / qpmax=69 / qpstep=4 / vbv_maxrate=62500 / vbv_bufsize=78125 / crf_max=0.0 / nal_hrd=none / filler=0 / ip_ratio=1.30 / pb_ratio=1.20 / aq=3:0.80
Language : English
Default : Yes
Forced : No
Color range : Limited
Color primaries : BT.709
Matrix coefficients : BT.709
Audio #1
ID : 2
Format : AC-3
Format/Info : Audio Coding 3
Commercial name : Dolby Digital
Codec ID : A_AC3
Duration : 1 h 39 min
Bit rate mode : Constant
Bit rate : 448 kb/s
Channel(s) : 6 channels
Channel layout : L R C LFE Ls Rs
Sampling rate : 48.0 kHz
Frame rate : 31.250 FPS (1536 SPF)
Compression mode : Lossy
Stream size : 319 MiB (3%)
Title : MVO [Jaskier]
Language : Russian
Service kind : Complete Main
Default : Yes
Forced : Yes
Audio #2
ID : 3
Format : AC-3
Format/Info : Audio Coding 3
Commercial name : Dolby Digital
Codec ID : A_AC3
Duration : 1 h 39 min
Bit rate mode : Constant
Bit rate : 640 kb/s
Channel(s) : 6 channels
Channel layout : L R C LFE Ls Rs
Sampling rate : 48.0 kHz
Frame rate : 31.250 FPS (1536 SPF)
Compression mode : Lossy
Stream size : 456 MiB (4%)
Title : Original
Language : English
Service kind : Complete Main
Default : No
Forced : No
Text #1
ID : 4
Format : UTF-8
Codec ID : S_TEXT/UTF8
Codec ID/Info : UTF-8 Plain Text
Duration : 1 h 37 min
Bit rate : 92 b/s
Count of elements : 1487
Stream size : 66.2 KiB (0%)
Title : Full [FOCS]
Language : Russian
Default : No
Forced : No
Text #2
ID : 5
Format : UTF-8
Codec ID : S_TEXT/UTF8
Codec ID/Info : UTF-8 Plain Text
Duration : 1 h 37 min
Bit rate : 58 b/s
Count of elements : 1694
Stream size : 42.0 KiB (0%)
Title : Full
Language : English
Default : No
Forced : No
Text #3
ID : 6
Format : UTF-8
Codec ID : S_TEXT/UTF8
Codec ID/Info : UTF-8 Plain Text
Duration : 1 h 38 min
Bit rate : 76 b/s
Count of elements : 2138
Stream size : 54.7 KiB (0%)
Title : SDH
Language : English
Default : No
Forced : No
Menu
00:00:00.000 : Chapter 01
00:03:18.323 : Chapter 02
00:06:09.494 : Chapter 03
00:09:26.816 : Chapter 04
00:10:48.481 : Chapter 05
00:15:19.210 : Chapter 06
00:16:06.549 : Chapter 07
00:19:56.111 : Chapter 08
00:23:50.721 : Chapter 09
00:26:51.902 : Chapter 10
00:31:08.783 : Chapter 11
00:36:04.704 : Chapter 12
00:37:58.401 : Chapter 13
00:39:56.018 : Chapter 14
00:42:44.812 : Chapter 15
00:45:28.434 : Chapter 16
00:48:08.427 : Chapter 17
00:50:08.130 : Chapter 18
00:52:51.876 : Chapter 19
00:55:07.887 : Chapter 20
00:56:27.592 : Chapter 21
00:59:53.506 : Chapter 22
01:01:54.001 : Chapter 23
01:03:31.432 : Chapter 24
01:05:53.240 : Chapter 25
01:11:10.224 : Chapter 26
01:14:42.144 : Chapter 27
01:18:46.179 : Chapter 28
01:21:37.350 : Chapter 29
01:26:53.791 : Chapter 30
01:28:56.956 : Chapter 31
01:38:38.328 : Chapter 32

admin

Post 07-Apr-2022 07:17

[Quote]

Информация о фильме
Название: Мы — монстры 2
Оригинальное название: Monster Family 2
Год выхода: 2021
Жанр: мультфильм, приключения, детский, семейный, полнометражный
Режиссер: Хольгер Таппе
В ролях: Дэниэл Бен Зеноу, Джессика Браун-Финдлэй, Эмили Кэри, Ник Фрост, Джейсон Айзекс, Итан Раус, Кэтрин Тейт, Эмили Уотсон
О фильме:
Баба Яга и Горбун решили сыграть свадьбу! Семья Уишбон точно не пропустит такой праздник, так как теперь они родственники! Но как раз во время церемонии НЕ молодую пару возлюбленных похищает девочка Старр, обладающая сверхчеловеческими способностями! Что ж, Уишбонам придется вновь прибегнуть к помощи магии и снова превратиться в монстров: мама вампир, папа Франкенштейн и их дети — непоседливый оборотень и обаятельная мумия, отправляются в новое приключение. Ведь свадьба должна состояться несмотря ни на что!

Выпущено: Великобритания, Германия / Ambient Entertainment Gmb, HRothkirch Cartoon Film, Timeless Films
Продолжительность: 01:43:03
Озвучивание: Дублированное | iTunes
Файл
Формат: MKV
Качество: BDRip 1080p
Видео: 10.3 Mb/s, 1920x804
Аудио: Russian: AC3, 384 Kb/s (6 ch), English: AC3, 640 Kb/s (6 ch)
Субтитры: English
Дополнительно: Сохранены оригинальные чаптеры.

Инфо-файл:

Complete name : Monster.Family.2.2021.BDRip.1080p.ELEKTRI4KA.UNIONGANG.mkv
Format : Matroska
Format version : Version 4
File size : 8.15 GiB
Duration : 1 h 43 min
Overall bit rate : 11.3 Mb/s
Movie name : Monster.Family.2.2021.BDRip.1080p.ELEKTRI4KA.UNIONGANG
Encoded date : UTC 2022-04-06 20:49:26
Writing application : mkvmerge v8.3.0 ('Over the Horizon') 32bit
Writing library : libebml v1.3.1 + libmatroska v1.4.2
Video
ID : 1
Format : AVC
Format/Info : Advanced Video Codec
Format profile : High@L4.1
Format settings : CABAC / 5 Ref Frames
Format settings, CABAC : Yes
Format settings, Reference frames : 5 frames
Codec ID : V_MPEG4/ISO/AVC
Duration : 1 h 43 min
Bit rate : 10.3 Mb/s
Width : 1 920 pixels
Height : 804 pixels
Display aspect ratio : 2.40:1
Frame rate mode : Constant
Frame rate : 23.976 (24000/1001) FPS
Color space : YUV
Chroma subsampling : 4:2:0
Bit depth : 8 bits
Scan type : Progressive
Bits/(Pixel*Frame) : 0.278
Stream size : 7.41 GiB (91%)
Writing library : x264 core 157 r2958 57baac4
Encoding settings : cabac=1 / ref=5 / deblock=1:-3:-3 / analyse=0x3:0x113 / me=umh / subme=10 / psy=1 / psy_rd=1.00:0.15 / mixed_ref=1 / me_range=32 / chroma_me=1 / trellis=2 / 8x8dct=1 / cqm=0 / deadzone=21,11 / fast_pskip=0 / chroma_qp_offset=-3 / threads=25 / lookahead_threads=4 / sliced_threads=0 / nr=1 / decimate=0 / interlaced=0 / bluray_compat=0 / constrained_intra=0 / bframes=8 / b_pyramid=2 / b_adapt=2 / b_bias=0 / direct=3 / weightb=1 / open_gop=0 / weightp=2 / keyint=240 / keyint_min=24 / scenecut=40 / intra_refresh=0 / rc=2pass / mbtree=0 / bitrate=10300 / ratetol=1.0 / qcomp=0.60 / qpmin=0 / qpmax=69 / qpstep=4 / cplxblur=20.0 / qblur=0.5 / ip_ratio=1.40 / pb_ratio=1.30 / aq=1:1.00
Default : Yes
Forced : No
Audio #1
ID : 2
Format : AC-3
Format/Info : Audio Coding 3
Commercial name : Dolby Digital
Codec ID : A_AC3
Duration : 1 h 43 min
Bit rate mode : Constant
Bit rate : 384 kb/s
Channel(s) : 6 channels
Channel layout : L R C LFE Ls Rs
Sampling rate : 48.0 kHz
Frame rate : 31.250 FPS (1536 SPF)
Compression mode : Lossy
Stream size : 283 MiB (3%)
Title : DUB (iTunes)
Language : Russian
Service kind : Complete Main
Default : Yes
Forced : Yes
Audio #2
ID : 3
Format : AC-3
Format/Info : Audio Coding 3
Commercial name : Dolby Digital
Codec ID : A_AC3
Duration : 1 h 43 min
Bit rate mode : Constant
Bit rate : 640 kb/s
Channel(s) : 6 channels
Channel layout : L R C LFE Ls Rs
Sampling rate : 48.0 kHz
Frame rate : 31.250 FPS (1536 SPF)
Compression mode : Lossy
Stream size : 472 MiB (6%)
Title : Original
Language : English
Service kind : Complete Main
Default : No
Forced : No
Text
ID : 4
Format : UTF-8
Codec ID : S_TEXT/UTF8
Codec ID/Info : UTF-8 Plain Text
Duration : 1 h 41 min
Bit rate : 51 b/s
Count of elements : 1360
Stream size : 38.3 KiB (0%)
Language : English
Default : No
Forced : No
Menu
00:00:00.000 : :Chapter 1
00:06:58.713 : :Chapter 2
00:13:58.922 : :Chapter 3
00:23:11.047 : :Chapter 4
00:31:01.172 : :Chapter 5
00:38:56.838 : :Chapter 6
00:45:47.672 : :Chapter 7
00:53:28.630 : :Chapter 8
01:02:50.672 : :Chapter 9
01:12:42.172 : :Chapter 10
01:21:28.213 : :Chapter 11
01:30:36.713 : :Chapter 12

Скриншоты

admin

Post 02-Feb-2022 06:50

[Quote]

Информация о фильме
Название: Ледниковый период: Приключения Бака
Оригинальное название: The Ice Age Adventures of Buck Wild
Год выхода: 2022
Жанр: Мультфильм, комедия, приключения, семейный
Режиссер: Джон С. Донкин
В ролях: Уткарш Амбудкар, Шон Кенин, Джейк Грин, Аарон Харрис, Доминик Дженнингс, Джастина Мачадо, Саймон Пегг, Скайлер Стоун, Винсент Тонг
О фильме:
Бесстрашный одноглазый хорек Бак объединяется с озорными братьями-опоссумами Крэшем и Эдди, когда они отправляются в новое приключение в мир динозавров.

Страна: США
Студия: 20th Century Studios, Bardel Entertainmen, tBlue Sky Studios
Продолжительность: 01:21:05
Перевод: Профессиональный многоголосый, любительский двухголосый
Файл
Формат: MKV
Качество: WEB-DL 720p
Видео: MPEG-4 AVC, 3688 Кбит/с, 1280x720
Аудио 1: Русский (AC3, 6 ch, 448 Кбит/с) MVO | HDRezka Studio
Аудио 2: Русский (AC3, 6 ch, 448 Кбит/с) DVO | Pazl Voice
Аудио 3: Aнглийский (E-AC3 JOC, 6 ch, 768 Кбит/с) Original
Субтитры: Русские (full (MENINSUB)), английские, испанские, французские, португальские
Семпл

M/I

Общее
Уникальный идентификатор : 217589949613534043575030402573527270136 (0xA3B24CC9E7F1847EA4175A32BFD5C2F8)
Полное имя : D:РаздачаLednikovuyi.Period.2022.WEB-DL 720p.ExKinoRay.mkv
Формат : Matroska
Версия формата : Version 4 / Version 2
Размер файла : 3,03 Гбайт
Продолжительность : 1 ч. 21 м.
Режим общего битрейта : Переменный
Общий поток : 5356 Кбит/сек
Название фильма : The Ice Age Adventures of Buck Wild.2022.WEB-DL 720p.grab777 & ExKinoRay
Дата кодирования : UTC 2022-02-01 19:01:45
Программа кодирования : mkvmerge v7.3.0 ('Nouages') 64bit built on Oct 22 2014 18:53:34
Библиотека кодирования : libebml v1.3.0 + libmatroska v1.4.1
Видео
Идентификатор : 1
Формат : AVC
Формат/Информация : Advanced Video Codec
Профиль формата : High@L3.1
Настройки формата : CABAC / 4 Ref Frames
Параметр CABAC формата : Да
Параметр RefFrames формата : 4 кадра
Идентификатор кодека : V_MPEG4/ISO/AVC
Продолжительность : 1 ч. 21 м.
Вид битрейта : Переменный
Битрейт : 3688 Кбит/сек
Максимальный битрейт : 6375 Кбит/сек
Ширина : 1280 пикселей
Высота : 720 пикселей
Соотношение сторон : 16:9
Режим частоты кадров : Постоянный
Частота кадров : 23,976 (24000/1001) кадра/сек
Цветовое пространство : YUV
Субдискретизация насыщенности : 4:2:0
Битовая глубина : 8 бит
Тип развёртки : Прогрессивная
Бит/(Пиксели*Кадры) : 0.167
Размер потока : 2,09 Гбайт (69%)
Язык : English
Default : Да
Forced : Нет
Цветовой диапазон : Limited
Основные цвета : BT.709
Характеристики трансфера : BT.709
Коэффициенты матрицы : BT.709
Аудио #1
Идентификатор : 2
Формат : AC-3
Формат/Информация : Audio Coding 3
Параметр Endianness формата : Big
Идентификатор кодека : A_AC3
Продолжительность : 1 ч. 21 м.
Вид битрейта : Постоянный
Битрейт : 448 Кбит/сек
Каналы : 6 каналов
Расположение каналов : Front: L C R, Side: L R, LFE
Частота : 48,0 КГц
Частота кадров : 31,250 кадров/сек (1536 SPF)
Битовая глубина : 16 бит
Метод сжатия : С потерями
Размер потока : 260 Мбайт (8%)
Заголовок : MVO (HDRezka Studio)
Язык : Russian
Default : Да
Forced : Нет
Аудио #2
Идентификатор : 3
Формат : AC-3
Формат/Информация : Audio Coding 3
Параметр Endianness формата : Big
Идентификатор кодека : A_AC3
Продолжительность : 1 ч. 21 м.
Вид битрейта : Постоянный
Битрейт : 448 Кбит/сек
Каналы : 6 каналов
Расположение каналов : Front: L C R, Side: L R, LFE
Частота : 48,0 КГц
Частота кадров : 31,250 кадров/сек (1536 SPF)
Битовая глубина : 16 бит
Метод сжатия : С потерями
Размер потока : 260 Мбайт (8%)
Заголовок : DVO (Pazl Voice)
Язык : Russian
Default : Нет
Forced : Нет
Аудио #3
Идентификатор : 4
Формат : E-AC-3
Формат/Информация : Enhanced Audio Coding 3
Профиль формата : E-AC-3+Atmos / E-AC-3
Параметр Endianness формата : Big
Идентификатор кодека : A_EAC3
Продолжительность : 1 ч. 21 м.
Вид битрейта : Постоянный
Битрейт : 768 Кбит/сек
Каналы : 15 objects / 6 каналов
Расположение каналов : 15 objects / Front: L C R, Side: L R, LFE
Частота : 48,0 КГц
Частота кадров : 187,500 кадров/сек (256 SPF)
Метод сжатия : С потерями
Размер потока : 445 Мбайт (14%)
Заголовок : Original
Язык : English
Default : Нет
Forced : Нет
Текст #1
Идентификатор : 5
Формат : UTF-8
Идентификатор кодека : S_TEXT/UTF8
Идентификатор кодека/Информация : UTF-8 Plain Text
Продолжительность : 1 ч. 17 м.
Битрейт : 95 бит/сек
ElementCount : 1023
Размер потока : 53,9 Кбайт (0%)
Заголовок : full (MENINSUB)
Язык : Russian
Default : Нет
Forced : Нет
Текст #2
Идентификатор : 6
Формат : UTF-8
Идентификатор кодека : S_TEXT/UTF8
Идентификатор кодека/Информация : UTF-8 Plain Text
Продолжительность : 1 ч. 17 м.
Битрейт : 74 бит/сек
ElementCount : 1365
Размер потока : 42,1 Кбайт (0%)
Язык : English
Default : Нет
Forced : Нет
Текст #3
Идентификатор : 7
Формат : UTF-8
Идентификатор кодека : S_TEXT/UTF8
Идентификатор кодека/Информация : UTF-8 Plain Text
Продолжительность : 1 ч. 20 м.
Битрейт : 50 бит/сек
ElementCount : 919
Размер потока : 29,7 Кбайт (0%)
Заголовок : Español
Язык : Spanish
Default : Нет
Forced : Нет
Текст #4
Идентификатор : 8
Формат : UTF-8
Идентификатор кодека : S_TEXT/UTF8
Идентификатор кодека/Информация : UTF-8 Plain Text
Продолжительность : 1 ч. 20 м.
Битрейт : 48 бит/сек
ElementCount : 900
Размер потока : 28,6 Кбайт (0%)
Заголовок : Español (Latinoamericano)
Язык : Spanish
Default : Нет
Forced : Нет
Текст #5
Идентификатор : 9
Формат : UTF-8
Идентификатор кодека : S_TEXT/UTF8
Идентификатор кодека/Информация : UTF-8 Plain Text
Продолжительность : 1 ч. 20 м.
Битрейт : 56 бит/сек
ElementCount : 956
Размер потока : 33,0 Кбайт (0%)
Заголовок : Français
Язык : French
Default : Нет
Forced : Нет
Текст #6
Идентификатор : 10
Формат : UTF-8
Идентификатор кодека : S_TEXT/UTF8
Идентификатор кодека/Информация : UTF-8 Plain Text
Продолжительность : 1 ч. 20 м.
Битрейт : 51 бит/сек
ElementCount : 979
Размер потока : 30,4 Кбайт (0%)
Заголовок : Português
Язык : Portuguese
Default : Нет
Forced : Нет
Текст #7
Идентификатор : 11
Формат : UTF-8
Идентификатор кодека : S_TEXT/UTF8
Идентификатор кодека/Информация : UTF-8 Plain Text
Продолжительность : 1 ч. 20 м.
Битрейт : 48 бит/сек
ElementCount : 882
Размер потока : 28,7 Кбайт (0%)
Заголовок : Português (Brasil)
Язык : Portuguese
Default : Нет
Forced : Нет

Скриншоты

admin

Post 02-Feb-2022 06:47

[Quote]

Ледниковый период: Приключения Бака / The Ice Age Adventures of Buck Wild
Год выпуска: 2022
Выпущено: США
Жанр: Комедия, Фэнтези, Семейный, Приключения, Мультфильм
Режиссер: Джон С. Донкин / John C. Donkin
В ролях: Уткарш Амбудкар, Шон Кенин, Джейк Грин, Аарон Харрис, Доминик Дженнингс, Джастина Мачадо, Саймон Пегг, Скайлер Стоун, Винсент Тонг, Теодор Бордерс, Джейсон Харрис, Кристин МакГуайр, Шакира Джанай Пайе, Питер Памела Роуз, Джейсон Линере-Уайт
О фильме: Бесстрашный одноглазый хорек Бак объединяется с озорными братьями-опоссумами Крэшем и Эдди, когда они отправляются в новое приключение в мир динозавров.

Продолжительность: 01:21:05
Перевод: Профессиональный, многоголосый (HDRezka Studio), Любительский, двухголосый (Pazl Voice / KinoPub)
Субтитры: Русские (full (MENINSUB)), английские
Фрмат: MKV
Качество: WEB-DL 1080p
Видео: MPEG-4 AVC, 7342 Кбит/с, 1920x1080
Аудио #1: AC3, 6 ch, 448 Кбит/с | HDRezka Studio
Аудио #2: AC3, 6 ch, 448 Кбит/с | Pazl Voice
Аудио #3: E-AC3 JOC, 6 ch, 768 Кбит/с | ENG |

Скриншоты

-

MediaInfo

Общее
Уникальный идентификатор : 320859739263355902515829787150817271633 (0xF1635685D40B7AED2D05D779EC919F51)
Полное имя : E:TorrentsThe.Ice.Age.2022.WEB-DL.1080p_от New-Team.mkv
Формат : Matroska
Версия формата : Version 4
Размер файла : 5,10 Гбайт
Продолжительность : 1 ч. 21 м.
Режим общего битрейта : Переменный
Общий поток : 9 008 Кбит/сек
Название фильма : The.Ice.Age.2022.WEB-DL.1080p_от New-Team
Дата кодирования : UTC 2022-02-01 17:42:04
Программа кодирования : mkvmerge v59.0.0 ('Shining Star') 64-bit
Библиотека кодирования : libebml v1.4.2 + libmatroska v1.6.4
Видео
Идентификатор : 1
Формат : AVC
Формат/Информация : Advanced Video Codec
Профиль формата : High@L4
Настройки формата : CABAC / 4 Ref Frames
Параметр CABAC формата : Да
Параметр RefFrames формата : 4 кадра
Идентификатор кодека : V_MPEG4/ISO/AVC
Продолжительность : 1 ч. 21 м.
Вид битрейта : Переменный
Битрейт : 7 342 Кбит/сек
Максимальный битрейт : 12,7 Мбит/сек
Ширина : 1 920 пикселей
Высота : 1 080 пикселей
Соотношение сторон : 16:9
Режим частоты кадров : Постоянный
Частота кадров : 23,976 (24000/1001) кадра/сек
Цветовое пространство : YUV
Субдискретизация насыщенности : 4:2:0
Битовая глубина : 8 бит
Тип развёртки : Прогрессивная
Бит/(Пиксели*Кадры) : 0.148
Размер потока : 4,16 Гбайт (81%)
Default : Да
Forced : Нет
Цветовой диапазон : Limited
Основные цвета : BT.709
Характеристики трансфера : BT.709
Коэффициенты матрицы : BT.709
Аудио #1
Идентификатор : 2
Формат : AC-3
Формат/Информация : Audio Coding 3
Коммерческое название : Dolby Digital
Идентификатор кодека : A_AC3
Продолжительность : 1 ч. 21 м.
Вид битрейта : Постоянный
Битрейт : 448 Кбит/сек
Каналы : 6 каналов
Channel layout : L R C LFE Ls Rs
Частота : 48,0 КГц
Частота кадров : 31,250 кадров/сек (1536 SPF)
Метод сжатия : С потерями
Размер потока : 260 Мбайт (5%)
Заголовок : [MVO] HDRezka Studio
Язык : Russian
Service kind : Complete Main
Default : Да
Forced : Нет
Аудио #2
Идентификатор : 3
Формат : AC-3
Формат/Информация : Audio Coding 3
Коммерческое название : Dolby Digital
Идентификатор кодека : A_AC3
Продолжительность : 1 ч. 21 м.
Вид битрейта : Постоянный
Битрейт : 448 Кбит/сек
Каналы : 6 каналов
Channel layout : L R C LFE Ls Rs
Частота : 48,0 КГц
Частота кадров : 31,250 кадров/сек (1536 SPF)
Метод сжатия : С потерями
Размер потока : 260 Мбайт (5%)
Заголовок : [DVO] Pazl Voice
Язык : Russian
Service kind : Complete Main
Default : Нет
Forced : Нет
Аудио #3
Идентификатор : 4
Формат : E-AC-3 JOC
Формат/Информация : Enhanced AC-3 with Joint Object Coding
Коммерческое название : Dolby Digital Plus with Dolby Atmos
Идентификатор кодека : A_EAC3
Продолжительность : 1 ч. 21 м.
Вид битрейта : Постоянный
Битрейт : 768 Кбит/сек
Каналы : 6 каналов
Channel layout : L R C LFE Ls Rs
Частота : 48,0 КГц
Частота кадров : 31,250 кадров/сек (1536 SPF)
Метод сжатия : С потерями
Размер потока : 445 Мбайт (9%)
Язык : English
Service kind : Complete Main
Default : Нет
Forced : Нет
Complexity index : 16
Number of dynamic objects : 15
Bed channel count : 1 канал
Bed channel configuration : LFE
Текст #1
Идентификатор : 5
Формат : UTF-8
Идентификатор кодека : S_TEXT/UTF8
Идентификатор кодека/Информация : UTF-8 Plain Text
Продолжительность : 1 ч. 17 м.
Битрейт : 95 бит/сек
Count of elements : 1023
Размер потока : 53,9 Кбайт (0%)
Заголовок : full [MENINSUB]
Язык : Russian
Default : Нет
Forced : Нет
Текст #2
Идентификатор : 6
Формат : UTF-8
Идентификатор кодека : S_TEXT/UTF8
Идентификатор кодека/Информация : UTF-8 Plain Text
Продолжительность : 1 ч. 17 м.
Битрейт : 63 бит/сек
Count of elements : 1065
Размер потока : 36,0 Кбайт (0%)
Язык : English
Default : Нет
Forced : Нет
Меню
01:17:55.634 : Credits

admin

Post 30-Jan-2022 06:07

[Quote]

Стражи терракоты / Realm of Terracotta
Год выпуска: 2021
Выпущено: Китай / Fantawild Animation
Жанр: Боевик, Фэнтези, Приключения, Мультфильм
Режиссер: Дин Лян / Ding Liang, Линь Юнчан / Yongchang Lin
В ролях: Цзыю Чжоу, Сяо Тан, Чжу Гуанцзу, Минг Чжан, Пэй Лю, Дин Лян, Лю Бэй
О фильме: Стражи волшебной Терракоты и магические существа Ониксы на протяжении многих столетий ведут войны друг с другом в подземном царстве. Молодой человек Магнус мечтает стать терракотовым воином, а для этого ему необходимо поймать одного из Ониксов. Магнус отправляется на поиски таинственного создания и встречает молодую девушку Джейд, которая также ищет Оникса. Герои влюбляются и объединяются, чтобы узнать настоящую причину вторжения монстров…

Продолжительность: 01:51:04
Перевод: профессиональный, многоголосый закадровый (Jaskier / KinoPub)
Субтитры: китайские (hardsub)
Фрмат: MKV
Качество: WEBRip 1080p
Видео: MPEG-4 AVC, 5123 Кбит/с, 1920x804
Аудио #1: AC3, 2 ch, 192 Кбит/с | RUS |
Аудио #2: AAC, 2 ch, 124 Кбит/с | CHI |

Скриншоты

-

MediaInfo

Общее
Уникальный идентификатор : 294994172048276204658699694321757879764 (0xDDEDCF998D025878223AE1ED06447DD4)
Полное имя : E:TorrentsRealm.of.Terracotta.2021.1080p.WEBRip_от New-Team.mkv
Формат : Matroska
Версия формата : Version 4
Размер файла : 4,22 Гбайт
Продолжительность : 1 ч. 51 м.
Общий поток : 5 441 Кбит/сек
Название фильма : Realm.of.Terracotta.2021.1080p.WEBRip_от New-Team
Дата кодирования : UTC 2022-01-29 09:12:25
Программа кодирования : mkvmerge v59.0.0 ('Shining Star') 64-bit
Библиотека кодирования : libebml v1.4.2 + libmatroska v1.6.4
Видео
Идентификатор : 1
Формат : AVC
Формат/Информация : Advanced Video Codec
Профиль формата : High@L5.1
Настройки формата : CABAC / 2 Ref Frames
Параметр CABAC формата : Да
Параметр RefFrames формата : 2 кадра
Идентификатор кодека : V_MPEG4/ISO/AVC
Продолжительность : 1 ч. 51 м.
Битрейт : 5 123 Кбит/сек
Ширина : 1 920 пикселей
Высота : 804 пикселя
Соотношение сторон : 2,40:1
Режим частоты кадров : Постоянный
Частота кадров : 25,000 кадров/сек
Цветовое пространство : YUV
Субдискретизация насыщенности : 4:2:0
Битовая глубина : 8 бит
Тип развёртки : Прогрессивная
Бит/(Пиксели*Кадры) : 0.133
Размер потока : 3,97 Гбайт (94%)
Default : Да
Forced : Нет
Аудио #1
Идентификатор : 2
Формат : AC-3
Формат/Информация : Audio Coding 3
Коммерческое название : Dolby Digital
Идентификатор кодека : A_AC3
Продолжительность : 1 ч. 51 м.
Вид битрейта : Постоянный
Битрейт : 192 Кбит/сек
Каналы : 2 канала
Channel layout : L R
Частота : 48,0 КГц
Частота кадров : 31,250 кадров/сек (1536 SPF)
Метод сжатия : С потерями
Задержка видео : -46 мс.
Размер потока : 153 Мбайт (4%)
Заголовок : [MVO] Jaskier
Язык : Russian
Service kind : Complete Main
Default : Да
Forced : Нет
Аудио #2
Идентификатор : 3
Формат : AAC LC
Формат/Информация : Advanced Audio Codec Low Complexity
Идентификатор кодека : A_AAC-2
Продолжительность : 1 ч. 51 м.
Битрейт : 124 Кбит/сек
Каналы : 2 канала
Channel layout : L R
Частота : 44,1 КГц
Частота кадров : 43,066 кадра/сек (1024 SPF)
Метод сжатия : С потерями
Задержка видео : -46 мс.
Размер потока : 98,6 Мбайт (2%)
Язык : Chinese
Default : Нет
Forced : Нет

admin

Post 30-Jan-2022 06:03

[Quote]

Информация о фильме
Название: Том и Джерри: Бравые ковбои!
Оригинальное название: Tom and Jerry: Cowboy Up!
Год выпуска: 2022
Жанр: Комедия, Семейный, Приключения, Вестерн, Мультфильм
Режиссер: Даррел Ван Ситтерс
В ролях: Джордж Эклс, Шон Бургос, Тревор Дивэлл, Крис Эджерли, Джорджина Кордова, Джастин Майкл, Исаак Робинсон-Смит, Кейтлин Роброк, Кэт Суси, Стефен Стэнтон, Фред Таташиор, Кари Уолгрен
О фильме: Непримиримые соперники на Диком Западе собирают отряд ради спасения одного маленького, но гордого ранчо. Местный земельный магнат уже скупил все окрестные земли и теперь готов на всё, чтобы отобрать семейное ранчо у бедной скотницы. Но на счастье бравые ковбои Том и Джерри оказались поблизости и не позволят обмануть бедную девушку. Для того, чтобы победить жадного землевладельца и его свиту, неразлучная парочка даже готова на время забыть о своих разногласиях и объединить усилия. Изобретательный Джерри по такому случаю проводит краткий курс молодого бойца трём своим подросшим племянникам, а Том мобилизует отряд местных луговых собачек. Когда эти закаленные в боях, упрямые и находчивые герои в седле, ни у кого не остается сомнений, что ранчо в надёжных руках!

Страна: США
Студия: Turner Entertainment, Warner Bros. Animation
Продолжительность: 01:14:57
Перевод: Дублированный | Iyuno-SDI Group Moscow
Субтитры: Русские
Качество: WEBRip 1080p
Видео: MPEG-4 AVC, 4543 Кбит/с, 1920x1080
Аудио#1: AC3, 6 ch, 224 Кбит/с | RUS
Аудио#2: AC3, 2 ch, 128 Кбит/с | ENG

Скриншоты

M.Info

Общее
Уникальный идентификатор : 93848659451434658494927977835570549429 (0x469A98272D9E360547C22E4A64D652B5)
Полное имя : E:cartoonTom.And.Jerry.Cowboy.Up.2022.WEBRip.1080p.mkv
Формат : Matroska
Версия формата : Version 4
Размер файла : 2,56 Гбайт
Продолжительность : 1 ч. 14 м.
Режим общего битрейта : Переменный
Общий поток : 4 893 Кбит/сек
Название фильма : Tom.And.Jerry.Cowboy.Up.2022.WEBRip.1080p
Дата кодирования : UTC 2022-01-28 17:30:51
Программа кодирования : mkvmerge v59.0.0 ('Shining Star') 64-bit
Библиотека кодирования : libebml v1.4.2 + libmatroska v1.6.4
Видео
Идентификатор : 1
Формат : AVC
Формат/Информация : Advanced Video Codec
Профиль формата : High@L4.1
Настройки формата : CABAC / 3 Ref Frames
Параметр CABAC формата : Да
Параметр RefFrames формата : 3 кадра
Идентификатор кодека : V_MPEG4/ISO/AVC
Продолжительность : 1 ч. 14 м.
Вид битрейта : Переменный
Битрейт : 4 543 Кбит/сек
Максимальный битрейт : 7 200 Кбит/сек
Ширина : 1 920 пикселей
Высота : 1 080 пикселей
Соотношение сторон : 16:9
Режим частоты кадров : Постоянный
Частота кадров : 23,976 (24000/1001) кадра/сек
Цветовое пространство : YUV
Субдискретизация насыщенности : 4:2:0
Битовая глубина : 8 бит
Тип развёртки : Прогрессивная
Бит/(Пиксели*Кадры) : 0.091
Размер потока : 2,38 Гбайт (93%)
Default : Да
Forced : Нет
Аудио #1
Идентификатор : 2
Формат : AC-3
Формат/Информация : Audio Coding 3
Коммерческое название : Dolby Digital
Идентификатор кодека : A_AC3
Продолжительность : 1 ч. 14 м.
Вид битрейта : Постоянный
Битрейт : 224 Кбит/сек
Каналы : 6 каналов
Channel layout : L R C LFE Ls Rs
Частота : 48,0 КГц
Частота кадров : 31,250 кадров/сек (1536 SPF)
Метод сжатия : С потерями
Размер потока : 120 Мбайт (5%)
Заголовок : Dub - Iyuno-SDI Group Moscow
Язык : Russian
Service kind : Complete Main
Default : Да
Forced : Нет
Аудио #2
Идентификатор : 3
Формат : AC-3
Формат/Информация : Audio Coding 3
Коммерческое название : Dolby Digital
Идентификатор кодека : A_AC3
Продолжительность : 1 ч. 14 м.
Вид битрейта : Постоянный
Битрейт : 128 Кбит/сек
Каналы : 2 канала
Channel layout : L R
Частота : 48,0 КГц
Частота кадров : 31,250 кадров/сек (1536 SPF)
Метод сжатия : С потерями
Размер потока : 68,6 Мбайт (3%)
Язык : English
Service kind : Complete Main
Default : Нет
Forced : Нет
Текст
Идентификатор : 4
Формат : UTF-8
Идентификатор кодека : S_TEXT/UTF8
Идентификатор кодека/Информация : UTF-8 Plain Text
Продолжительность : 1 ч. 11 м.
Битрейт : 88 бит/сек
Count of elements : 927
Размер потока : 46,7 Кбайт (0%)
Язык : Russian
Default : Нет
Forced : Нет

admin

Post 30-Jan-2022 06:01

[Quote]

Информация о фильме
Название: Том и Джерри: Бравые ковбои!
Оригинальное название: Tom and Jerry: Cowboy Up!
Год выпуска: 2022
Жанр: Комедия, Семейный, Приключения, Вестерн, Мультфильм
Режиссер: Даррел Ван Ситтерс
В ролях: Джордж Эклс, Шон Бургос, Тревор Дивэлл, Крис Эджерли, Джорджина Кордова, Джастин Майкл, Исаак Робинсон-Смит, Кейтлин Роброк, Кэт Суси, Стефен Стэнтон, Фред Таташиор, Кари Уолгрен
О фильме:
Непримиримые соперники на Диком Западе собирают отряд ради спасения одного маленького, но гордого ранчо. Местный земельный магнат уже скупил все окрестные земли и теперь готов на всё, чтобы отобрать семейное ранчо у бедной скотницы. Но на счастье бравые ковбои Том и Джерри оказались поблизости и не позволят обмануть бедную девушку. Для того, чтобы победить жадного землевладельца и его свиту, неразлучная парочка даже готова на время забыть о своих разногласиях и объединить усилия. Изобретательный Джерри по такому случаю проводит краткий курс молодого бойца трём своим подросшим племянникам, а Том мобилизует отряд местных луговых собачек. Когда эти закаленные в боях, упрямые и находчивые герои в седле, ни у кого не остается сомнений, что ранчо в надёжных руках!

Страна: США
Студия: Turner Entertainment, Warner Bros. Animation
Продолжительность: 01:14:57
Перевод: Дублированный | Iyuno-SDI Group Moscow
Субтитры: Русские, английские
Файл
Формат: Matroska
Качество: WEBRip 720p
Видео: 1280x720 at 24.000 fps, x264@L4.1, ~2277 kbps
Аудио 1: AC3, 6 ch, ~224 kbps - | Русский |
Аудио 2: AC3, 2 ch, ~128 kbps - | Английский |
Формат субтитров: softsub (SRT)

M/I

General
Unique ID : 116221833654938260398091345522719929744 (0x576F82CE74A7EAE0DF815AEE0B833590)
Complete name : K:Tom.And.Jerry.Cowboy.Up.2022.DUB.WEB-DL.x264.720p.mkv
Format : Matroska
Format version : Version 4
File size : 1.38 GiB
Duration : 1 h 14 min
Overall bit rate mode : Variable
Overall bit rate : 2 630 kb/s
Movie name : -=DoMiNo=-
Encoded date : UTC 2022-01-29 19:37:11
Writing application : mkvmerge v64.0.0 ('Willows') 64-bit
Writing library : libebml v1.4.2 + libmatroska v1.6.4
Cover : Yes
Attachments : cover.jpg / cover 2.jpg
Video
ID : 1
Format : AVC
Format/Info : Advanced Video Codec
Format profile : Main@L3.1
Format settings : CABAC / 3 Ref Frames
Format settings, CABAC : Yes
Format settings, Reference : 3 frames
Codec ID : V_MPEG4/ISO/AVC
Duration : 1 h 14 min
Bit rate mode : Variable
Bit rate : 2 277 kb/s
Maximum bit rate : 3 600 kb/s
Width : 1 280 pixels
Height : 720 pixels
Display aspect ratio : 16:9
Frame rate mode : Constant
Frame rate : 23.976 (24000/1001) FPS
Color space : YUV
Chroma subsampling : 4:2:0
Bit depth : 8 bits
Scan type : Progressive
Bits/(Pixel*Frame) : 0.103
Stream size : 1.19 GiB (87%)
Language : English
Default : Yes
Forced : No
Audio #1
ID : 2
Format : AC-3
Format/Info : Audio Coding 3
Commercial name : Dolby Digital
Codec ID : A_AC3
Duration : 1 h 14 min
Bit rate mode : Constant
Bit rate : 224 kb/s
Channel(s) : 6 channels
Channel layout : L R C LFE Ls Rs
Sampling rate : 48.0 kHz
Frame rate : 31.250 FPS (1536 SPF)
Compression mode : Lossy
Stream size : 120 MiB (9%)
Title : DUB
Language : Russian
Service kind : Complete Main
Default : Yes
Forced : No
Audio #2
ID : 3
Format : AC-3
Format/Info : Audio Coding 3
Commercial name : Dolby Digital
Codec ID : A_AC3
Duration : 1 h 14 min
Bit rate mode : Constant
Bit rate : 128 kb/s
Channel(s) : 2 channels
Channel layout : L R
Sampling rate : 48.0 kHz
Frame rate : 31.250 FPS (1536 SPF)
Compression mode : Lossy
Stream size : 68.6 MiB (5%)
Language : English
Service kind : Complete Main
Default : No
Forced : No
Text #1
ID : 4
Format : UTF-8
Codec ID : S_TEXT/UTF8
Codec ID/Info : UTF-8 Plain Text
Duration : 1 h 11 min
Bit rate : 88 b/s
Count of elements : 927
Stream size : 46.7 KiB (0%)
Language : Russian
Default : No
Forced : No
Text #2
ID : 5
Format : UTF-8
Codec ID : S_TEXT/UTF8
Codec ID/Info : UTF-8 Plain Text
Duration : 1 h 9 min
Bit rate : 62 b/s
Count of elements : 972
Stream size : 31.7 KiB (0%)
Language : English
Default : No
Forced : No

Скриншоты

admin

Post 30-Jan-2022 06:00

[Quote]

Информация о фильме
Название: Том и Джерри: Бравые ковбои!
Оригинальное название: Tom and Jerry: Cowboy Up!
Год выпуска: 2022
Жанр: Комедия, Семейный, Приключения, Вестерн, Мультфильм
Режиссер: Даррел Ван Ситтерс
В ролях: Джордж Эклс, Шон Бургос, Тревор Дивэлл, Крис Эджерли, Джорджина Кордова, Джастин Майкл, Исаак Робинсон-Смит, Кейтлин Роброк, Кэт Суси, Стефен Стэнтон, Фред Таташиор, Кари Уолгрен
О фильме:
Непримиримые соперники на Диком Западе собирают отряд ради спасения одного маленького, но гордого ранчо. Местный земельный магнат уже скупил все окрестные земли и теперь готов на всё, чтобы отобрать семейное ранчо у бедной скотницы. Но на счастье бравые ковбои Том и Джерри оказались поблизости и не позволят обмануть бедную девушку. Для того, чтобы победить жадного землевладельца и его свиту, неразлучная парочка даже готова на время забыть о своих разногласиях и объединить усилия. Изобретательный Джерри по такому случаю проводит краткий курс молодого бойца трём своим подросшим племянникам, а Том мобилизует отряд местных луговых собачек. Когда эти закаленные в боях, упрямые и находчивые герои в седле, ни у кого не остается сомнений, что ранчо в надёжных руках!

Страна: США
Студия: Turner Entertainment, Warner Bros. Animation
Продолжительность: 01:14:57
Перевод: Дублированный | Iyuno-SDI Group Moscow
Субтитры: Русские, английские
Файл
Формат: Matroska
Качество: WEBRip 720p
Видео: 1280x720 at 24.000 fps, x264@L4.1, ~2277 kbps
Аудио 1: AC3, 6 ch, ~224 kbps - | Русский |
Аудио 2: AC3, 2 ch, ~128 kbps - | Английский |
Формат субтитров: softsub (SRT)

M/I

General
Unique ID : 116221833654938260398091345522719929744 (0x576F82CE74A7EAE0DF815AEE0B833590)
Complete name : K:Tom.And.Jerry.Cowboy.Up.2022.DUB.WEB-DL.x264.720p.mkv
Format : Matroska
Format version : Version 4
File size : 1.38 GiB
Duration : 1 h 14 min
Overall bit rate mode : Variable
Overall bit rate : 2 630 kb/s
Movie name : -=DoMiNo=-
Encoded date : UTC 2022-01-29 19:37:11
Writing application : mkvmerge v64.0.0 ('Willows') 64-bit
Writing library : libebml v1.4.2 + libmatroska v1.6.4
Cover : Yes
Attachments : cover.jpg / cover 2.jpg
Video
ID : 1
Format : AVC
Format/Info : Advanced Video Codec
Format profile : Main@L3.1
Format settings : CABAC / 3 Ref Frames
Format settings, CABAC : Yes
Format settings, Reference : 3 frames
Codec ID : V_MPEG4/ISO/AVC
Duration : 1 h 14 min
Bit rate mode : Variable
Bit rate : 2 277 kb/s
Maximum bit rate : 3 600 kb/s
Width : 1 280 pixels
Height : 720 pixels
Display aspect ratio : 16:9
Frame rate mode : Constant
Frame rate : 23.976 (24000/1001) FPS
Color space : YUV
Chroma subsampling : 4:2:0
Bit depth : 8 bits
Scan type : Progressive
Bits/(Pixel*Frame) : 0.103
Stream size : 1.19 GiB (87%)
Language : English
Default : Yes
Forced : No
Audio #1
ID : 2
Format : AC-3
Format/Info : Audio Coding 3
Commercial name : Dolby Digital
Codec ID : A_AC3
Duration : 1 h 14 min
Bit rate mode : Constant
Bit rate : 224 kb/s
Channel(s) : 6 channels
Channel layout : L R C LFE Ls Rs
Sampling rate : 48.0 kHz
Frame rate : 31.250 FPS (1536 SPF)
Compression mode : Lossy
Stream size : 120 MiB (9%)
Title : DUB
Language : Russian
Service kind : Complete Main
Default : Yes
Forced : No
Audio #2
ID : 3
Format : AC-3
Format/Info : Audio Coding 3
Commercial name : Dolby Digital
Codec ID : A_AC3
Duration : 1 h 14 min
Bit rate mode : Constant
Bit rate : 128 kb/s
Channel(s) : 2 channels
Channel layout : L R
Sampling rate : 48.0 kHz
Frame rate : 31.250 FPS (1536 SPF)
Compression mode : Lossy
Stream size : 68.6 MiB (5%)
Language : English
Service kind : Complete Main
Default : No
Forced : No
Text #1
ID : 4
Format : UTF-8
Codec ID : S_TEXT/UTF8
Codec ID/Info : UTF-8 Plain Text
Duration : 1 h 11 min
Bit rate : 88 b/s
Count of elements : 927
Stream size : 46.7 KiB (0%)
Language : Russian
Default : No
Forced : No
Text #2
ID : 5
Format : UTF-8
Codec ID : S_TEXT/UTF8
Codec ID/Info : UTF-8 Plain Text
Duration : 1 h 9 min
Bit rate : 62 b/s
Count of elements : 972
Stream size : 31.7 KiB (0%)
Language : English
Default : No
Forced : No

Скриншоты

 

Current time is: 25-Jun 10:39

All times are UTC + 3