Search found 38 matches

Author Message

Chernyshkov84

Post 22-Jul-2020 12:48

[Quote]

Realieves
Да, намного.
FatAndy
ESiR - одна из лучших релиз групп, делающих рипы. Субтитры английские и русские. Смысл в том, что не помещается на DVD5

admin

Post 28-Nov-2019 21:53

[Quote]

Информация о фильме
Название: Эверест
Оригинальное название: Abominable
Год выхода: 2019
Жанр: Мультфильм, фэнтези, комедия, приключения, семейный, полнометражный
Режиссер: Джилл Калтон, Тодд Вилдерман
В ролях: Хлоя Беннет, Альберт Цай, Тензинг Норгай Трэйнор, Джозеф Иццо, Эдди Иззард, Сара Полсон, Цай Чинь, Мишель Вонг, Рич Дитль, Джеймс Хонг

О фильме: Путешествие на самую высокую точку мира? Что может быть круче! Так решает Лу, когда случайно находит огромное, но очень милое чудовище посреди шумного мегаполиса. Пусть их преследуют ученые из сверхсекретной лаборатории, зато её новый друг умеет смешить и творить чудеса. Лу уверена, что поможет дружелюбному йети вернуться домой - на Эверест.
Страна: Китай, США
Студия: DreamWorks Animation, Pearl Studio
Продолжительность: 01:37:13
Перевод: Дублированный | iTunes
Качество: WEB-DL 720p
Видео: MPEG-4 AVC, 1280x688, 4014 Kbit/s, 23.976 fps
Аудио #01: 48 kHz, AC3, 5.1, 384 Kbps | iTunes | RUS |
Аудио #02: 48 kHz, AC3, 5.1, 384 Kbps | Оригинал | ENG |
Субтитры: Русские (форсированные, вшитые)

Скриншоты

MI

General
Unique ID : 20390666453417161028788308406813769383 (0xF5719798B4614613FD5B4295C26BEA7)
Complete name : F:Video111Abominable.2019.WEB-DL.720p.seleZen.mkv
Format : Matroska
Format version : Version 4
File size : 3.25 GiB
Duration : 1 h 37 min
Overall bit rate : 4 785 kb/s
Movie name : Abominable 2019 from селезень
Encoded date : UTC 2019-11-27 20:32:01
Writing application : mkvmerge v40.0.0 ('Old Town Road + Pony') 64-bit
Writing library : libebml v1.3.9 + libmatroska v1.5.2
Cover : Yes
Attachments : cover.jpg / cover.jpg
Video
ID : 1
Format : AVC
Format/Info : Advanced Video Codec
Format profile : High@L3.1
Format settings : 2 Ref Frames
Format settings, CABAC : No
Format settings, Reference : 2 frames
Codec ID : V_MPEG4/ISO/AVC
Duration : 1 h 37 min
Bit rate : 4 014 kb/s
Width : 1 280 pixels
Height : 688 pixels
Display aspect ratio : 1.85:1
Frame rate mode : Constant
Frame rate : 23.976 (23976/1000) FPS
Color space : YUV
Chroma subsampling : 4:2:0
Bit depth : 8 bits
Scan type : Progressive
Bits/(Pixel*Frame) : 0.190
Stream size : 2.73 GiB (84%)
Language : English
Default : Yes
Forced : No
Color range : Limited
Color primaries : BT.709
Transfer characteristics : BT.709
Matrix coefficients : BT.709
Audio #1
ID : 2
Format : AC-3
Format/Info : Audio Coding 3
Commercial name : Dolby Digital
Codec ID : A_AC3
Duration : 1 h 37 min
Bit rate mode : Constant
Bit rate : 384 kb/s
Channel(s) : 6 channels
Channel layout : L R C LFE Ls Rs
Sampling rate : 48.0 kHz
Frame rate : 31.250 FPS (1536 SPF)
Bit depth : 16 bits
Compression mode : Lossy
Stream size : 267 MiB (8%)
Title : iTunes
Language : Russian
Service kind : Complete Main
Default : Yes
Forced : Yes
Audio #2
ID : 3
Format : AC-3
Format/Info : Audio Coding 3
Commercial name : Dolby Digital
Codec ID : A_AC3
Duration : 1 h 37 min
Bit rate mode : Constant
Bit rate : 384 kb/s
Channel(s) : 6 channels
Channel layout : L R C LFE Ls Rs
Sampling rate : 48.0 kHz
Frame rate : 31.250 FPS (1536 SPF)
Bit depth : 16 bits
Compression mode : Lossy
Stream size : 267 MiB (8%)
Title : Original
Language : English
Service kind : Complete Main
Default : No
Forced : No
Menu
00:00:00.000 : en:1
00:04:12.836 : en:2
00:09:11.885 : en:3
00:13:43.239 : en:4
00:16:14.598 : en:5
00:21:35.752 : en:6
00:25:03.459 : en:7
00:29:31.435 : en:8
00:33:58.452 : en:9
00:36:44.784 : en:10
00:41:54.009 : en:11
00:46:31.703 : en:12
00:50:43.329 : en:13
00:56:32.553 : en:14
01:01:41.528 : en:15
01:06:34.195 : en:16
01:11:45.422 : en:17
01:15:27.352 : en:18
01:20:42.542 : en:19
01:26:45.404 : en:20

admin

Post 25-Oct-2019 02:14

[Quote]

Информация о фильме
Название: Птичий дозор
Оригинальное название: Manou the Swift / Birds of a Feather
Год выхода: 2019
Жанр: Мультфильм, комедия, приключения, семейный, полнометражный
Режиссер: Кристиан Хаас, Андреа Блок
В ролях: Кейт Уинслет, Уиллем Дефо, Роб Полсен, Джошуа Китон, Джули Натансон, Дэвид Шонесси, Ариф С. Кинчен, Фридрих Мюке, Кассандра Стин, Доминик Кун

О фильме: Стриж Ману растет в семье чаек и изо всех сил пытается научиться плавать, ловить рыбу и летать так же, как и они. Но во время традиционного летнего состязания он понимает, что никогда не сможет стать чайкой. Раздосадованный Ману улетает из дома, где встречает новых друзей. Из-за этого портятся его отношения с родной стаей. Но тут в дело вмешивается случай. Ману, который вырос отважным как чайка и изобретательным как стриж, удается уберечь и чаек, и стрижей от надвигающейся опасности и стать героем в глазах и тех и других.
Страна: Германия
Студия: LUXX Film
Продолжительность: 01:28:36
Перевод: Дублированный | iTunes
Качество: BDRip 1080p
Видео: MPEG-4 AVC, 1920x1080, 11.8 Mbit/s, 24 fps
Аудио #01: 48 kHz, AC3, 5.1, 384 Kbps | iTunes | RUS |
Аудио #02: 48 kHz, AC3, 5.1, 640 Kbps | Оригинал | ENG |
Субтитры: Английские

Скриншоты

MI

General
Unique ID : 59752336612719734936737663452831903527 (0x2CF3E1A59710368EAC3E6DB6A9356F27)
Complete name : D:Video111Manou.the.Swift.2019.BDRip.1080p.seleZen.mkv
Format : Matroska
Format version : Version 4
File size : 7.91 GiB
Duration : 1 h 28 min
Overall bit rate : 12.8 Mb/s
Movie name : Manou the Swift 2019 from селезень
Encoded date : UTC 2019-10-24 07:49:52
Writing application : mkvmerge v22.0.0 ('At The End Of The World') 64-bit
Writing library : libebml v1.3.5 + libmatroska v1.4.8
Video
ID : 1
Format : AVC
Format/Info : Advanced Video Codec
Format profile : High@L4.1
Format settings : CABAC / 4 Ref Frames
Format settings, CABAC : Yes
Format settings, Reference : 4 frames
Codec ID : V_MPEG4/ISO/AVC
Duration : 1 h 28 min
Bit rate : 11.8 Mb/s
Width : 1 920 pixels
Height : 1 080 pixels
Display aspect ratio : 16:9
Frame rate mode : Constant
Frame rate : 24.000 FPS
Color space : YUV
Chroma subsampling : 4:2:0
Bit depth : 8 bits
Scan type : Progressive
Bits/(Pixel*Frame) : 0.236
Stream size : 7.28 GiB (92%)
Title : Encoded by seleZen
Writing library : x264 core 148 r2705kMod 3f5ed56
Encoding settings : cabac=1 / ref=4 / deblock=1:-2:-2 / analyse=0x3:0x113 / me=umh / subme=11 / psy=1 / fade_compensate=0.00 / psy_rd=1.00:0.00 / mixed_ref=1 / me_range=32 / chroma_me=1 / trellis=2 / 8x8dct=1 / cqm=0 / deadzone=21,11 / fast_pskip=0 / chroma_qp_offset=-2 / threads=24 / lookahead_threads=6 / sliced_threads=0 / nr=0 / decimate=0 / interlaced=0 / bluray_compat=0 / constrained_intra=0 / fgo=0 / bframes=10 / b_pyramid=2 / b_adapt=2 / b_bias=0 / direct=3 / weightb=1 / open_gop=0 / weightp=2 / keyint=240 / keyint_min=24 / scenecut=40 / intra_refresh=0 / rc_lookahead=50 / rc=2pass / mbtree=0 / bitrate=11765 / ratetol=1.0 / qcomp=0.60 / qpmin=0 / qpmax=51 / qpstep=4 / cplxblur=20.0 / qblur=0.5 / vbv_maxrate=50000 / vbv_bufsize=62500 / nal_hrd=none / filler=0 / ip_ratio=1.40 / pb_ratio=1.30 / aq=3:0.80
Language : English
Default : Yes
Forced : No
Audio #1
ID : 2
Format : AC-3
Format/Info : Audio Coding 3
Commercial name : Dolby Digital
Codec ID : A_AC3
Duration : 1 h 28 min
Bit rate mode : Constant
Bit rate : 384 kb/s
Channel(s) : 6 channels
Channel layout : L R C LFE Ls Rs
Sampling rate : 48.0 kHz
Frame rate : 31.250 FPS (1536 SPF)
Bit depth : 16 bits
Compression mode : Lossy
Stream size : 243 MiB (3%)
Title : iTunes
Language : Russian
Service kind : Complete Main
Default : Yes
Forced : Yes
Audio #2
ID : 3
Format : AC-3
Format/Info : Audio Coding 3
Commercial name : Dolby Digital
Codec ID : A_AC3
Duration : 1 h 28 min
Bit rate mode : Constant
Bit rate : 640 kb/s
Channel(s) : 6 channels
Channel layout : L R C LFE Ls Rs
Sampling rate : 48.0 kHz
Frame rate : 31.250 FPS (1536 SPF)
Bit depth : 16 bits
Compression mode : Lossy
Stream size : 406 MiB (5%)
Title : Original
Language : English
Service kind : Complete Main
Default : No
Forced : No
Text
ID : 4
Format : UTF-8
Codec ID : S_TEXT/UTF8
Codec ID/Info : UTF-8 Plain Text
Duration : 1 h 27 min
Bit rate : 33 b/s
Count of elements : 866
Stream size : 21.5 KiB (0%)
Title : Original
Language : English
Default : No
Forced : No
Menu
00:00:00.000 : de:00:00:00.000
00:06:57.625 : de:00:06:57.625
00:14:10.375 : de:00:14:10.375
00:22:33.333 : de:00:22:33.333
00:31:38.833 : de:00:31:38.833
00:36:06.792 : de:00:36:06.792
00:43:52.833 : de:00:43:52.833
00:52:12.792 : de:00:52:12.792
00:59:52.917 : de:00:59:52.917
01:07:00.708 : de:01:07:00.708
01:14:10.208 : de:01:14:10.208
01:21:52.208 : de:01:21:52.208

admin

Post 23-Sep-2019 10:26

[Quote]

«Любовь сильнее магии»
Информация о фильме
Название: Руслан и Людмила: Перезагрузка
Год выхода: 2018
Жанр: Мультфильм, фэнтези, комедия
Режиссер: Олег Маламуж
Роли озвучивают: Надежда Дорофеева, Алексей Завгородний, Евгений Малуха, Сергей Притула, Юрий Горбунов, Олег Михайлюта, Николай Боклан, Маша Ефросинина, Егор Крутоголов, Евгений Гашенко
О фильме:
Бродячий артист Руслан влюбляется в прекрасную Милу, даже не подозревая, что она принцесса. Когда злой волшебник Черномор похищает его возлюбленную, рассчитывая превратить силу её любви в собственное колдовское могущество, Руслан отправляется в погоню за украденной принцессой. Ему придётся преодолеть все преграды и опасности на своём пути, чтобы доказать, что настоящая любовь сильнее магии.

Страна: Украина
Студия: Animagrad Animation Studio, Film.UA
Продолжительность: 01:27:30
Перевод:
Профессиональный (полное дублирование) | iTunes
Файл
Качество: WEB-DL 1080p
Формат: MKV
Кодек: MPEG-4 AVC
Видео: 1920x804 (2,40:1), 25 fps, MPEG-4 AVC ~ 4500 Кbps avg, 0.117 bit/pixel
Аудио: AC3, 48 kHz, 6 ch, ~384.00 kbps avg | русский | iTunes
Субтитры: Отсутствуют

Инфо-файл

Общее
Уникальный идентификатор : 120652779906671679763772724322440778299 (0x5AC4E152CB324F2D8A0D15218CCF123B)
Полное имя : RUSLAN_LUDMILA_PEREZAGRUZKA (2018) WEB-DL 1080p.mkv
Формат : Matroska
Версия формата : Version 4 / Version 2
Размер файла : 2,99 Гбайт
Продолжительность : 1 ч. 27 м.
Общий поток : 4885 Кбит/сек
Название фильма : Руслан и Людмила: Перезагрузка (2018)
Дата кодирования : UTC 2019-09-22 23:05:17
Программа кодирования : mkvmerge v27.0.0 ('Metropolis') 64-bit
Библиотека кодирования : libebml v1.3.6 + libmatroska v1.4.9
Обложка : Yes
Attachments : cover.jpg
Видео
Идентификатор : 1
Формат : AVC
Формат/Информация : Advanced Video Codec
Профиль формата : High@L4
Настройки формата : CABAC / 5 Ref Frames
Параметр CABAC формата : Да
Параметр RefFrames формата : 5 кадров
Идентификатор кодека : V_MPEG4/ISO/AVC
Продолжительность : 1 ч. 27 м.
Битрейт : 4500 Кбит/сек
Ширина : 1920 пикселей
Высота : 804 пикселя
Соотношение сторон : 2,40:1
Режим частоты кадров : Постоянный
Частота кадров : 25,000 кадров/сек
Цветовое пространство : YUV
Субдискретизация насыщенности : 4:2:0
Битовая глубина : 8 бит
Тип развёртки : Прогрессивная
Бит/(Пиксели*Кадры) : 0.117
Размер потока : 2,75 Гбайт (92%)
Заголовок : RUSLAN_LUDMILA_PEREZAGRUZKA (2018) WEB-DL 1080p
Язык : Russian
Default : Да
Forced : Нет
Цветовой диапазон : Limited
Основные цвета : BT.709
Характеристики трансфера : BT.709
Коэффициенты матрицы : BT.709
Аудио
Идентификатор : 2
Формат : AC-3
Формат/Информация : Audio Coding 3
Идентификатор кодека : A_AC3
Продолжительность : 1 ч. 27 м.
Вид битрейта : Постоянный
Битрейт : 384 Кбит/сек
Каналы : 6 каналов
Расположение каналов : Front: L C R, Side: L R, LFE
Частота : 48,0 КГц
Частота кадров : 31,250 кадров/сек (1536 SPF)
Битовая глубина : 16 бит
Метод сжатия : С потерями
Задержка видео : -40 мс.
Размер потока : 240 Мбайт (8%)
Заголовок : RUSLAN_LUDMILA_PEREZAGRUZKA (2018) WEB-DL 1080p | iTunes
Язык : Russian
Default : Да
Forced : Да
Меню
00:00:00.000 : en:Глава 1
00:06:30.880 : en:Глава 2
00:11:18.920 : en:Глава 3
00:17:41.200 : en:Глава 4
00:22:36.239 : en:Глава 5
00:28:31.318 : en:Глава 6
00:35:25.717 : en:Глава 7
00:41:38.077 : en:Глава 8
00:47:15.356 : en:Глава 9
00:53:59.955 : en:Глава 10
01:02:11.315 : en:Глава 11
01:09:53.514 : en:Глава 12
01:17:39.953 : en:Глава 13

Скриншоты

admin

Post 08-Sep-2019 08:07

[Quote]

Информация о фильме
Название: Тайная жизнь домашних животных 2
Оригинальное название: The Secret Life of Pets 2
Год выхода: 2019
Жанр: Мультфильм, комедия, приключения, семейный
Режиссер: Крис Рено, Джонатан дель Валь
В ролях: Пэттон Освальт, Кевин Харт, Харрисон Форд, Эрик Стоунстрит, Дженни Слейт, Тиффани Хэддиш, Лэйк Белл, Дэна Карви, Бобби Мойнахан, Хэннибал Бёресс
О фильме:
Почему человек так долго спит утром? Чем вкусно пахнет? Дай мне, дай, дай, дай! Как заставить человека чесать за ушком весь день? Ой, что это? Ааай, опять мой хвост! Где взять еще вкусняшек? О, мячик-мячик-мячик! Узнайте, что действительно беспокоит ваших животных.

Страна: США
Студия: Illumination Entertainment, Universal Pictures
Продолжительность: 01:26:04
Перевод: Дублированный, многоголосый
Файл
Качество: BDRip 1080p
Видео: MPEG-4 AVC, 9972 Кбит/с, 1920x1040, 23.976 Кадр/с
Звук:
Aудио#1: Russian: 48 kHz, AC3, 3/2 (L,C,R,l,r) + LFE ch, ~384.00 kbps avg |Дубляж, iTunes|
Aудио#2: Russian: 48 kHz, AC3, 2 (L,R) ch, ~192.00 kbps avg |Многоголосый, HDRezka Studio|
Aудио#3: English: 48 kHz, DTS, 3/2 (L,C,R,l,r) + LFE ch, ~1509.00 kbps avg
Субтитры: Russian (Forced, Full-length), English (Full-length, SDH)

Log/MediaInfo

x264 [info]: frame I:988 Avg QP:13.95 size:275116
x264 [info]: frame P:35108 Avg QP:15.87 size: 94813
x264 [info]: frame B:87705 Avg QP:17.19 size: 32338
Формат : Matroska
Версия формата : Version 4
Размер файла : 7,25 Гбайт
Продолжительность : 1 ч. 26 м.
Общий поток : 12,1 Мбит/сек
Название фильма : The.Secret.Life.of.Pets.2.2019.x264.BDRip.1080p.Rus.Eng.ExKinoRay
Дата кодирования : UTC 2019-09-07 07:50:30
Программа кодирования : mkvmerge v7.9.0 ('Birds') 64bit
Библиотека кодирования : libebml v1.3.1 + libmatroska v1.4.2
Видео
Идентификатор : 1
Формат : AVC
Формат/Информация : Advanced Video Codec
Профиль формата : High@L4.1
Настройки формата : CABAC / 4 Ref Frames
Параметр CABAC формата : Да
Параметр RefFrames формата : 4 кадра
Идентификатор кодека : V_MPEG4/ISO/AVC
Продолжительность : 1 ч. 26 м.
Битрейт : 9972 Кбит/сек
Ширина : 1920 пикселей
Высота : 1040 пикселей
Соотношение сторон : 1,85:1
Режим частоты кадров : Постоянный
Частота кадров : 23,976 кадра/сек
Цветовое пространство : YUV
Субдискретизация насыщенности : 4:2:0
Битовая глубина : 8 бит
Тип развёртки : Прогрессивная
Бит/(Пиксели*Кадры) : 0.208
Размер потока : 5,99 Гбайт (83%)
Заголовок : The.Secret.Life.of.Pets.2.2019.x264.BDRip.1080p.Rus.Eng.ExKinoRay
Библиотека кодирования : x264 core 157 r2945 72db437
Настройки программы : cabac=1 / ref=4 / deblock=1:-2:-2 / analyse=0x3:0x113 / me=umh / subme=10 / psy=1 / psy_rd=1.00:0.00 / mixed_ref=1 / me_range=32 / chroma_me=1 / trellis=2 / 8x8dct=1 / cqm=0 / deadzone=21,11 / fast_pskip=0 / chroma_qp_offset=-2 / threads=6 / lookahead_threads=1 / sliced_threads=0 / nr=0 / decimate=0 / interlaced=0 / bluray_compat=0 / constrained_intra=0 / bframes=10 / b_pyramid=2 / b_adapt=2 / b_bias=0 / direct=3 / weightb=1 / open_gop=0 / weightp=1 / keyint=240 / keyint_min=23 / scenecut=40 / intra_refresh=0 / rc_lookahead=75 / rc=crf / mbtree=0 / crf=16.5 / qcomp=0.60 / qpmin=0 / qpmax=69 / qpstep=4 / vbv_maxrate=50000 / vbv_bufsize=62500 / crf_max=0.0 / nal_hrd=none / filler=0 / ip_ratio=1.30 / pb_ratio=1.20 / aq=3:0.70 / zones=0,588,q=26/112448,113833,q=12/113834,113870,q=28/115160,123800,q=26
Язык : English
Default : Да
Forced : Нет
Аудио #1
Идентификатор : 2
Формат : AC-3
Формат/Информация : Audio Coding 3
Коммерческое название : Dolby Digital
Идентификатор кодека : A_AC3
Продолжительность : 1 ч. 26 м.
Вид битрейта : Постоянный
Битрейт : 384 Кбит/сек
Каналы : 6 каналов
Channel layout : L R C LFE Ls Rs
Частота : 48,0 КГц
Частота кадров : 31,250 кадров/сек (1536 SPF)
Битовая глубина : 16 бит
Метод сжатия : С потерями
Размер потока : 236 Мбайт (3%)
Заголовок : Дублированный (iTunes)
Язык : Russian
Default : Да
Forced : Нет
Аудио #2
Идентификатор : 3
Формат : AC-3
Формат/Информация : Audio Coding 3
Коммерческое название : Dolby Digital
Идентификатор кодека : A_AC3
Продолжительность : 1 ч. 26 м.
Вид битрейта : Постоянный
Битрейт : 192 Кбит/сек
Каналы : 2 канала
Channel layout : L R
Частота : 48,0 КГц
Частота кадров : 31,250 кадров/сек (1536 SPF)
Битовая глубина : 16 бит
Метод сжатия : С потерями
Размер потока : 118 Мбайт (2%)
Заголовок : Многоголосый (HDRezka Studio)
Язык : Russian
Default : Нет
Forced : Нет
Аудио #3
Идентификатор : 4
Формат : DTS
Формат/Информация : Digital Theater Systems
Идентификатор кодека : A_DTS
Продолжительность : 1 ч. 26 м.
Вид битрейта : Постоянный
Битрейт : 1509 Кбит/сек
Каналы : 6 каналов
Channel layout : C L R Ls Rs LFE
Частота : 48,0 КГц
Частота кадров : 93,750 кадра/сек (512 SPF)
Битовая глубина : 24 бит
Метод сжатия : С потерями
Размер потока : 929 Мбайт (13%)
Заголовок : DTS Audio 5.1 ch 1509 Kbps
Язык : English
Default : Нет
Forced : Нет
Текст #1
Идентификатор : 5
Формат : UTF-8
Идентификатор кодека : S_TEXT/UTF8
Идентификатор кодека/Информация : UTF-8 Plain Text
Продолжительность : 3 с. 542 мс.
Битрейт : 74 бит/сек
ElementCount : 1
Размер потока : 33,0 байт (0%)
Заголовок : Forced
Язык : Russian
Default : Нет
Forced : Нет
Текст #2
Идентификатор : 6
Формат : UTF-8
Идентификатор кодека : S_TEXT/UTF8
Идентификатор кодека/Информация : UTF-8 Plain Text
Продолжительность : 1 ч. 18 м.
Битрейт : 81 бит/сек
ElementCount : 1153
Размер потока : 46,7 Кбайт (0%)
Заголовок : Full-length
Язык : Russian
Default : Нет
Forced : Нет
Текст #3
Идентификатор : 7
Формат : UTF-8
Идентификатор кодека : S_TEXT/UTF8
Идентификатор кодека/Информация : UTF-8 Plain Text
Продолжительность : 1 ч. 25 м.
Битрейт : 53 бит/сек
ElementCount : 1324
Размер потока : 33,3 Кбайт (0%)
Заголовок : Full-length
Язык : English
Default : Нет
Forced : Нет
Текст #4
Идентификатор : 8
Формат : UTF-8
Идентификатор кодека : S_TEXT/UTF8
Идентификатор кодека/Информация : UTF-8 Plain Text
Продолжительность : 1 ч. 25 м.
Битрейт : 77 бит/сек
ElementCount : 1924
Размер потока : 48,5 Кбайт (0%)
Заголовок : SDH
Язык : English
Default : Нет
Forced : Нет
Меню
00:00:00.000 : en:Chapter 01
00:05:34.542 : en:Chapter 02
00:10:07.815 : en:Chapter 03
00:13:26.305 : en:Chapter 04
00:16:39.790 : en:Chapter 05
00:19:56.945 : en:Chapter 06
00:24:10.073 : en:Chapter 07
00:28:15.735 : en:Chapter 08
00:30:54.269 : en:Chapter 09
00:35:15.113 : en:Chapter 10
00:39:55.976 : en:Chapter 11
00:45:47.327 : en:Chapter 12
00:49:51.822 : en:Chapter 13
00:56:54.994 : en:Chapter 14
00:58:35.220 : en:Chapter 15
01:02:48.931 : en:Chapter 16
01:07:16.615 : en:Chapter 17
01:12:48.822 : en:Chapter 18
01:15:21.808 : en:Chapter 19
01:18:10.018 : en:Chapter 20

Скриншоты

admin

Post 12-Aug-2019 01:47

[Quote]

Информация о фильме
Название: Ультрамен
Оригинальное название: Ultraman
Год выпуска: 2019
Жанр: Приключения, мультсериал
Выпущено: Япония, Production I.G., Sola Digital Arts
Режиссер: Джефф Нимой, Синдзи Арамаки, Кэндзи Камияма
В ролях: Д.С. Дуглас, Джош Хатчерсон, Мэттью Мерсер, Брайан Палермо, Фред Татаскьор, Стивен Блум, Робби Дэймонд, Люсьен Додж, Такуя Эгути, Даг Эрхольц
О фильме:
Синдзиро Хаята — сын Сина Хаяты, который был первым Ультраменом — наделён особенной силой. Однако узнаёт он об этом лишь когда подвергается нападению неизвестных. Ультрамен спасает Синдзиру и рассказывает о том, что он — его отец. Синдзиро надевает костюм Ультрамена, предоставленный мистером Идом, бывшим членом Специального научного поискового отряда, и решает отныне во всём помогать отцу. Впереди их ждёт большая битва.

Файл
Качество: WEBRip (1080p
Видео: MPEG-4 AVC, ~ 4000 Кбит/с, 10 bit, 1920x1080
Аудио: Русский (AAC, 2 ch, 192 Кбит/с)
Английский (EAC3, 6 ch, 640 Кбит/с)
Японский (EAC3, 6 ch, 640 Кбит/с)
Размер: 12.5 ГБ
Продолжительность: 13 x ~ 00:25:00
Перевод: Любительский многоголосый
Субтитры: Русские, английские

Скриншоты

Без рекламы!

admin

Post 07-Aug-2019 02:54

[Quote]

Информация о фильме
Название: Маугли дикой планеты
Оригинальное название: Terra Willy: Planète inconnue
Год выпуска: 2019
Жанр: Мультфильм, фантастика, комедия, приключения, полнометражный
Режиссёр: Эрик Тости
В ролях: Тимоте Фон Дорп, Эдуард Баэр, Мари-Южени Марешаль, Гийом Лебон, Барбара Тиссье, Джейсон Каннинг, Лэнден Битти
О фильме: Попав в метеоритный дождь, юный космический исследователь Вилли оказывается на неизвестной планете. С помощью робота Бака он должен выжить здесь до прибытия спасательной миссии его родителей. Но батарея Бака быстро садится, и, чтобы спасти Бака и вернуться домой, Вилли придется найти новых друзей и научиться жить по законам джунглей дикой планеты.

Выпущено: Франция, TAT Productions, Bac Films, France 3 Cinéma
Продолжительность: 01:26:10
Перевод: Дублированный | iTunes
Файл
Качество: WEB-DL 1080p
Контейнер: MKV
Видео: MPEG-4 AVC, 1920x804, 25.000 fps, 4397 Kbps
Аудио: Russian: AC3, 48.0 KHz, 6 ch, 384 kbps - iTunes
Субтитры: Нет

Скриншоты


MediaInfo

General
Unique ID : 176276028341769521636812808460914918105 (0x849D8734954FC7B88F2E295BB85402D9)
Complete name : Maugli.dikoj.planety.2019.WEB-DL.1080p.mkv
Format : Matroska
Format version : Version 2
File size : 2.94 GiB
Duration : 1 h 26 min
Overall bit rate : 4 878 kb/s
Encoded date : UTC 2019-08-05 22:51:51
Writing application : mkvmerge v5.8.0 ('No Sleep / Pillow') built on Sep 2 2012 15:37:04
Writing library : libebml v1.2.3 + libmatroska v1.3.0
Video
ID : 1
Format : AVC
Format/Info : Advanced Video Codec
Format profile : High@L4
Format settings, CABAC : Yes
Format settings, RefFrames : 5 frames
Codec ID : V_MPEG4/ISO/AVC
Duration : 1 h 26 min
Bit rate : 4 397 kb/s
Width : 1 920 pixels
Height : 804 pixels
Display aspect ratio : 2.40:1
Frame rate mode : Constant
Frame rate : 25.000 FPS
Color space : YUV
Chroma subsampling : 4:2:0
Bit depth : 8 bits
Scan type : Progressive
Bits/(Pixel*Frame) : 0.114
Stream size : 2.65 GiB (90%)
Language : English
Default : Yes
Forced : No
Color range : Limited
Color primaries : BT.709
Transfer characteristics : BT.709
Matrix coefficients : BT.709
Audio
ID : 2
Format : AC-3
Format/Info : Audio Coding 3
Format settings, Endianness : Big
Codec ID : A_AC3
Duration : 1 h 26 min
Bit rate mode : Constant
Bit rate : 384 kb/s
Channel(s) : 6 channels
Channel positions : Front: L C R, Side: L R, LFE
Sampling rate : 48.0 kHz
Frame rate : 31.250 FPS (1536 SPF)
Bit depth : 16 bits
Compression mode : Lossy
Stream size : 237 MiB (8%)
Title : iTunes
Language : Russian
Service kind : Complete Main
Default : Yes
Forced : No
Menu
00:00:00.000 : en:Глава 1
00:07:00.960 : en:Глава 2
00:13:09.960 : en:Глава 3
00:20:15.240 : en:Глава 4
00:26:24.600 : en:Глава 5
00:33:12.400 : en:Глава 6
00:39:00.840 : en:Глава 7
00:47:22.360 : en:Глава 8
00:52:50.800 : en:Глава 9
00:57:19.960 : en:Глава 10
01:02:52.560 : en:Глава 11
01:06:43.160 : en:Глава 12
01:10:12.520 : en:Глава 13
01:14:22.200 : en:Глава 14
01:18:11.640 : en:Глава 15

admin

Post 23-Jul-2019 07:12

[Quote]

Информация о фильме
Название: Потерянное звено
Оригинальное название: Missing Link
Год выпуска: 2019
Жанр: Мультфильм, фэнтези, комедия, приключения, семейный
Выпущено: США, Канада, Laika Entertainment
Режиссер: Крис Батлер
В ролях: Хью Джекман, Дэвид Уоллиамс, Стивен Фрай, Мэтт Лукас, Зак Галифианакис, Тимоти Олифант, Зои Салдана, Эмма Томпсон, Амрита Ачария, Чинг Валдес-Аран
О фильме: Бесстрашный натуралист и исследователь Лайонел Фрост поставил перед собой задачу рассказать миру о существовании разных созданий, о которых говорят только в легендах. Его новым открытием становится Линк, так называемое «недостающее звено», связывающее человечество с его предками по эволюционной лестнице.

Качество: BDRip (1080p)
Видео: MPEG-4 AVC, 6645 Кбит/с, 1920x800, 23.976 кадр/с
Аудио: Русский (AC3, 2 ch, 192 Кбит/с), английский (DTS, 6 ch, 1509 Кбит/с)
Размер: 5.51 ГБ
Продолжительность: 01:34:26
Перевод: Профессиональный многоголосый
Субтитры: Английские
Озвучивание - Профессиональное многоголосое (HDRezka Studio)
Сохранены оригинальные чаптеры как на Blu-Ray.

x264

x264 [info]: frame I:1187 Avg QP:14.13 size:223488
x264 [info]: frame P:34982 Avg QP:17.26 size: 67231
x264 [info]: frame B:99671 Avg QP:18.12 size: 20959
x264 [info]: consecutive B-frames: 5.0% 4.3% 17.8% 15.4% 14.9% 33.2% 4.8% 1.3% 1.2% 0.6% 1.4%
x264 [info]: mb I I16..4: 6.9% 76.3% 16.8%
x264 [info]: mb P I16..4: 1.8% 15.2% 1.7% P16..4: 32.6% 29.9% 10.8% 2.0% 0.2% skip: 5.7%
x264 [info]: mb B I16..4: 0.5% 1.8% 0.2% B16..8: 29.9% 18.8% 3.2% direct: 6.6% skip:39.0% L0:44.3% L1:41.5% BI:14.2%
x264 [info]: 8x8 transform intra:78.7% inter:47.7%
x264 [info]: direct mvs spatial:98.0% temporal:2.0%
x264 [info]: coded y,uvDC,uvAC intra: 79.9% 88.3% 74.8% inter: 21.1% 32.6% 18.8%
x264 [info]: i16 v,h,dc,p: 23% 13% 9% 56%
x264 [info]: i8 v,h,dc,ddl,ddr,vr,hd,vl,hu: 12% 11% 14% 8% 10% 10% 10% 11% 14%
x264 [info]: i4 v,h,dc,ddl,ddr,vr,hd,vl,hu: 15% 10% 19% 7% 11% 11% 10% 8% 10%
x264 [info]: i8c dc,h,v,p: 42% 24% 18% 15%
x264 [info]: Weighted P-Frames: Y:3.2% UV:1.9%
x264 [info]: ref P L0: 54.0% 9.4% 20.9% 7.0% 7.1% 1.6% 0.0%
x264 [info]: ref B L0: 68.3% 22.1% 7.4% 2.2%
x264 [info]: ref B L1: 90.0% 10.0%
x264 [info]: kb/s:6645.15

Инфо-файл

Общее
Уникальный идентификатор : 193116500539340774020577254651375332671 (0x9148E296DB750034A7FB81477FBB2D3F)
Полное имя : D:ЗагрузкиMissing.Link.2019.x264.BDRip.(1080p).OlLanDGroup.mkv
Формат : Matroska
Версия формата : Version 4 / Version 2
Размер файла : 5,51 Гбайт
Продолжительность : 1 ч. 34 м.
Общий поток : 8349 Кбит/сек
Название фильма : Потерянное звено.2019.Rip by: ollan
Дата кодирования : UTC 2019-07-21 02:55:37
Программа кодирования : mkvmerge v6.5.0 ('Isn't she lovely') built on Oct 20 2013 12:50:05
Библиотека кодирования : libebml v1.3.0 + libmatroska v1.4.1
Обложка : Yes
Attachments : Cover - Missing.Link.png
Видео
Идентификатор : 1
Формат : AVC
Формат/Информация : Advanced Video Codec
Профиль формата : High@L4.1
Настройки формата : CABAC / 5 Ref Frames
Параметр CABAC формата : Да
Параметр ReFrames формата : 5 кадров
Идентификатор кодека : V_MPEG4/ISO/AVC
Продолжительность : 1 ч. 34 м.
Битрейт : 6645 Кбит/сек
Ширина : 1920 пикселей
Высота : 800 пикселей
Соотношение сторон : 2,40:1
Режим частоты кадров : Постоянный
Частота кадров : 23,976 (24000/1001) кадра/сек
Цветовое пространство : YUV
Субдискретизация насыщенности : 4:2:0
Битовая глубина : 8 бит
Тип развёртки : Прогрессивная
Бит/(Пиксели*Кадры) : 0.180
Размер потока : 4,28 Гбайт (78%)
Библиотека кодирования : x264 core 146 r2538 121396c
Настройки программы : cabac=1 / ref=5 / deblock=1:-3:-3 / analyse=0x3:0x133 / me=umh / subme=11 / psy=1 / psy_rd=0.95:0.05 / mixed_ref=1 / me_range=64 / chroma_me=1 / trellis=2 / 8x8dct=1 / cqm=0 / deadzone=21,11 / fast_pskip=0 / chroma_qp_offset=-3 / threads=12 / lookahead_threads=3 / sliced_threads=0 / nr=0 / decimate=0 / interlaced=0 / bluray_compat=0 / constrained_intra=0 / bframes=10 / b_pyramid=2 / b_adapt=2 / b_bias=0 / direct=3 / weightb=1 / open_gop=0 / weightp=2 / keyint=240 / keyint_min=23 / scenecut=40 / intra_refresh=0 / rc_lookahead=40 / rc=2pass / mbtree=0 / bitrate=6645 / ratetol=1.0 / qcomp=0.60 / qpmin=0 / qpmax=69 / qpstep=4 / cplxblur=20.0 / qblur=0.5 / vbv_maxrate=50000 / vbv_bufsize=62500 / nal_hrd=none / filler=0 / ip_ratio=1.40 / pb_ratio=1.30 / aq=1:1.00
Язык : English
Default : Да
Forced : Нет
Аудио #1
Идентификатор : 2
Формат : AC-3
Формат/Информация : Audio Coding 3
Идентификатор кодека : A_AC3
Продолжительность : 1 ч. 34 м.
Вид битрейта : Постоянный
Битрейт : 192 Кбит/сек
Каналы : 2 канала
Расположение каналов : Front: L R
Частота : 48,0 КГц
Частота кадров : 31,250 кадров/сек (1536 SPF)
Битовая глубина : 16 бит
Метод сжатия : С потерями
Размер потока : 130 Мбайт (2%)
Заголовок : MVO [HDRezka Studio]
Язык : Russian
Service kind : Complete Main
Default : Да
Forced : Нет
Аудио #2
Идентификатор : 3
Формат : DTS
Формат/Информация : Digital Theater Systems
Идентификатор кодека : A_DTS
Продолжительность : 1 ч. 34 м.
Вид битрейта : Постоянный
Битрейт : 1509 Кбит/сек
Каналы : 6 каналов
Расположение каналов : Front: L C R, Side: L R, LFE
Частота : 48,0 КГц
Частота кадров : 93,750 кадра/сек (512 SPF)
Битовая глубина : 24 бит
Метод сжатия : С потерями
Размер потока : 1019 Мбайт (18%)
Язык : English
Default : Нет
Forced : Нет
Текст #1
Идентификатор : 4
Формат : UTF-8
Идентификатор кодека : S_TEXT/UTF8
Идентификатор кодека/Информация : UTF-8 Plain Text
Заголовок : Forced
Язык : English
Default : Нет
Forced : Нет
Текст #2
Идентификатор : 5
Формат : UTF-8
Идентификатор кодека : S_TEXT/UTF8
Идентификатор кодека/Информация : UTF-8 Plain Text
Заголовок : Full
Язык : English
Default : Нет
Forced : Нет
Меню
00:00:00.000 : en:Chapter 01
00:05:12.520 : en:Chapter 02
00:08:53.616 : en:Chapter 03
00:12:29.206 : en:Chapter 04
00:15:35.851 : en:Chapter 05
00:20:18.550 : en:Chapter 06
00:24:26.840 : en:Chapter 07
00:29:55.126 : en:Chapter 08
00:33:14.659 : en:Chapter 09
00:36:40.948 : en:Chapter 10
00:40:33.389 : en:Chapter 11
00:43:45.164 : en:Chapter 12
00:47:24.299 : en:Chapter 13
00:52:50.876 : en:Chapter 14
00:55:14.477 : en:Chapter 15
00:58:51.903 : en:Chapter 16
00:59:59.721 : en:Chapter 17
01:02:54.729 : en:Chapter 18
01:05:15.494 : en:Chapter 19
01:08:17.176 : en:Chapter 20
01:11:00.339 : en:Chapter 21
01:13:20.437 : en:Chapter 22
01:21:51.197 : en:Chapter 23
01:24:48.625 : en:Chapter 24

Скриншоты



admin

Post 12-Jul-2019 05:32

[Quote]

Информация о фильме
Название: Букашки 2
Оригинальное название: Minuscule - Les mandibules du bout du monde
Год выхода: 2018
Жанр: Мультфильм, комедия, приключения, семейный
Режиссер: Хелен Жиро, Томас Сабо
В ролях: Бруно Саломон, Тьерри Фремон, Стефани Кулон, Жан Нанга, Сара Коэн-Хадриа, Жан-Поль Гуйон, Бо Готье де Кермоаль, Франк Бенезек, Люк Морван, Хуэйфан Лю

О фильме: Герои перемещаются из Франции на тропический остров Гваделупа, где их ждут захватывающие приключения в духе «Пиратов Карибского моря» и романтическая история в духе «Ромео и Джульетты».
Страна: Франция, Китай, Гваделупа
Студия: Futurikon, IfilmEntertainment, France 3 Cinéma
Продолжительность: 01:32:14
Перевод: Не требуется | iTunes
Качество: BDRip 720p
Видео: MPEG-4 AVC, 1280x536, 3100 Кbit/s, 23.976 fps
Звук:
Аудио: 48 kHz, AC3, 5.1, 384 Kbps

Скриншоты

MI

General
Unique ID : 98657591242108224487919135792567569228 (0x4A38C2CBBF2D4CB2452B806F67924B4C)
Complete name : D:Video111Minuscule.2.Les.Mandibules.Du.Bout.Du.Monde.2018.BDRip.720p.seleZen.mkv
Format : Matroska
Format version : Version 4
File size : 2.24 GiB
Duration : 1 h 32 min
Overall bit rate : 3 482 kb/s
Movie name : Minuscule 2 Les Mandibules Du Bout Du Monde 2018 from селезень
Encoded date : UTC 2019-07-11 19:29:59
Writing application : mkvmerge v35.0.0 ('All The Love In The World') 64-bit
Writing library : libebml v1.3.9 + libmatroska v1.5.2
Video
ID : 1
Format : AVC
Format/Info : Advanced Video Codec
Format profile : High@L4.1
Format settings : CABAC / 12 Ref Frames
Format settings, CABAC : Yes
Format settings, Reference : 12 frames
Codec ID : V_MPEG4/ISO/AVC
Duration : 1 h 32 min
Bit rate : 3 100 kb/s
Width : 1 280 pixels
Height : 536 pixels
Display aspect ratio : 2.40:1
Frame rate mode : Constant
Frame rate : 23.976 (24000/1001) FPS
Color space : YUV
Chroma subsampling : 4:2:0
Bit depth : 8 bits
Scan type : Progressive
Bits/(Pixel*Frame) : 0.188
Stream size : 1.99 GiB (89%)
Title : seleZen
Writing library : x264 core 148 r2705kMod 3f5ed56
Encoding settings : cabac=1 / ref=12 / deblock=1:-2:-2 / analyse=0x3:0x133 / me=umh / subme=10 / psy=1 / fade_compensate=0.00 / psy_rd=1.20:0.05 / mixed_ref=1 / me_range=32 / chroma_me=1 / trellis=2 / 8x8dct=1 / cqm=0 / deadzone=21,11 / fast_pskip=0 / chroma_qp_offset=-3 / threads=12 / lookahead_threads=2 / sliced_threads=0 / nr=0 / decimate=0 / interlaced=0 / bluray_compat=0 / constrained_intra=0 / fgo=0 / bframes=8 / b_pyramid=2 / b_adapt=2 / b_bias=0 / direct=3 / weightb=1 / open_gop=0 / weightp=2 / keyint=240 / keyint_min=23 / scenecut=40 / intra_refresh=0 / rc_lookahead=50 / rc=2pass / mbtree=0 / bitrate=3100 / ratetol=1.0 / qcomp=0.60 / qpmin=0 / qpmax=51 / qpstep=4 / cplxblur=20.0 / qblur=0.5 / vbv_maxrate=50000 / vbv_bufsize=62500 / nal_hrd=none / filler=0 / ip_ratio=1.40 / pb_ratio=1.30 / aq=3:0.80
Language : English
Default : Yes
Forced : No
Audio
ID : 2
Format : AC-3
Format/Info : Audio Coding 3
Commercial name : Dolby Digital
Codec ID : A_AC3
Duration : 1 h 32 min
Bit rate mode : Constant
Bit rate : 384 kb/s
Channel(s) : 6 channels
Channel layout : L R C LFE Ls Rs
Sampling rate : 48.0 kHz
Frame rate : 31.250 FPS (1536 SPF)
Bit depth : 16 bits
Compression mode : Lossy
Stream size : 253 MiB (11%)
Service kind : Complete Main
Default : Yes
Forced : Yes
Menu
00:00:00.000 : :Chapitre 01
00:10:32.632 : :Chapitre 02
00:21:44.845 : :Chapitre 03
00:34:11.299 : :Chapitre 04
00:45:11.834 : :Chapitre 05
00:56:38.019 : :Chapitre 06
01:07:22.163 : :Chapitre 07
01:19:37.564 : :Chapitre 08
*** Примечание: Релиз с 2D-3D издания, местами есть полосы по бокам.

admin

Post 13-May-2019 03:57

[Quote]

Информация о фильме
Название: Легенда о воюющих царствах
Оригинальное название: Jue ji
Год выхода: 2016
Жанр: Приключения, Фэнтези
Режиссер: Го Цзинмин
В ролях: Фань Бинбин, Чени Чэнь, Крис У,Уильям Чан, Эмбер Ко, Джелли Линь, Ян Ми, Рой Ван, Кевин Янь, Тони Ван
О фильме:
Деревенский парнишка Чилин работал на подхвате в местной таверне, когда в город пришли столичные маги-алхимики. Маги собирались поймать опасное чудовище — ледяного енота — но слегка ошиблись с животным и заплатили за это жизнью.
Но зато в эту страшную ночь, погубившую множество жизней, у Чилина проснулись магические способности. Он случайно обуздал зверя, после чего был взят в ученики одним из верховных алхимиков Гланорта — Инь Чэнем (Силвером). Теперь деревенский простачок оказался вовлечен в самое пекло политических интриг и бесконечной борьбы магов за власть над континентом. Власть, способную сокрушить всё мироздание.

Страна: Китай, Камбоджа
Продолжительность: 01:57:33
Перевод:
1. Русская (многоголосая, дублированная) - СВ-Дубль
2. Английская (многоголосая, дублированная)
Файл
Кодек: H264
Качество: WEB-DL 1080p
Видео: 4 578 kb/s, 1912x800, 23.976fps
Звук:
1. rus, 192 kb/s, ac3, 48000 Hz, stereo
2. eng, 192 kb/s, ac3, 48000 Hz, stereo
Субтитры: нет

Скриншоты

MediaInfo

General
Unique ID : 233339435036099094766701520093579106665 (0xAF8B8A5F2431DB449B07AA542B8CD969)
Complete name : d:DownloadsЛегенда о воюющих царствах.2016.WEB-DL.1080p.mkv
Format : Matroska
Format version : Version 4 / Version 2
File size : 4.08 GiB
Duration : 1 h 57 min
Overall bit rate : 4 962 kb/s
Encoded date : UTC 2019-05-12 07:50:43
Writing application : mkvmerge v8.3.0 ('Over the Horizon') 64bit
Writing library : libebml v1.3.1 + libmatroska v1.4.2
Video
ID : 1
Format : AVC
Format/Info : Advanced Video Codec
Format profile : High@L4
Format settings : CABAC / 5 Ref Frames
Format settings, CABAC : Yes
Format settings, ReFrames : 5 frames
Codec ID : V_MPEG4/ISO/AVC
Duration : 1 h 57 min
Bit rate : 4 578 kb/s
Width : 1 912 pixels
Height : 800 pixels
Display aspect ratio : 2.40:1
Frame rate mode : Constant
Frame rate : 23.976 FPS
Color space : YUV
Chroma subsampling : 4:2:0
Bit depth : 8 bits
Scan type : Progressive
Bits/(Pixel*Frame) : 0.125
Stream size : 3.76 GiB (92%)
Language : Chinese
Default : Yes
Forced : No
Color range : Limited
Color primaries : BT.709
Transfer characteristics : BT.709
Matrix coefficients : BT.709
Audio #1
ID : 2
Format : AC-3
Format/Info : Audio Coding 3
Codec ID : A_AC3
Duration : 1 h 57 min
Bit rate mode : Constant
Bit rate : 192 kb/s
Channel(s) : 2 channels
Channel positions : Front: L R
Sampling rate : 48.0 kHz
Frame rate : 31.250 FPS (1536 SPF)
Bit depth : 16 bits
Compression mode : Lossy
Stream size : 162 MiB (4%)
Title : СВ-Дубль
Language : Russian
Service kind : Complete Main
Default : Yes
Forced : No
Audio #2
ID : 3
Format : AC-3
Format/Info : Audio Coding 3
Codec ID : A_AC3
Duration : 1 h 57 min
Bit rate mode : Constant
Bit rate : 192 kb/s
Channel(s) : 2 channels
Channel positions : Front: L R
Sampling rate : 48.0 kHz
Frame rate : 31.250 FPS (1536 SPF)
Bit depth : 16 bits
Compression mode : Lossy
Stream size : 161 MiB (4%)
Title : Английская
Language : English
Service kind : Complete Main
Default : No
Forced : No
Menu
00:00:00.000 : en:1
00:10:43.000 : en:2
00:21:53.000 : en:3
00:32:32.000 : en:4
00:44:36.000 : en:5
00:54:43.000 : en:6
01:02:36.000 : en:7
01:11:20.000 : en:8
01:21:43.000 : en:9
01:28:43.000 : en:10
01:38:26.000 : en:11
01:52:47.000 : en:12

admin

Post 06-May-2019 01:53

[Quote]

Информация о фильме
Название: Ковёр-самолёт
Оригинальное название: Hodja fra Pjort / Up and Away
Год выхода: 2018
Жанр: Мультфильм, семейный
Режиссер: Карстен Килерих
В ролях: Вибеке Дюхольм, Петер Фрёдин, Эрик Холми, Ребекка Ронде Килерих, Сонни Лэхи, Туре Линдхардт, Михаэль Зуков Мардорф, Сьюзи Пауэр, Биргитте Рааберг, Ларс Ранте

О фильме: Главный герой растёт мечтательным мальчиком, который хочет увидеть мир. Его отец, смотря на жизнь куда более реалистично, настаивает, чтобы сын выбросил никчёмные мысли из головы и выучился на портного. Но мальчик не перестаёт мечтать о путешествиях в далекие края, и в один прекрасный день встречает купца ЭльФазу, который готов пожаловать ему ковер-самолёт, если мальчик отправится в большой город под властью султана, найдёт и возвратит ЭльФазе его маленькую внучку...
Страна: Дания
Студия: M&M Productions, A. Film, Danmarks Radio
Продолжительность: 01:21:03
Перевод: Дублированный | iTunes
Качество: BDRip 1080p
Видео: MPEG-4 AVC, 1920x804, 10 Mbit/s, 24 fps
Звук:
Аудио #01: 48 kHz, AC3, 5.1, 384 Kbps | iTunes | RUS |
Аудио #02: 48 kHz, AC3, 5.1, 640 Kbps | Оригинал | DAN |
Субтитры: Английские

Скриншоты

MI

General
Unique ID : 256690257719075139086864051308069163977 (0xC11CBED10D0B1D2FEA53F2AC54A493C9)
Complete name : D:Video111Blu rayHodja.fra.Pjort.AKA.Up.and.Away.2018.BDRip.1080p.seleZen.mkv
Format : Matroska
Format version : Version 4
File size : 6.24 GiB
Duration : 1 h 21 min
Overall bit rate : 11.0 Mb/s
Movie name : Hodja fra Pjort 2018 from селезень
Encoded date : UTC 2019-05-05 07:15:18
Writing application : mkvmerge v32.0.0 ('Astral Progressions') 64-bit
Writing library : libebml v1.3.7 + libmatroska v1.5.0
Video
ID : 1
Format : AVC
Format/Info : Advanced Video Codec
Format profile : High@L4.1
Format settings : CABAC / 5 Ref Frames
Format settings, CABAC : Yes
Format settings, Reference : 5 frames
Codec ID : V_MPEG4/ISO/AVC
Duration : 1 h 21 min
Bit rate : 10 000 kb/s
Width : 1 920 pixels
Height : 804 pixels
Display aspect ratio : 2.40:1
Frame rate mode : Constant
Frame rate : 24.000 FPS
Color space : YUV
Chroma subsampling : 4:2:0
Bit depth : 8 bits
Scan type : Progressive
Bits/(Pixel*Frame) : 0.270
Stream size : 5.66 GiB (91%)
Title : seleZen
Writing library : x264 core 148 r2705kMod 3f5ed56
Encoding settings : cabac=1 / ref=5 / deblock=1:-2:-2 / analyse=0x3:0x133 / me=umh / subme=10 / psy=1 / fade_compensate=0.00 / psy_rd=1.20:0.07 / mixed_ref=1 / me_range=24 / chroma_me=1 / trellis=2 / 8x8dct=1 / cqm=0 / deadzone=21,11 / fast_pskip=0 / chroma_qp_offset=-3 / threads=12 / lookahead_threads=2 / sliced_threads=0 / nr=0 / decimate=0 / interlaced=0 / bluray_compat=0 / constrained_intra=0 / fgo=0 / bframes=8 / b_pyramid=2 / b_adapt=2 / b_bias=0 / direct=3 / weightb=1 / open_gop=0 / weightp=2 / keyint=240 / keyint_min=24 / scenecut=40 / intra_refresh=0 / rc_lookahead=50 / rc=2pass / mbtree=0 / bitrate=10000 / ratetol=1.0 / qcomp=0.60 / qpmin=0 / qpmax=51 / qpstep=4 / cplxblur=20.0 / qblur=0.5 / vbv_maxrate=50000 / vbv_bufsize=62500 / nal_hrd=none / filler=0 / ip_ratio=1.40 / pb_ratio=1.30 / aq=3:0.80
Language : Danish
Default : Yes
Forced : No
Audio #1
ID : 2
Format : AC-3
Format/Info : Audio Coding 3
Commercial name : Dolby Digital
Codec ID : A_AC3
Duration : 1 h 21 min
Bit rate mode : Constant
Bit rate : 384 kb/s
Channel(s) : 6 channels
Channel layout : L R C LFE Ls Rs
Sampling rate : 48.0 kHz
Frame rate : 31.250 FPS (1536 SPF)
Bit depth : 16 bits
Compression mode : Lossy
Stream size : 223 MiB (3%)
Title : iTunes
Language : Russian
Service kind : Complete Main
Default : Yes
Forced : Yes
Audio #2
ID : 3
Format : AC-3
Format/Info : Audio Coding 3
Commercial name : Dolby Digital
Codec ID : A_AC3
Duration : 1 h 21 min
Bit rate mode : Constant
Bit rate : 640 kb/s
Channel(s) : 6 channels
Channel layout : L R C LFE Ls Rs
Sampling rate : 48.0 kHz
Frame rate : 31.250 FPS (1536 SPF)
Bit depth : 16 bits
Compression mode : Lossy
Stream size : 371 MiB (6%)
Title : Original
Language : Danish
Service kind : Complete Main
Default : No
Forced : No
Text
ID : 4
Format : UTF-8
Codec ID : S_TEXT/UTF8
Codec ID/Info : UTF-8 Plain Text
Duration : 1 h 15 min
Bit rate : 67 b/s
Count of elements : 1398
Stream size : 37.2 KiB (0%)
Title : Full
Language : English
Default : No
Forced : No
Menu
00:00:00.000 : :00:00:00.000
00:09:44.083 : :00:09:44.083
00:20:59.750 : :00:20:59.750
00:30:19.375 : :00:30:19.375
00:40:13.000 : :00:40:13.000
00:52:01.875 : :00:52:01.875
01:02:54.750 : :01:02:54.750
01:11:14.667 : :01:11:14.667

admin

Post 07-Apr-2019 12:52

[Quote]

Информация о фильме
Название: Гномео и Джульетта
Оригинальное название: Gnomeo & Juliet
Год выхода: 2011
Жанр: мультфильм, мелодрама, комедия, семейный
Режиссер: Келли Эсбёри / Kelly Asbury
В ролях: Джеймс МакЭвой, Эмили Блант, Эшли Дженсен, Майкл Кейн, Мэтт Лукас, Джим Каммингс, Мэгги Смит, Джейсон Стэтхэм, Оззи Осборн, Стефен Мерчант
О фильме:
Интерпретация пьесы Уильяма Шекспира, в которой противоборствуют семьи садовых гномов и гномов домашних.

Выпущено: США, Великобритания
Продолжительность: 01:23:49
Перевод: Дублированный + Оригинал
Файл
Кодек: x264
Качество: BDRip 1080p
Видео: 1920x1032, 6190 Kbps, 23.976 fps
Аудио #1: AC-3, 6 ch, 640 kbps (Rus)
Аудио #2: AC-3, 6 ch, 640 kbps (Eng)
Cубтитры: русские, английские

Скриншоты

MI

General
Unique ID : 245095260245568942623763792864137860984 (0xB863A14DCD9D733C97D6A553FA065778)
Complete name : Гномео и Джульетта.2011.BDRip.1080p.Rus.Eng.mkv
Format : Matroska
Format version : Version 2
File size : 4.38 GiB
Duration : 1h 23mn
Overall bit rate : 7 473 Kbps
Movie name : Гномео и Джульетта.2011
Encoded date : UTC 2012-07-29 09:05:59
Writing application : mkvmerge v5.7.0 ('The Whirlwind') built on Jul 10 2012 18:39:26
Writing library : libebml v1.2.3 + libmatroska v1.3.0
Video
ID : 1
Format : AVC
Format/Info : Advanced Video Codec
Format profile : High@L4.1
Format settings, CABAC : Yes
Format settings, ReFrames : 4 frames
Codec ID : V_MPEG4/ISO/AVC
Duration : 1h 23mn
Bit rate : 6 190 Kbps
Width : 1 920 pixels
Height : 1 032 pixels
Display aspect ratio : 1.85:1
Frame rate : 23.976 fps
Color space : YUV
Chroma subsampling : 4:2:0
Bit depth : 8 bits
Scan type : Progressive
Bits/(Pixel*Frame) : 0.130
Stream size : 3.54 GiB (81%)
Title : Rip by Boriy
Writing library : x264 core 125 r2208 d9d2288
Encoding settings : cabac=1 / ref=4 / deblock=1:0:0 / analyse=0x3:0x113 / me=umh / subme=10 / psy=1 / psy_rd=1.00:0.10 / mixed_ref=1 / me_range=32 / chroma_me=1 / trellis=2 / 8x8dct=1 / cqm=0 / deadzone=21,11 / fast_pskip=0 / chroma_qp_offset=-3 / threads=12 / lookahead_threads=2 / sliced_threads=0 / nr=0 / decimate=0 / interlaced=0 / bluray_compat=0 / constrained_intra=0 / bframes=5 / b_pyramid=2 / b_adapt=2 / b_bias=0 / direct=3 / weightb=1 / open_gop=0 / weightp=2 / keyint=240 / keyint_min=23 / scenecut=40 / intra_refresh=0 / rc_lookahead=60 / rc=2pass / mbtree=1 / bitrate=6190 / ratetol=1.0 / qcomp=0.60 / qpmin=0 / qpmax=69 / qpstep=4 / cplxblur=20.0 / qblur=0.5 / ip_ratio=1.40 / aq=1:1.00
Language : English
Default : Yes
Forced : No
Audio #1
ID : 2
Format : AC-3
Format/Info : Audio Coding 3
Mode extension : CM (complete main)
Format settings, Endianness : Big
Codec ID : A_AC3
Duration : 1h 23mn
Bit rate mode : Constant
Bit rate : 640 Kbps
Channel(s) : 6 channels
Channel positions : Front: L C R, Side: L R, LFE
Sampling rate : 48.0 KHz
Bit depth : 16 bits
Compression mode : Lossy
Stream size : 384 MiB (9%)
Title : Дубляж
Language : Russian
Default : Yes
Forced : No
Audio #2
ID : 3
Format : AC-3
Format/Info : Audio Coding 3
Mode extension : CM (complete main)
Format settings, Endianness : Big
Codec ID : A_AC3
Duration : 1h 23mn
Bit rate mode : Constant
Bit rate : 640 Kbps
Channel(s) : 6 channels
Channel positions : Front: L C R, Side: L R, LFE
Sampling rate : 48.0 KHz
Bit depth : 16 bits
Compression mode : Lossy
Stream size : 384 MiB (9%)
Title : Оригинал
Language : English
Default : No
Forced : No
Text #1
ID : 4
Format : UTF-8
Codec ID : S_TEXT/UTF8
Codec ID/Info : UTF-8 Plain Text
Language : Russian
Default : No
Forced : No
Text #2
ID : 5
Format : UTF-8
Codec ID : S_TEXT/UTF8
Codec ID/Info : UTF-8 Plain Text
Language : English
Default : No
Forced : No
Menu
00:00:00.000 : :Chapter 1
00:09:43.082 : :Chapter 2
00:16:44.753 : :Chapter 3
00:21:35.794 : :Chapter 4
00:28:58.361 : :Chapter 5
00:35:17.406 : :Chapter 6
00:41:16.474 : :Chapter 7
00:50:40.704 : :Chapter 8
00:58:29.255 : :Chapter 9
01:05:49.612 : :Chapter 10
01:11:12.351 : :Chapter 11
01:17:03.076 : :Chapter 12
01:23:48.940 : :Chapter 13

admin

Post 23-Mar-2019 04:31

[Quote]

Информация о фильме
Название: Гринч
Оригинальное название: The Grinch
Год выхода: 2018
Жанр: Мультфильм, фэнтези, комедия, семейный, полнометражный
Режиссер: Ярроу Чейни, Скотт Моужер
В ролях: Бенедикт Камбербэтч, Кэмерон Сили, Рашида Джонс, Фаррелл Уильямс, Тристан О`Хара, Кенан Томпсон, Сэм Лаваньино, Рамон Хэмилтон, Анджела Лэнсбери, Скарлет Эстевез, Майкл Битти, Лори Алан, Ивэн Кишияма

О фильме: Любой бы на месте Гринча позеленел и взбесился. Как порядочный интроверт, он живёт в тёмной пещере на самой вершине горы подальше ото всех, но эти «все» готовят грандиознейшее празднование нового года. Они шумят, всё украшают и дико бесят. Кто бы отказал себе в удовольствии испортить праздник? Гринч решает украсть Новый год.
Страна: Китай, США, Франция, Япония
Студия: Illumination Entertainment , Perfect World Pictures Co., Universal Pictures
Продолжительность: 01:25:49
Перевод(ы):
#1: Дублированный | iTunes

#2: Профессиональный многоголосый | HDRezka Studio
Качество: BDRip 1080p
Видео: MPEG-4 AVC, 1920x804, 10.5 Mbit/s, 23.976 fps
Звук:
Аудио #01: 48 kHz, AC3, 5.1, 384 Kbps | iTunes | RUS |
Аудио #02: 48 kHz, AC3, 2.0, 192 Kbps | HDRezka Studio | RUS |
Аудио #03: 48 kHz, AC3, 5.1, 448 Kbps | Оригинал | ENG |
Субтитры: Русские (Forced), английские

Скриншоты

MI

General
Unique ID : 276643708901873437808474410325103203792 (0xD01FA3EA0C692534A8B90B68454DD5D0)
Complete name : D:Video111The.Grinch.2018.BDRip.1080p.seleZen.mkv
Format : Matroska
Format version : Version 4
File size : 6.91 GiB
Duration : 1 h 25 min
Overall bit rate : 11.5 Mb/s
Movie name : The Grinch 2018 from селезень
Encoded date : UTC 2019-03-22 03:48:31
Writing application : mkvmerge v32.0.0 ('Astral Progressions') 64-bit
Writing library : libebml v1.3.7 + libmatroska v1.5.0
Video
ID : 1
Format : AVC
Format/Info : Advanced Video Codec
Format profile : High@L4.1
Format settings : CABAC / 5 Ref Frames
Format settings, CABAC : Yes
Format settings, ReFrames : 5 frames
Codec ID : V_MPEG4/ISO/AVC
Duration : 1 h 25 min
Bit rate : 10.5 Mb/s
Width : 1 920 pixels
Height : 804 pixels
Display aspect ratio : 2.40:1
Frame rate mode : Constant
Frame rate : 23.976 (24000/1001) FPS
Color space : YUV
Chroma subsampling : 4:2:0
Bit depth : 8 bits
Scan type : Progressive
Bits/(Pixel*Frame) : 0.284
Stream size : 6.29 GiB (91%)
Title : seleZen
Writing library : x264 core 148 r2705kMod 3f5ed56
Encoding settings : cabac=1 / ref=5 / deblock=1:-2:-2 / analyse=0x3:0x133 / me=umh / subme=11 / psy=1 / fade_compensate=0.00 / psy_rd=1.20:0.05 / mixed_ref=1 / me_range=48 / chroma_me=1 / trellis=2 / 8x8dct=1 / cqm=0 / deadzone=21,11 / fast_pskip=0 / chroma_qp_offset=-3 / threads=12 / lookahead_threads=2 / sliced_threads=0 / nr=0 / decimate=0 / interlaced=0 / bluray_compat=0 / constrained_intra=0 / fgo=0 / bframes=8 / b_pyramid=2 / b_adapt=2 / b_bias=0 / direct=3 / weightb=1 / open_gop=0 / weightp=2 / keyint=240 / keyint_min=23 / scenecut=40 / intra_refresh=0 / rc_lookahead=50 / rc=2pass / mbtree=0 / bitrate=10500 / ratetol=1.0 / qcomp=0.60 / qpmin=0 / qpmax=51 / qpstep=4 / cplxblur=20.0 / qblur=0.5 / vbv_maxrate=50000 / vbv_bufsize=62500 / nal_hrd=none / filler=0 / ip_ratio=1.40 / pb_ratio=1.30 / aq=3:0.80
Language : English
Default : Yes
Forced : No
Audio #1
ID : 2
Format : AC-3
Format/Info : Audio Coding 3
Commercial name : Dolby Digital
Codec ID : A_AC3
Duration : 1 h 25 min
Bit rate mode : Constant
Bit rate : 384 kb/s
Channel(s) : 6 channels
Channel layout : L R C LFE Ls Rs
Sampling rate : 48.0 kHz
Frame rate : 31.250 FPS (1536 SPF)
Bit depth : 16 bits
Compression mode : Lossy
Stream size : 236 MiB (3%)
Title : iTunes
Language : Russian
Service kind : Complete Main
Default : Yes
Forced : Yes
Audio #2
ID : 3
Format : AC-3
Format/Info : Audio Coding 3
Commercial name : Dolby Digital
Codec ID : A_AC3
Duration : 1 h 25 min
Bit rate mode : Constant
Bit rate : 192 kb/s
Channel(s) : 2 channels
Channel layout : L R
Sampling rate : 48.0 kHz
Frame rate : 31.250 FPS (1536 SPF)
Bit depth : 16 bits
Compression mode : Lossy
Stream size : 118 MiB (2%)
Title : MVO [HDRezka Studio]
Language : Russian
Service kind : Complete Main
Default : No
Forced : No
Audio #3
ID : 4
Format : AC-3
Format/Info : Audio Coding 3
Commercial name : Dolby Digital
Codec ID : A_AC3
Duration : 1 h 25 min
Bit rate mode : Constant
Bit rate : 448 kb/s
Channel(s) : 6 channels
Channel layout : L R C LFE Ls Rs
Sampling rate : 48.0 kHz
Frame rate : 31.250 FPS (1536 SPF)
Bit depth : 16 bits
Compression mode : Lossy
Stream size : 275 MiB (4%)
Title : Original
Language : English
Service kind : Complete Main
Default : No
Forced : No
Text #1
ID : 5
Format : UTF-8
Codec ID : S_TEXT/UTF8
Codec ID/Info : UTF-8 Plain Text
Duration : 1 h 17 min
Bit rate : 2 b/s
Count of elements : 27
Stream size : 1.14 KiB (0%)
Title : Forced
Language : Russian
Default : Yes
Forced : Yes
Text #2
ID : 6
Format : UTF-8
Codec ID : S_TEXT/UTF8
Codec ID/Info : UTF-8 Plain Text
Duration : 1 h 17 min
Bit rate : 52 b/s
Count of elements : 1024
Stream size : 30.0 KiB (0%)
Title : Full
Language : English
Default : No
Forced : No
Text #3
ID : 7
Format : UTF-8
Codec ID : S_TEXT/UTF8
Codec ID/Info : UTF-8 Plain Text
Duration : 1 h 20 min
Bit rate : 60 b/s
Count of elements : 1304
Stream size : 35.7 KiB (0%)
Title : SDH
Language : English
Default : No
Forced : No
Menu
00:00:00.000 : en:Chapter 1
00:05:40.298 : en:Chapter 2
00:10:35.927 : en:Chapter 3
00:14:14.103 : en:Chapter 4
00:17:45.106 : en:Chapter 5
00:22:19.296 : en:Chapter 6
00:26:28.337 : en:Chapter 7
00:30:45.093 : en:Chapter 8
00:34:46.584 : en:Chapter 9
00:38:37.190 : en:Chapter 10
00:44:40.595 : en:Chapter 11
00:47:27.678 : en:Chapter 12
00:52:37.488 : en:Chapter 13
00:56:33.181 : en:Chapter 14
01:01:04.995 : en:Chapter 15
01:05:34.639 : en:Chapter 16
01:07:23.456 : en:Chapter 17
01:12:14.914 : en:Chapter 18
01:14:12.782 : en:Chapter 19
01:18:08.309 : en:Chapter 20

admin

Post 14-Mar-2019 04:30

[Quote]

Информация о фильме
Название: Человек-паук: Через вселенные
Оригинальное название: Spider-Man: Into the Spider-Verse
Год выхода: 2018
Жанр: Мультфильм, фантастика, комедия, приключения, семейный, полнометражный
Режиссер: Боб Персичетти, Питер Рэмзи, Родни Ротман
В ролях: Шамеик Мур, Джейк Джонсон, Хейли Стайнфелд, Махершала Али, Брайан Тайри Генри, Лили Томлин, Лорен Велес, Зои Кравиц, Джон Мулэйни, Кимико Гленн, Николас Кейдж, Кэтрин Хан, Лив Шрайбер, Крис Пайн, Натали Моралес, Эдвин Хэбакон, Оскар Айзек, Грета Ли, Стэн Ли, Йорма Такконе
О фильме:
Мы всё знаем о Питере Паркере. Он спас город, влюбился, а потом спасал город снова и снова… Но все это — в нашем измерении. А что если в результате работы гигантского коллайдера откроется окно из одного измерения в другое? Найдется ли в нем свой Человек-паук? И как он будет выглядеть? Приготовьтесь к тому, что в разных вселенных могут быть разные Люди-пауки и однажды им придется собраться вместе для борьбы с почти непобедимым врагом.

Страна: США
Студия: Avi Arad Productions, Columbia Pictures Corporation, Lord Miller
Продолжительность: 01:56:50
Перевод: Дублированный (iTunes)
Файл
Качество: BDRip-HEVC 1080p
Видео: HEVC/x.265, 1920x804, ~8701 Kbps
Звук 1: AC3, 6 ch, 384 Kbps Дублированный (iTunes)
Звук 2: AC3, 6 ch, 448 Kbps (Оригинал)
Субтитры: Русские(Forced)

Mediainfo

General
Unique ID : 102216094150426191518963420409899301757 (0x4CE61A88F45F7C6D600ACBD94D20BB7D)
Complete name : H:HEVC-CLUBSpider-Man Into the Spider-Verse (2018) BDRip 1080p [HEVC] 10Bbit.mkv
Format : Matroska
Format version : Version 4
File size : 7.78 GiB
Duration : 1 h 56 min
Overall bit rate : 9 535 kb/s
Movie name : Человек-паук: Через вселенные
Encoded date : UTC 2019-03-13 14:38:40
Writing application : mkvmerge v25.0.0 ('Prog Noir') 64-bit
Writing library : libebml v1.3.6 + libmatroska v1.4.9 / Lavf57.71.100
Attachments : poster.jpg
ACTORS : Шамеик Мур, Джейк Джонсон,
COUNTRY : США
DATE : 2018
DIRECTOR : Боб Персичетти
ENCODING_INFO : MPEGTS > MKV 1080p 10-bit / H264 > X265 CRF 17.5 Medium / AC3 > AC3 CBR 384kbps / TRUEHD > AC3 CBR 448kbps
GENRE : мультфильм, фантастика, боевик
HD_VIDEO : 1
Language : und
MEDIA_TYPE : 9
ORIGINAL_TITLE : Spider-Man: Into the Spider-Verse
Video
ID : 1
Format : HEVC
Format/Info : High Efficiency Video Coding
Format profile : Main 10@L4.1@High
Codec ID : V_MPEGH/ISO/HEVC
Duration : 1 h 56 min
Bit rate : 8 701 kb/s
Width : 1 920 pixels
Height : 804 pixels
Display aspect ratio : 2.40:1
Frame rate mode : Constant
Frame rate : 23.976 (24000/1001) FPS
Color space : YUV
Chroma subsampling : 4:2:0
Bit depth : 10 bits
Bits/(Pixel*Frame) : 0.235
Stream size : 7.10 GiB (91%)
Writing library : x265 2.9+9-f74003e88622:[Windows][GCC 8.2.0][64 bit] 10bit
Encoding settings : cpuid=1111039 / frame-threads=7 / numa-pools=6 / wpp / no-pmode / no-pme / no-psnr / no-ssim / log-level=3 / input-csp=1 / input-res=1920x804 / interlace=0 / total-frames=0 / level-idc=41 / high-tier=1 / uhd-bd=0 / ref=5 / allow-non-conformance / no-repeat-headers / annexb / no-aud / no-hrd / info / hash=0 / no-temporal-layers / open-gop / min-keyint=24 / keyint=240 / gop-lookahead=0 / bframes=8 / b-adapt=2 / b-pyramid / bframe-bias=0 / rc-lookahead=20 / lookahead-slices=5 / scenecut=40 / radl=0 / no-intra-refresh / ctu=64 / min-cu-size=8 / rect / amp / max-tu-size=32 / tu-inter-depth=1 / tu-intra-depth=1 / limit-tu=0 / rdoq-level=0 / dynamic-rd=0.00 / no-ssim-rd / signhide / no-tskip / nr-intra=0 / nr-inter=0 / no-constrained-intra / no-strong-intra-smoothing / max-merge=2 / limit-refs=3 / no-limit-modes / me=3 / subme=7 / merange=57 / temporal-mvp / weightp / no-weightb / no-analyze-src-pics / deblock=-3:-3 / no-sao / no-sao-non-deblock / rd=3 / no-early-skip / rskip / no-fast-intra / no-tskip-fast / no-cu-lossless / no-b-intra / no-splitrd-skip / rdpenalty=0 / psy-rd=2.00 / psy-rdoq=0.00 / no-rd-refine / no-lossless / cbqpoffs=0 / crqpoffs=0 / rc=crf / crf=17.5 / qcomp=0.70 / qpstep=4 / stats-write=0 / stats-read=0 / vbv-maxrate=50000 / vbv-bufsize=50000 / vbv-init=0.9 / crf-max=30.0 / crf-min=0.0 / ipratio=1.40 / pbratio=1.30 / aq-mode=1 / aq-strength=1.00 / cutree / zone-count=0 / no-strict-cbr / qg-size=32 / no-rc-grain / qpmax=69 / qpmin=0 / no-const-vbv / sar=1 / overscan=0 / videoformat=5 / range=0 / colorprim=1 / transfer=1 / colormatrix=1 / chromaloc=0 / display-window=0 / max-cll=0,0 / min-luma=0 / max-luma=1023 / log2-max-poc-lsb=8 / vui-timing-info / vui-hrd-info / slices=1 / no-opt-qp-pps / no-opt-ref-list-length-pps / no-multi-pass-opt-rps / scenecut-bias=0.05 / no-opt-cu-delta-qp / no-aq-motion / no-hdr / no-hdr-opt / no-dhdr10-opt / no-idr-recovery-sei / analysis-reuse-level=5 / scale-factor=0 / refine-intra=0 / refine-inter=0 / refine-mv=0 / no-limit-sao / ctu-info=0 / no-lowpass-dct / refine-mv-type=0 / copy-pic=1 / max-ausize-factor=1.0 / no-dynamic-refine / no-single-sei
Default : Yes
Forced : No
Color range : Limited
Color primaries : BT.709
Transfer characteristics : BT.709
Matrix coefficients : BT.709
Audio #1
ID : 2
Format : AC-3
Format/Info : Audio Coding 3
Commercial name : Dolby Digital
Codec ID : A_AC3
Duration : 1 h 56 min
Bit rate mode : Constant
Bit rate : 384 kb/s
Channel(s) : 6 channels
Channel layout : L R C LFE Ls Rs
Sampling rate : 48.0 kHz
Frame rate : 31.250 FPS (1536 SPF)
Bit depth : 16 bits
Compression mode : Lossy
Stream size : 321 MiB (4%)
Language : Russian
Service kind : Complete Main
Default : Yes
Forced : No
Audio #2
ID : 3
Format : AC-3
Format/Info : Audio Coding 3
Commercial name : Dolby Digital
Codec ID : A_AC3
Duration : 1 h 56 min
Bit rate mode : Constant
Bit rate : 448 kb/s
Channel(s) : 6 channels
Channel layout : L R C LFE Ls Rs
Sampling rate : 48.0 kHz
Frame rate : 31.250 FPS (1536 SPF)
Bit depth : 16 bits
Compression mode : Lossy
Stream size : 374 MiB (5%)
Language : English
Service kind : Complete Main
Default : No
Forced : No
Text
ID : 4
Format : UTF-8
Codec ID : S_TEXT/UTF8
Codec ID/Info : UTF-8 Plain Text
Duration : 1 h 55 min
Bit rate : 2 b/s
Count of elements : 64
Stream size : 2.17 KiB (0%)
Default : Yes
Forced : No
Menu
00:00:00.000 : :Глава 1
00:09:05.461 : :Глава 2
00:16:24.692 : :Глава 3
00:25:56.930 : :Глава 4
00:38:08.160 : :Глава 5
00:47:40.315 : :Глава 6
00:56:32.305 : :Глава 7
01:04:57.685 : :Глава 8
01:14:29.965 : :Глава 9
01:24:02.120 : :Глава 10
01:33:07.498 : :Глава 11
01:40:26.770 : :Глава 12
01:51:05.283 : :Глава 13

Скриншоты

admin

Post 11-Mar-2019 06:59

[Quote]

Информация о фильме
Название: Человек-паук: Через вселенные
Оригинальное название: Spider-Man: Into the Spider-Verse
Год выхода: 2018
Жанр: Мультфильм, фантастика, комедия, приключения, семейный, полнометражный
Режиссер: Боб Персичетти, Питер Рэмзи, Родни Ротман
В ролях: Шамеик Мур, Джейк Джонсон, Хейли Стайнфелд, Махершала Али, Брайан Тайри Генри, Лили Томлин, Лорен Велес, Зои Кравиц, Джон Мулэйни, Кимико Гленн, Николас Кейдж, Кэтрин Хан, Лив Шрайбер, Крис Пайн, Натали Моралес, Эдвин Хэбакон, Оскар Айзек, Грета Ли, Стэн Ли, Йорма Такконе

О фильме: Мы всё знаем о Питере Паркере. Он спас город, влюбился, а потом спасал город снова и снова… Но все это — в нашем измерении. А что если в результате работы гигантского коллайдера откроется окно из одного измерения в другое? Найдется ли в нем свой Человек-паук? И как он будет выглядеть? Приготовьтесь к тому, что в разных вселенных могут быть разные Люди-пауки и однажды им придется собраться вместе для борьбы с почти непобедимым врагом.
Страна: США
Студия: Avi Arad Productions, Columbia Pictures Corporation, Lord Miller
Продолжительность: 01:56:50
Перевод: Дублированный | iTunes
Качество: BDRip 1080p
Видео: MPEG-4 AVC, 1920x804, 14.7 Mbit/s, 23.976 fps
Звук:
Аудио #01: 48 kHz, AC3, 5.1, 384 Kbps | iTunes | RUS |
Аудио #02: 48 kHz, DTS, 5.1, 1510 Kbps | Оригинал | ENG |
Субтитры: Русские (Full), украинские (Full), английские

Скриншоты

MI

General
Unique ID : 104538015614456995050851142846146912782 (0x4EA54A1A0AC48248E4EE70A8A71BA20E)
Complete name : D:Video111Spider-Man.Into.the.Spider-Verse.2018.BDRip.1080p.seleZen.mkv
Format : Matroska
Format version : Version 4
File size : 13.6 GiB
Duration : 1 h 56 min
Overall bit rate : 16.6 Mb/s
Encoded date : UTC 2019-03-10 22:51:24
Writing application : mkvmerge v31.0.0 ('Dolores In A Shoestand') 64-bit
Writing library : libebml v1.3.6 + libmatroska v1.4.9
Video
ID : 1
Format : AVC
Format/Info : Advanced Video Codec
Format profile : High@L4.1
Format settings : CABAC / 5 Ref Frames
Format settings, CABAC : Yes
Format settings, ReFrames : 5 frames
Codec ID : V_MPEG4/ISO/AVC
Duration : 1 h 56 min
Bit rate : 14.7 Mb/s
Width : 1 920 pixels
Height : 804 pixels
Display aspect ratio : 2.40:1
Frame rate mode : Constant
Frame rate : 23.976 (24000/1001) FPS
Color space : YUV
Chroma subsampling : 4:2:0
Bit depth : 8 bits
Scan type : Progressive
Bits/(Pixel*Frame) : 0.398
Stream size : 12.0 GiB (89%)
Title : MTeam
Writing library : x264 core 157 r2938 2b00a84 TnP@MTeam Mod
Encoding settings : cabac=1 / ref=5 / deblock=1:-1:-1 / analyse=0x3:0x133 / me=umh / subme=10 / psy=1 / psy_rd=1.05:0.00 / mixed_ref=1 / me_range=24 / chroma_me=1 / trellis=2 / 8x8dct=1 / cqm=0 / deadzone=21,11 / fast_pskip=0 / chroma_qp_offset=-2 / threads=12 / lookahead_threads=2 / sliced_threads=0 / nr=0 / decimate=0 / interlaced=0 / bluray_compat=0 / constrained_intra=0 / bframes=8 / b_pyramid=2 / b_adapt=2 / b_bias=0 / direct=3 / weightb=1 / open_gop=0 / weightp=2 / keyint=250 / keyint_min=24 / scenecut=40 / intra_refresh=0 / rc_lookahead=250 / rc=crf / mbtree=0 / crf=16.2 / qcomp=0.60 / qpmin=0 / qpmax=69 / qpstep=4 / vbv_maxrate=62500 / vbv_bufsize=78125 / crf_max=0.0 / nal_hrd=none / filler=0 / ip_ratio=1.30 / pb_ratio=1.20 / aq=1:0.90
Language : English
Default : Yes
Forced : No
Color range : Limited
Color primaries : BT.709
Matrix coefficients : BT.709
Audio #1
ID : 2
Format : AC-3
Format/Info : Audio Coding 3
Commercial name : Dolby Digital
Codec ID : A_AC3
Duration : 1 h 56 min
Bit rate mode : Constant
Bit rate : 384 kb/s
Channel(s) : 6 channels
Channel layout : L R C LFE Ls Rs
Sampling rate : 48.0 kHz
Frame rate : 31.250 FPS (1536 SPF)
Bit depth : 16 bits
Compression mode : Lossy
Stream size : 321 MiB (2%)
Title : Dub [iTunes]
Language : Russian
Service kind : Complete Main
Default : Yes
Forced : Yes
Audio #2
ID : 3
Format : DTS
Format/Info : Digital Theater Systems
Codec ID : A_DTS
Duration : 1 h 56 min
Bit rate mode : Constant
Bit rate : 1 509 kb/s
Channel(s) : 6 channels
Channel layout : C L R Ls Rs LFE
Sampling rate : 48.0 kHz
Frame rate : 93.750 FPS (512 SPF)
Bit depth : 16 bits
Compression mode : Lossy
Stream size : 1.23 GiB (9%)
Title : Original
Language : English
Default : No
Forced : No
Text #1
ID : 4
Format : UTF-8
Codec ID : S_TEXT/UTF8
Codec ID/Info : UTF-8 Plain Text
Duration : 1 h 55 min
Bit rate : 82 b/s
Count of elements : 1467
Stream size : 70.3 KiB (0%)
Title : Full [iTunes]
Language : Russian
Default : No
Forced : No
Text #2
ID : 5
Format : UTF-8
Codec ID : S_TEXT/UTF8
Codec ID/Info : UTF-8 Plain Text
Duration : 1 h 55 min
Bit rate : 81 b/s
Count of elements : 1468
Stream size : 68.9 KiB (0%)
Title : Full [iTunes]
Language : Ukrainian
Default : No
Forced : No
Text #3
ID : 6
Format : UTF-8
Codec ID : S_TEXT/UTF8
Codec ID/Info : UTF-8 Plain Text
Duration : 1 h 55 min
Bit rate : 54 b/s
Count of elements : 1389
Stream size : 46.4 KiB (0%)
Title : Full [iTunes]
Language : English
Default : No
Forced : No
Menu
00:00:00.000 : en:Chapter 01
00:09:03.793 : en:Chapter 02
00:14:04.719 : en:Chapter 03
00:18:51.714 : en:Chapter 04
00:29:39.027 : en:Chapter 05
00:34:14.636 : en:Chapter 06
00:40:34.432 : en:Chapter 07
00:44:22.827 : en:Chapter 08
00:48:06.884 : en:Chapter 09
00:58:45.855 : en:Chapter 10
01:06:04.460 : en:Chapter 11
01:09:55.483 : en:Chapter 12
01:20:00.003 : en:Chapter 13
01:24:54.923 : en:Chapter 14
01:33:33.399 : en:Chapter 15
01:55:26.920 : en:Chapter 16
 

Current time is: 25-Nov 04:57

All times are UTC + 3