Search found 50 matches

Author Message

admin

Post 22-Aug-2021 23:30

[Quote]

Информация о фильме
Название: Спирит Непокорный
Оригинальное название: Spirit Untamed
Год выхода: 2021
Жанр: Мультфильм, приключения, семейный, вестерн, полнометражный
Режиссер: Илэйн Боган, Эннио Торресан
В ролях: Изабела Мерсед, Джулианна Мур, Джейк Джилленхол, Марсаи Мартин, Маккенна Грэйс, Уолтон Гоггинс, Гари А. Хэккер, Эйса Гонсалес, Андре Брауэр, Джино Монтесинос

О фильме: Лаки Прескотт — юная бунтарка, совсем как ее мама, легендарная бесстрашная наездница, которую дочь почти не помнит. После очередной шалости заботливая тетушка Кора, вырастившая девочку, отправляет ее жить к отцу. Теперь все, о чем мечтает Лаки — вырваться на волю из крошечного сонного городка. Все меняется, когда она знакомится со Спиритом — диким мустангом, таким же упрямым и независимым, как и она сама. После того как Спирит попадает в руки бессердечного ковбоя и его подельников, Лаки в сопровождении новых друзей отправляется в полное опасностей путешествие, чтобы его спасти.
Страна: США
Студия: DreamWorks Animation, Walden Media
Продолжительность: 01:27:40
Перевод: Дублированный | Пифагор
Качество: BDRip 1080p
Видео: MPEG-4 AVC, 1920x804, 7359 Кbit/s, 23.976 fps
Аудио #01: 48 kHz, AC3, 5.1, 448 Kbps | Дублированный | RUS |
Аудио #02: 48 kHz, AC3, 5.1, 640 Kbps | Оригинал | ENG |
Субтитры: Русские (Full), английские

Скриншоты

MI

General
Unique ID : 155385226553084531827651507221946819478 (0x74E61B27A04F71AEE559C938D6A9E396)
Complete name : F:VideoSpirit.Untamed.2021.BDRip.1080p.seleZen.mkv
Format : Matroska
Format version : Version 4
File size : 5.18 GiB
Duration : 1 h 27 min
Overall bit rate : 8 445 kb/s
Movie name : Spirit Untamed 2021 from seleZen
Encoded date : UTC 2021-08-21 11:01:12
Writing application : mkvmerge v59.0.0 ('Shining Star') 64-bit
Writing library : libebml v1.4.2 + libmatroska v1.6.4
Video
ID : 1
Format : AVC
Format/Info : Advanced Video Codec
Format profile : High@L4.1
Format settings : CABAC / 5 Ref Frames
Format settings, CABAC : Yes
Format settings, Reference : 5 frames
Codec ID : V_MPEG4/ISO/AVC
Duration : 1 h 27 min
Bit rate : 7 359 kb/s
Width : 1 920 pixels
Height : 804 pixels
Display aspect ratio : 2.40:1
Frame rate mode : Constant
Frame rate : 23.976 (24000/1001) FPS
Color space : YUV
Chroma subsampling : 4:2:0
Bit depth : 8 bits
Scan type : Progressive
Bits/(Pixel*Frame) : 0.199
Stream size : 4.51 GiB (87%)
Title : MTeam
Writing library : x264 core 157 r2938 2b00a84 TnP@MTeam Mod
Encoding settings : cabac=1 / ref=5 / deblock=1:-3:-3 / analyse=0x3:0x133 / me=umh / subme=10 / psy=1 / psy_rd=1.05:0.00 / mixed_ref=1 / me_range=32 / chroma_me=1 / trellis=2 / 8x8dct=1 / cqm=0 / deadzone=21,11 / fast_pskip=0 / chroma_qp_offset=-2 / threads=12 / lookahead_threads=2 / sliced_threads=0 / nr=0 / decimate=0 / interlaced=0 / bluray_compat=0 / constrained_intra=0 / bframes=8 / b_pyramid=2 / b_adapt=2 / b_bias=0 / direct=3 / weightb=1 / open_gop=0 / weightp=2 / keyint=250 / keyint_min=24 / scenecut=40 / intra_refresh=0 / rc_lookahead=250 / rc=crf / mbtree=0 / crf=16.8 / qcomp=0.60 / qpmin=0 / qpmax=69 / qpstep=4 / vbv_maxrate=62500 / vbv_bufsize=78125 / crf_max=0.0 / nal_hrd=none / filler=0 / ip_ratio=1.30 / pb_ratio=1.20 / aq=3:0.80
Language : English
Default : Yes
Forced : No
Color range : Limited
Color primaries : BT.709
Matrix coefficients : BT.709
Audio #1
ID : 2
Format : AC-3
Format/Info : Audio Coding 3
Commercial name : Dolby Digital
Codec ID : A_AC3
Duration : 1 h 27 min
Bit rate mode : Constant
Bit rate : 448 kb/s
Channel(s) : 6 channels
Channel layout : L R C LFE Ls Rs
Sampling rate : 48.0 kHz
Frame rate : 31.250 FPS (1536 SPF)
Compression mode : Lossy
Stream size : 281 MiB (5%)
Title : Dub [Пифагор]
Language : Russian
Service kind : Complete Main
Default : Yes
Forced : Yes
Audio #2
ID : 3
Format : AC-3
Format/Info : Audio Coding 3
Commercial name : Dolby Digital
Codec ID : A_AC3
Duration : 1 h 27 min
Bit rate mode : Constant
Bit rate : 640 kb/s
Channel(s) : 6 channels
Channel layout : L R C LFE Ls Rs
Sampling rate : 48.0 kHz
Frame rate : 31.250 FPS (1536 SPF)
Compression mode : Lossy
Stream size : 401 MiB (8%)
Title : Original
Language : English
Service kind : Complete Main
Default : No
Forced : No
Text #1
ID : 4
Format : UTF-8
Codec ID : S_TEXT/UTF8
Codec ID/Info : UTF-8 Plain Text
Duration : 1 h 26 min
Bit rate : 87 b/s
Count of elements : 1176
Stream size : 55.7 KiB (0%)
Title : Full
Language : Russian
Default : No
Forced : No
Text #2
ID : 5
Format : UTF-8
Codec ID : S_TEXT/UTF8
Codec ID/Info : UTF-8 Plain Text
Duration : 1 h 26 min
Bit rate : 64 b/s
Count of elements : 1673
Stream size : 41.0 KiB (0%)
Title : Full
Language : English
Default : No
Forced : No
Text #3
ID : 6
Format : UTF-8
Codec ID : S_TEXT/UTF8
Codec ID/Info : UTF-8 Plain Text
Duration : 1 h 27 min
Bit rate : 80 b/s
Count of elements : 2041
Stream size : 51.5 KiB (0%)
Title : SDH
Language : English
Default : No
Forced : No
Menu
00:00:00.000 : Chapter 01
00:01:57.659 : Chapter 02
00:04:28.894 : Chapter 03
00:09:05.962 : Chapter 04
00:14:41.714 : Chapter 05
00:19:34.799 : Chapter 06
00:24:50.030 : Chapter 07
00:30:29.536 : Chapter 08
00:35:04.060 : Chapter 09
00:40:08.489 : Chapter 10
00:44:55.568 : Chapter 11
00:50:02.833 : Chapter 12
00:54:44.823 : Chapter 13
01:01:02.450 : Chapter 14
01:04:27.822 : Chapter 15
01:06:34.073 : Chapter 16
01:11:45.468 : Chapter 17
01:16:49.188 : Chapter 18
01:19:48.534 : Chapter 19
01:21:48.904 : Chapter 20

admin

Post 22-Aug-2021 23:29

[Quote]

Информация о фильме
Название: Спирит Непокорный
Оригинальное название: Spirit Untamed
Год выхода: 2021
Жанр: Мультфильм, приключения, семейный, вестерн, полнометражный
Режиссер: Илэйн Боган, Эннио Торресан
В ролях: Изабела Мерсед, Джулианна Мур, Джейк Джилленхол, Марсаи Мартин, Маккенна Грэйс, Уолтон Гоггинс, Гари А. Хэккер, Эйса Гонсалес, Андре Брауэр, Джино Монтесинос

О фильме: Лаки Прескотт — юная бунтарка, совсем как ее мама, легендарная бесстрашная наездница, которую дочь почти не помнит. После очередной шалости заботливая тетушка Кора, вырастившая девочку, отправляет ее жить к отцу. Теперь все, о чем мечтает Лаки — вырваться на волю из крошечного сонного городка. Все меняется, когда она знакомится со Спиритом — диким мустангом, таким же упрямым и независимым, как и она сама. После того как Спирит попадает в руки бессердечного ковбоя и его подельников, Лаки в сопровождении новых друзей отправляется в полное опасностей путешествие, чтобы его спасти.
Страна: США
Студия: DreamWorks Animation, Walden Media
Продолжительность: 01:27:40
Перевод: Дублированный | Пифагор
Качество: BDRip 720p
Видео: MPEG-4 AVC, 1280x536, 3139 Кbit/s, 23.976 fps
Аудио #01: 48 kHz, AC3, 5.1, 448 Kbps | Дублированный | RUS |
Аудио #02: 48 kHz, AC3, 5.1, 640 Kbps | Оригинал | ENG |
Субтитры: Русские (Full), английские

Скриншоты

MI

General
Unique ID : 29597285227665303506092180732569912926 (0x16443AD377EEDCE825E08662D7FF065E)
Complete name : F:VideoSpirit.Untamed.2021.BDRip.720p.seleZen.mkv
Format : Matroska
Format version : Version 4
File size : 2.59 GiB
Duration : 1 h 27 min
Overall bit rate : 4 228 kb/s
Movie name : Spirit Untamed 2021 from seleZen
Encoded date : UTC 2021-08-21 11:10:49
Writing application : mkvmerge v59.0.0 ('Shining Star') 64-bit
Writing library : libebml v1.4.2 + libmatroska v1.6.4
Video
ID : 1
Format : AVC
Format/Info : Advanced Video Codec
Format profile : High@L4.1
Format settings : CABAC / 12 Ref Frames
Format settings, CABAC : Yes
Format settings, Reference : 12 frames
Codec ID : V_MPEG4/ISO/AVC
Duration : 1 h 27 min
Bit rate : 3 139 kb/s
Width : 1 280 pixels
Height : 536 pixels
Display aspect ratio : 2.40:1
Frame rate mode : Constant
Frame rate : 23.976 (24000/1001) FPS
Color space : YUV
Chroma subsampling : 4:2:0
Bit depth : 8 bits
Scan type : Progressive
Bits/(Pixel*Frame) : 0.191
Stream size : 1.92 GiB (74%)
Title : MTeam
Writing library : x264 core 157 r2938 2b00a84 TnP@MTeam Mod
Encoding settings : cabac=1 / ref=12 / deblock=1:-3:-3 / analyse=0x3:0x133 / me=umh / subme=10 / psy=1 / psy_rd=1.05:0.00 / mixed_ref=1 / me_range=32 / chroma_me=1 / trellis=2 / 8x8dct=1 / cqm=0 / deadzone=21,11 / fast_pskip=0 / chroma_qp_offset=-2 / threads=12 / lookahead_threads=2 / sliced_threads=0 / nr=0 / decimate=0 / interlaced=0 / bluray_compat=0 / constrained_intra=0 / bframes=8 / b_pyramid=2 / b_adapt=2 / b_bias=0 / direct=3 / weightb=1 / open_gop=0 / weightp=2 / keyint=250 / keyint_min=24 / scenecut=40 / intra_refresh=0 / rc_lookahead=250 / rc=crf / mbtree=0 / crf=16.8 / qcomp=0.60 / qpmin=0 / qpmax=69 / qpstep=4 / vbv_maxrate=62500 / vbv_bufsize=78125 / crf_max=0.0 / nal_hrd=none / filler=0 / ip_ratio=1.30 / pb_ratio=1.20 / aq=3:0.80
Language : English
Default : Yes
Forced : No
Color range : Limited
Color primaries : BT.709
Matrix coefficients : BT.709
Audio #1
ID : 2
Format : AC-3
Format/Info : Audio Coding 3
Commercial name : Dolby Digital
Codec ID : A_AC3
Duration : 1 h 27 min
Bit rate mode : Constant
Bit rate : 448 kb/s
Channel(s) : 6 channels
Channel layout : L R C LFE Ls Rs
Sampling rate : 48.0 kHz
Frame rate : 31.250 FPS (1536 SPF)
Compression mode : Lossy
Stream size : 281 MiB (11%)
Title : Dub [Пифагор]
Language : Russian
Service kind : Complete Main
Default : Yes
Forced : Yes
Audio #2
ID : 3
Format : AC-3
Format/Info : Audio Coding 3
Commercial name : Dolby Digital
Codec ID : A_AC3
Duration : 1 h 27 min
Bit rate mode : Constant
Bit rate : 640 kb/s
Channel(s) : 6 channels
Channel layout : L R C LFE Ls Rs
Sampling rate : 48.0 kHz
Frame rate : 31.250 FPS (1536 SPF)
Compression mode : Lossy
Stream size : 401 MiB (15%)
Title : Original
Language : English
Service kind : Complete Main
Default : No
Forced : No
Text #1
ID : 4
Format : UTF-8
Codec ID : S_TEXT/UTF8
Codec ID/Info : UTF-8 Plain Text
Duration : 1 h 26 min
Bit rate : 87 b/s
Count of elements : 1176
Stream size : 55.7 KiB (0%)
Title : Full
Language : Russian
Default : No
Forced : No
Text #2
ID : 5
Format : UTF-8
Codec ID : S_TEXT/UTF8
Codec ID/Info : UTF-8 Plain Text
Duration : 1 h 26 min
Bit rate : 64 b/s
Count of elements : 1673
Stream size : 41.0 KiB (0%)
Title : Full
Language : English
Default : No
Forced : No
Text #3
ID : 6
Format : UTF-8
Codec ID : S_TEXT/UTF8
Codec ID/Info : UTF-8 Plain Text
Duration : 1 h 27 min
Bit rate : 80 b/s
Count of elements : 2041
Stream size : 51.5 KiB (0%)
Title : SDH
Language : English
Default : No
Forced : No
Menu
00:00:00.000 : Chapter 01
00:01:57.659 : Chapter 02
00:04:28.894 : Chapter 03
00:09:05.962 : Chapter 04
00:14:41.714 : Chapter 05
00:19:34.799 : Chapter 06
00:24:50.030 : Chapter 07
00:30:29.536 : Chapter 08
00:35:04.060 : Chapter 09
00:40:08.489 : Chapter 10
00:44:55.568 : Chapter 11
00:50:02.833 : Chapter 12
00:54:44.823 : Chapter 13
01:01:02.450 : Chapter 14
01:04:27.822 : Chapter 15
01:06:34.073 : Chapter 16
01:11:45.468 : Chapter 17
01:16:49.188 : Chapter 18
01:19:48.534 : Chapter 19
01:21:48.904 : Chapter 20

admin

Post 23-Jul-2021 05:57

[Quote]

Информация о фильме
Название: Альберт
Оригинальное название: Albert
Год выхода: 2015
Жанр: Мультфильм, детский, семейный, приключения, полнометражный
Режиссер: Карстен Килерих
В ролях: Альфред Бьерре Ларсен, Аста Нордби, Петер Зельдер, Оскар Дитц, Мортен Эйснер, Эрик Холми, Бодиль Ёргенсон, Томас Бо Ларсен, Кьельд Норгаард, Михаэль Зуков Мардорф, Ларс Ранте, Курт Равн
О фильме:
Прямо с момента своего рождения Альберт показал удивительную способность к развитию и познанию всего нового, однако доставлял окружающим немало хлопот. Жители не особо любили Альберта еще и из-за того, что в детстве он разрушил главную статую города. Мальчик попытался исправить свою ошибку, но только еще больше разозлил жителей. Тогда он решил построить воздухоплаватель и стать пилотом и гордостью города. Однако при этом он теряет лучшего друга Эгона, который хотел стать пиратом, а не пилотом...

Страна: Дания
Студия: A. Film, Danmarks Radio, Det Danske Filminstitut, M&M Productions
Продолжительность: 01:19:41
Перевод: Профессиональный многоголосый
Файл
Кодек: x.264
Качество: BDRip 1080p | Albert.2015.DANISH.1080p.BluRay.x264.DD5.1-HANDJOB
Видео: MPEG-4 AVC, 8696 Kбит/с, 1920x804, 24.000 кадр/с
Аудио #1: Русский (АС3, 6 ch, 448 Кбит/с, 48.0 KHz) Профессиональный (многоголосый, закадровый)
Аудио #2: Английский (АС3, 6 ch, 448 Кбит/с, 48.0 KHz) Dub
Аудио #3: Датский (АС3, 6 ch, 640 Кбит/с, 48.0 KHz)
Субтитры: Aнглийские, датские
► Без Рекламы!

MediaInfo

Источник: Albert.2015.DANISH.1080p.BluRay.x264.DD5.1-HANDJOB
General
Unique ID : 220830690004798840645134152382025997887 (0xA62271A048C5455EA3BB0A04AE629E3F)
Complete name : Albert.2015.BDRip.1080p.mkv
Format : Matroska
Format version : Version 4 / Version 2
File size : 5.72 GiB
Duration : 1 h 20 min
Overall bit rate : 10.1 Mb/s
Movie name : Albert [2015] 1080p BluRay - HJ
Encoded date : UTC 2021-07-21 12:34:08
Writing application : mkvmerge v7.1.0 ('Good Love') 64bit built on Jul 27 2014 13:06:55
Writing library : libebml v1.3.0 + libmatroska v1.4.1
Video
ID : 1
Format : AVC
Format/Info : Advanced Video Codec
Format profile : High@L4.1
Format settings, CABAC : Yes
Format settings, RefFrames : 5 frames
Codec ID : V_MPEG4/ISO/AVC
Duration : 1 h 19 min
Bit rate : 8 696 kb/s
Width : 1 920 pixels
Height : 804 pixels
Display aspect ratio : 2.40:1
Frame rate mode : Constant
Frame rate : 24.000 FPS
Color space : YUV
Chroma subsampling : 4:2:0
Bit depth : 8 bits
Scan type : Progressive
Bits/(Pixel*Frame) : 0.235
Stream size : 4.84 GiB (85%)
Writing library : x264 core 157 r2935 545de2f
Encoding settings : cabac=1 / ref=5 / deblock=1:-3:-3 / analyse=0x3:0x133 / me=umh / subme=11 / psy=1 / psy_rd=1.00:0.00 / mixed_ref=1 / me_range=32 / chroma_me=1 / trellis=2 / 8x8dct=1 / cqm=0 / deadzone=21,11 / fast_pskip=0 / chroma_qp_offset=-2 / threads=24 / lookahead_threads=6 / sliced_threads=0 / nr=0 / decimate=0 / interlaced=0 / bluray_compat=0 / constrained_intra=0 / bframes=16 / b_pyramid=2 / b_adapt=2 / b_bias=0 / direct=3 / weightb=1 / open_gop=0 / weightp=2 / keyint=240 / keyint_min=24 / scenecut=40 / intra_refresh=0 / rc_lookahead=60 / rc=crf / mbtree=0 / crf=15.0 / qcomp=0.60 / qpmin=0 / qpmax=69 / qpstep=4 / vbv_maxrate=62500 / vbv_bufsize=78125 / crf_max=0.0 / nal_hrd=none / filler=0 / ip_ratio=1.40 / pb_ratio=1.30 / aq=2:1.00
Language : English
Default : Yes
Forced : No
Color range : Limited
Color primaries : BT.709
Transfer characteristics : BT.709
Matrix coefficients : BT.709
Audio #1
ID : 2
Format : AC-3
Format/Info : Audio Coding 3
Format settings, Endianness : Big
Codec ID : A_AC3
Duration : 1 h 20 min
Bit rate mode : Constant
Bit rate : 448 kb/s
Channel(s) : 6 channels
Channel positions : Front: L C R, Side: L R, LFE
Sampling rate : 48.0 kHz
Frame rate : 31.250 FPS (1536 SPF)
Bit depth : 16 bits
Compression mode : Lossy
Stream size : 259 MiB (4%)
Title : MVO
Language : Russian
Service kind : Complete Main
Default : Yes
Forced : No
Audio #2
ID : 3
Format : AC-3
Format/Info : Audio Coding 3
Format settings, Endianness : Big
Codec ID : A_AC3
Duration : 1 h 20 min
Bit rate mode : Constant
Bit rate : 448 kb/s
Channel(s) : 6 channels
Channel positions : Front: L C R, Side: L R, LFE
Sampling rate : 48.0 kHz
Frame rate : 31.250 FPS (1536 SPF)
Bit depth : 16 bits
Compression mode : Lossy
Stream size : 259 MiB (4%)
Title : English Dub
Language : English
Service kind : Complete Main
Default : No
Forced : No
Audio #3
ID : 4
Format : AC-3
Format/Info : Audio Coding 3
Format settings, Endianness : Big
Codec ID : A_AC3
Duration : 1 h 19 min
Bit rate mode : Constant
Bit rate : 640 kb/s
Channel(s) : 6 channels
Channel positions : Front: L C R, Side: L R, LFE
Sampling rate : 48.0 kHz
Frame rate : 31.250 FPS (1536 SPF)
Bit depth : 16 bits
Compression mode : Lossy
Stream size : 365 MiB (6%)
Language : Danish
Service kind : Complete Main
Default : No
Forced : No
Text #1
ID : 5
Format : UTF-8
Codec ID : S_TEXT/UTF8
Codec ID/Info : UTF-8 Plain Text
Duration : 1 h 13 min
Bit rate : 64 b/s
Count of elements : 970
Stream size : 35.0 KiB (0%)
Language : English
Default : No
Forced : No
Text #2
ID : 6
Format : UTF-8
Codec ID : S_TEXT/UTF8
Codec ID/Info : UTF-8 Plain Text
Duration : 1 h 14 min
Bit rate : 72 b/s
Count of elements : 1177
Stream size : 39.2 KiB (0%)
Title : SDH
Language : English
Default : No
Forced : No
Text #3
ID : 7
Format : PGS
Muxing mode : zlib
Codec ID : S_HDMV/PGS
Codec ID/Info : Picture based subtitle format used on BDs/HD-DVDs
Duration : 1 h 15 min
Bit rate : 23.4 kb/s
Count of elements : 1508
Stream size : 12.6 MiB (0%)
Language : Danish
Default : No
Forced : No
Menu
00:00:00.000 : :Chapter 1
00:06:21.792 : :Chapter 2
00:12:12.000 : :Chapter 3
00:17:26.125 : :Chapter 4
00:23:49.167 : :Chapter 5
00:32:40.042 : :Chapter 6
00:41:22.458 : :Chapter 7
00:47:46.708 : :Chapter 8
00:55:11.000 : :Chapter 9
01:02:11.458 : :Chapter 10
01:08:45.292 : :Chapter 11
01:15:20.542 : :Chapter 12

Скриншоты

admin

Post 22-Jul-2021 04:43

[Quote]

Информация о фильме
Название: Охотники на троллей: Восстание титанов
Оригинальное название: Trollhunters: Rise of the Titans
Год выхода: 2021
Жанр: Мультфильм, фэнтези, боевик, драма, комедия, приключения, семейный
Режиссер: Йохана Матте, Франциско Руис Веласко, Эндрю Л. Шмидт
В ролях: Татьяна Маслани, Эмиль Хирш, Ник Офферман, Альфред Молина, Грэй Гриффин, Стивен Ян, Келси Грэммер, Ник Фрост, Диего Луна, Джеймс Хун

О фильме: Возможно, Аркадия выглядит как обычный город, но она находится на пересечении волшебных и мистических линий, поэтому оказывается в гуще событий, когда между неземными существами — троллями, инопланетянами и магами — возникают раздоры. Герои объединяются, чтобы победить Тайный орден в эпической битве и обрести власть над магией, которая всех связывает.
Страна: США, Мексика
Студия: Double Dare You (DDY), DreamWorks Animation, Netflix
Продолжительность: 01:46:23
Перевод: Дублированный | Netflix
Качество: WEB-DL 1080p
Видео: MPEG-4 AVC, 1920x1080, 5165 Kbit/s, 23.976 fps
Аудио #01: 48 kHz, E-AC3, 5.1, 640 Kbps | Дублированный | RUS |
Аудио #02: 48 kHz, AC3, 5.1, 640 Kbps | Дублированный | RUS |
Аудио #03: 48 kHz, E-AC3+Atmos, 5.1, 768 Kbps | Оригинал | ENG |
Субтитры: Русские (Forced, full), английские

Скриншоты

MI

General
Unique ID : 331790124210879187339183581424068659109 (0xF99C741BA7782F2659A3C3AA884507A5)
Complete name : G:VideoTrollhunters.Rise.of.the.Titans.2021.WEB-DL.1080p.seleZen.mkv
Format : Matroska
Format version : Version 4
File size : 5.36 GiB
Duration : 1 h 46 min
Overall bit rate mode : Variable
Overall bit rate : 7 216 kb/s
Movie name : Trollhunters: Rise of the Titans 2021 from seleZen
Encoded date : UTC 2021-07-21 07:05:42
Writing application : mkvmerge v53.0.0 ('Fool's Gold') 64-bit
Writing library : libebml v1.4.1 + libmatroska v1.6.2
Video
ID : 1
Format : AVC
Format/Info : Advanced Video Codec
Format profile : Main@L4
Format settings : CABAC / 3 Ref Frames
Format settings, CABAC : Yes
Format settings, Reference : 3 frames
Codec ID : V_MPEG4/ISO/AVC
Duration : 1 h 46 min
Bit rate mode : Variable
Bit rate : 5 165 kb/s
Nominal bit rate : 6 326 kb/s
Maximum bit rate : 10.7 Mb/s
Width : 1 920 pixels
Height : 1 080 pixels
Display aspect ratio : 16:9
Frame rate mode : Constant
Frame rate : 23.976 (24000/1001) FPS
Color space : YUV
Chroma subsampling : 4:2:0
Bit depth : 8 bits
Scan type : Progressive
Bits/(Pixel*Frame) : 0.104
Stream size : 3.84 GiB (72%)
Writing library : x264 core 148 r2722 1b0121b
Encoding settings : cabac=1 / ref=3 / deblock=1:0:0 / analyse=0x1:0x111 / me=umh / subme=10 / psy=1 / psy_rd=1.00:0.00 / mixed_ref=1 / me_range=24 / chroma_me=1 / trellis=2 / 8x8dct=0 / cqm=0 / deadzone=21,11 / fast_pskip=1 / chroma_qp_offset=-2 / threads=8 / lookahead_threads=1 / sliced_threads=0 / nr=0 / decimate=1 / interlaced=0 / bluray_compat=0 / stitchable=1 / constrained_intra=0 / bframes=2 / b_pyramid=0 / b_adapt=2 / b_bias=0 / direct=3 / weightb=1 / open_gop=0 / weightp=2 / keyint=250 / keyint_min=23 / scenecut=0 / intra_refresh=0 / rc_lookahead=48 / rc=2pass / mbtree=1 / bitrate=6326 / ratetol=1.0 / qcomp=0.50 / qpmin=6 / qpmax=51 / qpstep=4 / cplxblur=20.0 / qblur=0.5 / vbv_maxrate=10725 / vbv_bufsize=14300 / nal_hrd=vbr / filler=0 / ip_ratio=1.40 / aq=1:1.00
Language : English
Default : Yes
Forced : No
Audio #1
ID : 2
Format : E-AC-3
Format/Info : Enhanced AC-3
Commercial name : Dolby Digital Plus
Codec ID : A_EAC3
Duration : 1 h 46 min
Bit rate mode : Constant
Bit rate : 640 kb/s
Channel(s) : 6 channels
Channel layout : L R C LFE Ls Rs
Sampling rate : 48.0 kHz
Frame rate : 31.250 FPS (1536 SPF)
Compression mode : Lossy
Stream size : 487 MiB (9%)
Title : Netflix
Language : Russian
Service kind : Complete Main
Default : Yes
Forced : Yes
Audio #2
ID : 3
Format : AC-3
Format/Info : Audio Coding 3
Commercial name : Dolby Digital
Codec ID : A_AC3
Duration : 1 h 46 min
Bit rate mode : Constant
Bit rate : 640 kb/s
Channel(s) : 6 channels
Channel layout : L R C LFE Ls Rs
Sampling rate : 48.0 kHz
Frame rate : 31.250 FPS (1536 SPF)
Compression mode : Lossy
Stream size : 487 MiB (9%)
Language : Russian
Service kind : Complete Main
Default : No
Forced : No
Audio #3
ID : 4
Format : E-AC-3 JOC
Format/Info : Enhanced AC-3 with Joint Object Coding
Commercial name : Dolby Digital Plus with Dolby Atmos
Codec ID : A_EAC3
Duration : 1 h 46 min
Bit rate mode : Constant
Bit rate : 768 kb/s
Channel(s) : 6 channels
Channel layout : L R C LFE Ls Rs
Sampling rate : 48.0 kHz
Frame rate : 31.250 FPS (1536 SPF)
Compression mode : Lossy
Stream size : 584 MiB (11%)
Language : English
Service kind : Complete Main
Default : No
Forced : No
Complexity index : 16
Number of dynamic objects : 15
Bed channel count : 1 channel
Bed channel configuration : LFE
Text #1
ID : 5
Format : UTF-8
Codec ID : S_TEXT/UTF8
Codec ID/Info : UTF-8 Plain Text
Duration : 1 h 44 min
Bit rate : 1 b/s
Count of elements : 37
Stream size : 1.24 KiB (0%)
Title : Forced
Language : Russian
Default : Yes
Forced : Yes
Text #2
ID : 6
Format : UTF-8
Codec ID : S_TEXT/UTF8
Codec ID/Info : UTF-8 Plain Text
Duration : 1 h 44 min
Bit rate : 75 b/s
Count of elements : 1256
Stream size : 57.6 KiB (0%)
Title : Русский
Language : Russian
Default : No
Forced : No
Text #3
ID : 7
Format : UTF-8
Codec ID : S_TEXT/UTF8
Codec ID/Info : UTF-8 Plain Text
Duration : 9 min 59 s
Bit rate : 3 b/s
Count of elements : 14
Stream size : 271 Bytes (0%)
Title : English (Forced)
Language : English
Default : No
Forced : No
Text #4
ID : 8
Format : UTF-8
Codec ID : S_TEXT/UTF8
Codec ID/Info : UTF-8 Plain Text
Duration : 1 h 38 min
Bit rate : 60 b/s
Count of elements : 1616
Stream size : 43.9 KiB (0%)
Title : English (SDH)
Language : English
Default : No
Forced : No

admin

Post 10-Jul-2021 05:06

[Quote]

Информация о фильме
Название: Босс-молокосос 2
Оригинальное название: The Boss Baby: Family Business
Год выхода: 2021
Жанр: мультфильм, комедия, приключения, семейный
Режиссер: Том МакГрат
В ролях: Алек Болдуин, Джеймс Марсден, Эми Седарис, Ариана Гринблатт, Джефф Голдблюм, Ева Лонгория, Джеймс МакГрат, Джимми Киммел, Лиза Кудроу, Рафаэль Алехандро
О фильме:
Братья Тим и Тед давно повзрослели и отдалились друг от друга. Тед стал генеральным директором инвестиционного фонда, а Тим посвятил себя семье. Он женился, поселился в пригороде и обзавелся двумя прекрасными дочерьми — Тиной и Табитой. 7-летняя Табита — умная и очень усердная. Несмотря на свой юный возраст, она уже лучшая в классе, а малышка Тина на самом деле оказывается агентом компании BabyCorp.
Узнав, что злой гений доктор Эрвин Армстронг выращивает целую армию злобных малышей, Тина с помощью своего папы и дяди решает противостоять ему.

Страна: США
Продолжительность: 01:47:20
Перевод: Любительский (двухголосый, закадровый) | Pazl Voice
Файл
Кодек: x.264
Качество: WEB-DL 1080p
Видео: AVC, 1920x1080 (16:9), 23.976 fps, 7 328 kb/s
Аудио 1: AC3, 48.0 kHz, 6 ch, 448 kb/s | RUS [Pazl Voice] (Tnx.KinoPub)
Аудио 2: E-AC3, 48.0 kHz, 6 ch, 192 kb/s | ENG
Субтитры: Русские, английские
Рекламы нет | Сэмпл

MI

General
Unique ID : 197429038883466674990899802374626392683 (0x9487732549D57BB4B9A86DAE4BA0BA6B)
Complete name : The.Boss.Baby.Family.Business.2021.WEB-DL.1080p.mkv
Format : Matroska
Format version : Version 4
File size : 5.98 GiB
Duration : 1 h 47 min
Overall bit rate : 7 971 kb/s
Encoded date : UTC 2021-07-09 11:56:52
Writing application : mkvmerge v8.3.0 ('Over the Horizon') 64bit
Writing library : libebml v1.3.1 + libmatroska v1.4.2
Video
ID : 1
Format : AVC
Format/Info : Advanced Video Codec
Format profile : High@L4
Format settings : CABAC / 4 Ref Frames
Format settings, CABAC : Yes
Format settings, ReFrames : 4 frames
Codec ID : V_MPEG4/ISO/AVC
Duration : 1 h 47 min
Bit rate : 7 328 kb/s
Width : 1 920 pixels
Height : 1 080 pixels
Display aspect ratio : 16:9
Frame rate mode : Constant
Frame rate : 23.976 (24000/1001) FPS
Color space : YUV
Chroma subsampling : 4:2:0
Bit depth : 8 bits
Scan type : Progressive
Bits/(Pixel*Frame) : 0.147
Stream size : 5.49 GiB (92%)
Default : Yes
Forced : No
Color range : Limited
Color primaries : BT.709
Transfer characteristics : BT.709
Matrix coefficients : BT.709
Audio #1
ID : 2
Format : AC-3
Format/Info : Audio Coding 3
Commercial name : Dolby Digital
Codec ID : A_AC3
Duration : 1 h 47 min
Bit rate mode : Constant
Bit rate : 448 kb/s
Channel(s) : 6 channels
Channel layout : L R C LFE Ls Rs
Sampling rate : 48.0 kHz
Frame rate : 31.250 FPS (1536 SPF)
Bit depth : 16 bits
Compression mode : Lossy
Stream size : 344 MiB (6%)
Title : Pazl Voice
Language : Russian
Service kind : Complete Main
Default : Yes
Forced : No
Audio #2
ID : 3
Format : E-AC-3
Format/Info : Enhanced AC-3
Commercial name : Dolby Digital Plus
Codec ID : A_EAC3
Duration : 1 h 47 min
Bit rate mode : Constant
Bit rate : 192 kb/s
Channel(s) : 6 channels
Channel layout : L R C LFE Ls Rs
Sampling rate : 48.0 kHz
Frame rate : 31.250 FPS (1536 SPF)
Compression mode : Lossy
Stream size : 147 MiB (2%)
Title : Original
Language : English
Service kind : Complete Main
Default : No
Forced : No
Text #1
ID : 4
Format : UTF-8
Codec ID : S_TEXT/UTF8
Codec ID/Info : UTF-8 Plain Text
Duration : 1 h 37 min
Bit rate : 129 b/s
Count of elements : 1945
Stream size : 92.6 KiB (0%)
Title : Full
Language : Russian
Default : No
Forced : No
Text #2
ID : 5
Format : UTF-8
Codec ID : S_TEXT/UTF8
Codec ID/Info : UTF-8 Plain Text
Duration : 1 h 47 min
Bit rate : 100 b/s
Count of elements : 2781
Stream size : 78.5 KiB (0%)
Title : Full
Language : English
Default : No
Forced : No

Скриншоты

admin

Post 14-Jun-2021 00:02

[Quote]

Информация о фильме
Название: Айнбо. Сердце Амазонии
Оригинальное название: AINBO: Spirit of the Amazon
Год выхода: 2021
Жанр: Мультфильм, фэнтези, комедия, приключения, семейный
Режиссер: Рихард Клаус, Хосе Селада
В ролях: Том Хоффман, Бернардо де Паула, Джо Эрнандес, Дино Андраде, Алехандра Гольяс, Йени Альварез, Лола Раи, Сусана Баллестерос, Рене Мухика, Жерардо Прат

О фильме: История о девочке Айнбо, которая родилась и выросла в глубоких джунглях Амазонки. Однажды она узнает, что ее родине грозит опасность, а их племя вовсе не единственное во всем мире. Героине придется сражаться не только против алчных чужаков, но и против древнего зла, живущего в Амазонке. С помощью духа ее матери Айнбо предстоит спасти свою землю и свой народ, пока не стало слишком поздно.
Страна: Перу, Нидерланды
Студия: Cinema Management Group, Tunche Films
Продолжительность: 01:20:57
Перевод: Дублированный | iTunes
Качество: WEB-DL 1080p
Видео: MPEG-4 AVC, 1920x804, 4508 Kbit/s, 25.000 fps
Аудио: 48 kHz, AC3, 5.1, 384 Kbps | iTunes | RUS |
Субтитры: Русские (Full)

Скриншоты

MI

General
Unique ID : 336710149788690774736887111041606627748 (0xFD500418F356EFDD30E11F94788A31A4)
Complete name : F:VideoAINBO.Spirit.of.the.Amazon.2021.WEB-DL.1080p.seleZen.mkv
Format : Matroska
Format version : Version 4
File size : 2.77 GiB
Duration : 1 h 20 min
Overall bit rate : 4 894 kb/s
Movie name : AINBO: Spirit of the Amazon 2021 from seleZen
Encoded date : UTC 2021-06-12 04:42:49
Writing application : mkvmerge v55.0.0 ('Waiting For Space') 64-bit
Writing library : libebml v1.4.2 + libmatroska v1.6.4
Video
ID : 1
Format : AVC
Format/Info : Advanced Video Codec
Format profile : High@L4
Format settings : CABAC / 5 Ref Frames
Format settings, CABAC : Yes
Format settings, Reference : 5 frames
Codec ID : V_MPEG4/ISO/AVC
Duration : 1 h 20 min
Bit rate : 4 508 kb/s
Width : 1 920 pixels
Height : 804 pixels
Display aspect ratio : 2.40:1
Frame rate mode : Constant
Frame rate : 25.000 FPS
Color space : YUV
Chroma subsampling : 4:2:0
Bit depth : 8 bits
Scan type : Progressive
Bits/(Pixel*Frame) : 0.117
Stream size : 2.55 GiB (92%)
Language : English
Default : Yes
Forced : No
Color range : Limited
Color primaries : BT.709
Transfer characteristics : BT.709
Matrix coefficients : BT.709
Audio
ID : 2
Format : AC-3
Format/Info : Audio Coding 3
Commercial name : Dolby Digital
Codec ID : A_AC3
Duration : 1 h 20 min
Bit rate mode : Constant
Bit rate : 384 kb/s
Channel(s) : 6 channels
Channel layout : L R C LFE Ls Rs
Sampling rate : 48.0 kHz
Frame rate : 31.250 FPS (1536 SPF)
Compression mode : Lossy
Stream size : 222 MiB (8%)
Title : iTunes
Language : Russian
Service kind : Complete Main
Default : Yes
Forced : Yes
Text
ID : 3
Format : UTF-8
Codec ID : S_TEXT/UTF8
Codec ID/Info : UTF-8 Plain Text
Duration : 1 h 15 min
Bit rate : 78 b/s
Count of elements : 1100
Stream size : 43.7 KiB (0%)
Title : Full
Language : Russian
Default : No
Forced : No
Menu
00:00:00.000 : en:Глава 1
00:08:02.360 : en:Глава 2
00:16:20.880 : en:Глава 3
00:24:34.160 : en:Глава 4
00:32:40.200 : en:Глава 5
00:40:47.640 : en:Глава 6
00:49:02.720 : en:Глава 7
00:57:08.520 : en:Глава 8
01:05:21.000 : en:Глава 9
01:13:33.640 : en:Глава 10

admin

Post 24-May-2021 05:28

[Quote]

Информация о фильме
Название: 22 против Земли
Оригинальное название: 22 vs. Earth
Год выхода: 2021
Жанр: мультфильм, короткометражка, фэнтези, комедия, приключения, семейный
Режиссер: Кевин Нолтинг
В ролях: Тина Фей, Ричард Айоад, Алиса Брага, Айанна Миорин, Мика Чен, Азриэль Далман, Адела Драбек, Кари Дюшарм
О фильме:
Перед событиями фильма «Душа» 22 отказывается отправиться на Землю и создает банду с 5 новыми душами, пытаясь поднять восстание. Однако деятельность его окружения дает неожиданные результаты, и подрывной план может привести к удивительному раскрытию смысла жизни.

Страна: США
Продолжительность: 00:05:37
Перевод: Дублированный (любительский) | Flarrow Films
Роли дублировали: Нана Саркисян, Алена Козлова, Олешка Печенько, Лена Лунина, Рута Новикова, Рина Чернышова
Файл
Формат: MKV
Кодек: MPEG-4 AVC
Качество: WEB-DLRip 1080p (локализованный видеоряд)
Видео: 1920х1080, ~9 620 kb/s, 23.976, 8 bits
Аудио#1: Russian: E-AC-3, 768 kb/s, 8 channels, 48.0 kHz
Аудио#2: Russian: AC-3, 320 kb/s, 2 channels, 48.0 kHz
Аудио#3: English: E-AC-3, 768 kb/s, 6 channels, 48.0 kHz
Субтитры: русские (отключаемые)
Сэмпл: скачать-

MediaInfo

General
Unique ID : 82791986598918257208610484450144349973 (0x3E492817E53F432B8128C7A1BDA0EF15)
Complete name : C:Flarrow22.vs.Earth.2021.1080p.D.Flarrow.Films.mkv
Format : Matroska
Format version : Version 4
File size : 461 MiB
Duration : 5 min 37 s
Overall bit rate : 11.5 Mb/s
Encoded date : UTC 2021-05-22 19:38:06
Writing application : mkvmerge v32.0.0 ('Astral Progressions') 64-bit
Writing library : libebml v1.3.7 + libmatroska v1.5.0
Video
ID : 1
Format : AVC
Format/Info : Advanced Video Codec
Format profile : Main@L4.1
Format settings : CABAC / 4 Ref Frames
Format settings, CABAC : Yes
Format settings, Reference : 4 frames
Codec ID : V_MPEG4/ISO/AVC
Duration : 5 min 37 s
Bit rate : 9 620 kb/s
Width : 1 920 pixels
Height : 1 080 pixels
Display aspect ratio : 16:9
Frame rate mode : Constant
Frame rate : 23.976 (24000/1001) FPS
Color space : YUV
Chroma subsampling : 4:2:0
Bit depth : 8 bits
Scan type : Progressive
Bits/(Pixel*Frame) : 0.193
Stream size : 387 MiB (84%)
Language : Russian
Default : Yes
Forced : No
Color range : Limited
Color primaries : BT.709
Transfer characteristics : BT.709
Matrix coefficients : BT.709
Audio #1
ID : 2
Format : E-AC-3
Format/Info : Enhanced AC-3
Commercial name : Dolby Digital Plus
Format profile : Blu-ray Disc
Codec ID : A_EAC3
Duration : 5 min 37 s
Bit rate mode : Constant
Bit rate : 768 kb/s
Channel(s) : 8 channels
Channel layout : L R C LFE Ls Rs Lb Rb
Sampling rate : 48.0 kHz
Frame rate : 31.250 FPS (1536 SPF)
Compression mode : Lossy
Stream size : 30.9 MiB (7%)
Language : Russian
Service kind : Complete Main
Default : Yes
Forced : No
Audio #2
ID : 3
Format : AC-3
Format/Info : Audio Coding 3
Commercial name : Dolby Digital
Codec ID : A_AC3
Duration : 5 min 37 s
Bit rate mode : Constant
Bit rate : 320 kb/s
Channel(s) : 2 channels
Channel layout : L R
Sampling rate : 48.0 kHz
Frame rate : 31.250 FPS (1536 SPF)
Compression mode : Lossy
Stream size : 12.9 MiB (3%)
Language : Russian
Service kind : Complete Main
Default : No
Forced : No
Audio #3
ID : 4
Format : E-AC-3 JOC
Format/Info : Enhanced AC-3 with Joint Object Coding
Commercial name : Dolby Digital Plus with Dolby Atmos
Codec ID : A_EAC3
Duration : 5 min 37 s
Bit rate mode : Constant
Bit rate : 768 kb/s
Channel(s) : 6 channels
Channel layout : L R C LFE Ls Rs
Sampling rate : 48.0 kHz
Frame rate : 31.250 FPS (1536 SPF)
Compression mode : Lossy
Stream size : 30.9 MiB (7%)
Title : English
Language : English
Service kind : Complete Main
Default : No
Forced : No
Complexity index : 16
Number of dynamic objects : 15
Bed channel count : 1 channel
Bed channel configuration : LFE
Text
ID : 5
Format : UTF-8
Codec ID : S_TEXT/UTF8
Codec ID/Info : UTF-8 Plain Text
Duration : 5 min 26 s
Bit rate : 152 b/s
Count of elements : 112
Stream size : 6.06 KiB (0%)
Language : Russian
Default : Yes
Forced : No
-

Скриншоты


admin

Post 01-Apr-2021 12:59

[Quote]

Информация
Название: Душа
Оригинальное название: Soul
Год выхода: 2020
Жанр: Мультфильм, фэнтези, комедия, приключения, семейный, музыка
Режиссер: Пит Доктер, Кемп Пауэрс
В ролях: Джейми Фокс, Тина Фей, Филисия Рашад, Давид Диггс, Анджела Бассетт, Грэм Нортон, Рэйчел Хаус, Алиси Брага, Ричард Айоади, Доннел Роулингс
Описание: Школьный учитель музыки Джо Гарднер случайно попадает в мир, где зарождаются человеческие увлечения, мечты и интересы, и там он знакомится с молодой душой по имени 22.

Выпущено: США / Walt Disney Pictures, Pixar Animation Studios
Продолжительность: 01:40:31
Озвучивание #1: Дублированное | Русский язык | iTunes
Озвучивание #2: Дублированное | Украинский язык
Файл
Формат: MKV
Качество: BDRip 1080p
Видео: MPEG-4 AVC, 12.7 Мb/s, 1920x804
Аудио #1: Russian: 48 kHz, AC3 Dolby Digital, 3/2 (L, C, R, l, r) + LFE ch, ~384 Kbps | DUB | iTunes
Аудио #2: Ukrainian: 48 kHz, AC3 Dolby Digital, 3/2 (L, C, R, l, r) + LFE ch, ~384 Kbps | DUB
Аудио #3: English: 48 kHz, AC3 Dolby Digital, 3/2 (L, C, R, l, r) + LFE ch, ~640 Kbps | Original
Субтитры: Russian (Forced, Full), Ukrainian (Forced, Full), English
Дополнительно: Сохранены оригинальные чаптеры.

MediaInfo:

Complete name: Dusha.2020.1080p.BluRay.ELEKTRI4KA.UNIONGANG.mkv
Format: Matroska
Format version: Version 4
File size: 9.94 GiB
Duration: 1 h 40 min
Overall bit rate: 14.2 Mb/s
Movie name: Dusha.2020.1080p.BluRay.ELEKTRI4KA.UNIONGANG.
Encoded date: UTC 2021-03-31 18:36:46
Writing application: mkvmerge v8.3.0 ('Over the Horizon') 64bit
Writing library: libebml v1.3.1 + libmatroska v1.4.2
Video
ID: 1
Format: AVC
Format/Info: Advanced Video Codec
Format profile: High@L4.1
Format settings: CABAC / 5 Ref Frames
Format settings, CABAC: Yes
Format settings, Reference frames: 5 frames
Codec ID: V_MPEG4/ISO/AVC
Duration: 1 h 40 min
Bit rate: 12.7 Mb/s
Width: 1 920 pixels
Height: 804 pixels
Display aspect ratio: 2.40:1
Frame rate mode: Constant
Frame rate: 23.976 (24000/1001) FPS
Color space: YUV
Chroma subsampling: 4:2:0
Bit depth: 8 bits
Scan type: Progressive
Bits/(Pixel*Frame): 0.344
Stream size: 8.95 GiB (90%)
Writing library: x264 core 161 r3048+58M ~ Encoded by Mocunaman in Portugal
Encoding settings: cabac=1 / ref=5 / deblock=1:-3:-3 / analyse=0x3:0x113 / me=umh / subme=11 / psy=1 / fade_compensate=0.00 / psy_rd=0.80:0.00 / mixed_ref=1 / me_range=32 / chroma_me=1 / trellis=2 / 8x8dct=1 / cqm=0 / deadzone=21, 11 / fast_pskip=0 / chroma_qp_offset=-2 / threads=25 / lookahead_threads=6 / sliced_threads=0 / nr=0 / decimate=0 / interlaced=0 / bluray_compat=0 / constrained_intra=0 / fgo=0 / bframes=10 / b_pyramid=2 / b_adapt=2 / b_bias=0 / direct=3 / weightb=1 / open_gop=0 / weightp=2 / keyint=250 / keyint_min=23 / scenecut=40 / intra_refresh=0 / rc_lookahead=60 / rc=crf / mbtree=0 / crf=16.5000 / qcomp=0.60 / qpmin=0:0:0 / qpmax=69:69:69 / qpstep=4 / vbv_maxrate=62500 / vbv_bufsize=78125 / crf_max=0.0 / nal_hrd=none / filler=0 / ip_ratio=1.30 / pb_ratio=1.20 / aq=3:0.90 / aq-sensitivity=10.00 / aq-factor=1.00:1.00:1.00 / aq2=0 / aq3=0 / zones=7464, 12543, crf=15.5/13407, 17991, crf=15.5/21183, 21663, crf=15.5/23220, 23465, crf=15.5/25937, 37391, crf=15.5/42863, 52295, crf=15.5/62516, 62903, crf=15.5/81023, 81983, crf=15.5/84263, 87075, crf=16/94060, 99628, crf=16/104404, 120100, crf=15.5/120940, 123364, crf=15.5/125764, 129449, crf=15.5
Language: English
Default: Yes
Forced: No
Color range: Limited
Color primaries: BT.709
Transfer characteristics: BT.709
Matrix coefficients: BT.709
Audio #1
ID: 2
Format: AC-3
Format/Info: Audio Coding 3
Commercial name: Dolby Digital
Codec ID: A_AC3
Duration: 1 h 40 min
Bit rate mode: Constant
Bit rate: 384 kb/s
Channel(s): 6 channels
Channel layout: L R C LFE Ls Rs
Sampling rate: 48.0 kHz
Frame rate: 31.250 FPS (1536 SPF)
Compression mode: Lossy
Stream size: 276 MiB (3%)
Title: DUB (iTunes)
Language: Russian
Service kind: Complete Main
Default: Yes
Forced: Yes
Audio #2
ID: 3
Format: AC-3
Format/Info: Audio Coding 3
Commercial name: Dolby Digital
Codec ID: A_AC3
Duration: 1 h 40 min
Bit rate mode: Constant
Bit rate: 384 kb/s
Channel(s): 6 channels
Channel layout: L R C LFE Ls Rs
Sampling rate: 48.0 kHz
Frame rate: 31.250 FPS (1536 SPF)
Compression mode: Lossy
Stream size: 276 MiB (3%)
Title: DUB
Language: Ukrainian
Service kind: Complete Main
Default: No
Forced: No
Audio #3
ID: 4
Format: AC-3
Format/Info: Audio Coding 3
Commercial name: Dolby Digital
Codec ID: A_AC3
Duration: 1 h 40 min
Bit rate mode: Constant
Bit rate: 640 kb/s
Channel(s): 6 channels
Channel layout: L R C LFE Ls Rs
Sampling rate: 48.0 kHz
Frame rate: 31.250 FPS (1536 SPF)
Compression mode: Lossy
Stream size: 460 MiB (5%)
Title: Original, AC3 5.1 640 Kbps
Language: English
Service kind: Complete Main
Default: No
Forced: No
Text #1
ID: 5
Format: UTF-8
Codec ID: S_TEXT/UTF8
Codec ID/Info: UTF-8 Plain Text
Duration: 1 h 9 min
Bit rate: 1 b/s
Count of elements: 22
Stream size: 1 016 Bytes (0%)
Title: Forced
Language: Russian
Default: Yes
Forced: Yes
Text #2
ID: 6
Format: UTF-8
Codec ID: S_TEXT/UTF8
Codec ID/Info: UTF-8 Plain Text
Duration: 1 h 39 min
Bit rate: 98 b/s
Count of elements: 1336
Stream size: 71.9 KiB (0%)
Title: Full (iTunes)
Language: Russian
Default: No
Forced: No
Text #3
ID: 7
Format: UTF-8
Codec ID: S_TEXT/UTF8
Codec ID/Info: UTF-8 Plain Text
Duration: 1 h 35 min
Bit rate: 1 b/s
Count of elements: 24
Stream size: 1.03 KiB (0%)
Title: Ukr Forced for Dub
Language: Ukrainian
Default: No
Forced: No
Text #4
ID: 8
Format: UTF-8
Codec ID: S_TEXT/UTF8
Codec ID/Info: UTF-8 Plain Text
Duration: 1 h 39 min
Bit rate: 100 b/s
Count of elements: 1341
Stream size: 73.2 KiB (0%)
Title: Ukr Full
Language: Ukrainian
Default: No
Forced: No
Text #5
ID: 9
Format: UTF-8
Codec ID: S_TEXT/UTF8
Codec ID/Info: UTF-8 Plain Text
Duration: 1 h 39 min
Bit rate: 68 b/s
Count of elements: 1576
Stream size: 49.8 KiB (0%)
Title: Full .srt
Language: English
Default: No
Forced: No
Text #6
ID: 10
Format: UTF-8
Codec ID: S_TEXT/UTF8
Codec ID/Info: UTF-8 Plain Text
Duration: 1 h 40 min
Bit rate: 79 b/s
Count of elements: 1855
Stream size: 58.8 KiB (0%)
Title: SDH .srt
Language: English
Default: No
Forced: No
Menu
00:00:00.000: en:Joe
00:03:32.337: en:Mom
00:04:57.923: en:Audition
00:08:43.189: en:Celebrate
00:09:18.892: en:The Great Beyond
00:11:49.334: en:Fall
00:12:29.457: en:You Seminar
00:15:03.569: en:Earth Portal
00:17:12.031: en:Terry
00:18:24.687: en:Theater
00:19:53.984: en:Mentee 22
00:21:29.663: en:Joe s Life
00:26:00.058: en:Everything
00:29:47.786: en:Meet the Mystics
00:36:07.916: en:Alive
00:38:22.383: en:Hospital Escape
00:39:53.307: en:Nyc
00:41:55.805: en:Moonwind
00:43:43.621: en:Taxi
00:44:29.166: en:Home
00:46:06.263: en:Connie
00:49:38.183: en:Tracking
00:50:40.537: en:Line Up
00:51:28.126: en:Barber
00:55:31.328: en:Arrivel
00:56:59.791: en:Rip
00:58:34.094: en:Busker
01:00:31.794: en:Suit
01:04:48.551: en:Ready for Earth
01:07:53.361: en:Pursuit
01:09:15.484: en:Betrayed
01:12:33.974: en:The Gig
01:15:32.361: en:Lost
01:17:23.639: en:Epiphany
01:21:15.453: en:Ship Chase
01:22:57.806: en:Rescue 22
01:26:43.323: en:Earthbound
01:28:32.306: en:Thank You
01:30:13.574: en:End Credits

Скриншоты


admin

Post 01-Apr-2021 12:56

[Quote]

Название: Душа
Оригинальное название: Soul
Год выпуска: 2020
Жанр: Мультфильм, фэнтези, комедия, приключения, семейный
Режиссер: Пит Доктер, Кемп Пауэрс
В ролях: Джейми Фокс, Тина Фей, Филисия Рашад, Давид Диггс, Анджела Бассетт, Грэм Нортон, Рэйчел Хаус, Алиси Брага, Ричард Айоади, Доннел Роулингс
О фильме: Школьный учитель музыки Джо Гарднер умер. Но поскольку незадолго до смерти он отыграл концерт своей мечты и получил предложение играть в крутейшем джаз-бэнде на постоянной основе, Джо с таким положением дел категорически не согласен. Чудом и настырностью он сбегает с травелатора, ведущего прямиком в Великое После, в Великое Перед – дивное местечко, где взращиваются души, чтобы быть отправленными на Землю. Дело осталось за малым: воспитать одну вредную душонку под номером Двадцать Два, выкрасть её пропуск и вернуться ровнёхонько к вечернему выступлению. Думаете, получится?

Страна: США
Студия: Pixar Animation Studios, Walt Disney Pictures
Продолжительность: 01:40:33
Перевод: Дублированный | iTunes
Профессиональный многоголосый | HDRezka Studio
Формат: MKV
Качество: BDRip 720p
Видео: MPEG-4 AVC, 1280x536 (2.40:1), 23.976 fps, 3132 Кb/s, 0.123 bit/pixel
Аудио 1: 48 kHz, AC3, 5.1, 384 Kbps | DUB | RUS |
Аудио 2: 48 kHz, AC3, 5.1, 448 Kbps | MVO | RUS |
Аудио 3: 48 kHz, AC3, 5.1, 640 Kbps | Оригинал | ENG |
Субтитры: Русские (Forced, full), английские

ОтчетМедиаИнфо

x264 [info]: frame I:1291 Avg QP:13.88 size: 95594
x264 [info]: frame P:31729 Avg QP:15.85 size: 35991
x264 [info]: frame B:111625 Avg QP:18.40 size: 9820
x264 [info]: consecutive B-frames: 2.6% 4.1% 5.7% 19.1% 18.7% 34.2% 7.8% 3.3% 2.5% 1.9%
-----------------------------------------------
General
Unique ID : 250257321635720702739581750020400209163 (0xBC45CE948A338443A12F3890EA73DD0B)
Complete name : D:Soul.2020.BDRip.720p.ExKinoRay.mkv
Format : Matroska
Format version : Version 4
File size : 3.24 GiB
Duration : 1 h 40 min
Overall bit rate : 4 606 kb/s
Movie name : Soul 2020 from ExKinoRay
Encoded date : UTC 2021-03-31 22:27:07
Writing application : mkvmerge v7.3.0 ('Nouages') 64bit built on Oct 22 2014 18:53:34
Writing library : libebml v1.3.0 + libmatroska v1.4.1
Video
ID : 1
Format : AVC
Format/Info : Advanced Video Codec
Format profile : High@L4.1
Format settings : CABAC / 12 Ref Frames
Format settings, CABAC : Yes
Format settings, Reference : 12 frames
Codec ID : V_MPEG4/ISO/AVC
Duration : 1 h 40 min
Bit rate : 3 132 kb/s
Width : 1 280 pixels
Height : 536 pixels
Display aspect ratio : 2.40:1
Frame rate mode : Constant
Frame rate : 23.976 (24000/1001) FPS
Color space : YUV
Chroma subsampling : 4:2:0
Bit depth : 8 bits
Scan type : Progressive
Bits/(Pixel*Frame) : 0.190
Stream size : 2.20 GiB (68%)
Writing library : x264 core 146 r2538 121396c
Encoding settings : cabac=1 / ref=12 / deblock=1:-2:-2 / analyse=0x3:0x133 / me=umh / subme=10 / psy=1 / psy_rd=1.04:0.03 / mixed_ref=1 / me_range=32 / chroma_me=1 / trellis=2 / 8x8dct=1 / cqm=0 / deadzone=21,11 / fast_pskip=0 / chroma_qp_offset=-3 / threads=48 / lookahead_threads=4 / sliced_threads=0 / nr=0 / decimate=0 / interlaced=0 / bluray_compat=0 / constrained_intra=0 / bframes=9 / b_pyramid=2 / b_adapt=2 / b_bias=0 / direct=1 / weightb=1 / open_gop=0 / weightp=2 / keyint=240 / keyint_min=23 / scenecut=40 / intra_refresh=0 / rc_lookahead=50 / rc=crf / mbtree=0 / crf=17.0 / qcomp=0.60 / qpmin=0 / qpmax=51 / qpstep=4 / vbv_maxrate=50000 / vbv_bufsize=62500 / crf_max=0.0 / nal_hrd=none / filler=0 / ip_ratio=1.40 / pb_ratio=1.30 / aq=3:0.80
Language : English
Default : Yes
Forced : No
Audio #1
ID : 2
Format : AC-3
Format/Info : Audio Coding 3
Commercial name : Dolby Digital
Codec ID : A_AC3
Duration : 1 h 40 min
Bit rate mode : Constant
Bit rate : 384 kb/s
Channel(s) : 6 channels
Channel layout : L R C LFE Ls Rs
Sampling rate : 48.0 kHz
Frame rate : 31.250 FPS (1536 SPF)
Compression mode : Lossy
Delay relative to video : 731 ms
Stream size : 276 MiB (8%)
Title : Dub (iTunes)
Language : Russian
Service kind : Complete Main
Default : Yes
Forced : No
Audio #2
ID : 3
Format : AC-3
Format/Info : Audio Coding 3
Commercial name : Dolby Digital
Codec ID : A_AC3
Duration : 1 h 40 min
Bit rate mode : Constant
Bit rate : 448 kb/s
Channel(s) : 6 channels
Channel layout : L R C LFE Ls Rs
Sampling rate : 48.0 kHz
Frame rate : 31.250 FPS (1536 SPF)
Compression mode : Lossy
Stream size : 322 MiB (10%)
Title : MVO (HDRezka Studio)
Language : Russian
Service kind : Complete Main
Default : No
Forced : No
Audio #3
ID : 4
Format : AC-3
Format/Info : Audio Coding 3
Commercial name : Dolby Digital
Codec ID : A_AC3
Duration : 1 h 40 min
Bit rate mode : Constant
Bit rate : 640 kb/s
Channel(s) : 6 channels
Channel layout : L R C LFE Ls Rs
Sampling rate : 48.0 kHz
Frame rate : 31.250 FPS (1536 SPF)
Compression mode : Lossy
Stream size : 460 MiB (14%)
Language : English
Service kind : Complete Main
Default : No
Forced : No
Text #1
ID : 5
Format : UTF-8
Codec ID : S_TEXT/UTF8
Codec ID/Info : UTF-8 Plain Text
Duration : 1 h 9 min
Bit rate : 1 b/s
Count of elements : 22
Stream size : 1 016 Bytes (0%)
Title : Forced
Language : Russian
Default : Yes
Forced : No
Text #2
ID : 6
Format : UTF-8
Codec ID : S_TEXT/UTF8
Codec ID/Info : UTF-8 Plain Text
Duration : 1 h 39 min
Bit rate : 110 b/s
Count of elements : 1544
Stream size : 81.1 KiB (0%)
Title : Full
Language : Russian
Default : No
Forced : No
Text #3
ID : 7
Format : UTF-8
Codec ID : S_TEXT/UTF8
Codec ID/Info : UTF-8 Plain Text
Duration : 1 h 39 min
Bit rate : 67 b/s
Count of elements : 1612
Stream size : 49.3 KiB (0%)
Title : Full
Language : English
Default : No
Forced : No
Text #4
ID : 8
Format : UTF-8
Codec ID : S_TEXT/UTF8
Codec ID/Info : UTF-8 Plain Text
Duration : 1 h 40 min
Bit rate : 78 b/s
Count of elements : 1857
Stream size : 57.7 KiB (0%)
Title : SDH
Language : English
Default : No
Forced : No
Menu
00:00:00.000 : en:Глава 01
00:03:32.337 : en:Глава 02
00:04:57.923 : en:Глава 03
00:08:43.189 : en:Глава 04
00:09:18.892 : en:Глава 05
00:11:49.334 : en:Глава 06
00:12:29.457 : en:Глава 07
00:15:03.569 : en:Глава 08
00:17:12.031 : en:Глава 09
00:18:24.687 : en:Глава 10
00:19:53.984 : en:Глава 11
00:21:29.663 : en:Глава 12
00:26:00.058 : en:Глава 13
00:29:47.786 : en:Глава 14
00:36:07.916 : en:Глава 15
00:38:22.383 : en:Глава 16
00:39:53.307 : en:Глава 17
00:41:55.805 : en:Глава 18
00:43:43.621 : en:Глава 19
00:44:29.166 : en:Глава 20
00:46:06.263 : en:Глава 21
00:49:38.183 : en:Глава 22
00:50:40.537 : en:Глава 23
00:51:28.126 : en:Глава 24
00:55:31.328 : en:Глава 25
00:56:59.791 : en:Глава 26
00:58:34.094 : en:Глава 27
01:00:31.794 : en:Глава 28
01:04:48.551 : en:Глава 29
01:07:53.361 : en:Глава 30
01:09:15.484 : en:Глава 31
01:12:33.974 : en:Глава 32
01:15:32.361 : en:Глава 33
01:17:23.639 : en:Глава 34
01:21:15.453 : en:Глава 35
01:22:57.806 : en:Глава 36
01:26:43.323 : en:Глава 37
01:28:32.306 : en:Глава 38
01:30:13.574 : en:Глава 39

Скриншоты

admin

Post 07-Mar-2021 21:21

[Quote]

Информация о фильме
Название: Райя и последний дракон
Оригинальное название: Raya and the Last Dragon
Год выхода: 2021
Жанр: Мультфильм, фэнтези, боевик, комедия, приключения, семейный
Режиссер: Дон Холл, Карлос Лопес Эстрада, Пол Бриггс
В ролях: Келли Мари Трэн, Аквафина, Айзек Ванг, Джемма Чан, Дэниэл Дэ Ким, Бенедикт Вонг, Джона Сяо, Сандра О, Талия Чан, Люсиль Сун, Алан Тьюдик, Гордон Ип, Дичен Лакмэн, Патти Харрисон, Джонатан Пак, Сон Ган
О фильме:
Отважной воительнице по имени Райя и её верному спутнику Тук-Туку предстоит покинуть родное королевство Кумандра, чтобы отыскать последнего оставшегося в мире дракона, и с его помощью вернуть надежду на победу над могущественным врагом.

Страна: США
Студия: Walt Disney Animation Studios, Walt Disney Pictures
Продолжительность: 01:47:28
Перевод: Дублированный | Line | * он-лайн кинотеатр KinoPub
Файл
Кодек: x.264
Качество: WEB-DL 720p | Raya.and.the.Last.Dragon.2021.720p.DSNP.WEB-DL.DDP5.1.H.264-TOMMY
Видео: MPEG-4 AVC, 3556 Kбит/с, 1280x720, 23.976 кадр/с
Аудио #1: Русский (АС3, 2 ch, 256 Кбит/с, 48.0 KHz) Профессиональный (Дублированный) Line
Аудио #2: Английский (E-АС3, 6 ch, 256 Кбит/с, 48.0 KHz)
Субтитры: Русские (Full [FOCS]), английские, испанские, французские, немецкие, итальянские, португальские | DSNP
► Без Рекламы!
Сэмпл

MediaInfo

Источник: Raya.and.the.Last.Dragon.2021.720p.DSNP.WEB-DL.DDP5.1.H.264-TOMMY
General
Unique ID : 196498678491104644834569865289605729403 (0x93D444D63A44624AA5F51DF56B0E4C7B)
Complete name : Raya.And.The.Last.Dragon.2021.DSNP.WEB-DL.720p.mkv
Format : Matroska
Format version : Version 4
File size : 3.06 GiB
Duration : 1 h 47 min
Overall bit rate mode : Variable
Overall bit rate : 4 072 kb/s
Encoded date : UTC 2021-03-07 09:43:54
Writing application : mkvmerge v7.1.0 ('Good Love') 64bit built on Jul 27 2014 13:06:55
Writing library : libebml v1.3.0 + libmatroska v1.4.1
Cover : Yes
Attachments : Cover.png
Video
ID : 1
Format : AVC
Format/Info : Advanced Video Codec
Format profile : High@L3.1
Format settings : CABAC / 4 Ref Frames
Format settings, CABAC : Yes
Format settings, Reference fra : 4 frames
Codec ID : V_MPEG4/ISO/AVC
Duration : 1 h 47 min
Bit rate mode : Variable
Bit rate : 3 556 kb/s
Maximum bit rate : 6 375 kb/s
Width : 1 280 pixels
Height : 720 pixels
Display aspect ratio : 16:9
Frame rate mode : Constant
Frame rate : 23.976 (24000/1001) FPS
Color space : YUV
Chroma subsampling : 4:2:0
Bit depth : 8 bits
Scan type : Progressive
Bits/(Pixel*Frame) : 0.161
Stream size : 2.67 GiB (87%)
Language : English
Default : Yes
Forced : No
Color range : Limited
Color primaries : BT.709
Transfer characteristics : BT.709
Matrix coefficients : BT.709
Audio #1
ID : 2
Format : AC-3
Format/Info : Audio Coding 3
Commercial name : Dolby Digital
Codec ID : A_AC3
Duration : 1 h 47 min
Bit rate mode : Constant
Bit rate : 256 kb/s
Channel(s) : 2 channels
Channel layout : L R
Sampling rate : 48.0 kHz
Frame rate : 31.250 FPS (1536 SPF)
Compression mode : Lossy
Stream size : 197 MiB (6%)
Title : DUB Line | KinoPub
Language : Russian
Service kind : Complete Main
Default : Yes
Forced : No
Audio #2
ID : 3
Format : E-AC-3
Format/Info : Enhanced AC-3
Commercial name : Dolby Digital Plus
Codec ID : A_EAC3
Duration : 1 h 47 min
Bit rate mode : Constant
Bit rate : 256 kb/s
Channel(s) : 6 channels
Channel layout : L R C LFE Ls Rs
Sampling rate : 48.0 kHz
Frame rate : 31.250 FPS (1536 SPF)
Compression mode : Lossy
Stream size : 197 MiB (6%)
Title : English
Language : English
Service kind : Complete Main
Default : No
Forced : No
Text #1
ID : 4
Format : UTF-8
Codec ID : S_TEXT/UTF8
Codec ID/Info : UTF-8 Plain Text
Duration : 1 h 34 min
Bit rate : 84 b/s
Count of elements : 1256
Stream size : 58.3 KiB (0%)
Language : Russian
Default : No
Forced : No
Text #2
ID : 5
Format : UTF-8
Codec ID : S_TEXT/UTF8
Codec ID/Info : UTF-8 Plain Text
Duration : 1 h 37 min
Bit rate : 68 b/s
Count of elements : 1919
Stream size : 48.8 KiB (0%)
Title : English (SDH)
Language : English
Default : No
Forced : No
Text #3
ID : 6
Format : UTF-8
Codec ID : S_TEXT/UTF8
Codec ID/Info : UTF-8 Plain Text
Duration : 1 h 45 min
Bit rate : 42 b/s
Count of elements : 1179
Stream size : 32.8 KiB (0%)
Title : Deutsch
Language : German
Default : No
Forced : No
Text #4
ID : 7
Format : UTF-8
Codec ID : S_TEXT/UTF8
Codec ID/Info : UTF-8 Plain Text
Duration : 1 h 46 min
Bit rate : 53 b/s
Count of elements : 1116
Stream size : 41.6 KiB (0%)
Title : Deutsch (SDH)
Language : German
Default : No
Forced : No
Text #5
ID : 8
Format : UTF-8
Codec ID : S_TEXT/UTF8
Codec ID/Info : UTF-8 Plain Text
Duration : 1 h 45 min
Bit rate : 43 b/s
Count of elements : 1114
Stream size : 33.4 KiB (0%)
Title : Français
Language : French
Default : No
Forced : No
Text #6
ID : 9
Format : UTF-8
Codec ID : S_TEXT/UTF8
Codec ID/Info : UTF-8 Plain Text
Duration : 1 h 47 min
Bit rate : 55 b/s
Count of elements : 1604
Stream size : 43.6 KiB (0%)
Title : Français (SDH)
Language : French
Default : No
Forced : No
Text #7
ID : 10
Format : UTF-8
Codec ID : S_TEXT/UTF8
Codec ID/Info : UTF-8 Plain Text
Duration : 1 h 45 min
Bit rate : 41 b/s
Count of elements : 1157
Stream size : 32.4 KiB (0%)
Title : Español
Language : Spanish
Default : No
Forced : No
Text #8
ID : 11
Format : UTF-8
Codec ID : S_TEXT/UTF8
Codec ID/Info : UTF-8 Plain Text
Duration : 1 h 45 min
Bit rate : 42 b/s
Count of elements : 1160
Stream size : 32.5 KiB (0%)
Title : Italiano
Language : Italian
Default : No
Forced : No
Text #9
ID : 12
Format : UTF-8
Codec ID : S_TEXT/UTF8
Codec ID/Info : UTF-8 Plain Text
Duration : 1 h 45 min
Bit rate : 44 b/s
Count of elements : 1156
Stream size : 34.7 KiB (0%)
Title : Português
Language : Portuguese
Default : No
Forced : No

Скриншоты

admin

Post 07-Mar-2021 21:17

[Quote]

Информация о фильме
Название: Райя и последний дракон
Оригинальное название: Raya and the Last Dragon
Год выхода: 2021
Жанр: Мультфильм, фэнтези, боевик, комедия, приключения, семейный
Режиссер: Дон Холл, Карлос Лопес Эстрада, Пол Бриггс
В ролях: Келли Мари Трэн, Аквафина, Айзек Ванг, Джемма Чан, Дэниэл Дэ Ким, Бенедикт Вонг, Джона Сяо, Сандра О, Талия Чан, Люсиль Сун, Алан Тьюдик, Гордон Ип, Дичен Лакмэн, Патти Харрисон, Джонатан Пак, Сон Ган
О фильме:
Отважной воительнице по имени Райя и её верному спутнику Тук-Туку предстоит покинуть родное королевство Кумандра, чтобы отыскать последнего оставшегося в мире дракона, и с его помощью вернуть надежду на победу над могущественным врагом.

Страна: США
Студия: Walt Disney Animation Studios, Walt Disney Pictures
Продолжительность: 01:47:28
Перевод: Дублированный | Line | * он-лайн кинотеатр KinoPub
Файл
Кодек: x.264
Качество: WEB-DL 1080p | Raya.and.the.Last.Dragon.2021.1080p.DSNP.WEB-DL.DDP5.1.H.264-TOMMY
Видео: MPEG-4 AVC, 7274 Kбит/с, 1920x1080, 23.976 кадр/с
Аудио #1: Русский (АС3, 2 ch, 256 Кбит/с, 48.0 KHz) Профессиональный (Дублированный) Line
Аудио #2: Английский (E-АС3, 6 ch, 256 Кбит/с, 48.0 KHz)
Субтитры: Русские (Full [FOCS]), английские, испанские, французские, немецкие, итальянские, португальские | DSNP
► Без Рекламы!

MediaInfo

Источник: Raya.and.the.Last.Dragon.2021.1080p.DSNP.WEB-DL.DDP5.1.H.264-TOMMY
General
Unique ID : 196387604267616820803347496679859908946 (0x93BEE0746D84DFAFBCD6DA152AD97152)
Complete name : Raya.And.The.Last.Dragon.2021.DSNP.WEB-DL.1080p.mkv
Format : Matroska
Format version : Version 4
File size : 5.85 GiB
Duration : 1 h 47 min
Overall bit rate mode : Variable
Overall bit rate : 7 790 kb/s
Encoded date : UTC 2021-03-07 11:21:58
Writing application : mkvmerge v7.1.0 ('Good Love') 64bit built on Jul 27 2014 13:06:55
Writing library : libebml v1.3.0 + libmatroska v1.4.1
Cover : Yes
Attachments : Cover.png
Video
ID : 1
Format : AVC
Format/Info : Advanced Video Codec
Format profile : High@L4
Format settings : CABAC / 4 Ref Frames
Format settings, CABAC : Yes
Format settings, Reference fra : 4 frames
Codec ID : V_MPEG4/ISO/AVC
Duration : 1 h 47 min
Bit rate mode : Variable
Bit rate : 7 274 kb/s
Maximum bit rate : 12.7 Mb/s
Width : 1 920 pixels
Height : 1 080 pixels
Display aspect ratio : 16:9
Frame rate mode : Constant
Frame rate : 23.976 (24000/1001) FPS
Color space : YUV
Chroma subsampling : 4:2:0
Bit depth : 8 bits
Scan type : Progressive
Bits/(Pixel*Frame) : 0.146
Stream size : 5.46 GiB (93%)
Language : English
Default : Yes
Forced : No
Color range : Limited
Color primaries : BT.709
Transfer characteristics : BT.709
Matrix coefficients : BT.709
Audio #1
ID : 2
Format : AC-3
Format/Info : Audio Coding 3
Commercial name : Dolby Digital
Codec ID : A_AC3
Duration : 1 h 47 min
Bit rate mode : Constant
Bit rate : 256 kb/s
Channel(s) : 2 channels
Channel layout : L R
Sampling rate : 48.0 kHz
Frame rate : 31.250 FPS (1536 SPF)
Compression mode : Lossy
Stream size : 197 MiB (3%)
Title : DUB Line | KinoPub
Language : Russian
Service kind : Complete Main
Default : Yes
Forced : No
Audio #2
ID : 3
Format : E-AC-3
Format/Info : Enhanced AC-3
Commercial name : Dolby Digital Plus
Codec ID : A_EAC3
Duration : 1 h 47 min
Bit rate mode : Constant
Bit rate : 256 kb/s
Channel(s) : 6 channels
Channel layout : L R C LFE Ls Rs
Sampling rate : 48.0 kHz
Frame rate : 31.250 FPS (1536 SPF)
Compression mode : Lossy
Stream size : 197 MiB (3%)
Title : English
Language : English
Service kind : Complete Main
Default : No
Forced : No
Text #1
ID : 4
Format : UTF-8
Codec ID : S_TEXT/UTF8
Codec ID/Info : UTF-8 Plain Text
Duration : 1 h 34 min
Bit rate : 84 b/s
Count of elements : 1256
Stream size : 58.3 KiB (0%)
Language : Russian
Default : No
Forced : No
Text #2
ID : 5
Format : UTF-8
Codec ID : S_TEXT/UTF8
Codec ID/Info : UTF-8 Plain Text
Duration : 1 h 37 min
Bit rate : 68 b/s
Count of elements : 1919
Stream size : 48.8 KiB (0%)
Title : English (SDH)
Language : English
Default : No
Forced : No
Text #3
ID : 6
Format : UTF-8
Codec ID : S_TEXT/UTF8
Codec ID/Info : UTF-8 Plain Text
Duration : 1 h 45 min
Bit rate : 42 b/s
Count of elements : 1179
Stream size : 32.8 KiB (0%)
Title : Deutsch
Language : German
Default : No
Forced : No
Text #4
ID : 7
Format : UTF-8
Codec ID : S_TEXT/UTF8
Codec ID/Info : UTF-8 Plain Text
Duration : 1 h 46 min
Bit rate : 53 b/s
Count of elements : 1116
Stream size : 41.6 KiB (0%)
Title : Deutsch (SDH)
Language : German
Default : No
Forced : No
Text #5
ID : 8
Format : UTF-8
Codec ID : S_TEXT/UTF8
Codec ID/Info : UTF-8 Plain Text
Duration : 1 h 45 min
Bit rate : 43 b/s
Count of elements : 1114
Stream size : 33.4 KiB (0%)
Title : Français
Language : French
Default : No
Forced : No
Text #6
ID : 9
Format : UTF-8
Codec ID : S_TEXT/UTF8
Codec ID/Info : UTF-8 Plain Text
Duration : 1 h 47 min
Bit rate : 55 b/s
Count of elements : 1604
Stream size : 43.6 KiB (0%)
Title : Français (SDH)
Language : French
Default : No
Forced : No
Text #7
ID : 10
Format : UTF-8
Codec ID : S_TEXT/UTF8
Codec ID/Info : UTF-8 Plain Text
Duration : 1 h 45 min
Bit rate : 41 b/s
Count of elements : 1157
Stream size : 32.4 KiB (0%)
Title : Español
Language : Spanish
Default : No
Forced : No
Text #8
ID : 11
Format : UTF-8
Codec ID : S_TEXT/UTF8
Codec ID/Info : UTF-8 Plain Text
Duration : 1 h 45 min
Bit rate : 42 b/s
Count of elements : 1160
Stream size : 32.5 KiB (0%)
Title : Italiano
Language : Italian
Default : No
Forced : No
Text #9
ID : 12
Format : UTF-8
Codec ID : S_TEXT/UTF8
Codec ID/Info : UTF-8 Plain Text
Duration : 1 h 45 min
Bit rate : 44 b/s
Count of elements : 1156
Stream size : 34.7 KiB (0%)
Title : Português
Language : Portuguese
Default : No
Forced : No

Скриншоты

admin

Post 01-Mar-2021 21:41

[Quote]

Информация о фильме
Название: Том и Джерри
Оригинальное название: Tom and Jerry
Год выхода: 2021
Жанр: Комедия, приключения, семейный, мультфильм
Режиссер: Тим Стори
В ролях: Хлоя Грейс Морец, Майкл Пенья, Роб Делани, Том, Джерри, Джордан Болджер, Пэтси Ферран, Паллави Шарда, Колин Жост, Соми Гуха, Аджай Чабра, Патрик Полетти, Дженис Ахерн, Камилла Арведсон, Кен Жонг, Джо Боун, Брайан Бовелл
О фильме:
Кайла, работница престижного отеля, где обитает мышонок Джерри, рискующий нарушить ход дорогой свадьбы, нанимает уличного кота Тома, чтобы разобраться с наглым грызуном. Но решить эту проблему не так-то просто.

Страна: Великобритания, Франция, Германия, США
Студия: Hanna-Barbera Productions, Keylight Productions, Metro-Goldwyn-Mayer, Warner Animation Group
Продолжительность: 01:41:02
Перевод: Профессиональный (полное дублирование) | Line
Файл
Кодек: x.264
Качество: WEB-DL 1080p
Видео: MPEG-4 AVC, 8221 Kбит/с, 1920x1080, 23.976 кадр/с
Аудио #1: AC, 2.1 ch, 256 Кбит/с, 48.0 KHz | Dub RUS |
Аудио #2: E-AC-3 JOC, 6 ch, 768 Кбит/с, 48.0 KHz | Оригинал | ENG |
Субтитры: Русские (Full (FOCS), английские
► Без Рекламы!
За релиз и дорожку спасибо Нечипорук
Трейлер

MediaInfo

Format : Matroska
Format version : Version 4
File size : 6.53 GiB
Duration : 1 h 41 min
Overall bit rate mode : Variable
Overall bit rate : 9 248 kb/s
Movie name : Tom.and.Jerry.2021.1080p.HMAX.Нечипорук
Encoded date : UTC 2021-02-28 10:49:18
Writing application : mkvmerge v53.0.0 ('Fool's Gold') 64-bit
Writing library : libebml v1.4.1 + libmatroska v1.6.2
Cover : Yes
Attachments : cover.jpeg
Video
ID : 1
Format : AVC
Format/Info : Advanced Video Codec
Format profile : High@L4
Format settings : CABAC / 4 Ref Frames
Format settings, CABAC : Yes
Format settings, Reference fra : 4 frames
Codec ID : V_MPEG4/ISO/AVC
Duration : 1 h 41 min
Bit rate mode : Variable
Bit rate : 8 221 kb/s
Maximum bit rate : 12.4 Mb/s
Width : 1 920 pixels
Height : 1 080 pixels
Display aspect ratio : 16:9
Frame rate mode : Constant
Frame rate : 23.976 (24000/1001) FPS
Color space : YUV
Chroma subsampling : 4:2:0
Bit depth : 8 bits
Scan type : Progressive
Bits/(Pixel*Frame) : 0.165
Stream size : 5.80 GiB (89%)
Title : Tom.and.Jerry.2021.1080p.HMAX.Нечипорук
Default : Yes
Forced : No
Color range : Limited
Color primaries : BT.709
Transfer characteristics : BT.709
Matrix coefficients : BT.709
Audio #1
ID : 2
Format : AC-3
Format/Info : Audio Coding 3
Commercial name : Dolby Digital
Codec ID : A_AC3
Duration : 1 h 41 min
Bit rate mode : Constant
Bit rate : 256 kb/s
Channel(s) : 2 channels
Channel layout : L R
Sampling rate : 48.0 kHz
Frame rate : 31.250 FPS (1536 SPF)
Compression mode : Lossy
Stream size : 185 MiB (3%)
Title : Дубляж
Language : Russian
Service kind : Complete Main
Default : Yes
Forced : No
Audio #2
ID : 3
Format : E-AC-3 JOC
Format/Info : Enhanced AC-3 with Joint Object Coding
Commercial name : Dolby Digital Plus with Dolby Atmos
Codec ID : A_EAC3
Duration : 1 h 41 min
Bit rate mode : Constant
Bit rate : 768 kb/s
Channel(s) : 6 channels
Channel layout : L R C LFE Ls Rs
Sampling rate : 48.0 kHz
Frame rate : 31.250 FPS (1536 SPF)
Compression mode : Lossy
Stream size : 555 MiB (8%)
Title : Original
Language : English
Service kind : Complete Main
Default : No
Forced : No
Complexity index : 16
Number of dynamic objects : 15
Bed channel count : 1 channel
Bed channel configuration : LFE
Text #1
ID : 4
Format : UTF-8
Codec ID : S_TEXT/UTF8
Codec ID/Info : UTF-8 Plain Text
Duration : 1 h 40 min
Bit rate : 101 b/s
Count of elements : 1591
Stream size : 74.6 KiB (0%)
Title : студия FOCS
Language : Russian
Default : No
Forced : No
Text #2
ID : 5
Format : UTF-8
Codec ID : S_TEXT/UTF8
Codec ID/Info : UTF-8 Plain Text
Duration : 1 h 39 min
Bit rate : 64 b/s
Count of elements : 1665
Stream size : 46.8 KiB (0%)
Title : Full
Language : English
Default : No
Forced : No
Text #3
ID : 6
Format : UTF-8
Codec ID : S_TEXT/UTF8
Codec ID/Info : UTF-8 Plain Text
Duration : 1 h 40 min
Bit rate : 89 b/s
Count of elements : 2310
Stream size : 66.0 KiB (0%)
Title : Full SDH
Language : English
Default : No
Forced : No

Скриншоты

Chernyshkov84

Post 22-Jul-2020 12:48

[Quote]

Realieves
Да, намного.
FatAndy
ESiR - одна из лучших релиз групп, делающих рипы. Субтитры английские и русские. Смысл в том, что не помещается на DVD5

admin

Post 28-Nov-2019 21:53

[Quote]

Информация о фильме
Название: Эверест
Оригинальное название: Abominable
Год выхода: 2019
Жанр: Мультфильм, фэнтези, комедия, приключения, семейный, полнометражный
Режиссер: Джилл Калтон, Тодд Вилдерман
В ролях: Хлоя Беннет, Альберт Цай, Тензинг Норгай Трэйнор, Джозеф Иццо, Эдди Иззард, Сара Полсон, Цай Чинь, Мишель Вонг, Рич Дитль, Джеймс Хонг

О фильме: Путешествие на самую высокую точку мира? Что может быть круче! Так решает Лу, когда случайно находит огромное, но очень милое чудовище посреди шумного мегаполиса. Пусть их преследуют ученые из сверхсекретной лаборатории, зато её новый друг умеет смешить и творить чудеса. Лу уверена, что поможет дружелюбному йети вернуться домой - на Эверест.
Страна: Китай, США
Студия: DreamWorks Animation, Pearl Studio
Продолжительность: 01:37:13
Перевод: Дублированный | iTunes
Качество: WEB-DL 720p
Видео: MPEG-4 AVC, 1280x688, 4014 Kbit/s, 23.976 fps
Аудио #01: 48 kHz, AC3, 5.1, 384 Kbps | iTunes | RUS |
Аудио #02: 48 kHz, AC3, 5.1, 384 Kbps | Оригинал | ENG |
Субтитры: Русские (форсированные, вшитые)

Скриншоты

MI

General
Unique ID : 20390666453417161028788308406813769383 (0xF5719798B4614613FD5B4295C26BEA7)
Complete name : F:Video111Abominable.2019.WEB-DL.720p.seleZen.mkv
Format : Matroska
Format version : Version 4
File size : 3.25 GiB
Duration : 1 h 37 min
Overall bit rate : 4 785 kb/s
Movie name : Abominable 2019 from селезень
Encoded date : UTC 2019-11-27 20:32:01
Writing application : mkvmerge v40.0.0 ('Old Town Road + Pony') 64-bit
Writing library : libebml v1.3.9 + libmatroska v1.5.2
Cover : Yes
Attachments : cover.jpg / cover.jpg
Video
ID : 1
Format : AVC
Format/Info : Advanced Video Codec
Format profile : High@L3.1
Format settings : 2 Ref Frames
Format settings, CABAC : No
Format settings, Reference : 2 frames
Codec ID : V_MPEG4/ISO/AVC
Duration : 1 h 37 min
Bit rate : 4 014 kb/s
Width : 1 280 pixels
Height : 688 pixels
Display aspect ratio : 1.85:1
Frame rate mode : Constant
Frame rate : 23.976 (23976/1000) FPS
Color space : YUV
Chroma subsampling : 4:2:0
Bit depth : 8 bits
Scan type : Progressive
Bits/(Pixel*Frame) : 0.190
Stream size : 2.73 GiB (84%)
Language : English
Default : Yes
Forced : No
Color range : Limited
Color primaries : BT.709
Transfer characteristics : BT.709
Matrix coefficients : BT.709
Audio #1
ID : 2
Format : AC-3
Format/Info : Audio Coding 3
Commercial name : Dolby Digital
Codec ID : A_AC3
Duration : 1 h 37 min
Bit rate mode : Constant
Bit rate : 384 kb/s
Channel(s) : 6 channels
Channel layout : L R C LFE Ls Rs
Sampling rate : 48.0 kHz
Frame rate : 31.250 FPS (1536 SPF)
Bit depth : 16 bits
Compression mode : Lossy
Stream size : 267 MiB (8%)
Title : iTunes
Language : Russian
Service kind : Complete Main
Default : Yes
Forced : Yes
Audio #2
ID : 3
Format : AC-3
Format/Info : Audio Coding 3
Commercial name : Dolby Digital
Codec ID : A_AC3
Duration : 1 h 37 min
Bit rate mode : Constant
Bit rate : 384 kb/s
Channel(s) : 6 channels
Channel layout : L R C LFE Ls Rs
Sampling rate : 48.0 kHz
Frame rate : 31.250 FPS (1536 SPF)
Bit depth : 16 bits
Compression mode : Lossy
Stream size : 267 MiB (8%)
Title : Original
Language : English
Service kind : Complete Main
Default : No
Forced : No
Menu
00:00:00.000 : en:1
00:04:12.836 : en:2
00:09:11.885 : en:3
00:13:43.239 : en:4
00:16:14.598 : en:5
00:21:35.752 : en:6
00:25:03.459 : en:7
00:29:31.435 : en:8
00:33:58.452 : en:9
00:36:44.784 : en:10
00:41:54.009 : en:11
00:46:31.703 : en:12
00:50:43.329 : en:13
00:56:32.553 : en:14
01:01:41.528 : en:15
01:06:34.195 : en:16
01:11:45.422 : en:17
01:15:27.352 : en:18
01:20:42.542 : en:19
01:26:45.404 : en:20

admin

Post 25-Oct-2019 02:14

[Quote]

Информация о фильме
Название: Птичий дозор
Оригинальное название: Manou the Swift / Birds of a Feather
Год выхода: 2019
Жанр: Мультфильм, комедия, приключения, семейный, полнометражный
Режиссер: Кристиан Хаас, Андреа Блок
В ролях: Кейт Уинслет, Уиллем Дефо, Роб Полсен, Джошуа Китон, Джули Натансон, Дэвид Шонесси, Ариф С. Кинчен, Фридрих Мюке, Кассандра Стин, Доминик Кун

О фильме: Стриж Ману растет в семье чаек и изо всех сил пытается научиться плавать, ловить рыбу и летать так же, как и они. Но во время традиционного летнего состязания он понимает, что никогда не сможет стать чайкой. Раздосадованный Ману улетает из дома, где встречает новых друзей. Из-за этого портятся его отношения с родной стаей. Но тут в дело вмешивается случай. Ману, который вырос отважным как чайка и изобретательным как стриж, удается уберечь и чаек, и стрижей от надвигающейся опасности и стать героем в глазах и тех и других.
Страна: Германия
Студия: LUXX Film
Продолжительность: 01:28:36
Перевод: Дублированный | iTunes
Качество: BDRip 1080p
Видео: MPEG-4 AVC, 1920x1080, 11.8 Mbit/s, 24 fps
Аудио #01: 48 kHz, AC3, 5.1, 384 Kbps | iTunes | RUS |
Аудио #02: 48 kHz, AC3, 5.1, 640 Kbps | Оригинал | ENG |
Субтитры: Английские

Скриншоты

MI

General
Unique ID : 59752336612719734936737663452831903527 (0x2CF3E1A59710368EAC3E6DB6A9356F27)
Complete name : D:Video111Manou.the.Swift.2019.BDRip.1080p.seleZen.mkv
Format : Matroska
Format version : Version 4
File size : 7.91 GiB
Duration : 1 h 28 min
Overall bit rate : 12.8 Mb/s
Movie name : Manou the Swift 2019 from селезень
Encoded date : UTC 2019-10-24 07:49:52
Writing application : mkvmerge v22.0.0 ('At The End Of The World') 64-bit
Writing library : libebml v1.3.5 + libmatroska v1.4.8
Video
ID : 1
Format : AVC
Format/Info : Advanced Video Codec
Format profile : High@L4.1
Format settings : CABAC / 4 Ref Frames
Format settings, CABAC : Yes
Format settings, Reference : 4 frames
Codec ID : V_MPEG4/ISO/AVC
Duration : 1 h 28 min
Bit rate : 11.8 Mb/s
Width : 1 920 pixels
Height : 1 080 pixels
Display aspect ratio : 16:9
Frame rate mode : Constant
Frame rate : 24.000 FPS
Color space : YUV
Chroma subsampling : 4:2:0
Bit depth : 8 bits
Scan type : Progressive
Bits/(Pixel*Frame) : 0.236
Stream size : 7.28 GiB (92%)
Title : Encoded by seleZen
Writing library : x264 core 148 r2705kMod 3f5ed56
Encoding settings : cabac=1 / ref=4 / deblock=1:-2:-2 / analyse=0x3:0x113 / me=umh / subme=11 / psy=1 / fade_compensate=0.00 / psy_rd=1.00:0.00 / mixed_ref=1 / me_range=32 / chroma_me=1 / trellis=2 / 8x8dct=1 / cqm=0 / deadzone=21,11 / fast_pskip=0 / chroma_qp_offset=-2 / threads=24 / lookahead_threads=6 / sliced_threads=0 / nr=0 / decimate=0 / interlaced=0 / bluray_compat=0 / constrained_intra=0 / fgo=0 / bframes=10 / b_pyramid=2 / b_adapt=2 / b_bias=0 / direct=3 / weightb=1 / open_gop=0 / weightp=2 / keyint=240 / keyint_min=24 / scenecut=40 / intra_refresh=0 / rc_lookahead=50 / rc=2pass / mbtree=0 / bitrate=11765 / ratetol=1.0 / qcomp=0.60 / qpmin=0 / qpmax=51 / qpstep=4 / cplxblur=20.0 / qblur=0.5 / vbv_maxrate=50000 / vbv_bufsize=62500 / nal_hrd=none / filler=0 / ip_ratio=1.40 / pb_ratio=1.30 / aq=3:0.80
Language : English
Default : Yes
Forced : No
Audio #1
ID : 2
Format : AC-3
Format/Info : Audio Coding 3
Commercial name : Dolby Digital
Codec ID : A_AC3
Duration : 1 h 28 min
Bit rate mode : Constant
Bit rate : 384 kb/s
Channel(s) : 6 channels
Channel layout : L R C LFE Ls Rs
Sampling rate : 48.0 kHz
Frame rate : 31.250 FPS (1536 SPF)
Bit depth : 16 bits
Compression mode : Lossy
Stream size : 243 MiB (3%)
Title : iTunes
Language : Russian
Service kind : Complete Main
Default : Yes
Forced : Yes
Audio #2
ID : 3
Format : AC-3
Format/Info : Audio Coding 3
Commercial name : Dolby Digital
Codec ID : A_AC3
Duration : 1 h 28 min
Bit rate mode : Constant
Bit rate : 640 kb/s
Channel(s) : 6 channels
Channel layout : L R C LFE Ls Rs
Sampling rate : 48.0 kHz
Frame rate : 31.250 FPS (1536 SPF)
Bit depth : 16 bits
Compression mode : Lossy
Stream size : 406 MiB (5%)
Title : Original
Language : English
Service kind : Complete Main
Default : No
Forced : No
Text
ID : 4
Format : UTF-8
Codec ID : S_TEXT/UTF8
Codec ID/Info : UTF-8 Plain Text
Duration : 1 h 27 min
Bit rate : 33 b/s
Count of elements : 866
Stream size : 21.5 KiB (0%)
Title : Original
Language : English
Default : No
Forced : No
Menu
00:00:00.000 : de:00:00:00.000
00:06:57.625 : de:00:06:57.625
00:14:10.375 : de:00:14:10.375
00:22:33.333 : de:00:22:33.333
00:31:38.833 : de:00:31:38.833
00:36:06.792 : de:00:36:06.792
00:43:52.833 : de:00:43:52.833
00:52:12.792 : de:00:52:12.792
00:59:52.917 : de:00:59:52.917
01:07:00.708 : de:01:07:00.708
01:14:10.208 : de:01:14:10.208
01:21:52.208 : de:01:21:52.208
 

Current time is: 29-Sep 01:52

All times are UTC + 3