Search found 34 matches

Author Message

admin

Post 01-Jul-2019 19:51

[Quote]

Информация о фильме
Название: Большое путешествие
Год выпуска: 2019
Жанр: Мультфильм, комедия, приключения, семейный
Режиссер: Василий Ровенский, Наталья Нилова
В ролях: Дмитрий Назаров, Максим Галкин, Филипп Киркоров, Алексей Воробьёв, Татьяна Навка, Диомид Виноградов
О фильме:
Однажды бестолковый аист из центра доставки детей перепутал адреса и вместо того, чтобы доставить малыша в семью панд, приносит его медведю по имени Мик-Мик. Мик-Мик во всём любит порядок и решает доставить малыша панду его родителям в южную часть Китая. В путешествие с ним увязывается непутёвый сосед заяц Оскар. По дороге они встречают хвастливого пеликана Дюка, трусливого волка Януса и романтичного тигра Амура.

Выпущено: Россия, США, Licensing Brands
Продолжительность: 01:20:21
Язык: Русский | iTunes
Релиз от: порошков
Файл
Контейнер: AVI
Качество: WEB-DLRip
Видео: 720x304 (2.37:1), 25 fps, XviD build 73 ~2201 kbps avg, 0.40 bit/pixel
Аудио: 48 kHz, AC3 Dolby Digital, 3/2 (L,C,R,l,r) + LFE ch, ~384 kbps
Субтитры: Нет

M/I

Формат : AVI
Формат/Информация : Audio Video Interleave
Размер файла : 1,46 Гбайт
Продолжительность : 1 ч. 20 м.
Общий поток : 2595 Кбит/сек
Название фильма : Большое путешествие_2019_WEB-DLRip
Программа кодирования : VirtualDubMod 1.5.10.3 | www.virtualdub-fr.org || (build 2550/release)
Авторское право : порошков
Видео
Идентификатор : 0
Формат : MPEG-4 Visual
Профиль формата : Advanced Simple@L5
Настройки формата : BVOP1 / Custom Matrix
Параметр BVOP формата : 1
Параметр QPel формата : Нет
Параметр GMC формата : Без точки перехода
Параметр матрицы формата : Выборочная
Идентификатор кодека : XVID
Идентификатор кодека/Подсказка : XviD
Продолжительность : 1 ч. 20 м.
Битрейт : 2201 Кбит/сек
Ширина : 720 пикселей
Высота : 304 пикселя
Соотношение сторон : 2,35:1
Частота кадров : 25,000 кадров/сек
Цветовое пространство : YUV
Субдискретизация насыщенности : 4:2:0
Битовая глубина : 8 бит
Тип развёртки : Прогрессивная
Метод сжатия : С потерями
Бит/(Пиксели*Кадры) : 0.402
Размер потока : 1,24 Гбайт (85%)
Библиотека кодирования : XviD 73
Аудио
Идентификатор : 1
Формат : AC-3
Формат/Информация : Audio Coding 3
Коммерческое название : Dolby Digital
Идентификатор кодека : 2000
Продолжительность : 1 ч. 20 м.
Вид битрейта : Постоянный
Битрейт : 384 Кбит/сек
Каналы : 6 каналов
ChannelLayout : L R C LFE Ls Rs
Частота : 48,0 КГц
Частота кадров : 31,250 кадров/сек (1536 SPF)
Битовая глубина : 16 бит
Метод сжатия : С потерями
Размер потока : 221 Мбайт (15%)
Выравнивание : Разделение по промежуткам
Продолжительность промежутка : 40 мс. (1,00 видеокадр)
Время предзагрузки промежутка : 500 мс.
ServiceKind : Complete Main

Скриншоты

admin

Post 28-Feb-2019 02:18

[Quote]

Информация о фильме
Оригинальное название: Волки и Овцы: Ход свиньёй
Год выпуска: 2018
Жанр: Мультфильм, полнометражный, семейный, комедия, приключения
Режиссер: Владимир Николаев
В ролях: Елизавета Боярская, Максим Матвеев, Галина Корнева, Антон Юрьев, Алексей Сигаев, Даниил Эльдаров
Описание:
В спокойной и размеренной жизни объединенного городка волков и овец появляются неожиданные гости — песец и маленькая овечка. Никто не ожидал, что они принесут с собой смертельную опасность, преодолеть которую можно лишь всем вместе. Ведь только сообща решаются большие проблемы и серьезные задачи — в единстве сила!


Страна: Россия
Студия: Кинокомпания CTB, Wizart Animation
Продолжительность: 01:11:45
Язык: Русский | iTunes
БЕЗ КАКОЙ-ЛИБО РЕКЛАМЫ!
Формат: MKV
Качество: WEB-DLRip-AVC
Видео: MPEG-4 AVC, 1024x428 (2.40:1), 25.000 fps, 2489 Kbps, 0.227 bit/pixel
Аудио: 48 kHz, AC3, 5.1, 384 Kbps | RUS |

ОтчетМедиаИнфо

General
Unique ID : 222050155391771098753934972474888219039 (0xA70D4DE9639C32C887926E0CB1DEE99F)
Complete name : D:VOLKI.OVCY.HOD.SVINJEY.2018.WEB-DLRip.AVC.ExKinoRay.mkv
Format : Matroska
Format version : Version 4 / Version 2
File size : 1.44 GiB
Duration : 1 h 11 min
Overall bit rate : 2 874 kb/s
Movie name : Волки и Овцы: Ход свиньёй (2018) from ExKinoRay
Encoded date : UTC 2019-02-27 03:20:59
Writing application : mkvmerge v7.6.0 ('Garden of Dreams') 32bit built on Feb 11 2015 00:18:47
Writing library : libebml v1.3.1 + libmatroska v1.4.2
Video
ID : 1
Format : AVC
Format/Info : Advanced Video Codec
Format profile : High@L4.1
Format settings, CABAC : Yes
Format settings, ReFrames : 11 frames
Codec ID : V_MPEG4/ISO/AVC
Duration : 1 h 11 min
Bit rate : 2 489 kb/s
Width : 1 024 pixels
Height : 428 pixels
Display aspect ratio : 2.40:1
Frame rate mode : Constant
Frame rate : 25.000 FPS
Color space : YUV
Chroma subsampling : 4:2:0
Bit depth : 8 bits
Scan type : Progressive
Bits/(Pixel*Frame) : 0.227
Stream size : 1.25 GiB (87%)
Title : Enigma
Writing library : x264 core 152 r2851 ba24899
Encoding settings : cabac=1 / ref=11 / deblock=1:-2:-2 / analyse=0x3:0x113 / me=umh / subme=10 / psy=1 / psy_rd=1.04:0.08 / mixed_ref=1 / me_range=32 / chroma_me=1 / trellis=2 / 8x8dct=1 / cqm=0 / deadzone=21,11 / fast_pskip=0 / chroma_qp_offset=-3 / threads=12 / lookahead_threads=2 / sliced_threads=0 / nr=0 / decimate=0 / interlaced=0 / bluray_compat=0 / constrained_intra=0 / bframes=9 / b_pyramid=2 / b_adapt=2 / b_bias=0 / direct=3 / weightb=1 / open_gop=0 / weightp=2 / keyint=250 / keyint_min=25 / scenecut=40 / intra_refresh=0 / rc=2pass / mbtree=0 / bitrate=2489 / ratetol=1.0 / qcomp=0.60 / qpmin=0 / qpmax=51 / qpstep=4 / cplxblur=20.0 / qblur=0.5 / ip_ratio=1.30 / pb_ratio=1.20 / aq=1:1.00
Default : Yes
Forced : No
Color range : Limited
Color primaries : BT.709
Transfer characteristics : BT.709
Matrix coefficients : BT.709
Audio
ID : 2
Format : AC-3
Format/Info : Audio Coding 3
Mode extension : CM (complete main)
Format settings, Endianness : Big
Codec ID : A_AC3
Duration : 1 h 11 min
Bit rate mode : Constant
Bit rate : 384 kb/s
Channel(s) : 6 channels
Channel positions : Front: L C R, Side: L R, LFE
Sampling rate : 48.0 kHz
Frame rate : 31.250 FPS (1536 spf)
Compression mode : Lossy
Stream size : 197 MiB (13%)
Language : Russian
Default : Yes
Forced : No
Menu
00:00:00.000 : en:Глава 1
00:04:54.960 : en:Глава 2
00:11:02.200 : en:Глава 3
00:16:08.080 : en:Глава 4
00:22:05.560 : en:Глава 5
00:26:49.200 : en:Глава 6
00:30:52.080 : en:Глава 7
00:34:50.320 : en:Глава 8
00:40:21.120 : en:Глава 9
00:45:29.760 : en:Глава 10
00:51:37.320 : en:Глава 11
00:56:52.720 : en:Глава 12
01:02:29.080 : en:Глава 13

Скриншоты

admin

Post 28-Feb-2019 02:16

[Quote]

Информация о фильме
Название: Волки и Овцы: Ход свиньёй
Год выпуска: 2018
Жанр: Мультфильм, полнометражный, семейный, комедия, приключения
Режиссер: Владимир Николаев
В ролях: Елизавета Боярская, Максим Матвеев, Галина Корнева, Антон Юрьев, Алексей Сигаев, Даниил Эльдаров
О фильме:
В спокойной и размеренной жизни объединенного городка волков и овец появляются неожиданные гости — песец и маленькая овечка. Никто не ожидал, что они принесут с собой смертельную опасность, преодолеть которую можно лишь всем вместе. Ведь только сообща решаются большие проблемы и серьезные задачи — в единстве сила!

Страна: Россия
Студия: Кинокомпания CTB, Wizart Animation
Продолжительность: 01:11:45
Язык: Русский | iTunes
Файл
Формат: AVI
Качество: WEB-DLRip
Видео: XviD, 720x304, 25 fps, 1780 kbps
Звук: AC3, 6 ch, 384 kbps
Субтитры: Нет

Скриншоты

admin

Post 14-Feb-2019 01:12

[Quote]

Информация о фильме
Название: Снежная Королева: Зазеркалье
Жанр: Мультфильм, комедия, приключения, семейный, фэнтези
Режиссер: Алексей Цицилин, Роберт Ленс
В ролях: Лина Иванова, Владимир Зайцев, Ольга Зубкова, Никита Прозоровский, Всеволод Кузнецов, Ляйсан Утяшева, Ирина Безрукова, Надежда Ангарская, Николай Быстров
О фильме:
Могущественный король Харальд чуть не потерял семью из-за Снежной Королевы. Он находит способ очистить мир от волшебства - все обладатели магических способностей отныне заточены в Зазеркалье. Остановить его и не дать сказке навсегда исчезнуть из нашего мира может только Герда. Ведь ее главная сила не в волшебстве, а вере в добро и дружбу. В новом приключении на помощь Герде придут тролли, пираты и даже сама Снежная Королева.

Страна: Россия
Студия: Централ Партнершип, Союзмультфильм, Wizart Animation
Продолжительность: 01:23:21
Язык: Русский | iTunes
Файл
Формат: AVI
Качество: WEB-DLRip
Видео: XviD, 720x304, 25 fps, 2114 kbps
Звук: AC3, 6 ch, 384 kbps
Субтитры: Нет

Скриншоты

admin

Post 06-Feb-2019 20:26

[Quote]

Информация о фильме
Название: Три богатыря и Наследница престола
Год выхода: 2018
Жанр: Мультфильм, приключения, семейный
Режиссер: Константин Бронзит
В ролях: Михаил Черняк, Сергей Маковецкий, Дмитрий Быковский-Ромашов, Валерий Соловьев, Олег Куликович, Дмитрий Высоцкий, Александр Боярский, Екатерина Гороховская, Юрий Тарасов, Юрий Кузнецов
О фильме:
Князь Киевский решил назначить наследника престола, только вот незадача - кто это может быть? Родственник, друг семьи или может быть, заморская принцесса? Недолго думая, Князь-батюшка выбирает почти принцессу, а главное родственницу - племянницу Забаву. Нынче она вместе со своим мужем Елисеем (помните верного ученика Добрыни Никитича?) получает образование в далеком Царьграде, где правит коварный Василевс. Чтобы вернуть наследницу на родные просторы за тридевять земель в спешном порядке отправляются три богатыря и, конечно же, главный придворный конь Юлий.

Страна: Россия
Студия: "Мельница"
Продолжительность: 01:21:10
Язык: Русский | iTunes
Файл
Формат: AVI
Качество: WEB-DLRip
Видео: XviD, 704x400, 25 fps, 2182 kbps
Звук: AC3, 6 ch, 384 kbps
Субтитры: Нет

Скриншоты

admin

Post 06-Feb-2019 20:24

[Quote]

Три богатыря и Наследница престола
«Забавы ради»-

Год выпуска: 2018
Страна: Россия
Производство: Мельница
Жанр: Мультфильм, приключения, семейный, детский, полнометражный-Режиссёр: Константин Бронзит
В ролях: Михаил Черняк, Сергей Маковецкий, Дмитрий Быковский-Ромашов, Валерий Соловьёв, Олег Куликович, Дмитрий Высоцкий, Александр Боярский, Екатерина Гороховская, Юрий Тарасов, Юрий Кузнецов-Перевод: Оригинал | [iTunes]
Субтитры: Нет
Реклама: Отсутствует
Описание: Князь Киевский решил назначить наследника престола, только вот незадача - кто это может быть? Родственник, друг семьи или может быть, заморская принцесса? Недолго думая, Князь-батюшка выбирает почти принцессу, а главное родственницу - племянницу Забаву. Нынче она вместе со своим мужем Елисеем (помните верного ученика Добрыни Никитича?) получает образование в далеком Царьграде, где правит коварный Василевс. Чтобы вернуть наследницу на родные просторы за тридевять земель в спешном порядке отправляются три богатыря и, конечно же, главный придворный конь Юлий.
-Качество: WEB-DLRip-AVC | |
Продолжительность: 01:21:10
Формат: MKV
Видео кодек: MPEG-4 AVC
Аудио кодек: AC3
Видео: 1024x576 (16:9), 25,000 fps, x264 ~2 349 kbps avg, 0.159 bit/pixel
Аудио #1: 48 kHz, AC3 Dolby Digital, 3/2 (L,C,R,l,r) + LFE ch, ~384.00 kbps avg | RUS (iTunes)-Дата премьеры (мир): 4 января 2019
Дата премьеры (РФ): 27 декабря 2018, «Наше Кино»
Цифровой релиз:

MediaInfo

Общее
Уникальный идентификатор : 299664407550015178773246225362131572646 (0xE17143FCD6B9AFCDEEFBF28967BF57A6)
Полное имя : F:OlLanDGroup3.Bogatyrja.I.Naslednica.2018.WEB-DLRip(AVC).OlLanDGroup.mkv
Формат : Matroska
Версия формата : Version 4 / Version 2
Размер файла : 1,55 Гбайт
Продолжительность : 1 ч. 21 м.
Общий поток : 2733 Кбит/сек
Название фильма : 3.Bogatyrja.I.Naslednica.2018 #TorpedoUK#
Дата кодирования : UTC 2019-02-06 00:18:03
Программа кодирования : mkvmerge v29.0.0 ('Like It Or Not') 64-bit
Библиотека кодирования : libebml v1.3.6 + libmatroska v1.4.9
Видео
Идентификатор : 1
Формат : AVC
Формат/Информация : Advanced Video Codec
Профиль формата : High@L4.1
Параметр CABAC формата : Да
Параметр ReFrames формата : 10 кадров
Идентификатор кодека : V_MPEG4/ISO/AVC
Продолжительность : 1 ч. 21 м.
Битрейт : 2349 Кбит/сек
Ширина : 1024 пикселя
Высота : 576 пикселей
Соотношение сторон : 16:9
Режим частоты кадров : Постоянный
Частота кадров : 25,000 кадров/сек
Цветовое пространство : YUV
Субдискретизация насыщенности : 4:2:0
Битовая глубина : 8 бит
Тип развёртки : Прогрессивная
Бит/(Пиксели*Кадры) : 0.159
Размер потока : 1,33 Гбайт (86%)
Библиотека кодирования : x264 core 146 r2538 121396c
Настройки программы : cabac=1 / ref=10 / deblock=1:-3:-3 / analyse=0x3:0x113 / me=umh / subme=10 / psy=1 / psy_rd=1.00:0.03 / mixed_ref=1 / me_range=48 / chroma_me=1 / trellis=2 / 8x8dct=1 / cqm=0 / deadzone=21,11 / fast_pskip=1 / chroma_qp_offset=-3 / threads=6 / lookahead_threads=1 / sliced_threads=0 / nr=0 / decimate=1 / interlaced=0 / bluray_compat=0 / constrained_intra=0 / bframes=11 / b_pyramid=2 / b_adapt=2 / b_bias=0 / direct=3 / weightb=1 / open_gop=0 / weightp=2 / keyint=250 / keyint_min=25 / scenecut=40 / intra_refresh=0 / rc_lookahead=40 / rc=2pass / mbtree=0 / bitrate=2349 / ratetol=1.0 / qcomp=0.60 / qpmin=0 / qpmax=69 / qpstep=4 / cplxblur=20.0 / qblur=0.5 / vbv_maxrate=50000 / vbv_bufsize=62500 / nal_hrd=none / filler=0 / ip_ratio=1.40 / pb_ratio=1.30 / aq=1:1.00
Язык : English
Default : Да
Forced : Нет
Аудио
Идентификатор : 2
Формат : AC-3
Формат/Информация : Audio Coding 3
Расширение режима : CM (complete main)
Параметр Endianness формата : Big
Идентификатор кодека : A_AC3
Продолжительность : 1 ч. 21 м.
Вид битрейта : Постоянный
Битрейт : 384 Кбит/сек
Каналы : 6 каналов
Расположение каналов : Front: L C R, Side: L R, LFE
Частота : 48,0 КГц
Частота кадров : 31,250 кадров/сек (1536 spf)
Битовая глубина : 16 бит
Метод сжатия : С потерями
Размер потока : 223 Мбайт (14%)
Заголовок : [ORIGINAL] DD 5.1 @ 384 kbps (iTunes)
Язык : Russian
Default : Да
Forced : Нет
Меню
00:00:00.000 : en:Глава 1
00:06:40.600 : en:Глава 2
00:13:04.080 : en:Глава 3
00:19:25.120 : en:Глава 4
00:27:00.920 : en:Глава 5
00:33:24.640 : en:Глава 6
00:39:32.680 : en:Глава 7
00:46:08.000 : en:Глава 8
00:53:50.880 : en:Глава 9
01:02:06.080 : en:Глава 10
01:07:50.520 : en:Глава 11
01:12:03.960 : en:Глава 12

Скриншоты



admin

Post 29-Jan-2019 16:18

[Quote]

Название : Ну, погоди!
Страна: СССР-Россия
Жанр: мультфильм, комедия, семейный
Год выпуска: 1969 – 2006
Продолжительность: серия ~ 00:09:30
Перевод: не требуется
Оригинальная аудиодорожка: русский
Cубтитры: нет
Режиссеры: Вячеслав Котеночкин, Юрий Бутырин, Владимир Тарасов...
Роли озвучивали: Клара Румянова, Анатолий Папанов, Геннадий Хазанов, Владимир Сошальский, Игорь Христенко
Описание:
Веселые приключения неразлучной парочки — хулигана Волка и смышленого Зайца. Любимые с детства сцены погонь, ссор и примирений, шутки и мелодии...- -Исходник: Blu-ray 1080p (серии 01-16)
Исходник: DVD5 R5 (серии 17-20)
Тип релиза: BDRip (серии 01-16)
Тип релиза: DVDRip (серии 17-20)
Контейнер: AVI
Видео: 720х544, (4:3), 25 fps, XviD ~ 1799 kbps, 0.184 bit/pixel
Аудио: 48 kHz, AC3, 6 ch, 448.00 kbps (серии 01-16)
Аудио: 48 kHz, AC3, 2 ch, 192.00 kbps (серии 17-20)

MediaInfo

BDRip
Общее
Полное имя : Nu,pogodi!1969-2006.BDRip_[Youtracker]_by_AVP Studio9.avi
Формат : AVI
Формат/Информация : Audio Video Interleave
Размер файла : 151 Мбайт
Продолжительность : 9 м. 22 с.
Общий поток : 2256 Кбит/сек
Программа кодирования : VirtualDubModRus 1.5.10.2 (build 2542/release)
Библиотека кодирования : VirtualDubMod build 2542/release
Видео
Идентификатор : 0
Формат : MPEG-4 Visual
Профиль формата : Advanced Simple@L5
Параметр BVOP формата : 1
Параметр QPel формата : Нет
Параметр GMC формата : Без точки перехода
Параметр матрицы формата : Выборочная
Идентификатор кодека : XVID
Идентификатор кодека/Подсказка : XviD
Продолжительность : 9 м. 22 с.
Битрейт : 1799 Кбит/сек
Ширина : 720 пикселей
Высота : 544 пикселя
Соотношение сторон : 4:3
Частота кадров : 25,000 кадров/сек
Цветовое пространство : YUV
Субдискретизация насыщенности : 4:2:0
Битовая глубина : 8 бит
Тип развёртки : Прогрессивная
Метод сжатия : С потерями
Бит/(Пиксели*Кадры) : 0.184
Размер потока : 121 Мбайт (80%)
Библиотека кодирования : XviD 65
Аудио
Идентификатор : 1
Формат : AC-3
Формат/Информация : Audio Coding 3
Расширение режима : CM (complete main)
Идентификатор кодека : 2000
Продолжительность : 9 м. 22 с.
Вид битрейта : Постоянный
Битрейт : 448 Кбит/сек
Каналы : 6 каналов
Расположение каналов : Front: L C R, Side: L R, LFE
Частота : 48,0 КГц
Битовая глубина : 16 бит
Метод сжатия : С потерями
Размер потока : 30,1 Мбайт (20%)
Выравнивание : Разделение по промежуткам
Продолжительность промежутка : 40 мс. (1,00 видеокадр)
Время предзагрузки промежутка : 500 мс
DVDRip
Общее
Полное имя : Nu,pogodi!1969-2006.BDRip_[Youtracker]_by_AVP Studio19.avi
Формат : AVI
Формат/Информация : Audio Video Interleave
Размер файла : 156 Мбайт
Продолжительность : 10 м.
Общий поток : 2001 Кбит/сек
Программа кодирования : VirtualDubModRus 1.5.10.2 (build 2542/release)
Библиотека кодирования : VirtualDubMod build 2542/release
Видео
Идентификатор : 0
Формат : MPEG-4 Visual
Профиль формата : Advanced Simple@L5
Параметр BVOP формата : 1
Параметр QPel формата : Нет
Параметр GMC формата : Без точки перехода
Параметр матрицы формата : Выборочная
Идентификатор кодека : XVID
Идентификатор кодека/Подсказка : XviD
Продолжительность : 10 м.
Битрейт : 1799 Кбит/сек
Ширина : 720 пикселей
Высота : 544 пикселя
Соотношение сторон : 4:3
Частота кадров : 25,000 кадров/сек
Цветовое пространство : YUV
Субдискретизация насыщенности : 4:2:0
Битовая глубина : 8 бит
Тип развёртки : Прогрессивная
Метод сжатия : С потерями
Бит/(Пиксели*Кадры) : 0.184
Размер потока : 140 Мбайт (90%)
Библиотека кодирования : XviD 65
Аудио
Идентификатор : 1
Формат : AC-3
Формат/Информация : Audio Coding 3
Расширение режима : CM (complete main)
Идентификатор кодека : 2000
Продолжительность : 10 м.
Вид битрейта : Постоянный
Битрейт : 192 Кбит/сек
Каналы : 2 канала
Расположение каналов : Front: L R
Частота : 48,0 КГц
Битовая глубина : 16 бит
Метод сжатия : С потерями
Размер потока : 15,0 Мбайт (10%)
Выравнивание : Разделение по промежуткам
Продолжительность промежутка : 40 мс. (1,00 видеокадр)
Время предзагрузки промежутка : 500 мс

Скриншоты

BDRip

DVDRip

admin

Post 29-Jan-2019 16:02

[Quote]

Новые приключения попугая Кеши!
Страна: Россия
Жанр: мультфильм
Перевод: Не требуется
Режиссер: Александр Давыдов
Описание: Долгожданное продолжение приключений Попугая Кеши.
В 2000-х гг., уже после смерти В. Караваева, А. Курляндский предпринимает попытку реанимировать главного героя сериала. Работа ведётся с режиссёром А. Давыдовым. Остальной творческий состав меняется практически полностью.
Все мультфильмы имеют оригинальные названия. Ключевым остаётся только словосочетание «попугай Кеша».
В 2002 году на экраны вышел мультфильм «Утро попугая Кеши». Затем последовали другие серии: «Новые приключения попугая Кеши» в 2005 году, «Похищение попугая Кеши», «Попугай Кеша и чудовище» в 2006 году.
Мультфильмы выпущены на киностудии «Союзмультфильм».-Содержание:

Утро попугая Кеши

Утро попугая Кеши
Год выпуска: 2002
Продолжительность: 00:09:00
Описание: Очередная история про хвастливого попугая Кешу, который на этот раз возомнил себя киногероем, но, как всегда, попал впросак: его спортивные достижения завершились так и не начавшись, а попытки продемонстрировать свое умение и псевдознания закончились трагически.
Качество: SATRip
Формат: AVI
Видео кодек: XviD
Аудио кодек: MP3
Видео: XVID, 640x480, 25.00fps, ~2180Kbps avg
Аудио: MPEG Audio Layer 3, 48000Hz stereo, ~105Kbps avg
Скриншоты:

Новые приключения попугая Кеши

Кеша - рыболов
Год выпуска: 2005
Продолжительность: 00:12:19 минут
Качество: DVDRip
Формат: AVI
Видео кодек: DivX
Видео: 576x432 (1.33:1), 25 fps, XviD Final 1.1 (build 41) ~1453 kbps avg, 0.23 bit/pixel
Аудио: 48 kHz, MPEG Layer 3, 2 ch, ~128.00 kbps avg
Скриншоты:
-Мужество Кеши
Продолжительность: 00:13:27
Качество: DVDRip
Формат: AVI
Видео кодек: DivX
Видео: 560x416 (1.35:1), 25 fps, XviD Final 1.1 (build 41) ~1318 kbps avg, 0.23 bit/pixel
Аудио: 48 kHz, MPEG Layer 3, 2 ch, ~128.00 kbps avg
Скриншоты:

Попугай Кеша и чудовище

Год выпуска: 2006
Продолжительность: 00:26:00
Похищение попугая Кеши.
Описание: Первая история "Похищение Попугая Кеши" - своеобразный комедийный детектив с элементами пародии. В нем рассказывается о том, как наш попугай, мечтая стать обладателем своего личного плеера и явно насмотревшись, криминальных фильмов, инсценирует свое похищение бандитами, якобы требующими за его жизнь денежный выкуп аж в тысячу рублей! И доверчивый Вовка - в полной растерянности: где достать такую колоссальную сумму!?
Попугай Кеша и чудовище.
Описание: Вторая история "Попугай Кеша и Чудовище" - Вовка задержался в школе, а Кеша предался любимой игре на компьютере - в стрелялки. При этом сообщил Вовке по телефону, что занят серьезным делом: читает книги!... Да что там книги, - во что бы то ни стало он должен победить страшное Чудовище! Такое ловкое, такое неуловимое! Увлеченный стрелялками до самозабвения, Кеша внезапно сам оказывается в виртуальном мире. И теперь его, Кешу, преследует противник.
Качество: DVDRip
Формат: AVI
Видео кодек: DivX
Аудио кодек: MP3
Видео: 1980 кБит/сек - 724 x 544 (4/3) - 25.000 fps
Аудио: 192 кБит/сек - 2 канала - 48 кГц
Скриншоты:

admin

Post 29-Jan-2019 15:11

[Quote]

Приключения домовёнка Кузи и дядюшки Ау
Год выпуска: 2004
Страна: СССР
Жанр: детский,мультфильм
Продолжительность: 105
Перевод: Не требуется
Режиссер: Аида Зябликова, Иосиф Доукша, Майя Бузинова
В ролях: Татьяна Пельтцер, Георгий Вицин, Светлана Травкина, Феликс Иванов
Описание: Детские кукольные мультфильмы о приключениях проказливого домовенка Кузи и его хозяйки девочки Наташи (по произведениям Т. Александровой). А также истории про волшебного лесного человечка - дядюшку Ау (по сказке финского писателя Х. Мякеля).
Сборник мультфильмов:
1. Приключения домовенка (1986 год)
2. Дом для Кузьки (1984 год)
3. Сказка для Наташи (1986 год)
4. Возвращение домовенка (1987 год)
5. Дядюшка Ау (1979 год)
6. Ошибка дядюшки Ау (1979 год)
7. Дядюшка Ау в городе (1979 год)
Качество: DVD5
Видео: PAL 4:3 (720x576) VBR
Аудио: Russian (Dolby AC3, 2 ch),Russian (Dolby AC3, 6 ch)

Скриншоты:

admin

Post 20-Jan-2019 05:46

[Quote]

Оригинальное название: Маша и Медведь
Год выпуска: 2019
Жанр: Мультсериал, компьютерная анимация, детский, семейный
Выпущено: Россия, Студия "Анимаккорд"
Режиссер: Наталья Мальгина
В ролях: Варвара Саранцева, Борис Кутневич
О фильме: Лучшее средство от скуки - хорошая игра. А хорошая игра в театре - ещё лучше. Именно так решили Маша, Даша, Панда и Розочка. Вот только договориться о том, в какой именно театр играть оказалось не так-то просто...

Выпущено: Россия, Студия "Анимаккорд"
Продолжительность: 00:08:25
Язык: Русский
Качество: WEB-DLRip-AVC
Видео: MPEG-4 AVC, 2500 Кбит/с, 1024x576
Аудио rus: AC3, 2 ch, 192 Кбит/с

Инфо-файл

Полное имя : F:\076. Vsja zhizn' - teatr.LOxana.mkv
Формат : Matroska
Версия формата : Version 2
Размер файла : 162 Мбайт
Продолжительность : 8 м. 25 с.
Общий поток : 2690 Кбит/сек
Дата кодирования : UTC 2019-01-19 07:53:03
Программа кодирования : mkvmerge v6.1.0 ('Old Devil') built on Mar 4 2013 09:10:42
Библиотека кодирования : libebml v1.3.0 + libmatroska v1.4.0
Видео
Идентификатор : 1
Формат : AVC
Формат/Информация : Advanced Video Codec
Профиль формата : High@L4.1
Настройки формата : CABAC / 8 Ref Frames
Параметр CABAC формата : Да
Параметр RefFrames формата : 8 кадров
Идентификатор кодека : V_MPEG4/ISO/AVC
Продолжительность : 8 м. 25 с.
Битрейт : 2500 Кбит/сек
Ширина : 1024 пикселя
Высота : 576 пикселей
Соотношение сторон : 16:9
Режим частоты кадров : Постоянный
Частота кадров : 25,000 кадров/сек
Цветовое пространство : YUV
Субдискретизация насыщенности : 4:2:0
Битовая глубина : 8 бит
Тип развёртки : Прогрессивная
Бит/(Пиксели*Кадры) : 0.170
Размер потока : 147 Мбайт (91%)
Библиотека кодирования : x264 core 133 r2334 a3ac64b
Настройки программы : cabac=1 / ref=8 / deblock=1:-2:-2 / analyse=0x3:0x113 / me=umh / subme=10 / psy=1 / psy_rd=1.00:0.20 / mixed_ref=1 / me_range=32 / chroma_me=1 / trellis=2 / 8x8dct=1 / cqm=0 / deadzone=21,11 / fast_pskip=0 / chroma_qp_offset=-3 / threads=6 / lookahead_threads=1 / sliced_threads=0 / nr=0 / decimate=0 / interlaced=0 / bluray_compat=0 / constrained_intra=0 / bframes=10 / b_pyramid=2 / b_adapt=2 / b_bias=0 / direct=3 / weightb=1 / open_gop=0 / weightp=2 / keyint=250 / keyint_min=25 / scenecut=40 / intra_refresh=0 / rc_lookahead=40 / rc=2pass / mbtree=0 / bitrate=2500 / ratetol=1.0 / qcomp=0.60 / qpmin=0 / qpmax=69 / qpstep=4 / cplxblur=20.0 / qblur=0.5 / vbv_maxrate=50000 / vbv_bufsize=62500 / nal_hrd=none / ip_ratio=1.40 / pb_ratio=1.30 / aq=1:1.00
Default : Да
Forced : Нет
Аудио
Идентификатор : 2
Формат : AC-3
Формат/Информация : Audio Coding 3
Идентификатор кодека : A_AC3
Продолжительность : 8 м. 25 с.
Вид битрейта : Постоянный
Битрейт : 192 Кбит/сек
Каналы : 2 канала
Расположение каналов : Front: L R
Частота : 48,0 КГц
Частота кадров : 31,250 кадров/сек (1536 SPF)
Битовая глубина : 16 бит
Метод сжатия : С потерями
Размер потока : 11,6 Мбайт (7%)
ServiceKind/String : Complete Main
Default : Да
Forced : Нет

Скриншоты


admin

Post 19-Jan-2019 05:41

[Quote]

Оригинальное название: Маша и Медведь
Год выпуска: 2019
Жанр: Мультсериал, компьютерная анимация, детский, семейный
Выпущено: Россия, Студия "Анимаккорд"
Режиссер: Наталья Мальгина
В ролях: Варвара Саранцева, Борис Кутневич
О фильме: Лучшее средство от скуки - хорошая игра. А хорошая игра в театре - ещё лучше. Именно так решили Маша, Даша, Панда и Розочка. Вот только договориться о том, в какой именно театр играть оказалось не так-то просто...

Выпущено: Россия, Студия "Анимаккорд"
Продолжительность: 00:08:25
Язык: Русский
Качество: WEB-DLRip
Видео: XviD, 1552 Кбит/с, 720x400
Аудио rus: AC3, 2 ch, 192 Кбит/с

Скриншоты


Борисыч

Post 22-Dec-2018 07:15

[Quote]

-
Год выпуска: 1954
Жанр: Мультфильм
Страна: СССР
Продолжительность: 00:09:55
Режиссер: Борис Дежкин
Описание: Мультфильм о том, как композитор Козел, по совету Осла сочиняет симфоническое произведение на тему Жил был у бабушки серенький Козлик. Критик Волк расхваливает новое сочинение, но зрители не выдерживают халтуры и расходятся, а Козел становится добычей Волка
Качество видео: DVDRip
Формат видео: AVI
Видео кодек: XviD
Аудио кодек: АС3
Видео: 704x528, 25 fps, 1994 kbps
Аудио: 48 kHz, 2 ch, 192 kbps

Скриншоты

Борисыч

Post 08-Dec-2018 08:52

[Quote]

- - Год выпуска: 1957
Жанр: Мультфильм
Страна: СССР
Продолжительность: 00:10:10
Режиссер: Александра Снежко-Блоцкая
Роли озвучивал: Эраст Гарин
Описание: Фильм по мотивам народных сказок. Злой Верлиока унёс в мешке маленькую девочку. О таком странном сюжете не догадывалась даже Вера Брежнева. Дед отправился в лес с обиженными Верлиокой ранее Ёжиком, Жёлудем, Селезнем и Верёвочкой выручать внучку. Дружным коллективом им удалось отнять внучку и наказать обидчика.
Качество видео: DVDRip
Формат видео: AVI
Видео кодек: XviD
Аудио кодек: АС3
Видео: 544x432, 25 fps, 1920 kbps
Аудио: 44,1 kHz, 2 ch, 96 kbps

Скриншоты

admin

Post 29-Oct-2018 19:40

[Quote]

Оригинальное название: Маша и медведь: Вот как бывает
Год выпуска: 2018
Жанр: Мультсериал, компьютерная анимация, сказка, детский, семейный
Выпущено: Россия, Студия "Анимаккорд"
Режиссер: Наталья Мальгина
В ролях: Варвара Саранцева, Борис Кутневич
О фильме: Какому ребёнку понравится жить по правилам? Куда интереснее отправиться в весёлое приключение с новыми друзьями. Маша решает бросить прежнюю жизнь и…. пропадает! Найдёт ли её Мишка?
Качество: WEB-DLRip (AVC)
Видео: MPEG-4 AVC, 1950 Кбит/с, 1024x576
Аудио: AC3, 2 ch, 192 Кбит/с
Продолжительность: 00:07:16
Язык: Русский

Скриншоты

admin

Post 11-Jul-2018 22:02

[Quote]

Информация о фильме
Название: Садко
Год выхода: 2017
Жанр: Мультфильм, комедия, семейный
Режиссер: Максим Волков, Виталий Мухаметзянов
В ролях: Тимур Гарипов, Любовь Аксенова, Екатерина Варнава, Мария Шалаева, Михаил Ефремов, Дмитрий Филимонов, Данис Галиуллин, Руслан Ронич, Анатолий Константинов, Диомид Виноградов
О фильме:
Хоть беги, хоть не беги, а от любви нигде не скрыться. Ни в палатах новгородского князя, ни на дне морском. Особенно, если зовут тебя Садко, и ты симпатичный веселый парень. К тому же, на гуслях играть мастак. Вот только за настоящую любовь еще и повоевать придется. Да не с кем-нибудь, а с подводной ведьмой Барракудой. Но любовь все равно победит. Вот увидите!

Страна: Россия
Студия: Кинокомпания СТВ, Анимационная студия Мельница
Продолжительность: 01:17:50
Перевод: не требуется | iTunes
Субтитры: нет
Файл
Формат: avi
Качество: WEB-DLRip
Видео: XviD build 73, 720x304 (2.35:1), 25.000 fps, 1167 Kbps (0.213 bit/pixel)
Звук: 48.0 kHz, MP3, 2/0 ch, 160 kbps

Скриншоты

 

Current time is: 06-Dec 03:21

All times are UTC + 3