Search found 74 matches

Author Message

admin

Post Today 05:44

[Quote]

«В этой семье все уникальные... Кроме Мирабэль»
Информация о фильме
Название: Энканто
Оригинальное название: Encanto
Год выхода: 2021
Жанр: Мультфильм, мюзикл, фэнтези, драма, комедия, семейный
Режиссер: Джаред Буш, Байрон Ховард, Чариз Кастро Смит
Роли озвучивают: Стефани Беатриз, Мария Сесилия Ботеро, Джон Легуизамо, Мауро Кастильо, Джессика Дарроу, Энджи Сепеда, Каролина Гайтан, Дайан Герреро, Уилмер Вальдеррама, Рензи Фелиз
О фильме:
Удивительная семья Мадригаль живет в спрятанном в горах Колумбии волшебном доме, расположенном в чудесном и очаровательном уголке под названием Энканто. Каждого ребёнка в семье Мадригаль магия этого места благословила уникальным даром — от суперсилы до способности исцелять. Увы, магия обошла стороной одну лишь юную Мирабель. Обнаружив, что магия Энканто находится в опасности, Мирабель решает, что именно она может быть последней надеждой на спасение своей особенной семьи.


Страна: США
Студия: Walt Disney Animation Studios, Walt Disney Pictures
Продолжительность: 01:42:07
Перевод: Профессиональный (полное дублирование) | iTunes
Файл
Качество: BDRip-AVC
Исходник: Encanto.2021.COMPLETE.BLURAY-UNTOUCHED
Формат: MKV
Кодек: MPEG-4 AVC
Видео: 1024x552 (1.85:1), 23.976 fps, MPEG-4 AVC ~ 2520 Kbps avg, 0.186 bit/pixel
Аудио: AC3, 48 kHz, 6 ch, ~384.00 kbps avg | русский | iTunes |
Аудио: AC3, 48 kHz, 6 ch, ~448.00 kbps avg | английский |
Субтитры: Русские (форсированные, полные, SDH), английские (полные)

Инфо-файл

Общее
Уникальный идентификатор : 204627501115084667457122702448768748903 (0x99F1D2BC344316BC9B81057D48528D67)
Полное имя : Encanto.2021.D.BDRip.DD.5.1.x264.MegaPeer.mkv
Формат : Matroska
Версия формата : Version 4
Размер файла : 2,39 Гбайт
Продолжительность : 1 ч. 42 м.
Общий поток : 3 343 Кбит/сек
Название фильма : Энканто / Encanto (2021) от stillet@MegaPeer
Дата кодирования : UTC 2022-01-28 07:51:57
Программа кодирования : mkvmerge v15.0.0 ('Duel with the Devil') 64-bit
Библиотека кодирования : libebml v1.3.5 + libmatroska v1.4.5
Обложка : Yes
Attachments : cover.jpg
Видео
Идентификатор : 1
Формат : AVC
Формат/Информация : Advanced Video Codec
Профиль формата : High@L4.1
Настройки формата : CABAC / 12 Ref Frames
Параметр CABAC формата : Да
Параметр RefFrames формата : 12 кадров
Идентификатор кодека : V_MPEG4/ISO/AVC
Продолжительность : 1 ч. 42 м.
Битрейт : 2 520 Кбит/сек
Ширина : 1 024 пикселя
Высота : 552 пикселя
Соотношение сторон : 1,85:1
Режим частоты кадров : Постоянный
Частота кадров : 23,976 кадра/сек
Цветовое пространство : YUV
Субдискретизация насыщенности : 4:2:0
Битовая глубина : 8 бит
Тип развёртки : Прогрессивная
Бит/(Пиксели*Кадры) : 0.186
Размер потока : 1,80 Гбайт (75%)
Заголовок : stillet@MegaPeer
Библиотека кодирования : x264 core 161 r3018 db0d417
Настройки программы : cabac=1 / ref=12 / deblock=1:-3:-3 / analyse=0x3:0x113 / me=umh / subme=10 / psy=1 / psy_rd=1.00:0.00 / mixed_ref=1 / me_range=48 / chroma_me=1 / trellis=2 / 8x8dct=1 / cqm=0 / deadzone=21,11 / fast_pskip=0 / chroma_qp_offset=-2 / threads=12 / lookahead_threads=3 / sliced_threads=0 / nr=0 / decimate=0 / interlaced=0 / bluray_compat=0 / constrained_intra=0 / bframes=10 / b_pyramid=2 / b_adapt=2 / b_bias=0 / direct=3 / weightb=1 / open_gop=0 / weightp=2 / keyint=240 / keyint_min=24 / scenecut=40 / intra_refresh=0 / rc_lookahead=40 / rc=2pass / mbtree=0 / bitrate=2520 / ratetol=1.0 / qcomp=0.60 / qpmin=0 / qpmax=69 / qpstep=4 / cplxblur=20.0 / qblur=0.5 / vbv_maxrate=50000 / vbv_bufsize=62500 / nal_hrd=none / filler=0 / ip_ratio=1.40 / pb_ratio=1.30 / aq=1:1.10
Язык : English
Default : Да
Forced : Нет
Аудио #1
Идентификатор : 2
Формат : AC-3
Формат/Информация : Audio Coding 3
Коммерческое название : Dolby Digital
Идентификатор кодека : A_AC3
Продолжительность : 1 ч. 42 м.
Вид битрейта : Постоянный
Битрейт : 384 Кбит/сек
Каналы : 6 каналов
Channel layout : L R C LFE Ls Rs
Частота : 48,0 КГц
Частота кадров : 31,250 кадров/сек (1536 SPF)
Метод сжатия : С потерями
Размер потока : 282 Мбайт (11%)
Заголовок : DUB | iTunes
Язык : Russian
Service kind : Complete Main
Default : Да
Forced : Нет
Аудио #2
Идентификатор : 3
Формат : AC-3
Формат/Информация : Audio Coding 3
Коммерческое название : Dolby Digital
Идентификатор кодека : A_AC3
Продолжительность : 1 ч. 42 м.
Вид битрейта : Постоянный
Битрейт : 448 Кбит/сек
Каналы : 6 каналов
Channel layout : L R C LFE Ls Rs
Частота : 48,0 КГц
Частота кадров : 31,250 кадров/сек (1536 SPF)
Метод сжатия : С потерями
Размер потока : 327 Мбайт (13%)
Язык : English
Service kind : Complete Main
Default : Нет
Forced : Нет
Текст #1
Идентификатор : 4
Формат : UTF-8
Идентификатор кодека : S_TEXT/UTF8
Идентификатор кодека/Информация : UTF-8 Plain Text
Продолжительность : 1 ч. 24 м.
Битрейт : 38 бит/сек
Count of elements : 349
Размер потока : 23,9 Кбайт (0%)
Заголовок : Forced
Язык : Russian
Default : Да
Forced : Нет
Текст #2
Идентификатор : 5
Формат : UTF-8
Идентификатор кодека : S_TEXT/UTF8
Идентификатор кодека/Информация : UTF-8 Plain Text
Продолжительность : 1 ч. 40 м.
Битрейт : 89 бит/сек
Count of elements : 1223
Размер потока : 66,1 Кбайт (0%)
Заголовок : Full
Язык : Russian
Default : Нет
Forced : Нет
Текст #3
Идентификатор : 6
Формат : UTF-8
Идентификатор кодека : S_TEXT/UTF8
Идентификатор кодека/Информация : UTF-8 Plain Text
Продолжительность : 1 ч. 36 м.
Битрейт : 102 бит/сек
Count of elements : 1655
Размер потока : 72,5 Кбайт (0%)
Заголовок : SDH
Язык : Russian
Default : Нет
Forced : Нет
Текст #4
Идентификатор : 7
Формат : UTF-8
Идентификатор кодека : S_TEXT/UTF8
Идентификатор кодека/Информация : UTF-8 Plain Text
Продолжительность : 1 ч. 30 м.
Битрейт : 57 бит/сек
Count of elements : 1211
Размер потока : 37,8 Кбайт (0%)
Заголовок : Full
Язык : English
Default : Нет
Forced : Нет
Меню
00:00:00.000 : :Chapter 01
00:03:57.654 : :Chapter 02
00:09:49.297 : :Chapter 03
00:15:07.573 : :Chapter 04
00:16:54.889 : :Chapter 05
00:21:48.807 : :Chapter 06
00:24:54.910 : :Chapter 07
00:28:58.612 : :Chapter 08
00:31:10.619 : :Chapter 09
00:38:35.104 : :Chapter 10
00:44:57.820 : :Chapter 11
00:53:39.967 : :Chapter 12
01:01:22.345 : :Chapter 13
01:06:28.067 : :Chapter 14
01:11:41.255 : :Chapter 15
01:16:38.135 : :Chapter 16
01:24:25.394 : :Chapter 17
01:31:02.207 : :Chapter 18
01:42:06.787 : :Chapter 19

Скриншоты

admin

Post Today 05:41

[Quote]

«В этой семье все уникальные... Кроме Мирабэль»
Информация о фильме
Название: Энканто
Оригинальное название: Encanto
Год выхода: 2021
Жанр: Мультфильм, мюзикл, фэнтези, драма, комедия, семейный
Режиссер: Джаред Буш, Байрон Ховард, Чариз Кастро Смит
Роли озвучивают: Стефани Беатриз, Мария Сесилия Ботеро, Джон Легуизамо, Мауро Кастильо, Джессика Дарроу, Энджи Сепеда, Каролина Гайтан, Дайан Герреро, Уилмер Вальдеррама, Рензи Фелиз
О фильме:
Удивительная семья Мадригаль живет в спрятанном в горах Колумбии волшебном доме, расположенном в чудесном и очаровательном уголке под названием Энканто. Каждого ребёнка в семье Мадригаль магия этого места благословила уникальным даром — от суперсилы до способности исцелять. Увы, магия обошла стороной одну лишь юную Мирабель. Обнаружив, что магия Энканто находится в опасности, Мирабель решает, что именно она может быть последней надеждой на спасение своей особенной семьи.


Страна: США
Студия: Walt Disney Animation Studios, Walt Disney Pictures
Продолжительность: 01:42:07
Перевод: Профессиональный (полное дублирование) | iTunes
Файл
Качество: BDRip
Исходник: Encanto.2021.COMPLETE.BLURAY-UNTOUCHED
Формат: AVI
Кодек: XviD
Видео: 704x384 (1.85:1), 23.976 fps, XviD ~ 1592 Kbps avg, 0.246 bit/pixel
Аудио: AC3, 48 kHz, 6 ch, ~384.00 kbps avg | русский | iTunes |
Субтитры: Русские (форсированные, полные, SDH) отдельно

Скриншоты

admin

Post 16-Jan-2022 05:23

[Quote]


Информация о фильме
Название: Риверданс: Анимационное приключение
Оригинальное название: Riverdance: The Animated Adventure
Год выхода: 2021
Жанр: Мультфильм, фэнтези
Режиссер: Имонн Батлер, Дэйв Розенбаум
Роли озвучивают: Пирс Броснан, Брендан Глисон, Лилли Сингх, Жермен Фаулер, Джон Кэвэна, Полин Маклин, Stephen Delahunty, Конор Драм, Сэм Харди, Hannah Herman
О фильме:
После горькой утраты ирландский мальчик Киган и его испанская подруга Мойя учатся справляться с опасностями и отчаянием, а в этом им помогут танцы и волшебные олени.


Страна: Великобритания, Ирландия
Студия: Cinesite, Comic Animations, River Production
Продолжительность: 01:33:37
Перевод: Профессиональный (полное дублирование) | Невафильм по заказу Netflix
Файл
Качество: WEB-DLRip
Формат: AVI
Кодек: XviD
Видео: 720x304 (2.35:1), 24 fps, XviD ~ 1777 Kbps avg, 0.338 bit/pixel
Аудио: AC3, 48 kHz, 6 ch, ~448.00 kbps avg | русский | DUB |
Субтитры: Русские (форсированные, полные), украинские (полные) отдельно

Скриншоты

admin

Post 15-Jan-2022 06:06

[Quote]

Монстры на каникулах: Трансформания / Hotel Transylvania: Transformania
«Такие перемены любого напугают»
Год выпуска: 2022
Страна: США / Columbia Pictures Corporation, Media Rights Capital, Sony Pictures Animation
Жанр: Мультфильм, ужасы, фэнтези, комедия, приключения, семейный
Продолжительность: 01:27:31
Перевод: Профессиональный (полное дублирование) [Amazon Prime Video]
Субтитры: Русские форсированные (стилизованные, на надписи и прочее) - вшитые; Русские (форсированные, полные), украинские (полные), английские (полные) - отдельно-Режиссер: Дерек Драймон, Дженнифер Клуска-Роли озвучивают: Брайан Халл, Энди Сэмберг, Селена Гомес, Кэтрин Хан, Стив Бушеми, Дэвид Спейд, Кигэн-Майкл Ки, Эшер Блинкофф, Брэд Эбрелл, Фрэн Дрешер-Описание:
Все смешалось в отеле «Трансильвания»: таинственное изобретение Ван Хельсинга, «монстрифицирующий луч», ломается и случайно превращает Дракулу и его приятелей в людей, а Джонни — наоборот, в монстра. Лишенные своих способностей и привычного облика Драк с друзьями и Джонни, с неожиданным удовольствием раскрывающий свою монстрическую сущность, отправляются в кругосветное путешествие на поиски средства от трансформании. И, конечно, им не обойтись без помощи Мэвис, пока не стало слишком поздно и они не свели друг друга с ума.
-Рейтинг:
-Качество: WEB-DLRip | исх. Hotel.Transylvania.4.Transformania.2022.AMZN.WEB-DL.1080p.seleZen.mkv |
Формат: AVI
Видео кодек: XviD
Аудио кодек: AC3
Видео: 704x384 (1.83:1), 23.976 fps, XviD build 69 ~1937 kbps avg, 0.30 bit/pixel
Аудио: 48 kHz, AC3 Dolby Digital, 3/2 (L,C,R,l,r) + LFE ch, ~448 kbps
-

Скриншоты

admin

Post 12-Jan-2022 04:57

[Quote]

Зверопой 2 / Sing 2
Год выпуска: 2021
Выпущено: США, Япония, Франция
Жанр: Комедия, Фэнтези, Семейный, Приключения, Музыкальный, Мультфильм
Режиссер: Гарт Дженнингс / Garth Jennings, Кристоф Лурделе / Christophe Lourdelet
В ролях: Тори Келли, Риз Уизерспун, Тэрон Эджертон, Ник Кролл, Мэттью МакКонахи, Сет МакФарлейн, Гарт Дженнингс, Дженнифер Сондерс, Челси Перетти, Скарлетт Йоханссон, Бобби Каннавале, Ник Офферман, Адам Бакстон, Эрик Андре, Холзи
О фильме: Тяжело быть продюсером, когда ты коала и у тебя лапки. Еще сложнее, когда твоя верная помощница древнее печатной машинки. И совсем весело, когда твоя труппа — это танцующий без остановки пухляш, колючая девочка-панк, застенчивая школьница, верзила-гангстер и многодетная мама, чьи дети — поросята в прямом смысле слова. Рецепт успеха прост — рвануть в мировую столицу развлечений, завербовать легендарного рок-музыканта и взорвать сцену новым шоу.

Продолжительность: 01:49:48
Перевод: Профессиональный (многолосый, закадровый) Jaskier
Субтитры: нет.
Формат: AVI
Качество: WEB-DLRip
Видео: 720x384 (1,85:1), 23,976 fps, XviD build 67 ~ 1452 kbps
Аудио: 48 kHz, AC3 Dolby Digital, 3/2 (L,C,R,l,r) + LFE ch, ~ 448 kbps | RUS | Tnx.KinoPub

Скриншоты

-

admin

Post 12-Jan-2022 04:38

[Quote]

Информация о фильме
Название: Барашек Шон: Полет перед Рождеством / Барашек Шон: Рождественские приключения
Оригинальное название: Shaun the Sheep: The Flight Before Christmas
Год выхода: 2021
Жанр: Мультфильм, короткометражка, комедия, семейный
Режиссер: Steve Cox
В ролях: Бригсток, Кейт Харбор, Анна Леонг Брофи, Саймон Гринолл, Энди Найман, Эмма Тейт, Ричард Веббер
О фильме:
Накануне Рождества вся ферма готовится к празднику. Барашку Шону и Тимми очень хочется заранее узнать, какие подарки они получат. Но их любопытство не доводит до добра — Тимми случайно оказывается в мешке с подарками. Теперь Шону нужно успеть до праздника вернуть друга обратно на ферму.

Выпущено: США / Aardman Animations
Продолжительность: 00:30:12
Перевод: Не требуется (нет диалогов)
Субтитры: Русские (на звуки), английские (на звуки) Netflix
Файл
Формат: Matroska
Качество: WEB-DLRip-AVC [Shaun.the.Sheep.The.Flight.Before.Christmas.2021.1080p.NF.WEB-DL.DDPA5.1.H.264-KHN]
Видео: 1024x576 at 25.000 fps, x264@L4.1, ~1941 kbps
Аудио: AC3, 6 ch, ~384 kbps - | Русский |
Формат субтитров: softsub (SRT)
► Без Рекламы!

M/I

General
Unique ID : 37326340640498178144859442642297355366 (0x1C14CAADDC2A411DA58E18DABC74FC66)
Complete name : H:Shaun.the.Sheep-The.Flight.Before.Christmas.2021.WEB-DLRip.x264.mkv
Format : Matroska
Format version : Version 4
File size : 503 MiB
Duration : 30 min 12 s
Overall bit rate : 2 327 kb/s
Encoded date : UTC 2022-01-11 17:08:30
Writing application : mkvmerge v64.0.0 ('Willows') 64-bit
Writing library : libebml v1.4.2 + libmatroska v1.6.4
Cover : Yes
Attachments : cover.jpg / cover 2.jpg
Video
ID : 1
Format : AVC
Format/Info : Advanced Video Codec
Format profile : High@L4.1
Format settings : CABAC / 10 Ref Frames
Format settings, CABAC : Yes
Format settings, Reference : 10 frames
Codec ID : V_MPEG4/ISO/AVC
Duration : 30 min 12 s
Bit rate : 1 941 kb/s
Width : 1 024 pixels
Height : 576 pixels
Display aspect ratio : 16:9
Frame rate mode : Constant
Frame rate : 25.000 FPS
Color space : YUV
Chroma subsampling : 4:2:0
Bit depth : 8 bits
Scan type : Progressive
Bits/(Pixel*Frame) : 0.132
Stream size : 419 MiB (83%)
Title : -=DoMiNo=-
Writing library : x264 core 164 r3081 19856cc
Encoding settings : cabac=1 / ref=10 / deblock=1:-2:-1 / analyse=0x3:0x133 / me=umh / subme=10 / psy=1 / psy_rd=1.00:0.15 / mixed_ref=1 / me_range=32 / chroma_me=1 / trellis=2 / 8x8dct=1 / cqm=0 / deadzone=21,11 / fast_pskip=0 / chroma_qp_offset=-3 / threads=18 / lookahead_threads=3 / sliced_threads=0 / nr=0 / decimate=0 / interlaced=0 / bluray_compat=0 / constrained_intra=0 / bframes=8 / b_pyramid=2 / b_adapt=2 / b_bias=0 / direct=3 / weightb=1 / open_gop=0 / weightp=2 / keyint=250 / keyint_min=25 / scenecut=40 / intra_refresh=0 / rc_lookahead=60 / rc=2pass / mbtree=0 / bitrate=1941 / ratetol=1.0 / qcomp=0.60 / qpmin=0 / qpmax=69 / qpstep=4 / cplxblur=20.0 / qblur=0.5 / vbv_maxrate=50000 / vbv_bufsize=62500 / nal_hrd=none / filler=0 / ip_ratio=1.40 / pb_ratio=1.30 / aq=2:1.00
Language : English
Default : Yes
Forced : No
Audio
ID : 2
Format : AC-3
Format/Info : Audio Coding 3
Commercial name : Dolby Digital
Codec ID : A_AC3
Duration : 30 min 12 s
Bit rate mode : Constant
Bit rate : 384 kb/s
Channel(s) : 6 channels
Channel layout : L R C LFE Ls Rs
Sampling rate : 48.0 kHz
Frame rate : 31.250 FPS (1536 SPF)
Compression mode : Lossy
Stream size : 82.9 MiB (17%)
Title : нет диалогов)
Language : English
Service kind : Complete Main
Default : Yes
Forced : No
Text #1
ID : 3
Format : UTF-8
Codec ID : S_TEXT/UTF8
Codec ID/Info : UTF-8 Plain Text
Duration : 29 min 56 s
Bit rate : 165 b/s
Count of elements : 721
Stream size : 36.4 KiB (0%)
Title : SDH
Language : Russian
Default : No
Forced : No
Text #2
ID : 4
Format : UTF-8
Codec ID : S_TEXT/UTF8
Codec ID/Info : UTF-8 Plain Text
Duration : 29 min 56 s
Bit rate : 52 b/s
Count of elements : 721
Stream size : 11.5 KiB (0%)
Title : SDH
Language : English
Default : No
Forced : No

Скриншоты

admin

Post 06-Jan-2022 01:37

[Quote]

«Герой восстанет. Рано или поздно»
Информация
Название: Лига монстров
Оригинальное название: Rumble
Год выхода: 2021
Жанр: Мультфильм, фэнтези, комедия, семейный, спорт
Режиссер: Хамиш Грив
Роли озвучивают: Уилл Арнетт, Терри Крюс, Джеральдин Вишванатан, Джо Аноаи, Тони Данза, Стефен А. Смит, Джимми Татро, Тони Шэлуб, Сьюзэн Келечи Уотсон, Бриджет Эверетт
Описание:
В мире, где монстрический реслинг – обожаемый вид спорта, а монстры-спортсмены – настоящие звезды, девушка Винни мечтает пойти по стопам отца и начинает тренировать монстра-аутсайдера. Милашке-неудачнику предстоит пройти непростой путь под руководством юной, но суровой наставницы, чтобы стать чемпионом.


Страна: США, Австралия, Канада
Студия: Paramount Animation, Paramount Pictures, Reel FX Creative Studios, Walden Media, WWE Studios
Продолжительность: 01:34:53
Перевод: Профессиональный (полное дублирование) | IVI
Файл
Качество: WEB-DLRip
Формат: AVI
Кодек: XviD
Видео: 720x304 (2.35:1), 24 fps, XviD ~ 1806 Kbps avg, 0.344 bit/pixel
Аудио: AC3, 48 kHz, 2 ch, ~192.00 kbps avg | русский | DUB
Аудио: AC3, 48 kHz, 2 ch, ~192.00 kbps avg | английский |
Субтитры: Русские (полные) отдельно

Скриншоты

admin

Post 02-Jan-2022 01:30

[Quote]

Информация о фильме
Название: Приключения Пильи
Оригинальное название: Pil
Год выхода: 2021
Жанр: мультфильм, фэнтези, приключения
Режиссер: Жюльен Фурне
В ролях: Кэйси Чейз, Пол Борн, Жюльен Крампон, Пьер Тессьер, Готье Батту, Барбара Тиссье, Эммануэль Кюртиль, Энрике Карбальидо, Лоран Морель, Мартин Ирзенски
О фильме:
Пилья — озорная девчонка-сирота, живущая на улицах города Туманвиль. Однажды, чтобы не попасться стражам замка, она наряжается принцессой и оказывается втянута в невероятные приключения. Жестокий Тристан хочет захватить трон и с помощью магического зелья превращает принца Роланда в… котоцыпа (наполовину кота, наполовину курицу). Пилья — единственная, кто может спасти принца и все королевство. Вместе со своими немножко безумными помощниками — шутом, стражем и тремя ласками — Пилья отправляется на поиски противоядия. И, если все получится (а на пути их ждёт немало опасностей), они смогут обрести не только спасительное снадобье, но и дружную семью, которой у них никогда не было.

Выпущено: Франция / TAT Productions, SND Groupe M6, France 3 Cinéma
Продолжительность: 01:28:44
Озвучивание: Дублированное | КиноПоиск HD
Файл
Формат: AVI
Качество: WEB-DLRip
Видео: XviD, 1900 Kb/s, 720x304
Аудио: Russian: AC3, 448 Kb/s (6 ch)
Субтитры: Нет

Скриншоты

Борисыч

Post 26-Dec-2021 14:38

[Quote]

- -Oh, Christmas Tree- -
Год выпуска: 1999
Страна: США
Жанр: Мультфильм
Продолжительность: 00:48:00
Перевод: Профессиональный ( Многоголосый закадровый )
Режиссёр: Берт Ринг / Bert Ring
Роли озвучивали: Мари Осмонд, Эдвард Эснер, Тим Конуэй, Памела Адлон, Деби Дерриберри, Джесс Харнелл
Описание: Эта история приключилась под самое Рождество. Все в Зимнем лесу готовятся к празднику. Но маленькая Зеленая Елочка боится, что ей никогда не стать настоящей Рождественской Елкой.Медвежонок, Белочка, старик Щелкунчик и сам Санта Клаус решили помочь Елочке осуществить ее мечту. Ведь в Рождество происходят самые невероятные чудеса и все мечты обязательно сбываются!
Качество: DVDRip
Формат: AVI
Видео кодек: XviD
Аудио кодек: AC3
Видео: 688x528, 25 fps, 1 967 kbps
Аудио: 48 kHz, 2 ch, 192 kbps

Скриншоты

Борисыч

Post 24-Dec-2021 06:13

[Quote]

- -Magic Gift of the Snowman- -
Год выпуска: 1995
Страна: США
Жанр: Мультфильм, семейный
Продолжительность: 00:46:25
Перевод: Профессиональный ( Дублированный )+( Оригинал )
Режиссёр: Тошиюки Хирума, Такаши Масунага
Описание: Эмери Элизабет - маленькая девочка, которая больна и слабеет день ото дня. Но ее брат надеется помочь сестре. Каждый день он рассказывает ей сказку о Снеговике, который живет в волшебном царстве, где нет взрослых, где кровати сделаны из зефира и необыкновенные птички убаюкивают детей своим пением, а земля покрыта пушистым белым снегом... И однажды Снеговик оживает, он берет с собой Эмери и ее брата в свой волшебный мир в самое удивительное приключение. Эта волнующая сказка о том, что вера в чудо поможет воспарить на крыльях воображения и обрести надежду и счастье.
Качество: DVDRip
Формат: AVI
Видео XviD
Аудио AC3
Видео: 688x512, 25 fps, 1845 kbps
Аудио - 1: 48 KHz, 2 ch, 192 Kbps - Dub
Аудио - 2: 48 KHz, 2 ch, 192 Kbps - Original

Скриншоты

Борисыч

Post 23-Dec-2021 05:17

[Quote]

- -Jingle Bells- -
Год выпуска: 1999
Страна: США
Жанр: Мультфильм
Продолжительность: 00:47:22
Перевод: Профессиональный (многоголосый, закадровый)
Режиссер: Берт Ринг
Описание: Наступает Рождество - время веселья и чудесных подарков. Но на ферме родителей Тома и Бетти не все идет гладко, и на подарки нет денег. Но немного волшебства и фантазии помогут детям понять, что настоящие и самые лучшие подарки - те, что дарят от чистого сердца, а их не всегда можно купить в магазине...
Качество: DVDRip
Формат: AVI
Видео кодек: DivX
Аудио кодек: MP3
Видео: 704x528, 25 fps, 898 Kbps
Аудио: 48 кHz, 2 ch, 128 Kbps

Скриншоты

admin

Post 11-Dec-2021 03:40

[Quote]

«Dangerously Cute and The Loose»
Информация о фильме
Название: Дорога домой
Оригинальное название: Back to the Outback
Год выхода: 2021
Жанр: Мультфильм, комедия, приключения, семейный
Режиссер: Гарри Криппс, Клер Де Шеню
В ролях: Джеки Уивер, Рэйчел Хаус, Айла Фишер, Гай Пирс, Уэйн Найт, Эрик Бана, Дизель Ла Торрака, Тим Минчин, Джиа Каридес, Энгус Имри
О фильме:
Самые опасные животные Австралии устали быть запертыми в террариуме под взглядами любопытных посетителей. Они совершают побег, чтобы вернуться на природу и жить свободно. Бунт возглавляет ядовитая змея Мэдди, ее первый помощник — ящерица Зои, «шипастый дьявол», в компанию также входят волосатый паук Фрэнк и скорпион Найджел. В последний момент к ним присоединяется и коала Красавчик, хотя с ним друзья не в ладах и брать его с собой никто не собирался. Так начинается жуткое и веселое путешествие по Австралии.


Страна: Австралия, США
Студия: Netflix Animation, Reel FX Creative Studios, Weed Road Pictures
Продолжительность: 01:35:41
Перевод: Профессиональный (полное дублирование) | Пифагор по заказу Netflix
Файл
Качество: WEB-DLRip
Формат: AVI
Кодек: XviD
Видео: 720x304 (2.35:1), 24 fps, XviD ~ 1737 Kbps avg, 0.331 bit/pixel
Аудио: AC3, 48 kHz, 6 ch, ~448.00 kbps avg | русский | Пифагор
Субтитры: Русские (форсированные, полные), украинские (форсированные, полные) отдельно

Скриншоты

admin

Post 07-Dec-2021 05:16

[Quote]

Неисправимый Рон / Ron's Gone Wrong
Год выпуска: 2021
Выпущено: США, Великобритания, Канада, 20th Century Fox Animation, 20th Century Studios, Locksmith Animation
Жанр: комедия, фантастика, семейный, приключения, мультфильм
Режиссер: Сара Смит, Жан-Филипп Вине, Октавио Е. Родригес, Стив Карр
В ролях: Джек Дилан Грейзер, Зак Галифианакис, Эд Хелмс, Оливия Колман, Роб Делани, Джастис Смит, Кайли Кэнтралл, Рикардо Уртадо, Каллен МакКарти, Ава Морс, Маркус Скрибнер, Пьер Бувье, Томас Барбаска, Барнс Кортни , Сара Миллер
О фильме: У любого ребенка должен быть друг. Настоящий, а не какой-то там домашний питомец. Таким лучшим другом может стать прекрасный робот, умеющий двигаться, говорить, но главное — подключенный к интернету, и помогающий своему хозяину делать публикации в соцсетях и узнавать о всех последних тенденциях, поддерживать связь с одноклассниками и быть в курсе событий. Такие есть у всех школьников, кроме стеснительного Барни, который из-за этого чувствует себя чужим среди своих сверстников — до тех пор, пока не получает на день рождения долгожданный подарок. Но робот по имени Рон оказался бракованным, и его юный хозяин решает самостоятельно научить его всему, что знает сам.

Продолжительность: 01:46:45
Перевод: Любительский двухголосый (Pazl Voice)
Субтитры: нет.
Формат: AVI
Качество: HDRip
Видео: XviD, 1507 Кбит/с, 720x304, 23,976 fps
Аудио #1: AC3, 6 ch, 448 Кбит/с | RUS Tnx.KinoPub

Скриншоы

-

admin

Post 07-Dec-2021 05:10

[Quote]

Информация о фильме
Название: Митчеллы против машин / На связи
Оригинальное название: The Mitchells vs. the Machines
Год выхода: 2021
Жанр: Мультфильм, фантастика, комедия, приключения, семейный
Режиссер: Майкл Рианда, Джефф Роу
В ролях: Эбби Джейкобсон, Дэнни Макбрайд, Майя Рудольф, Майкл Рианда, Эрик Андре, Оливия Колман, Фред Армисен, Бек Беннетт, Крисси Тиган, Джон Ледженд
О фильме:
Своеобразная семейка, которую едва ли можно назвать идеальной, отправляется в поездку на машине и оказывается посреди восстания роботов. Кто бы мог подумать: теперь они последняя надежда человечества на спасение!


Страна: США, Канада, Франция
Студия: Columbia Pictures Corporation, Lord Miller, Sony Pictures Animation
Продолжительность: 01:49:39
Перевод: Профессиональный (полное дублирование) | Пифагор по заказу Netflix
Файл
Качество: HDRip
Формат: AVI
Кодек: XviD
Видео: 720x384 (1.85:1), 23.976 fps, XviD ~ 1449 Kbps avg, 0.219 bit/pixel
Аудио: AC3, 48 kHz, 6 ch, ~448.00 kbps avg | русский | Пифагор
Субтитры: Русские (форсированные, полные) отдельно

Скриншоты

admin

Post 06-Dec-2021 05:55

[Quote]


Информация о фильме
Название: Вокруг света за 80 дней
Оригинальное название: Around the World in 80 Days
Год выхода: 2021
Жанр: Мультфильм, комедия, приключения, семейный
Режиссер: Самуэль Турно
Роли озвучивают: Жюльен Крампон, Дамиен Фретте, Кэйси Чейз, Селин Ронте, Вероник Огеро, Эммануэль Гариджо, Гэбриел Ле Дозе, Серж Биаван, Мишель Арагоне, Грегори Кидель
О фильме:
Умнейший Паспарту всегда мечтал о путешествиях. На его удачу безрассудный Филеас согласился на безумное пари — обогнуть земной шар всего за 80 дней. Теперь двум совершенно непохожим друзьям предстоит совершить невозможное, а заодно увидеть весь мир, полный фантастических созданий, живописных мест и умопомрачительных приключений.


Страна: Франция, Бельгия
Студия: 22h22, Canal+ [fr], Centre National de la Cinématographie (CNC), Cinécap 3, Cinémage 14, Circus, Cottonwood Media, France 3 Cinéma, France Télévision, Indéfilms 8, Le Tax Shelter du Gouvernement Fédéral de Belgique, Mac Guff Ligne, OCS, Palatine Etoile 17, Procirep/Angicoa, Région de Bruxelles-Capitale, SG Image 2018, Sofica Manon 10, Studio Canal, uFund, uMedia Family
Продолжительность: 01:22:16
Перевод: Профессиональный (полное дублирование) | CPI Films | iTunes
Файл
Качество: BDRip
Исходник: Around.the.World.in.80.Days.2021.FRENCH.COMPLETE.BLURAY-4FR
Формат: AVI
Кодек: XviD
Видео: 720x304 (2.35:1), 24 fps, XviD ~ 2084 Kbps avg, 0.397 bit/pixel
Аудио: AC3, 48 kHz, 6 ch, ~384.00 kbps avg | русский | iTunes
Субтитры: Русские (форсированные) отдельно

Скриншоты

 

Current time is: 29-Jan 07:40

All times are UTC + 3