Search found 30 matches

Author Message

Samodov58

Post 23-Jul-2020 01:34

[Quote]

Контарик
На пятом скрине в раздаче тот же эффект. И вообще, весь фильм идут такие вылеты на чёрные полосы.
Это уже не первый фильм с таким эффектом, но было только в паре фильмов и разово, а здесь массово.
В этом фильме в одном месте есть и ещё один эффект, которого я пока нигде не встречал он здесь на первом скрине:Скриншоты

Samodov58

Post 22-Jul-2020 13:11

[Quote]

я так понял что это пародия выставляющая женщин полными дурачками во всех сферах деятельности.... как зарубежные феминистки пропустили этот фильм на экраны ????

admin

Post 13-Jul-2020 22:30

[Quote]

26937а на обычном телеке с обычного плеера картинка будет двоить или нет?
хочу посмотреть эту фильму в хорошем качестве, но на трекере только xvid и 3D.
не пинайте ламера
На обычном телике будет двоить,да.
В хорошем качестве можете скачать эту раздачу: https://ivtracker.org/viewtopic.php?t=23320

Chernyshkov84

Post 13-Jul-2020 22:19

[Quote]

а на обычном телеке с обычного плеера картинка будет двоить или нет?
хочу посмотреть эту фильму в хорошем качестве, но на трекере только xvid и 3D.
не пинайте ламера

admin

Post 16-Jul-2019 05:19

[Quote]

Шазам!
Shazam!

«Хочешь спасти мир? Скажи...»
- Год выпуска: 2019
Страна: США (DC Comics, New Line Cinema)
Жанр: фэнтези, боевик, комедия, приключения
Продолжительность: 02:11:43
Перевод: Профессиональный дублированный (лицензия)
Режиссер: Дэвид Ф. Сандберг / David F. Sandberg-Роли исполняли (дублировали):
Shazam - Закари Ливай (Александр Хошабаев)
Billy Batson - Эшер Энджел (Даниил Бледный)
Freddy Freeman - Джек Дилан Грейзер (Владимир Войтюк)
Dr. Sivana - Марк Стронг (Игорь Гордин)
Mary Bromfield - Грэйс Фултон (Мария Борисова)
Super Hero Freddy - Адам Броди
Wizard - Джимон Хонсу (Олег Куценко)
Darla Dudley - Фэйти Херман (Ульяна Куликова)
Super Hero Darla - Миган Гуд
Super Hero Mary - Мишель Борт (Мария Борисова)
-Описание: В каждом из нас живет супергерой, нужна лишь толика магии, чтобы он проявил себя. Билли Бэтсон должен прокричать всего лишь одно слово — ШАЗАМ! — чтобы из сообразительного четырнадцатилетнего мальчишки превратиться во вполне себе взрослого супергероя Шазама, а все благодаря древнему волшебнику. В душе он остается ребенком, пусть и во взрослом могучем теле, поэтому поступает так, как поступил бы любой подросток, получивший сверхспособности, — оттягивается на полную катушку в этой подросшей версии себя самого! А умеет ли он летать? А есть ли у него рентгеновское зрение? Может ли он стрелять молниями из рук? А может ли пропустить контрольную по обществознанию? Шазам проверяет границы своих возможностей с бесшабашностью расшалившегося ребенка.
Но ему придется быстро обрести контроль над своими способностями, чтобы сразиться со смертоносными силами зла доктора Таддеуса Сиваны.
-Премьера: 25 марта 2019 (4 апреля 2019)
Бюджет: $100 000 000
Кассовые сборы: $364 240 394


За исходный BD 3D Remux спасибо Селезень!
-Качество: BDRip (by Ash61)
Контейнер: MKV
Формат 3D: Half OverUnder / Вертикальная анаморфная стереопара
Порядок ракурсов: левый ракурс первый-Видео: AVC / 1920х1080p / 23,976 fps / 14.0 Mbps
Аудио:
#1 - Русский / AC3 / 48 KHz / 5.1 ch / 448 Kbps (Дубляж - BD CEE)
#2 - Украинский / AC3 / 48 KHz / 2 ch / 192 Kbps (Дубляж) (спасибо Hurtom!)
#3 - Английский / AC3 / 48 KHz / 5.1 ch / 640 Kbps (Original - BD 3D)
Субтитры (SRT):
Вшитые (softsub):
#1 - Русские Форсированные (включены по умолчанию)
#2 - Русские Полные
#3 - Украинские Форсированные [v. Ash61]
#4 - English Full
#5 - English SDH
Внешние (UTF-8):
#1 - Русские Форсированные (включены по умолчанию)
#2 - Русские Полные
#3 - Украинские Форсированные [v. Ash61]

MediaInfo

General
Unique ID : 199208392025213536479676112028887172066 (0x95DE24075EBFCE6FBD77ACAACE4C43E2)
Complete name : J:Shazam!(2019)3D-hOU(Ash61)Shazam!(2019)3D-hOU(Ash61).mkv
Format : Matroska
Format version : Version 2
File size : 14.1 GiB
Duration : 2h 11mn
Overall bit rate : 15.3 Mbps
Movie name : Шазам! / Shazam! (2019) in 3D
Encoded date : UTC 2019-07-15 13:30:03
Writing application : mkvmerge v5.8.0 ('No Sleep / Pillow') built on Sep 2 2012 15:37:04
Writing library : libebml v1.2.3 + libmatroska v1.3.0
Video
ID : 1
Format : AVC
Format/Info : Advanced Video Codec
Format profile : High@L4.1
Format settings, CABAC : Yes
Format settings, ReFrames : 4 frames
Codec ID : V_MPEG4/ISO/AVC
Duration : 2h 11mn
Bit rate : 14.0 Mbps
Width : 1 920 pixels
Height : 1 080 pixels
Display aspect ratio : 16:9
Frame rate mode : Constant
Frame rate : 23.976 (24000/1001) fps
Color space : YUV
Chroma subsampling : 4:2:0
Bit depth : 8 bits
Scan type : Progressive
Bits/(Pixel*Frame) : 0.282
Stream size : 12.6 GiB (90%)
Title : BDRip by Ash61
Writing library : x264 core 146 r2538 121396c
Encoding settings : cabac=1 / ref=4 / deblock=1:-3:-3 / analyse=0x3:0x113 / me=umh / subme=10 / psy=1 / psy_rd=1.00:0.00 / mixed_ref=1 / me_range=32 / chroma_me=1 / trellis=2 / 8x8dct=1 / cqm=0 / deadzone=21,11 / fast_pskip=0 / chroma_qp_offset=-2 / threads=12 / lookahead_threads=2 / sliced_threads=0 / nr=0 / decimate=0 / interlaced=0 / bluray_compat=0 / constrained_intra=0 / bframes=9 / b_pyramid=2 / b_adapt=2 / b_bias=0 / direct=3 / weightb=1 / open_gop=0 / weightp=2 / keyint=250 / keyint_min=23 / scenecut=40 / intra_refresh=0 / rc_lookahead=60 / rc=2pass / mbtree=0 / bitrate=14000 / ratetol=1.0 / qcomp=0.70 / qpmin=0 / qpmax=69 / qpstep=4 / cplxblur=20.0 / qblur=0.5 / vbv_maxrate=40000 / vbv_bufsize=30000 / nal_hrd=none / filler=0 / frame-packing=4 / ip_ratio=1.40 / pb_ratio=1.30 / aq=1:0.70
Language : English
Default : Yes
Forced : No
Audio #1
ID : 2
Format : AC-3
Format/Info : Audio Coding 3
Mode extension : CM (complete main)
Format settings, Endianness : Big
Codec ID : A_AC3
Duration : 2h 11mn
Bit rate mode : Constant
Bit rate : 448 Kbps
Channel(s) : 6 channels
Channel positions : Front: L C R, Side: L R, LFE
Sampling rate : 48.0 KHz
Frame rate : 31.250 fps (1536 spf)
Compression mode : Lossy
Stream size : 422 MiB (3%)
Title : Дубляж (BD CEE)
Language : Russian
Default : Yes
Forced : No
Audio #2
ID : 3
Format : AC-3
Format/Info : Audio Coding 3
Mode extension : CM (complete main)
Format settings, Endianness : Big
Codec ID : A_AC3
Duration : 2h 11mn
Bit rate mode : Constant
Bit rate : 192 Kbps
Channel(s) : 2 channels
Channel positions : Front: L R
Sampling rate : 48.0 KHz
Frame rate : 31.250 fps (1536 spf)
Compression mode : Lossy
Stream size : 181 MiB (1%)
Title : Дубляж
Language : Ukrainian
Default : No
Forced : No
Audio #3
ID : 4
Format : AC-3
Format/Info : Audio Coding 3
Mode extension : CM (complete main)
Format settings, Endianness : Big
Codec ID : A_AC3
Duration : 2h 11mn
Bit rate mode : Constant
Bit rate : 640 Kbps
Channel(s) : 6 channels
Channel positions : Front: L C R, Side: L R, LFE
Sampling rate : 48.0 KHz
Frame rate : 31.250 fps (1536 spf)
Compression mode : Lossy
Stream size : 603 MiB (4%)
Title : Original (BD 3D)
Language : English
Default : No
Forced : No
Text #1
ID : 5
Format : UTF-8
Codec ID : S_TEXT/UTF8
Codec ID/Info : UTF-8 Plain Text
Title : Форсированные
Language : Russian
Default : Yes
Forced : No
Text #2
ID : 6
Format : UTF-8
Codec ID : S_TEXT/UTF8
Codec ID/Info : UTF-8 Plain Text
Title : Полные
Language : Russian
Default : No
Forced : No
Text #3
ID : 7
Format : UTF-8
Codec ID : S_TEXT/UTF8
Codec ID/Info : UTF-8 Plain Text
Title : Форсированные [v. Ash61]
Language : Ukrainian
Default : No
Forced : No
Text #4
ID : 8
Format : UTF-8
Codec ID : S_TEXT/UTF8
Codec ID/Info : UTF-8 Plain Text
Title : Full
Language : English
Default : No
Forced : No
Text #5
ID : 9
Format : UTF-8
Codec ID : S_TEXT/UTF8
Codec ID/Info : UTF-8 Plain Text
Title : SDH
Language : English
Default : No
Forced : No
Menu
00:00:00.000 : :1
00:08:18.788 : :2
00:15:11.284 : :3
00:25:22.394 : :4
00:31:57.624 : :5
00:39:00.253 : :6
00:50:07.713 : :7
01:01:28.809 : :8
01:08:51.502 : :9
01:16:40.470 : :10
01:24:29.354 : :11
01:34:00.676 : :12
01:43:01.175 : :13
01:52:53.850 : :14
02:00:44.444 : :15

Для оценки 3Д - Анимированные скрины















admin

Post 16-Jul-2019 04:58

[Quote]

Информация о фильме
Название: Алита: Боевой ангел
Оригинальное название: Alita: Battle Angel
Год выхода: 2019
Жанр: Фантастика, боевик, триллер, мелодрама, приключения
Режиссер: Роберт Родригес
В ролях: Роза Салазар, Кристоф Вальц, Дженнифер Коннелли, Махершала Али, Эд Скрейн, Джеки Эрл Хейли, Кин Джонсон, Хорхе Лендеборг мл., Лана Кондор, Идара Виктор

О фильме: Действие фильма происходит через 300 лет после Великой войны в XXVI веке. Доктор Идо находит останки женщины-киборга. После починки киборг ничего не помнит, но обнаруживает, что в состоянии пользоваться боевыми приемами киборгов. Начинаются поиски утерянных воспоминаний.
Страна: Канада, Аргентина, США
Студия: Twentieth Century Fox, Lightstorm Entertainment, Troublemaker Studios
Продолжительность: 02:01:57
Перевод(ы):
#1: Дублированный | Лицензия

#2: Профессиональный многоголосый | СВ Студия
#3: Профессиональный многоголосый | HDRezka Studio
Качество: BDRip 1080p | 3D-(HSBS)
Видео: MPEG-4 AVC, 1920x1080, 13.5 Mbit/s, 23.976 fps
Звук:
Аудио #01: 48 kHz, DTS, 5.1, 768 Kbps | Дублированный | RUS |
Аудио #02: 48 kHz, AC3, 5.1, 448 Kbps | Дублированный | RUS |
Аудио #03: 48 kHz, AC3, 2.0, 192 Kbps | СВ Студия | RUS |
Аудио #04: 48 kHz, AC3, 2.0, 192 Kbps | HDRezka Studio | RUS |
Аудио #05: 48 kHz, AC3, 5.1, 448 Kbps | Дублированный | UKR |
Аудио #06: 48 kHz, DTS-ES, 5.1, 1510 Kbps | Оригинал | ENG |
Субтитры: Русские (Forced, 2 x full), украинские (Full), английские

Скриншоты

Формат 3D: Anamorph SideBySide - Горизонтальная анаморфная стереопара.
Порядок ракурсов: левый ракурс первый

MI

General
Unique ID : 59665693325568216508834970091596358786 (0x2CE331CD8F249CBB097041ACDD1D2482)
Complete name : D:Video1111Alita.Battle.Angel.2019.Lic.3D.HSBS.BDRip.1080p.seleZen.mkv
Format : Matroska
Format version : Version 4
File size : 14.5 GiB
Duration : 2 h 1 min
Overall bit rate : 17.1 Mb/s
Movie name : Alita Battle Angel 2019 from селезень
Encoded date : UTC 2019-07-15 14:46:09
Writing application : mkvmerge v22.0.0 ('At The End Of The World') 64-bit
Writing library : libebml v1.3.5 + libmatroska v1.4.8
Video
ID : 1
Format : AVC
Format/Info : Advanced Video Codec
Format profile : High@L4.1
Format settings : CABAC / 4 Ref Frames
Format settings, CABAC : Yes
Format settings, Reference : 4 frames
Codec ID : V_MPEG4/ISO/AVC
Duration : 2 h 1 min
Bit rate : 13.5 Mb/s
Width : 1 920 pixels
Height : 1 080 pixels
Display aspect ratio : 16:9
Frame rate mode : Constant
Frame rate : 23.976 (24000/1001) FPS
Color space : YUV
Chroma subsampling : 4:2:0
Bit depth : 8 bits
Scan type : Progressive
Bits/(Pixel*Frame) : 0.272
Stream size : 11.5 GiB (79%)
Title : seleZen
Writing library : x264 core 148 r2705kMod 3f5ed56
Encoding settings : cabac=1 / ref=4 / deblock=1:-2:-2 / analyse=0x3:0x133 / me=umh / subme=10 / psy=1 / fade_compensate=0.00 / psy_rd=1.20:0.05 / mixed_ref=1 / me_range=32 / chroma_me=1 / trellis=2 / 8x8dct=1 / cqm=0 / deadzone=21,11 / fast_pskip=0 / chroma_qp_offset=-3 / threads=12 / lookahead_threads=2 / sliced_threads=0 / nr=0 / decimate=0 / interlaced=0 / bluray_compat=0 / constrained_intra=0 / fgo=0 / bframes=8 / b_pyramid=2 / b_adapt=2 / b_bias=0 / direct=3 / weightb=1 / open_gop=0 / weightp=2 / keyint=240 / keyint_min=23 / scenecut=40 / intra_refresh=0 / rc_lookahead=50 / rc=2pass / mbtree=0 / bitrate=13500 / ratetol=1.0 / qcomp=0.60 / qpmin=0 / qpmax=51 / qpstep=4 / cplxblur=20.0 / qblur=0.5 / vbv_maxrate=50000 / vbv_bufsize=62500 / nal_hrd=none / filler=0 / ip_ratio=1.40 / pb_ratio=1.30 / aq=3:0.80
Language : English
Default : Yes
Forced : No
Audio #1
ID : 2
Format : DTS
Format/Info : Digital Theater Systems
Codec ID : A_DTS
Duration : 2 h 1 min
Bit rate mode : Constant
Bit rate : 768 kb/s
Channel(s) : 6 channels
Channel layout : C L R Ls Rs LFE
Sampling rate : 48.0 kHz
Frame rate : 93.750 FPS (512 SPF)
Bit depth : 24 bits
Compression mode : Lossy
Stream size : 670 MiB (5%)
Title : Dub [License]
Language : Russian
Default : Yes
Forced : Yes
Audio #2
ID : 3
Format : AC-3
Format/Info : Audio Coding 3
Commercial name : Dolby Digital
Codec ID : A_AC3
Duration : 2 h 1 min
Bit rate mode : Constant
Bit rate : 448 kb/s
Channel(s) : 6 channels
Channel layout : L R C LFE Ls Rs
Sampling rate : 48.0 kHz
Frame rate : 31.250 FPS (1536 SPF)
Bit depth : 16 bits
Compression mode : Lossy
Stream size : 391 MiB (3%)
Title : Dub [License]
Language : Russian
Service kind : Complete Main
Default : No
Forced : No
Audio #3
ID : 4
Format : AC-3
Format/Info : Audio Coding 3
Commercial name : Dolby Digital
Codec ID : A_AC3
Duration : 2 h 1 min
Bit rate mode : Constant
Bit rate : 192 kb/s
Channel(s) : 2 channels
Channel layout : L R
Sampling rate : 48.0 kHz
Frame rate : 31.250 FPS (1536 SPF)
Bit depth : 16 bits
Compression mode : Lossy
Stream size : 167 MiB (1%)
Title : MVO [СВ Студия]
Language : Russian
Service kind : Complete Main
Default : No
Forced : No
Audio #4
ID : 5
Format : AC-3
Format/Info : Audio Coding 3
Commercial name : Dolby Digital
Codec ID : A_AC3
Duration : 2 h 1 min
Bit rate mode : Constant
Bit rate : 192 kb/s
Channel(s) : 2 channels
Channel layout : L R
Sampling rate : 48.0 kHz
Frame rate : 31.250 FPS (1536 SPF)
Bit depth : 16 bits
Compression mode : Lossy
Stream size : 167 MiB (1%)
Title : MVO [HDRezka Studio]
Language : Russian
Service kind : Complete Main
Default : No
Forced : No
Audio #5
ID : 6
Format : AC-3
Format/Info : Audio Coding 3
Commercial name : Dolby Digital
Codec ID : A_AC3
Duration : 2 h 1 min
Bit rate mode : Constant
Bit rate : 448 kb/s
Channel(s) : 6 channels
Channel layout : L R C LFE Ls Rs
Sampling rate : 48.0 kHz
Frame rate : 31.250 FPS (1536 SPF)
Bit depth : 16 bits
Compression mode : Lossy
Stream size : 391 MiB (3%)
Title : Dub [License]
Language : Ukrainian
Service kind : Complete Main
Default : No
Forced : No
Audio #6
ID : 7
Format : DTS ES
Format/Info : Digital Theater Systems
Commercial name : DTS-ES Matrix
Codec ID : A_DTS
Duration : 2 h 1 min
Bit rate mode : Constant
Bit rate : 1 509 kb/s
Channel(s) : 6 channels
Channel(s)_Original : 7 channels
ChannelLayout_Original : C L R Ls Rs Cs LFE
Sampling rate : 48.0 kHz
Frame rate : 93.750 FPS (512 SPF)
Bit depth : 24 bits
Compression mode : Lossy
Stream size : 1.29 GiB (9%)
Title : Original
Language : English
Default : No
Forced : No
Text #1
ID : 8
Format : UTF-8
Codec ID : S_TEXT/UTF8
Codec ID/Info : UTF-8 Plain Text
Duration : 2 s 544 ms
Bit rate : 251 b/s
Count of elements : 1
Stream size : 80.0 Bytes (0%)
Title : Forced
Language : Russian
Default : Yes
Forced : Yes
Text #2
ID : 9
Format : UTF-8
Codec ID : S_TEXT/UTF8
Codec ID/Info : UTF-8 Plain Text
Duration : 2 h 1 min
Bit rate : 50 b/s
Count of elements : 1052
Stream size : 44.9 KiB (0%)
Title : Full [License]
Language : Russian
Default : No
Forced : No
Text #3
ID : 10
Format : UTF-8
Codec ID : S_TEXT/UTF8
Codec ID/Info : UTF-8 Plain Text
Duration : 1 h 56 min
Bit rate : 64 b/s
Count of elements : 1318
Stream size : 55.4 KiB (0%)
Title : Full [FOCS]
Language : Russian
Default : No
Forced : No
Text #4
ID : 11
Format : UTF-8
Codec ID : S_TEXT/UTF8
Codec ID/Info : UTF-8 Plain Text
Duration : 2 h 1 min
Bit rate : 48 b/s
Count of elements : 1254
Stream size : 43.4 KiB (0%)
Title : Full [License]
Language : Ukrainian
Default : No
Forced : No
Text #5
ID : 12
Format : UTF-8
Codec ID : S_TEXT/UTF8
Codec ID/Info : UTF-8 Plain Text
Duration : 1 h 55 min
Bit rate : 41 b/s
Count of elements : 1347
Stream size : 34.9 KiB (0%)
Title : Full
Language : English
Default : No
Forced : No
Text #6
ID : 13
Format : UTF-8
Codec ID : S_TEXT/UTF8
Codec ID/Info : UTF-8 Plain Text
Duration : 1 h 56 min
Bit rate : 46 b/s
Count of elements : 1590
Stream size : 39.5 KiB (0%)
Title : SDH
Language : English
Default : No
Forced : No
Menu
00:00:00.000 : en:Chapter 01
00:03:28.625 : en:Chapter 02
00:07:51.680 : en:Chapter 03
00:10:07.982 : en:Chapter 04
00:13:06.703 : en:Chapter 05
00:15:06.739 : en:Chapter 06
00:18:04.542 : en:Chapter 07
00:22:58.711 : en:Chapter 08
00:25:35.325 : en:Chapter 09
00:31:40.899 : en:Chapter 10
00:33:29.216 : en:Chapter 11
00:36:32.816 : en:Chapter 12
00:38:30.892 : en:Chapter 13
00:42:05.481 : en:Chapter 14
00:45:58.214 : en:Chapter 15
00:48:31.450 : en:Chapter 16
00:52:57.007 : en:Chapter 17
00:55:14.353 : en:Chapter 18
01:00:39.761 : en:Chapter 19
01:02:56.564 : en:Chapter 20
01:05:16.788 : en:Chapter 21
01:10:50.496 : en:Chapter 22
01:13:37.288 : en:Chapter 23
01:16:35.216 : en:Chapter 24
01:18:52.227 : en:Chapter 25
01:22:48.297 : en:Chapter 26
01:24:55.340 : en:Chapter 27
01:28:25.217 : en:Chapter 28
01:33:18.551 : en:Chapter 29
01:36:08.763 : en:Chapter 30
01:41:54.692 : en:Chapter 31
01:45:23.442 : en:Chapter 32
01:48:16.490 : en:Chapter 33
01:51:43.655 : en:Chapter 34
01:54:43.668 : en:Chapter 35
01:56:51.504 : en:Chapter 36

admin

Post 02-Jun-2019 21:08

[Quote]

Информация о фильме
Название: Капитан Марвел
Оригинальное название: Captain Marvel
Год выхода: 2019
Жанр: Фантастика, боевик, приключения
Режиссер: Анна Боден, Райан Флек
В ролях: Бри Ларсон, Сэмюэл Л. Джексон, Бен Мендельсон, Джуд Лоу, Аннетт Бенинг, Лашана Линч, Кларк Грегг, Рюн Темт, Джемма Чан, Альхенис Перес Сото, Джимон Хонсу, Ли Пейс, Чуку Моду, Мэттью Мехер, Акира Акбар, Марк Догерти, Стивен А. Чанг

О фильме: После столкновения с враждующими инопланетными расами пилот военно-воздушных сил Кэрол Дэнверс обретает суперсилу и становится неуязвимой. Героине предстоит совладать со своими новыми способностями, чтобы противостоять могущественному врагу.
Страна: США
Студия: Walt Disney Pictures, Marvel Studios
Продолжительность: 02:03:41
Перевод: Дублированный | iTunes
Качество: BDRemux 2160p
Видео: MPEG-H HEVC HDR Video, 3840x2160, 47000 Kbit/s, 23.976 fps
Звук:
Аудио #01: 48 kHz, AC3, 5.1, 384 Kbps | iTunes | RUS |
Аудио #02: 48 kHz, TrueHD, 7.1, 4613 Kbps | Оригинал | ENG |
Аудио #03: 48 kHz, AC3, 5.1, 640 Kbps | Оригинал | ENG |
Субтитры: Русские (Forced, full, SDH), английские

Скриншоты

MI

General
Unique ID : 322115849916810927698060653120027494473 (0xF255418F38FACAB21CF820524FCA0849)
Complete name : D:Video111Captain.Marvel.2019.UHD.BDREMUX.2160p.HDR.seleZen.mkv
Format : Matroska
Format version : Version 4
File size : 45.5 GiB
Duration : 2 h 3 min
Overall bit rate mode : Variable
Overall bit rate : 52.7 Mb/s
Movie name : Captain Marvel 4K 2019 from селезень
Encoded date : UTC 2019-06-02 03:14:13
Writing application : mkvmerge v33.1.0 ('Primrose') 64-bit
Writing library : libebml v1.3.7 + libmatroska v1.5.0
Video
ID : 1
Format : HEVC
Format/Info : High Efficiency Video Coding
Format profile : Main 10@L5.1@High
HDR format : SMPTE ST 2086, HDR10 compatible
Codec ID : V_MPEGH/ISO/HEVC
Duration : 2 h 3 min
Bit rate : 47.0 Mb/s
Width : 3 840 pixels
Height : 2 160 pixels
Display aspect ratio : 16:9
Frame rate mode : Constant
Frame rate : 23.976 (24000/1001) FPS
Color space : YUV
Chroma subsampling : 4:2:0 (Type 2)
Bit depth : 10 bits
Bits/(Pixel*Frame) : 0.236
Stream size : 40.6 GiB (89%)
Writing library : ATEME Titan File 3.9.0 (4.9.0.0)
Language : English
Default : Yes
Forced : No
Color range : Limited
Color primaries : BT.2020
Transfer characteristics : PQ
Matrix coefficients : BT.2020 non-constant
Mastering display color pri : Display P3
Mastering display luminance : min: 0.0020 cd/m2, max: 1000 cd/m2
Audio #1
ID : 2
Format : AC-3
Format/Info : Audio Coding 3
Commercial name : Dolby Digital
Codec ID : A_AC3
Duration : 2 h 3 min
Bit rate mode : Constant
Bit rate : 384 kb/s
Channel(s) : 6 channels
Channel layout : L R C LFE Ls Rs
Sampling rate : 48.0 kHz
Frame rate : 31.250 FPS (1536 SPF)
Bit depth : 16 bits
Compression mode : Lossy
Stream size : 340 MiB (1%)
Title : iTunes
Language : Russian
Service kind : Complete Main
Default : Yes
Forced : Yes
Audio #2
ID : 3
Format : MLP FBA 16-ch
Format/Info : Meridian Lossless Packing FBA with 16-channel presentation
Commercial name : Dolby TrueHD with Dolby Atmos
Codec ID : A_TRUEHD
Duration : 2 h 3 min
Bit rate mode : Variable
Bit rate : 4 613 kb/s
Maximum bit rate : 7 317 kb/s
Channel(s) : 8 channels
Channel layout : L R C LFE Ls Rs Lb Rb
Sampling rate : 48.0 kHz
Frame rate : 1 200.000 FPS (40 SPF)
Compression mode : Lossless
Stream size : 3.99 GiB (9%)
Title : Original
Language : English
Default : No
Forced : No
Number of dynamic objects : 13
Bed channel count : 1 channel
Bed channel configuration : LFE
Audio #3
ID : 4
Format : AC-3
Format/Info : Audio Coding 3
Commercial name : Dolby Digital
Codec ID : A_AC3
Duration : 2 h 3 min
Bit rate mode : Constant
Bit rate : 640 kb/s
Channel(s) : 6 channels
Channel layout : L R C LFE Ls Rs
Sampling rate : 48.0 kHz
Frame rate : 31.250 FPS (1536 SPF)
Bit depth : 16 bits
Compression mode : Lossy
Stream size : 566 MiB (1%)
Language : English
Service kind : Complete Main
Default : No
Forced : No
Text #1
ID : 5
Format : UTF-8
Codec ID : S_TEXT/UTF8
Codec ID/Info : UTF-8 Plain Text
Duration : 1 h 55 min
Bit rate : 1 b/s
Count of elements : 17
Stream size : 937 Bytes (0%)
Title : Forced
Language : Russian
Default : Yes
Forced : Yes
Text #2
ID : 6
Format : UTF-8
Codec ID : S_TEXT/UTF8
Codec ID/Info : UTF-8 Plain Text
Duration : 2 h 2 min
Bit rate : 65 b/s
Count of elements : 1314
Stream size : 58.8 KiB (0%)
Title : Full
Language : Russian
Default : No
Forced : No
Text #3
ID : 7
Format : UTF-8
Codec ID : S_TEXT/UTF8
Codec ID/Info : UTF-8 Plain Text
Duration : 2 h 2 min
Bit rate : 77 b/s
Count of elements : 1637
Stream size : 69.2 KiB (0%)
Title : SDH
Language : Russian
Default : No
Forced : No
Text #4
ID : 8
Format : UTF-8
Codec ID : S_TEXT/UTF8
Codec ID/Info : UTF-8 Plain Text
Duration : 1 h 53 min
Bit rate : 47 b/s
Count of elements : 1422
Stream size : 39.6 KiB (0%)
Title : Full
Language : English
Default : No
Forced : No
Text #5
ID : 9
Format : UTF-8
Codec ID : S_TEXT/UTF8
Codec ID/Info : UTF-8 Plain Text
Duration : 2 h 2 min
Bit rate : 50 b/s
Count of elements : 1668
Stream size : 45.1 KiB (0%)
Title : SDH
Language : English
Default : No
Forced : No
Text #6
ID : 10
Format : UTF-8
Codec ID : S_TEXT/UTF8
Codec ID/Info : UTF-8 Plain Text
Duration : 2 h 2 min
Bit rate : 67 b/s
Count of elements : 1665
Stream size : 60.9 KiB (0%)
Title : SDH Colored
Language : English
Default : No
Forced : No
Menu
00:00:00.000 : en:"Dreams Again"
00:06:51.286 : en:Search And Rescue
00:14:07.055 : en:Memory Manipulation
00:23:17.438 : en:Planet C-53
00:29:37.192 : en:Subway Skrull
00:35:06.938 : en:Searching For Answers
00:44:07.603 : en:Project P.E.G.A.S.U.S.
00:50:42.665 : en:Backup Arrives
00:56:17.791 : en:Reunited
01:03:01.987 : en:Revelation
01:11:16.564 : en:"You Are Carol Danvers"
01:17:48.330 : en:Skrull Survivors
01:27:02.217 : en:"Finally Set Free"
01:33:21.596 : en:Starforce Battle
01:40:50.962 : en:Ronan's Offensive
01:46:24.253 : en:Taking The Initiative
01:52:49.054 : en:End Credits

admin

Post 08-Nov-2018 18:31

[Quote]

Информация о фильме
Название: Небоскрёб
Оригинальное название: Skyscraper
Год выхода: 2018
Жанр: Боевик, триллер, драма, криминал
Режиссер: Роусон Маршалл Тёрбер
В ролях: Дуэйн Джонсон, Нив Кэмпбелл, Пабло Шрайбер, Ноа Тейлор, Кевин Ранкин, Роланд Мёллер, Байрон Манн, Мэтт О`Лири, Адриан Холмс

О фильме: Самый высокий и технологичный небоскрёб в мире становится центром огненной катастрофы. Только бывший агент ФБР, а теперь эксперт по безопасности Уилл Форд может спасти вертикальный город под небесами. Когда нельзя доверять никому, а жизнь семьи в опасности, каждая секунда на счету.
Страна: США
Студия: Legendary Entertainment, Flynn Picture Company, Seven Bucks Productions
Продолжительность: 01:42:24
Перевод: Дублированный | Лицензия
Качество: BDRip 1080p | halfOU
Видео: MPEG-4 AVC, 1920x1080, 17000 Kbit/s, 23.976 fps
Звук:
Аудио #01: 48 kHz, AC3, 5.1, 640 Kbps | Лицензия | RUS |
Аудио #02: 48 kHz, AC3, 2.0, 192 Kbps | Студия LeDoyen | UKR |
Аудио #03: 48 kHz, AC3, 5.1, 448 Kbps | Оригинал | ENG |
Субтитры: Русские (Forced,Full), английские (Full,SDH)

Скриншоты

Формат 3D: Half OverUnder - Вертикальная анаморфная стереопара.
Порядок ракурсов: левый ракурс первый

MI

General
Unique ID : 149302817777539953234380498872542975907 (0x7052AD3FBE9E918BB6FDA7668D6457A3)
Complete name : D:Video111Skyscaper.2018.1080p.BluRay.3DhalfOU.Rus.Ukr.Eng.TeamHD-selezen.mkv
Format : Matroska
Format version : Version 4
File size : 13.1 GiB
Duration : 1 h 42 min
Overall bit rate : 18.3 Mb/s
Movie name : Skyscraper (2018) TeamHD-селезень
Encoded date : UTC 2018-10-27 22:40:51
Writing application : mkvmerge v28.0.0 ('Voice In My Head') 64-bit
Writing library : libebml v1.3.6 + libmatroska v1.4.9
Video
ID : 1
Format : AVC
Format/Info : Advanced Video Codec
Format profile : High@L4.1
Format settings : CABAC / 4 Ref Frames
Format settings, CABAC : Yes
Format settings, ReFrames : 4 frames
Codec ID : V_MPEG4/ISO/AVC
Duration : 1 h 42 min
Bit rate : 17.0 Mb/s
Width : 1 920 pixels
Height : 1 080 pixels
Display aspect ratio : 16:9
Frame rate mode : Constant
Frame rate : 23.976 (24000/1001) FPS
Color space : YUV
Chroma subsampling : 4:2:0
Bit depth : 8 bits
Scan type : Progressive
Bits/(Pixel*Frame) : 0.342
Stream size : 12.2 GiB (93%)
Title : selezen
Writing library : x264 core 148 r2705kMod 3f5ed56
Encoding settings : cabac=1 / ref=4 / deblock=1:-2:-2 / analyse=0x3:0x133 / me=umh / subme=10 / psy=1 / fade_compensate=0.00 / psy_rd=1.05:0.05 / mixed_ref=1 / me_range=32 / chroma_me=1 / trellis=2 / 8x8dct=1 / cqm=0 / deadzone=21,11 / fast_pskip=0 / chroma_qp_offset=-3 / threads=12 / lookahead_threads=2 / sliced_threads=0 / nr=0 / decimate=0 / interlaced=0 / bluray_compat=0 / constrained_intra=0 / fgo=0 / bframes=8 / b_pyramid=2 / b_adapt=2 / b_bias=0 / direct=3 / weightb=1 / open_gop=0 / weightp=2 / keyint=240 / keyint_min=23 / scenecut=40 / intra_refresh=0 / rc_lookahead=50 / rc=2pass / mbtree=0 / bitrate=17000 / ratetol=1.0 / qcomp=0.60 / qpmin=0 / qpmax=51 / qpstep=4 / cplxblur=20.0 / qblur=0.5 / vbv_maxrate=50000 / vbv_bufsize=62500 / nal_hrd=none / filler=0 / ip_ratio=1.40 / pb_ratio=1.30 / aq=3:0.80
Language : English
Default : Yes
Forced : No
Audio #1
ID : 2
Format : AC-3
Format/Info : Audio Coding 3
Commercial name : Dolby Digital
Codec ID : A_AC3
Duration : 1 h 42 min
Bit rate mode : Constant
Bit rate : 640 kb/s
Channel(s) : 6 channels
Channel layout : L R C LFE Ls Rs
Sampling rate : 48.0 kHz
Frame rate : 31.250 FPS (1536 SPF)
Bit depth : 16 bits
Compression mode : Lossy
Stream size : 469 MiB (4%)
Title : Dub [License]
Language : Russian
Service kind : Complete Main
Default : Yes
Forced : Yes
Audio #2
ID : 3
Format : AC-3
Format/Info : Audio Coding 3
Commercial name : Dolby Digital
Codec ID : A_AC3
Duration : 1 h 42 min
Bit rate mode : Constant
Bit rate : 192 kb/s
Channel(s) : 2 channels
Channel layout : L R
Sampling rate : 48.0 kHz
Frame rate : 31.250 FPS (1536 SPF)
Bit depth : 16 bits
Compression mode : Lossy
Stream size : 141 MiB (1%)
Title : Dub [студія LeDoyen]
Language : Ukrainian
Service kind : Complete Main
Default : No
Forced : No
Audio #3
ID : 4
Format : AC-3
Format/Info : Audio Coding 3
Commercial name : Dolby Digital
Codec ID : A_AC3
Duration : 1 h 42 min
Bit rate mode : Constant
Bit rate : 448 kb/s
Channel(s) : 6 channels
Channel layout : L R C LFE Ls Rs
Sampling rate : 48.0 kHz
Frame rate : 31.250 FPS (1536 SPF)
Bit depth : 16 bits
Compression mode : Lossy
Stream size : 328 MiB (2%)
Title : Original
Language : English
Service kind : Complete Main
Default : No
Forced : No
Text #1
ID : 5
Format : UTF-8
Codec ID : S_TEXT/UTF8
Codec ID/Info : UTF-8 Plain Text
Duration : 1 h 41 min
Bit rate : 1 b/s
Count of elements : 47
Stream size : 1.45 KiB (0%)
Title : Forced
Language : Russian
Default : Yes
Forced : Yes
Text #2
ID : 6
Format : UTF-8
Codec ID : S_TEXT/UTF8
Codec ID/Info : UTF-8 Plain Text
Duration : 1 h 33 min
Bit rate : 74 b/s
Count of elements : 956
Stream size : 51.2 KiB (0%)
Title : Full
Language : Russian
Default : No
Forced : No
Text #3
ID : 7
Format : UTF-8
Codec ID : S_TEXT/UTF8
Codec ID/Info : UTF-8 Plain Text
Duration : 1 h 31 min
Bit rate : 43 b/s
Count of elements : 988
Stream size : 29.2 KiB (0%)
Title : Full
Language : English
Default : No
Forced : No
Text #4
ID : 8
Format : UTF-8
Codec ID : S_TEXT/UTF8
Codec ID/Info : UTF-8 Plain Text
Duration : 1 h 42 min
Bit rate : 54 b/s
Count of elements : 1475
Stream size : 40.5 KiB (0%)
Title : SDH
Language : English
Default : No
Forced : No
Menu
00:00:00.000 : en:00:00:00.000
00:04:24.764 : en:00:04:24.764
00:10:07.357 : en:00:10:07.357
00:16:09.927 : en:00:16:09.927
00:21:12.605 : en:00:21:12.605
00:25:34.992 : en:00:25:34.992
00:30:11.727 : en:00:30:11.727
00:35:23.913 : en:00:35:23.913
00:40:07.113 : en:00:40:07.113
00:47:18.961 : en:00:47:18.961
00:52:10.252 : en:00:52:10.252
00:58:16.785 : en:00:58:16.785
01:02:02.969 : en:01:02:02.969
01:05:29.634 : en:01:05:29.634
01:09:59.404 : en:01:09:59.404
01:14:31.425 : en:01:14:31.425
01:17:18.259 : en:01:17:18.259
01:23:33.342 : en:01:23:33.342
01:27:46.219 : en:01:27:46.219
01:32:54.569 : en:01:32:54.569

admin

Post 29-Sep-2018 05:37

[Quote]

-Мир Юрского периода 2
Jurassic World: Fallen Kingdom

«Жизнь нельзя остановить»
- Год выпуска: 2018
Страна: США (Universal Pictures, Amblin Entertainment, Legendary Pictures, Perfect World Pictures)
Жанр: фантастика, боевик, приключения
Продолжительность: 02:08:18
Перевод: Профессиональный (дублированный) - iTunes
Режиссер: Хуан Антонио Байона / Juan Antonio Bayona-Роли исполняли (дублировали):
Owen Grady - Крис Пратт (Сергей Смирнов)
Claire Dearing - Брайс Даллас Ховард (Ирина Киреева)
Eli Mills - Рейф Сполл (Кирилл Туранский)
Franklin Webb - Джастис Смит (Евгений Толоконников)
Zia Rodriguez - Даниэлла Пинеда (Варвара Чабан)
Benjamin Lockwood - Джеймс Кромуэлл (Владимир Антоник)
Mr. Eversoll - Тоби Джонс (Иван Калинин)
Ken Wheatley - Тед Левайн (Илья Исаев)
Ian Malcolm - Джефф Голдблюм (Василий Дахненко)
Dr. Wu - Б.Д. Вонг (Радик Мухаметзянов)
Iris - Джеральдин Чаплин (Ирина Пономарева)
-Описание: На острове Нублар, где не так давно располагался парк развлечений с динозаврами, правит бал дикая природа, но внезапно пробудившийся вулкан угрожает стереть динозавров с лица земли. Бывшая управляющая парком Клэр Диринг переквалифицировалась в защитницу исчезающих видов и пытается сделать всё, чтобы спасти доисторических животных. На неё выходит Илай Миллс — доверенное лицо миллиардера Бенждамина Локвуда, который много лет назад был соратником профессора Хаммонда. Миллс предлагает Клэр, знакомой с системой безопасности парка, поехать на остров и помочь ему поймать нескольких особей, чтобы вывести их на другой безопасный остров. Клэр даже удается уговорить своего бывшего парня, дрессировщика Оуэена, принять участие в спасательной миссии, но по прибытии в парк, выясняется, что у Миллса совсем другие цели.

Знаете ли вы, что...

Для съёмок был выбран национальный парк Брекон-Биконс в южной части Уэльса.
Фильм приурочен к выходу на экраны через 25 лет после премьеры фильма «Парк Юрского периода» (Стивен Спилберг, 1993).
Премьера: 21 мая 2018 (7 июня 2018)
Релиз на Blu-Ray (Россия): 30 сентября 2018
Бюджет: $170 000 000
Кассовые сборы: $1 302 039 855

-Качество: BDRip (by Ash61)
Контейнер: MKV
Формат 3D: Half OverUnder / Вертикальная анаморфная стереопара
Порядок ракурсов: левый ракурс первый-Видео: AVC / 1920х1080p / 23,976 fps / 10.0 Mbps
Аудио:
#1 - Русский / AC3 / 48 KHz / 5.1 ch / 640 Kbps (Дубляж - BD Eur)
#2 - Украинский / AC3 / 48 KHz / 2 ch / 192 Kbps (Дубляж)
#3 - Английский / AC3 / 48 KHz / 5.1 ch / 640 Kbps (Original - BD 3D)
Субтитры (SRT):
Вшитые (softsub):
#1 - Русские Форсированные [ver.3 Ash61] (включены по умолчанию)
#2 - Русские Полные [Ruf]
#3 - Русские Полные [FOCS]
#4 - Украинские Форсированные [ver. Ash61]
#5 - English Full
#6 - English SDH
Внешние (UTF-8):
#1 - Русские Форсированные [ver.3 Ash61] (включены по умолчанию)
#2 - Русские Полные [Ruf]
#3 - Русские Полные [FOCS]
#4 - Украинские Форсированные [ver. Ash61]

MediaInfo

General
Unique ID : 219961155071056759086230881499690089613 (0xA57AFA3E71EC3D57A6081C6FC634BC8D)
Complete name : D:JurassicWorld2(2018)3D-halfOU(Ash61)JurassicWorld2(2018)3D-halfOU(Ash61).mkv
Format : Matroska
Format version : Version 2
File size : 10.3 GiB
Duration : 2h 8mn
Overall bit rate : 11.5 Mbps
Movie name : Мир Юрского периода 2 / Jurassic World: Fallen Kingdom (2018) in 3D
Encoded date : UTC 2018-09-27 23:07:25
Writing application : mkvmerge v5.8.0 ('No Sleep / Pillow') built on Sep 2 2012 15:37:04
Writing library : libebml v1.2.3 + libmatroska v1.3.0
Video
ID : 1
Format : AVC
Format/Info : Advanced Video Codec
Format profile : High@L4.1
Format settings, CABAC : Yes
Format settings, ReFrames : 4 frames
Codec ID : V_MPEG4/ISO/AVC
Duration : 2h 8mn
Bit rate : 10 000 Kbps
Width : 1 920 pixels
Height : 1 080 pixels
Display aspect ratio : 16:9
Frame rate mode : Constant
Frame rate : 23.976 (24000/1001) fps
Color space : YUV
Chroma subsampling : 4:2:0
Bit depth : 8 bits
Scan type : Progressive
Bits/(Pixel*Frame) : 0.201
Stream size : 8.76 GiB (85%)
Title : BDRip by Ash61
Writing library : x264 core 146 r2538 121396c
Encoding settings : cabac=1 / ref=4 / deblock=1:-3:-3 / analyse=0x3:0x113 / me=umh / subme=10 / psy=1 / psy_rd=1.00:0.00 / mixed_ref=1 / me_range=32 / chroma_me=1 / trellis=2 / 8x8dct=1 / cqm=0 / deadzone=21,11 / fast_pskip=0 / chroma_qp_offset=-2 / threads=12 / lookahead_threads=3 / sliced_threads=0 / nr=0 / decimate=0 / interlaced=0 / bluray_compat=0 / constrained_intra=0 / bframes=10 / b_pyramid=2 / b_adapt=2 / b_bias=0 / direct=3 / weightb=1 / open_gop=0 / weightp=2 / keyint=250 / keyint_min=23 / scenecut=40 / intra_refresh=0 / rc_lookahead=60 / rc=2pass / mbtree=0 / bitrate=10000 / ratetol=1.0 / qcomp=0.70 / qpmin=0 / qpmax=69 / qpstep=4 / cplxblur=20.0 / qblur=0.5 / vbv_maxrate=40000 / vbv_bufsize=30000 / nal_hrd=none / filler=0 / frame-packing=4 / ip_ratio=1.40 / pb_ratio=1.30 / aq=1:0.70
Language : English
Default : Yes
Forced : No
Audio #1
ID : 2
Format : AC-3
Format/Info : Audio Coding 3
Mode extension : CM (complete main)
Format settings, Endianness : Big
Codec ID : A_AC3
Duration : 2h 8mn
Bit rate mode : Constant
Bit rate : 640 Kbps
Channel(s) : 6 channels
Channel positions : Front: L C R, Side: L R, LFE
Sampling rate : 48.0 KHz
Frame rate : 31.250 fps (1536 spf)
Compression mode : Lossy
Stream size : 588 MiB (6%)
Title : Дубляж [BD Eur]
Language : Russian
Default : Yes
Forced : No
Audio #2
ID : 3
Format : AC-3
Format/Info : Audio Coding 3
Mode extension : CM (complete main)
Format settings, Endianness : Big
Codec ID : A_AC3
Duration : 2h 8mn
Bit rate mode : Constant
Bit rate : 192 Kbps
Channel(s) : 2 channels
Channel positions : Front: L R
Sampling rate : 48.0 KHz
Frame rate : 31.250 fps (1536 spf)
Compression mode : Lossy
Stream size : 176 MiB (2%)
Title : Дубляж
Language : Ukrainian
Default : No
Forced : No
Audio #3
ID : 4
Format : AC-3
Format/Info : Audio Coding 3
Mode extension : CM (complete main)
Format settings, Endianness : Big
Codec ID : A_AC3
Duration : 2h 8mn
Bit rate mode : Constant
Bit rate : 640 Kbps
Channel(s) : 6 channels
Channel positions : Front: L C R, Side: L R, LFE
Sampling rate : 48.0 KHz
Frame rate : 31.250 fps (1536 spf)
Compression mode : Lossy
Stream size : 588 MiB (6%)
Title : Original
Language : English
Default : No
Forced : No
Text #1
ID : 5
Format : UTF-8
Codec ID : S_TEXT/UTF8
Codec ID/Info : UTF-8 Plain Text
Title : Форсированные [ver.3 Ash61]
Language : Russian
Default : Yes
Forced : No
Text #2
ID : 6
Format : UTF-8
Codec ID : S_TEXT/UTF8
Codec ID/Info : UTF-8 Plain Text
Title : Полные [Ruf]
Language : Russian
Default : No
Forced : No
Text #3
ID : 7
Format : UTF-8
Codec ID : S_TEXT/UTF8
Codec ID/Info : UTF-8 Plain Text
Title : Полные [FOCS]
Language : Russian
Default : No
Forced : No
Text #4
ID : 8
Format : UTF-8
Codec ID : S_TEXT/UTF8
Codec ID/Info : UTF-8 Plain Text
Title : Форсированные [ver. Ash61]
Language : Ukrainian
Default : No
Forced : No
Text #5
ID : 9
Format : UTF-8
Codec ID : S_TEXT/UTF8
Codec ID/Info : UTF-8 Plain Text
Title : Full
Language : English
Default : No
Forced : No
Text #6
ID : 10
Format : UTF-8
Codec ID : S_TEXT/UTF8
Codec ID/Info : UTF-8 Plain Text
Title : SDH
Language : English
Default : No
Forced : No
Menu
00:00:00.000 : :1
00:07:13.223 : :2
00:12:01.553 : :3
00:17:17.744 : :4
00:21:17.192 : :5
00:28:49.810 : :6
00:35:04.684 : :7
00:40:51.574 : :8
00:46:32.498 : :9
00:52:04.996 : :10
01:00:59.197 : :11
01:06:50.255 : :12
01:11:07.637 : :13
01:17:21.094 : :14
01:26:55.210 : :15
01:33:01.492 : :16
01:42:55.877 : :17
01:50:01.552 : :18
01:54:56.221 : :19
01:58:37.984 : :20

Для оценки 3Д - Анимированные скрины















admin

Post 25-Sep-2018 04:16

[Quote]

-Звёздные войны: Последние джедаи
Star Wars: Episode VIII - The Last Jedi

(Русскоязычный видеоряд)
- Год выпуска: 2017
Страна: США (Lucasfilm Ltd., Walt Disney Pictures, Ram Bergman Productions)
Жанр: фантастика, фэнтези, боевик, приключения
Продолжительность: 02:31:52
Перевод: Профессиональный дублированный (лицензия)
Режиссер: Райан Джонсон / Rian Johnson-Роли исполняли (дублировали):
Luke Skywalker / Dobbu Scay - Марк Хэмилл (Давид Бродский)
Leia Organa - Кэрри Фишер (Елена Дриацкая)
Kylo Ren - Адам Драйвер (Александр Койгеров)
Rey - Дэйзи Ридли (Василиса Ручимская)
Finn - Джон Бойега (Иван Чабан)
Poe Dameron - Оскар Айзек (Александр Разбаш)
Snoke - Энди Серкис (Артур Ваха)
Maz Kanata - Лупита Нионго (Марина Гладкая)
General Hux - Донал Глисон (Андрей Лёвин)
C-3PO - Энтони Дэниелс (Валерий Кухарешин)
Captain Phasma - Гвендолин Кристи (Юлия Баранчук)
Rose Tico - Келли Мари Трэн (Ирина Чумантьева)
Vice Admiral Holdo - Лора Дерн (Александра Кожевникова)
DJ - Бенисио Дель Торо (Руслан Ибрагимов)
Yoda (озвучка) - Фрэнк Оз (Борис Смолкин)
Lieutenant Connix - Билли Лурд (Виктория Зайцева)
-Описание: Новая история о противостоянии света и тьмы, добра и зла начинается после гибели Хана Соло. В Галактике, где Первый Орден и Сопротивление яростно сражаются друг с другом в войне, героиня Рей пробудила в себе Силу. Но что произойдет, когда она встретится с единственным оставшимся в живых рыцарем-джедаем — Люком Скайуокером?
Кайло Рен перешел на Темную сторону Силы и убил собственного отца, заняв высокую позицию в Первом Ордене. Но куда приведут его неуемные амбиции, подаренные по наследству грозным дедом Дартом Вейдером? Ситуация обострится еще больше, когда мать Кайло, лидер Сопротивления Лея, вместе с По, Финном и BB-8 приступит к новой миссии.

Знаете ли вы, что...

Съёмки некоторых сцен с участием Марка Хэмилла и Дэйзи Ридли прошли в сентябре 2015 года на острове-утёсе Скеллиг-Майкл примерно в 15 километрах к западу от побережья графства Керри, Ирландия. В 2014 году там же проходили съёмки заключительной сцены фильма «Звёздные войны: Пробуждение силы».
Хоакин Феникс отказался от роли, которую сыграл Бенисио Дель Торо.
Изначально планировалось, что «Звёздные войны: Пробуждение силы» будет снимать режиссёр Райан Джонсон. Кончилось тем, что он снял «Звёздные войны: Эпизод 8».
Райан Джонсон был под таким впечатлением от фильмов «Вертикальный взлёт» Генри Кинга (1949) и «Неотправленное письмо» Михаила Калатозова (1959), что организовал для актёров их просмотр перед съёмками.
Производство фильма началось 15 февраля 2016 года.
Это последний фильм с участием американской актрисы Кэрри Фишер, которая умерла 27 декабря 2016 года.
Название фильма было опубликовано на официальном сайте Star Wars 23 января 2017 года.
Изначально, в марте 2015 года было анонсировано, что мировая премьера восьмого эпизода «Звёздных войн» состоится 26 мая 2017 года. Позднее, в январе 2016 года стало известно, что компания Walt Disney Pictures перенесла релиз фильма на семь месяцев вперёд — на 13 декабря 2017 года в мире и 14 декабря в России. Перенос даты был связан с большим успехом в кассовых сборах предыдущего фильма «Звёздные войны: Пробуждение силы», также вышедшего на экраны кинотеатров в декабре.
В оригинале фильм имеет название Star Wars: The Last Jedi. Режиссёр Райан Джонсон в интервью утверждал, что подразумевал слово «джедай» именно в единственном числе. Однако на русский язык фильм всё же вышел с подзаголовком во множественном числе «Последние джедаи».
Компьютерная модель Верховного лидера Сноука была переработана для этого фильма после «Пробуждения силы», так как в отличие от предыдущей части, здесь персонаж появляется воплоти, и режиссер Райан Джонсон посчитал, что голос Энди Серкиса является слишком мощным для немощного старика, которым Сноук предстает в виде голограммы. Прообразами для нового физического обличия антагониста послужили актеры Майкл Фассбендер, Стивен Беркофф, а также Бен Кингсли из «Сексуального зверя». Что интересно, Майклу Фассбендеру предлагали неизвестную роль во франшизе во времена кастинга седьмого эпизода.
Осторожно, следующий факт содержит спойлер!В июле 2015 года было объявлено, что роль злодея в фильме исполнит Бенисио Дель Торо. Позже актёр и сам подтвердил своё участие в проекте. В фильме «Звёздные войны. Эпизод 1 — Скрытая угроза» Дель Торо был утверждён на роль Дарта Мола, однако отказался сниматься, когда Джордж Лукас вырезал из сценария почти все реплики этого персонажа.
Премьера: 9 декабря 2017 (14 декабря 2017)
Релиз на Blu-Ray (DVD) (Россия): 30 апреля 2018
Кассовые сборы: $1 332 244 774

-Качество: BDRip (by Ash61)
Контейнер: MKV
Формат 3D: Half OverUnder / Вертикальная анаморфная стереопара
Порядок ракурсов: левый ракурс первый-Видео: AVC / 1920х1080p / 23,976 fps / 12.5 Mbps
Аудио:
#1 - Русский / AC3 / 48 KHz / 5.1 ch / 640 Kbps (Дубляж - BD 3D CEE)
#2 - Английский / AC3 / 48 KHz / 5.1 ch / 640 Kbps (Original - BD 3D CEE)
Субтитры (внешние SRT UTF-8):
#1 - Русские Полные
#2 - Русские SDH
#3 - English Forced
#4 - English Full
#5 - English SDH

MediaInfo

General
Unique ID : 244197386157470116615253107004454189835 (0xB7B6B4B18C705F42977525812263BB0B)
Complete name : D:StarWars-8(2017)3D-halfOU(Ash61)[Video.Rus]StarWars-8(2017)3D-halfOU(Ash61)[Video.Rus].mkv
Format : Matroska
Format version : Version 2
File size : 14.6 GiB
Duration : 2h 31mn
Overall bit rate : 13.8 Mbps
Movie name : Звёздные войны: Последние джедаи / Star Wars: Episode VIII - The Last Jedi (2017) in 3D
Encoded date : UTC 2018-04-28 02:01:26
Writing application : mkvmerge v5.8.0 ('No Sleep / Pillow') built on Sep 2 2012 15:37:04
Writing library : libebml v1.2.3 + libmatroska v1.3.0
Video
ID : 1
Format : AVC
Format/Info : Advanced Video Codec
Format profile : High@L4.1
Format settings, CABAC : Yes
Format settings, ReFrames : 4 frames
Codec ID : V_MPEG4/ISO/AVC
Duration : 2h 31mn
Bit rate : 12.5 Mbps
Width : 1 920 pixels
Height : 1 080 pixels
Display aspect ratio : 16:9
Frame rate mode : Constant
Frame rate : 23.976 (24000/1001) fps
Color space : YUV
Chroma subsampling : 4:2:0
Bit depth : 8 bits
Scan type : Progressive
Bits/(Pixel*Frame) : 0.251
Stream size : 13.0 GiB (89%)
Title : BDRip by Ash61
Writing library : x264 core 146 r2538 121396c
Encoding settings : cabac=1 / ref=4 / deblock=1:-3:-3 / analyse=0x3:0x113 / me=umh / subme=10 / psy=1 / psy_rd=1.00:0.00 / mixed_ref=1 / me_range=32 / chroma_me=1 / trellis=2 / 8x8dct=1 / cqm=0 / deadzone=21,11 / fast_pskip=0 / chroma_qp_offset=-2 / threads=12 / lookahead_threads=3 / sliced_threads=0 / nr=0 / decimate=0 / interlaced=0 / bluray_compat=0 / constrained_intra=0 / bframes=12 / b_pyramid=2 / b_adapt=2 / b_bias=0 / direct=3 / weightb=1 / open_gop=0 / weightp=2 / keyint=250 / keyint_min=23 / scenecut=40 / intra_refresh=0 / rc_lookahead=60 / rc=2pass / mbtree=0 / bitrate=12500 / ratetol=1.0 / qcomp=0.70 / qpmin=0 / qpmax=69 / qpstep=4 / cplxblur=20.0 / qblur=0.5 / vbv_maxrate=40000 / vbv_bufsize=30000 / nal_hrd=none / filler=0 / frame-packing=4 / ip_ratio=1.40 / pb_ratio=1.30 / aq=1:0.70
Language : English
Default : Yes
Forced : No
Audio #1
ID : 2
Format : AC-3
Format/Info : Audio Coding 3
Mode extension : CM (complete main)
Format settings, Endianness : Big
Codec ID : A_AC3
Duration : 2h 31mn
Bit rate mode : Constant
Bit rate : 640 Kbps
Channel(s) : 6 channels
Channel positions : Front: L C R, Side: L R, LFE
Sampling rate : 48.0 KHz
Frame rate : 31.250 fps (1536 spf)
Compression mode : Lossy
Stream size : 695 MiB (5%)
Title : Дубляж (BD 3D CEE)
Language : Russian
Default : Yes
Forced : No
Audio #2
ID : 3
Format : AC-3
Format/Info : Audio Coding 3
Mode extension : CM (complete main)
Format settings, Endianness : Big
Codec ID : A_AC3
Duration : 2h 31mn
Bit rate mode : Constant
Bit rate : 640 Kbps
Channel(s) : 6 channels
Channel positions : Front: L C R, Side: L R, LFE
Sampling rate : 48.0 KHz
Frame rate : 31.250 fps (1536 spf)
Compression mode : Lossy
Stream size : 695 MiB (5%)
Title : Original (BD 3D CEE)
Language : English
Default : No
Forced : No
Menu
00:00:00.000 : : 1. Начало / Opening Logo
00:00:18.644 : : 2. Последние джедаи / The Last Jedi
00:01:45.731 : : 3. Эвакуация / Resistance Evacuation
00:03:11.817 : : 4. По атакует / Poe Attacks
00:07:43.296 : : 5. Бомбардировщики / Bombing Run
00:12:48.434 : : 6. Пробуждение Финна / Finn Awakens
00:13:44.574 : : 7. Отказ Люка / Luke's Refusal
00:16:29.280 : : 8. Упрёк Сноука / Snoke's Rebuke
00:19:59.281 : : 9. Жизнь на острове / Island Life
00:22:51.370 : : 10. "Время джедаев прошло" / "Time for the Jedi to End"
00:26:04.980 : : 11. "Пилоты совершили подвиг" / "Dead Heroes. No Leaders"
00:27:22.850 : : 12. Нападение Первого Ордена / First Order Ambush
00:31:24.758 : : 13. Спасение / Survival
00:32:54.681 : : 14. Люк на "Соколе" / Falcon at Night
00:35:27.667 : : 15. Вице-адмирал Холдо / Vice Admiral Holdo
00:38:11.498 : : 16. Финн знакомится с Роуз / Finn Meets Rose
00:41:53.428 : : 17. Тайный сговор / A Conspiracy Forms
00:44:29.542 : : 18. Рей и Кайло / Force Connection
00:46:51.475 : : 19. Учение о Силе / Lessons in the Force
00:51:41.932 : : 20. Разговор продолжается / Reconnection
00:53:50.060 : : 21. Канто-Байт / Arrival at Canto Bight
00:55:41.505 : : 22. Начало гонки / The Race Begins
00:57:39.581 : : 23. Тренировка со световым мечом / Lightsaber Training
00:59:16.636 : : 24. Урок истории от Люка / Luke's History Lesson
01:02:05.847 : : 25. Флот несёт потери / The Shrinking Fleet
01:03:07.701 : : 26. Встреча с ДиДжеем / Meeting DJ
01:05:41.729 : : 27. В хлеву / Inside the Stables
01:07:03.478 : : 28. Побег фавьеров / Fathier Escape
01:10:25.721 : : 29. Урок истории от Кайло / Kylo's History Lesson
01:13:30.323 : : 30. Зеркальная пещера / The Mirror Cave
01:17:43.450 : : 31. Рей против Люка / Rey vs. Luke
01:20:53.057 : : 32. Старый друг / An Old Friend
01:24:17.970 : : 33. Сделка / Making the Deal
01:26:23.220 : : 34. По возражает Холдо / Poe Confronts Holdo
01:27:59.524 : : 35. Следующий ход / Plotting Next Moves
01:30:49.361 : : 36. Внутри мега-разрушителя / Inside the Mega-Destroyer
01:32:54.569 : : 37. Мятеж / Reversals
01:35:53.706 : : 38. Покинуть корабль! / Abandon Ship
01:37:10.616 : : 39. Рей противостоит Сноуку / Rey Faces Snoke
01:39:12.864 : : 40. Тьма растёт / Darkness Grows
01:42:07.663 : : 41. Выбор Кайло / Kylo's Choice
01:45:03.714 : : 42. Преторианская гвардия / Praetorian Duel
01:49:35.694 : : 43. Жертва Холдо / Holdo's Sacrifice
01:52:20.609 : : 44. Хаос в ангаре / Chaos in the Hangar
01:56:04.749 : : 45. Встреча на Крейте / Reunion on Crait
01:58:52.083 : : 46. Битва на Крейте / The Battle of Crait
02:03:11.134 : : 47. Стенобитное орудие / Siege Cannon
02:06:39.759 : : 48. Мастер Скайуокер / Master Skywalker
02:11:43.604 : : 49. "Поднимать камни" / "Lifting Rocks"
02:15:12.104 : : 50. Закат / Sunset
02:20:16.700 : : 51. Сопротивление живо / The Resistance Continues
02:23:39.694 : : 52. Финальные титры / End Credits

Для оценки 3Д - Анимированные скрины




















admin

Post 10-Jul-2018 20:41

[Quote]

-Первому игроку приготовиться
Ready Player One

«Загрузи новую реальность»
- Год выпуска: 2018
Страна: США (Village Roadshow Pictures, Access Entertainment, Amblin Entertainment, Dune Entertainment, De Line Pictures, Warner Bros. Pictures)
Жанр: фантастика, боевик, приключения
Продолжительность: 02:19:58
Перевод: Профессиональный дублированный (лицензия)
Режиссер: Стивен Спилберг / Steven Spielberg
Композитор: Алан Сильвестри / Alan Silvestri-Роли исполняли (дублировали):
Parzival / Wade - Тай Шеридан (Прохор Чеховской)
Art3mis / Samantha - Оливия Кук (Мария Иващенко)
Sorrento - Бен Мендельсон (Александр Носков)
Aech / Helen - Лина Уэйте (Варвара Чабан)
I-R0k - ТиДжей Миллер (Иван Калинин)
Ogden Morrow - Саймон Пегг
Anorak / Halliday - Марк Райлэнс (Никита Прозоровский)
Sho - Филип Чжао (Андрей Янайт)
Daito - Уин Морисаки (Александр Скиданов)
F'Nale Zandor - Ханна Джон-Кэймен (Полина Кузьминская)
Alice - Сьюзэн Линч
Kira - Пердита Викс
-Описание: Действие фильма происходит в 2045 году, мир погружается в хаос и находится на грани коллапса. Люди ищут спасения в игре OASIS — огромной вселенной виртуальной реальности. Ее создатель, гениальный и эксцентричный Джеймс Холлидэй, оставляет уникальное завещание. Все его колоссальное состояние получит игрок, первым обнаруживший цифровое «пасхальное яйцо», которое миллиардер спрятал где-то на просторах OASISа. Запущенный им квест охватывает весь мир. Совершенно негероический парень по имени Уэйд Уоттс решает принять участие в состязании, с головой бросаясь в головокружительную, искажающую реальность погоню за сокровищами по фантастической вселенной, полной загадок, открытий и опасностей.

Знаете ли вы, что...

Фильм снят по мотивам одноимённого научно-фантастического романа (2011) Эрнеста Клайна.
Премьеру фильма передвинули на 2018 год, чтобы избежать соперничества в прокате с фильмом «Звёздные Войны: Последние джедаи» (Райан Джонсон, 2017).
В фильме встречаются отсылки к следующим играм: Pac-Man, Q*bert, Adventure, Asteroids, Defenders, Swordquest, Joust, Space Invaders, Centipede, Street Fighter, Danganronpa, Battletoads, Duke Nukem, Tomb Raider, Battleborn, Mass Effect, Overwatch, Mortal Kombat, Halo, Mario Kart, Minecraft, Sonic the Hedgehog, Pitfall, Pole Position.
Премьера: 11 марта 2018 (29 марта 2018)
Кассовые сборы: $582 005 197

.
-Качество: BDRip (by Ash61)
Контейнер: MKV
Формат 3D: Half OverUnder / Вертикальная анаморфная стереопара
Порядок ракурсов: левый ракурс первый-Видео: AVC / 1920х1080p / 23,976 fps / 13.0 Mbps
Аудио:
#1 - Русский / AC3 / 48 KHz / 5.1 ch / 384 Kbps (Дубляж - BD 3D Eur)
#2 - Украинский / AC3 / 48 KHz / 2 ch / 192 Kbps (Дубляж - iTunes) (cпасибо Hurtom!)
#3 - Английский / AC3 / 48 KHz / 5.1 ch / 640 Kbps (Original - BD 3D Eur)
Субтитры (SRT):
Вшитые (softsub):
#1 - Русские Форсированные [Ash61] (включены по умолчанию)
#2 - Русские Полные [BD 3D Eur]
#3 - Украинские Форсированные [Hurtom]
#4 - English SDH
Внешние (UTF-8):
#1 - Русские Форсированные [Ash61] (включены по умолчанию)
#2 - Русские Полные [BD 3D Eur]
#3 - Украинские Форсированные [Hurtom]

MediaInfo

General
Unique ID : 231898557637105966524425824991560712670 (0xAE7609A18D88E84DA26D32291FE5C1DE)
Complete name : D:ReadyPlayerOne(2018)3D-halfOU(Ash61)ReadyPlayerOne(2018)3D-halfOU(Ash61).mkv
Format : Matroska
Format version : Version 2
File size : 13.9 GiB
Duration : 2h 19mn
Overall bit rate : 14.2 Mbps
Movie name : Первому игроку приготовиться / Ready Player One (2018) in 3D
Encoded date : UTC 2018-07-10 10:53:46
Writing application : mkvmerge v5.8.0 ('No Sleep / Pillow') built on Sep 2 2012 15:37:04
Writing library : libebml v1.2.3 + libmatroska v1.3.0
Video
ID : 1
Format : AVC
Format/Info : Advanced Video Codec
Format profile : High@L4.1
Format settings, CABAC : Yes
Format settings, ReFrames : 4 frames
Codec ID : V_MPEG4/ISO/AVC
Duration : 2h 19mn
Bit rate : 13.0 Mbps
Width : 1 920 pixels
Height : 1 080 pixels
Display aspect ratio : 16:9
Frame rate mode : Constant
Frame rate : 23.976 (24000/1001) fps
Color space : YUV
Chroma subsampling : 4:2:0
Bit depth : 8 bits
Scan type : Progressive
Bits/(Pixel*Frame) : 0.261
Stream size : 12.4 GiB (89%)
Title : BDRip by Ash61
Writing library : x264 core 146 r2538 121396c
Encoding settings : cabac=1 / ref=4 / deblock=1:-3:-3 / analyse=0x3:0x113 / me=umh / subme=10 / psy=1 / psy_rd=1.00:0.00 / mixed_ref=1 / me_range=32 / chroma_me=1 / trellis=2 / 8x8dct=1 / cqm=0 / deadzone=21,11 / fast_pskip=0 / chroma_qp_offset=-2 / threads=12 / lookahead_threads=2 / sliced_threads=0 / nr=0 / decimate=0 / interlaced=0 / bluray_compat=0 / constrained_intra=0 / bframes=9 / b_pyramid=2 / b_adapt=2 / b_bias=0 / direct=3 / weightb=1 / open_gop=0 / weightp=2 / keyint=250 / keyint_min=23 / scenecut=40 / intra_refresh=0 / rc_lookahead=60 / rc=2pass / mbtree=0 / bitrate=13000 / ratetol=1.0 / qcomp=0.70 / qpmin=0 / qpmax=69 / qpstep=4 / cplxblur=20.0 / qblur=0.5 / vbv_maxrate=40000 / vbv_bufsize=30000 / nal_hrd=none / filler=0 / frame-packing=4 / ip_ratio=1.40 / pb_ratio=1.30 / aq=1:0.70
Language : English
Default : Yes
Forced : No
Audio #1
ID : 2
Format : AC-3
Format/Info : Audio Coding 3
Mode extension : CM (complete main)
Format settings, Endianness : Big
Codec ID : A_AC3
Duration : 2h 19mn
Bit rate mode : Constant
Bit rate : 384 Kbps
Channel(s) : 6 channels
Channel positions : Front: L C R, Side: L R, LFE
Sampling rate : 48.0 KHz
Frame rate : 31.250 fps (1536 spf)
Compression mode : Lossy
Stream size : 384 MiB (3%)
Title : Дубляж - BD 3D Eur
Language : Russian
Default : Yes
Forced : No
Audio #2
ID : 3
Format : AC-3
Format/Info : Audio Coding 3
Mode extension : CM (complete main)
Format settings, Endianness : Big
Codec ID : A_AC3
Duration : 2h 19mn
Bit rate mode : Constant
Bit rate : 192 Kbps
Channel(s) : 2 channels
Channel positions : Front: L R
Sampling rate : 48.0 KHz
Frame rate : 31.250 fps (1536 spf)
Compression mode : Lossy
Stream size : 192 MiB (1%)
Title : Дубляж - iTunes
Language : Ukrainian
Default : No
Forced : No
Audio #3
ID : 4
Format : AC-3
Format/Info : Audio Coding 3
Mode extension : CM (complete main)
Format settings, Endianness : Big
Codec ID : A_AC3
Duration : 2h 19mn
Bit rate mode : Constant
Bit rate : 640 Kbps
Channel(s) : 6 channels
Channel positions : Front: L C R, Side: L R, LFE
Sampling rate : 48.0 KHz
Frame rate : 31.250 fps (1536 spf)
Compression mode : Lossy
Stream size : 641 MiB (5%)
Title : Original - BD 3D Eur
Language : English
Default : No
Forced : No
Text #1
ID : 5
Format : UTF-8
Codec ID : S_TEXT/UTF8
Codec ID/Info : UTF-8 Plain Text
Title : Форсированные [Ash61]
Language : Russian
Default : Yes
Forced : No
Text #2
ID : 6
Format : UTF-8
Codec ID : S_TEXT/UTF8
Codec ID/Info : UTF-8 Plain Text
Title : Полные [BD 3D Eur]
Language : Russian
Default : No
Forced : No
Text #3
ID : 7
Format : UTF-8
Codec ID : S_TEXT/UTF8
Codec ID/Info : UTF-8 Plain Text
Title : Форсированные [Hurtom]
Language : Ukrainian
Default : No
Forced : No
Text #4
ID : 8
Format : UTF-8
Codec ID : S_TEXT/UTF8
Codec ID/Info : UTF-8 Plain Text
Title : SDH
Language : English
Default : No
Forced : No
Menu
00:00:00.000 : :1
00:10:08.233 : :2
00:20:18.259 : :3
00:30:37.627 : :4
00:40:38.269 : :5
00:50:08.964 : :6
01:03:01.778 : :7
01:11:55.269 : :8
01:20:14.727 : :9
01:30:58.328 : :10
01:43:26.742 : :11
01:53:02.150 : :12
02:04:20.161 : :13
02:09:17.249 : :14

Для оценки 3Д - Анимированные скрины




















admin

Post 15-Jun-2018 05:59

[Quote]

-Тихоокеанский рубеж 2
Pacific Rim: Uprising

«Восстань»
- Год выпуска: 2018
Страна: США, Китай, Великобритания (Universal Pictures, Legendary Pictures, Double Dare You (DDY), Khorgos Shanwey Film)
Жанр: фантастика, боевик, приключения
Продолжительность: 01:50:42
Перевод: Профессиональный дублированный - iTunes
Режиссер: Стивен С. ДеНайт / Steven S. DeKnight-Роли исполняли:
Jake Pentecost - Джон Бойега (Олег Новиков)
Nate Lambert - Скотт Иствуд (Кирилл Туранский)
Amara Namani - Кэйли Спэни (Александра Курагина)
Dr. Hermann Gottlieb - Берн Горман (Евгений Вальц)
Dr. Newton Geiszler - Чарли Дэй (Александр Дасевич)
Liwen Shao - Цзин Тянь (Лина Иванова)
Marshal Quan - Макс Чжан (Станислав Тикунов)
Jules Reyes - Адриа Архона (Анна Киселёва)
Mako Mori - Ринко Кикути (Екатерина Виноградова)
Cadet Suresh - Каран Брэр (Прохор Чеховской)
Cadet Jinhai - Уэсли Вон (Евгений Толоконников)
Cadet Viktoria - Иванна Сахно (Юлия Горохова)
-Описание: Команда пилотируемых роботов-защитников остановила вторжение гигантских инопланетных монстров. Великая битва за Тихоокеанский рубеж ознаменовала новую главу в истории человечества. Однако война только начинается…
Пришло время нового поколения отстаивать своё право на Землю.

Интересно:

Первый блокбастер в режиссёрской карьере Стивена С. ДеНайта, который прежде писал сценарии сериалов и снимал их.-Ошибка в фильме:
На 58 минуте во время разговора в Шао-Индастриз на планшете сначала есть символ корпорации, затем он исчезает.
Премьера: 21 марта 2018 (22 марта 2018)
Релиз на Blu-Ray (DVD) (Россия): 9 июля 2018
Бюджет: $150 000 000
Кассовые сборы: $290 061 297

.
-Качество: BDRip (by Ash61)
Контейнер: MKV
Формат 3D: Half OverUnder / Вертикальная анаморфная стереопара
Порядок ракурсов: левый ракурс первый-Видео: AVC / 1920х1080p / 23,976 fps / 16.0 Mbps
Аудио:
#1 - Русский / AC3 / 48 KHz / 5.1 ch / 384 Kbps (Дубляж - iTunes)
#2 - Украинский / AC3 / 48 KHz / 2 ch / 192 Kbps (Дубляж) (спасибо Hurtom!)
#3 - Английский / AC3 / 48 KHz / 5.1 ch / 448 Kbps (Original - BD 3D)
Субтитры (SRT):
Вшитые (softsub):
#1 - Русские Форсированные (включены по умолчанию)
#2 - Русские Полные
#3 - Украинские Форсированные [igor911 + uafilm.tv]
#4 - English Full
#5 - English SDH
Внешние (UTF-8):
#1 - Русские Форсированные (включены по умолчанию)
#2 - Русские Полные
#3 - Украинские Форсированные

MediaInfo

General
Unique ID : 181681563863628980903306538756531921668 (0x88AE98AEE724A346891B9AE17735A304)
Complete name : D:PacificRim2(2018)3D-halfOU(Ash61)iTunesPacificRim2(2018)3D-halfOU(Ash61)iTunes.mkv
Format : Matroska
Format version : Version 2
File size : 13.2 GiB
Duration : 1h 50mn
Overall bit rate : 17.0 Mbps
Movie name : Тихоокеанский рубеж 2 / Pacific Rim: Uprising (2018) in 3D
Encoded date : UTC 2018-06-14 09:34:51
Writing application : mkvmerge v5.8.0 ('No Sleep / Pillow') built on Sep 2 2012 15:37:04
Writing library : libebml v1.2.3 + libmatroska v1.3.0
Video
ID : 1
Format : AVC
Format/Info : Advanced Video Codec
Format profile : High@L4.1
Format settings, CABAC : Yes
Format settings, ReFrames : 4 frames
Codec ID : V_MPEG4/ISO/AVC
Duration : 1h 50mn
Bit rate : 16.0 Mbps
Width : 1 920 pixels
Height : 1 080 pixels
Display aspect ratio : 16:9
Frame rate mode : Constant
Frame rate : 23.976 (24000/1001) fps
Color space : YUV
Chroma subsampling : 4:2:0
Bit depth : 8 bits
Scan type : Progressive
Bits/(Pixel*Frame) : 0.322
Stream size : 12.1 GiB (92%)
Title : BDRip by Ash61
Writing library : x264 core 146 r2538 121396c
Encoding settings : cabac=1 / ref=4 / deblock=1:-3:-3 / analyse=0x3:0x113 / me=umh / subme=10 / psy=1 / psy_rd=1.00:0.00 / mixed_ref=1 / me_range=32 / chroma_me=1 / trellis=2 / 8x8dct=1 / cqm=0 / deadzone=21,11 / fast_pskip=0 / chroma_qp_offset=-2 / threads=12 / lookahead_threads=2 / sliced_threads=0 / nr=0 / decimate=0 / interlaced=0 / bluray_compat=0 / constrained_intra=0 / bframes=8 / b_pyramid=2 / b_adapt=2 / b_bias=0 / direct=3 / weightb=1 / open_gop=0 / weightp=2 / keyint=250 / keyint_min=23 / scenecut=40 / intra_refresh=0 / rc_lookahead=60 / rc=2pass / mbtree=0 / bitrate=16000 / ratetol=1.0 / qcomp=0.70 / qpmin=0 / qpmax=69 / qpstep=4 / cplxblur=20.0 / qblur=0.5 / vbv_maxrate=40000 / vbv_bufsize=30000 / nal_hrd=none / filler=0 / frame-packing=4 / ip_ratio=1.40 / pb_ratio=1.30 / aq=1:0.70
Language : English
Default : Yes
Forced : No
Audio #1
ID : 2
Format : AC-3
Format/Info : Audio Coding 3
Mode extension : CM (complete main)
Format settings, Endianness : Big
Codec ID : A_AC3
Duration : 1h 50mn
Bit rate mode : Constant
Bit rate : 384 Kbps
Channel(s) : 6 channels
Channel positions : Front: L C R, Side: L R, LFE
Sampling rate : 48.0 KHz
Frame rate : 31.250 fps (1536 spf)
Compression mode : Lossy
Stream size : 304 MiB (2%)
Title : Дубляж - iTunes
Language : Russian
Default : Yes
Forced : No
Audio #2
ID : 3
Format : AC-3
Format/Info : Audio Coding 3
Mode extension : CM (complete main)
Format settings, Endianness : Big
Codec ID : A_AC3
Duration : 1h 50mn
Bit rate mode : Constant
Bit rate : 192 Kbps
Channel(s) : 2 channels
Channel positions : Front: L R
Sampling rate : 48.0 KHz
Frame rate : 31.250 fps (1536 spf)
Compression mode : Lossy
Stream size : 152 MiB (1%)
Title : Дубляж - Line (моно)
Language : Ukrainian
Default : No
Forced : No
Audio #3
ID : 4
Format : AC-3
Format/Info : Audio Coding 3
Mode extension : CM (complete main)
Format settings, Endianness : Big
Codec ID : A_AC3
Duration : 1h 50mn
Bit rate mode : Constant
Bit rate : 448 Kbps
Channel(s) : 6 channels
Channel positions : Front: L C R, Side: L R, LFE
Sampling rate : 48.0 KHz
Frame rate : 31.250 fps (1536 spf)
Compression mode : Lossy
Stream size : 355 MiB (3%)
Title : Original
Language : English
Default : No
Forced : No
Text #1
ID : 5
Format : UTF-8
Codec ID : S_TEXT/UTF8
Codec ID/Info : UTF-8 Plain Text
Title : Форсированные
Language : Russian
Default : Yes
Forced : No
Text #2
ID : 6
Format : UTF-8
Codec ID : S_TEXT/UTF8
Codec ID/Info : UTF-8 Plain Text
Title : Полные
Language : Russian
Default : No
Forced : No
Text #3
ID : 7
Format : UTF-8
Codec ID : S_TEXT/UTF8
Codec ID/Info : UTF-8 Plain Text
Title : Форсированные
Language : Ukrainian
Default : No
Forced : No
Text #4
ID : 8
Format : UTF-8
Codec ID : S_TEXT/UTF8
Codec ID/Info : UTF-8 Plain Text
Title : Full
Language : English
Default : No
Forced : No
Text #5
ID : 9
Format : UTF-8
Codec ID : S_TEXT/UTF8
Codec ID/Info : UTF-8 Plain Text
Title : SDH
Language : English
Default : No
Forced : No
Menu
00:00:00.000 : :1
00:06:54.872 : :2
00:13:05.366 : :3
00:15:51.075 : :4
00:20:36.359 : :5
00:24:49.695 : :6
00:31:08.240 : :7
00:37:56.065 : :8
00:43:37.947 : :9
00:49:01.938 : :10
00:53:40.925 : :11
00:58:12.030 : :12
01:04:45.005 : :13
01:09:25.536 : :14
01:14:36.721 : :15
01:22:53.426 : :16
01:29:02.545 : :17
01:33:10.585 : :18
01:38:07.381 : :19
01:40:55.047 : :20

Для оценки 3Д - Анимированные скрины




















admin

Post 07-Jan-2018 15:54

[Quote]

Бегущий по лезвию 2049
Blade Runner 2049
- Год выпуска: 2017
Страна: США, Великобритания, Венгрия, Канада (Columbia Pictures, Alcon Entertainment, Scott Free Productions, Warner Bros. Pictures)
Жанр: Фантастика, Триллер, Драма, Детектив
Продолжительность: 02:43:27
Перевод: Профессиональный дублированный (лицензия)-
Режиссер: Дени Вильнёв / Denis Villeneuve
Исполнительный продюсер: Ридли Скотт / Ridley Scott
Композитор: Ханс Циммер / Hans Zimmer-Роли исполняли (дублировали):

«K» - Райан Гослинг (Данил Щебланов)
Rick Deckard - Харрисон Форд (Владимир Антоник)
Joi - Ана де Армас (Мария Иващенко)
Luv - Сильвия Хукс (Рамиля Искандер)
Lieutenant Joshi - Робин Райт (Любовь Германова)
Mariette - Маккензи Дэвис (Вероника Саркисова)
Dr. Ana Stelline - Карла Юри (Ольга Шорохова)
Mister Cotton - Ленни Джеймс (Александр Коврижных)
Sapper Morton - Дэйв Батиста (Илья Исаев)
Niander Wallace - Джаред Лето (Иван Калинин)
Coco - Давид Дастмалчян (Антон Савенков)
Doc Badger - Баркхад Абди
Freysa - Хиам Аббасс (Елена Харитонова)
Nandez - Вуд Харрис
Interviewer - Марк Арнольд (Михаил Тихонов)
File Clerk - Томас Лемаркус (Денис Яковлев)
Gaff - Эдвард Джеймс Олмос (Никита Прозоровский)
Rachael - Шон Янг
-Описание: В недалеком будущем мир населен людьми и репликантами, созданными выполнять самую тяжелую работу. Работа офицера полиции Кей — держать репликантов под контролем в условиях нарастающего напряжения… Пока он случайно не становится обладателем секретной информации, которая ставит под угрозу существование всего человечества. Желая найти ключ к разгадке, Кей решает разыскать Рика Декарда, бывшего офицера специального подразделения полиции Лос-Анджелеса, который бесследно исчез много лет назад.-Важная информация перед просмотром: Режиссер Дени Вильнёв попросил нескольких режиссеров снять три короткометражных фильма, которые объяснили бы некоторые сюжетные линии данного фильма. В связи с этим в 2017 году появились: одно аниме ("Бегущий по лезвию: Блэкаут 2022») и две короткометражки ("2036: Возрождение Nexus», «2048: Некуда бежать»). В YouTube есть все три в 1080р 2D (с русским переводом.

Знаете ли вы, что...

Спродюсированный Ридли Скоттом научно-фантастический триллер «Бегущий по лезвию 2049» является продолжением фильма 1982 года «Бегущий по лезвию». Картина снята канадским режиссёром Дени Вильнёвом и основана на персонажах из романа Филипа К. Дика «Мечтают ли андроиды об электроовцах?». В свое время сильно нашумевшая первая часть имела аж 7 вариантов концовок.
Режиссер Дени Вильнёв попросил нескольких режиссеров снять три короткометражных фильма, которые объяснили бы некоторые сюжетные линии. В связи с этим появились: одно аниме ("Бегущий по лезвию: Блэкаут 2022») и две короткометражки ("2036: Возрождение Nexus», «2048: Некуда бежать»).
На ранних стадиях проекта принималось, что режиссёром фильма будет Ридли Скотт. Незадолго до начала съёмок, однако, Скотт объявил, что режиссурой заниматься не станет, а останется в проекте только в должности продюсера. О причинах такого решения ничего сказано не было.
В сентябре 2016 года Джаред Лето провёл около двух недель на съёмках своих сцен в Будапеште.
Первый фильм в жанре научной фантастики, который оператор Роджер Дикинс снял после фильма-антиутопии «1984».
Сильвия Хукс стала второй голландской актрисой, занятой в фильмах франшизы. В фильме «Бегущий по лезвию» (1982) роль репликанта Роя Батти сыграл Рутгер Хауэр.
Эмили Блант отклонила предложение сняться в фильме из-за беременности.
Лето и осень 2016 года Дени Вильнёв провёл на съёмках фильма в Будапеште.
Исполнительным продюсером фильма является Ридли Скотт, снявший оригинальный фильм «Бегущий по лезвию» (1982).
Ридли Скотт как-то обмолвился, что без Харрисона Форда не видит продолжения фильма.
В фильме снимается один оскароносный актер - Джерад Лето и 3 номинанта: Райан Гослинг, Харрисон Форд, и Баркхад Абди.
На момент выхода оригинального фильма актёры Баркхад Абди, Ана де Армас, Маккензи Дэвис, Сильвия Хукс, Карла Джури и Давид Дастмалчян еще не появились на свет.
Это первая совместная работа компаний Warner Bros. и Columbia Pictures с момента выхода фильма «Любовь по правилам… и без».
До того, как Джаред Лето был приглашен на роль Джокера в «Отряд самоубийц», его роль была предложена Райану Гослингу, но он отказался.
Осторожно, следующий факт содержит спойлер!Над входом в здание, где Кей пытается найти Декарда, красуется перевёрнутая надпись Haeng Un, что в переводе с корейского означает «Удачи вам». Язык, на котором общаются во вселенной «Бегущего по лезвию», является сплавом множества языков, включая корейский.
Премьера: 3 октября 2017 (5 октября 2017)
Бюджет: $150 000 000
Кассовые сборы: $258 392 043

.
-Качество: BDRip (by Ash61)
Контейнер: MKV
Формат 3D: Half OverUnder / Вертикальная анаморфная стереопара
Порядок ракурсов: левый ракурс первый-Видео: AVC / 1920х1080p / 23,976 fps / 8000 Kbps
Аудио:
#1 - Русский / AC3 / 48 KHz / 5.1 ch / 640 Kbps (Дубляж - BD Eur)
#2 - Украинский / AC3 / 48 KHz / 2 ch / 192 Kbps (Дубляж - iTunes)
#3 - Английский / AC3 / 48 KHz / 5.1 ch / 640 Kbps (Original)
Субтитры (SRT):
Вшитые (softsub):
#1 - Русские Форсированные [расширенные] (включены по умолчанию)
#2 - Русские Полные
#3 - Украинские Форсированные [расширенные]
#4 - Украинские Полные
#5 - English Full
Внешние (UTF-8):
#1 - Русские Форсированные [расширенные] (включены по умолчанию)
#2 - Русские Полные
#3 - Украинские Форсированные [расширенные]

Лог кодирования и MediaInfo


General
Unique ID : 242991672347871166322087578357216556375 (0xB6CE7E69C08CAAF6B7C8FF1F6E6FB557)
Complete name : D:BladeRunner2049(2017)3D-halfOU(Ash61)BladeRunner2049(2017)3D-halfOU(Ash61).mkv
Format : Matroska
Format version : Version 2
File size : 10.8 GiB
Duration : 2h 43mn
Overall bit rate : 9 475 Kbps
Movie name : Бегущий по лезвию 2049 / Blade Runner 2049 (2017) in 3D
Encoded date : UTC 2018-01-06 12:23:02
Writing application : mkvmerge v5.8.0 ('No Sleep / Pillow') built on Sep 2 2012 15:37:04
Writing library : libebml v1.2.3 + libmatroska v1.3.0
Video
ID : 1
Format : AVC
Format/Info : Advanced Video Codec
Format profile : High@L4.1
Format settings, CABAC : Yes
Format settings, ReFrames : 4 frames
Codec ID : V_MPEG4/ISO/AVC
Duration : 2h 43mn
Bit rate : 8 000 Kbps
Width : 1 920 pixels
Height : 1 080 pixels
Display aspect ratio : 16:9
Frame rate mode : Constant
Frame rate : 23.976 (24000/1001) fps
Color space : YUV
Chroma subsampling : 4:2:0
Bit depth : 8 bits
Scan type : Progressive
Bits/(Pixel*Frame) : 0.161
Stream size : 8.92 GiB (82%)
Title : BDRip by Ash61
Writing library : x264 core 146 r2538 121396c
Encoding settings : cabac=1 / ref=4 / deblock=1:-3:-3 / analyse=0x3:0x113 / me=umh / subme=10 / psy=1 / psy_rd=1.00:0.00 / mixed_ref=1 / me_range=32 / chroma_me=1 / trellis=2 / 8x8dct=1 / cqm=0 / deadzone=21,11 / fast_pskip=0 / chroma_qp_offset=-2 / threads=12 / lookahead_threads=3 / sliced_threads=0 / nr=0 / decimate=0 / interlaced=0 / bluray_compat=0 / constrained_intra=0 / bframes=10 / b_pyramid=2 / b_adapt=2 / b_bias=0 / direct=3 / weightb=1 / open_gop=0 / weightp=2 / keyint=250 / keyint_min=23 / scenecut=40 / intra_refresh=0 / rc_lookahead=60 / rc=2pass / mbtree=0 / bitrate=8000 / ratetol=1.0 / qcomp=0.70 / qpmin=0 / qpmax=69 / qpstep=4 / cplxblur=20.0 / qblur=0.5 / vbv_maxrate=40000 / vbv_bufsize=30000 / nal_hrd=none / filler=0 / frame-packing=4 / ip_ratio=1.40 / pb_ratio=1.30 / aq=1:0.70
Language : English
Default : Yes
Forced : No
Audio #1
ID : 2
Format : AC-3
Format/Info : Audio Coding 3
Mode extension : CM (complete main)
Format settings, Endianness : Big
Codec ID : A_AC3
Duration : 2h 43mn
Bit rate mode : Constant
Bit rate : 640 Kbps
Channel(s) : 6 channels
Channel positions : Front: L C R, Side: L R, LFE
Sampling rate : 48.0 KHz
Frame rate : 31.250 fps (1536 spf)
Compression mode : Lossy
Stream size : 748 MiB (7%)
Title : Дубляж - BD Eur
Language : Russian
Default : Yes
Forced : No
Audio #2
ID : 3
Format : AC-3
Format/Info : Audio Coding 3
Mode extension : CM (complete main)
Format settings, Endianness : Big
Codec ID : A_AC3
Duration : 2h 43mn
Bit rate mode : Constant
Bit rate : 192 Kbps
Channel(s) : 2 channels
Channel positions : Front: L R
Sampling rate : 48.0 KHz
Frame rate : 31.250 fps (1536 spf)
Compression mode : Lossy
Stream size : 224 MiB (2%)
Title : Дубляж - iTunes
Language : Ukrainian
Default : No
Forced : No
Audio #3
ID : 4
Format : AC-3
Format/Info : Audio Coding 3
Mode extension : CM (complete main)
Format settings, Endianness : Big
Codec ID : A_AC3
Duration : 2h 43mn
Bit rate mode : Constant
Bit rate : 640 Kbps
Channel(s) : 6 channels
Channel positions : Front: L C R, Side: L R, LFE
Sampling rate : 48.0 KHz
Frame rate : 31.250 fps (1536 spf)
Compression mode : Lossy
Stream size : 748 MiB (7%)
Title : Original
Language : English
Default : No
Forced : No
Text #1
ID : 5
Format : UTF-8
Codec ID : S_TEXT/UTF8
Codec ID/Info : UTF-8 Plain Text
Title : Форсированные [расширенные]
Language : Russian
Default : Yes
Forced : No
Text #2
ID : 6
Format : UTF-8
Codec ID : S_TEXT/UTF8
Codec ID/Info : UTF-8 Plain Text
Title : Полные
Language : Russian
Default : No
Forced : No
Text #3
ID : 7
Format : UTF-8
Codec ID : S_TEXT/UTF8
Codec ID/Info : UTF-8 Plain Text
Title : Форсированные [расширенные]
Language : Ukrainian
Default : No
Forced : No
Text #4
ID : 8
Format : UTF-8
Codec ID : S_TEXT/UTF8
Codec ID/Info : UTF-8 Plain Text
Title : Полные
Language : Ukrainian
Default : No
Forced : No
Text #5
ID : 9
Format : UTF-8
Codec ID : S_TEXT/UTF8
Codec ID/Info : UTF-8 Plain Text
Title : Full
Language : English
Default : No
Forced : No
Menu
00:00:00.000 : :1
00:12:36.172 : :2
00:23:29.279 : :3
00:37:00.885 : :4
00:42:50.317 : :5
00:49:24.503 : :6
00:58:35.552 : :7
01:04:10.679 : :8
01:15:47.292 : :9
01:25:12.479 : :10
01:36:15.060 : :11
01:50:55.104 : :12
02:01:36.872 : :13
02:08:40.377 : :14
02:16:42.485 : :15
02:27:46.729 : :16

Для оценки 3Д - Анимированные скрины




















admin

Post 29-Nov-2017 03:51

[Quote]

- Название: Терминатор: Генезис
Оригинальное название: Terminator Genisys
Год выпуска: 2015
Страна: США
Жанр: фантастика, боевик, триллер
Продолжительность: 02:05:42
Перевод: Профессиональный (дублированный)
Русские субтитры: есть
Оригинальная аудиодорожка: английский-Режиссер: Алан Тейлор / Alan Taylor-В ролях: Арнольд Шварценеггер, Джейсон Кларк, Эмилия Кларк, Джай Кортни, Дж.К. Симмонс, Дайо Окенийи, Мэтт Смит, Кортни Б. Вэнс, Ли Бён Хон, Майкл Глэдис.-Описание: Когда Джон Коннор, лидер сопротивления, посылает сержанта Кайла Риза назад в 1984 год, чтобы защитить Сару Коннор и спасти будущее, неожиданный поворот событий создает разлом во времени. Сержант Риз оказывается в новой, незнакомой версии прошлого, где он встречает неожиданных союзников, в том числе Терминатора, новых опасных врагов, и новую миссию: изменить будущее...-Формат 3D: Half SideBySide | Горизонтальная анаморфная стереопара
Качество: BDRip-AVC (WiKi)
Контейнер: MKV
Видео: 1920x1080 (16:9), 23.976 fps, x264@L4.1 ~12000 kbps
Аудио 1: Russian 48 kHz, AC3, 3/2 (L,C,R,l,r) + LFE ch, 640.00 kbps | BD EUR
Аудио 2: Ukrainian 48 kHz, AC3, 2/0 (L,R) ch, 192.00 kbps avg | Dub IPTV
Аудио 3: English 48 kHz, DTS, 3/2 (L,C,R,l,r) + LFE ch, 1509.00 kbps | BD EUR
Субтитры: русские полные, английские полные

Инфо

Format : Matroska
File size : 12.6 GiB
Duration : 2h 5mn
Overall bit rate : 14.3 Mbps
Movie name : Терминатор: Генезис / Terminator Genisys (2015) в 3Д
Encoded date : UTC 2015-10-21 04:00:28
Writing application : mkvmerge v7.9.0 ('Birds') 64bit
Writing library : libebml v1.3.1 + libmatroska v1.4.2Video
ID : 1
Format : AVC
Format/Info : Advanced Video Codec
Format profile : High@L4.1
Format settings, CABAC : Yes
Format settings, ReFrames : 4 frames
Codec ID : V_MPEG4/ISO/AVC
Duration : 2h 5mn
Bit rate : 12.0 Mbps
Width : 1 920 pixels
Height : 1 080 pixels
Display aspect ratio : 16:9
Frame rate : 23.976 fps
Color space : YUV
Chroma subsampling : 4:2:0
Bit depth : 8 bits
Scan type : Progressive
Bits/(Pixel*Frame) : 0.241
Stream size : 10.3 GiB (82%)
Writing library : x264 core 133 r2334 a3ac64b
Encoding settings : cabac=1 / ref=4 / deblock=1:-3:-3 / analyse=0x3:0x133 / me=umh / subme=11 / psy=1 / psy_rd=1.05:0.10 / mixed_ref=1 / me_range=64 / chroma_me=1 / trellis=2 / 8x8dct=1 / cqm=0 / deadzone=21,11 / fast_pskip=0 / chroma_qp_offset=-3 / threads=12 / lookahead_threads=2 / sliced_threads=0 / nr=0 / decimate=1 / interlaced=0 / bluray_compat=0 / constrained_intra=0 / bframes=8 / b_pyramid=2 / b_adapt=2 / b_bias=0 / direct=3 / weightb=1 / open_gop=0 / weightp=2 / keyint=250 / keyint_min=23 / scenecut=40 / intra_refresh=0 / rc_lookahead=80 / rc=2pass / mbtree=1 / bitrate=12000 / ratetol=1.0 / qcomp=0.60 / qpmin=0 / qpmax=69 / qpstep=4 / cplxblur=20.0 / qblur=0.5 / vbv_maxrate=40000 / vbv_bufsize=30000 / nal_hrd=none / ip_ratio=1.40 / aq=1:0.80
Language : EnglishAudio #1
ID : 2
Format : AC-3
Format/Info : Audio Coding 3
Mode extension : CM (complete main)
Codec ID : A_AC3
Duration : 2h 5mn
Bit rate mode : Constant
Bit rate : 640 Kbps
Channel(s) : 6 channels
Channel positions : Front: L C R, Side: L R, LFE
Sampling rate : 48.0 KHz
Bit depth : 16 bits
Stream size : 575 MiB (4%)
Language : RussianAudio #2
ID : 3
Format : AC-3
Format/Info : Audio Coding 3
Mode extension : CM (complete main)
Codec ID : A_AC3
Duration : 2h 5mn
Bit rate mode : Constant
Bit rate : 192 Kbps
Channel(s) : 2 channels
Channel positions : Front: L R
Sampling rate : 48.0 KHz
Bit depth : 16 bits
Stream size : 173 MiB (1%)
Language : UkrainianAudio #3
ID : 4
Format : DTS
Format/Info : Digital Theater Systems
Codec ID : A_DTS
Duration : 2h 5mn
Bit rate mode : Constant
Bit rate : 1 510 Kbps
Channel(s) : 6 channels
Channel positions : Front: L C R, Side: L R, LFE
Sampling rate : 48.0 KHz
Bit depth : 24 bits
Stream size : 1.33 GiB (11%)
Language : EnglishText #1
ID : 5
Format : UTF-8
Codec ID : S_TEXT/UTF8
Codec ID/Info : UTF-8 Plain Text
Language : RussianText #2
ID : 6
Format : UTF-8
Codec ID : S_TEXT/UTF8
Codec ID/Info : UTF-8 Plain Text
Language : EnglishMenu
00:00:00.000 : :1
00:07:40.335 : :2
00:14:20.735 : :3
00:20:31.564 : :4
00:27:48.417 : :5
00:34:54.801 : :6
00:41:02.627 : :7
00:46:28.786 : :8
00:53:05.516 : :9
01:01:00.240 : :10
01:08:22.557 : :11
01:14:43.813 : :12
01:21:31.261 : :13
01:31:01.706 : :14
01:38:42.750 : :15
01:45:41.085 : :16
01:52:48.971 : :17
01:58:00.115 : :18

Скриншоты

admin

Post 29-Nov-2017 03:49

[Quote]

300 спартанцев: Расцвет империи / 300: Rise of an Empire- Год выпуска: 2014
Страна: США
Жанр: фэнтези, боевик, драма, военный
Продолжительность: 1:42:36
Перевод: Профессиональный (дублированный)
Субтитры: русские, украинские, английские-Режиссер: Ноам Мурро / Noam MurroВ ролях: Салливан Степлтон, Ева Грин, Джек О’Коннелл, Каллэн Мулвей, Ганс Мэтисон, Родриго Санторо, Лина Хиди, Дэвид Уэнэм, Эндрю Тирнан, Эндрю Плевин и др.Описание: Действия фильма происходят в 480 году до н. э. и рассказывают о противостоянии греков с могущественной армией персов. После того, как Ксеркс одержал победу над 300 спартанцами, он направил свое войско дальше на юг, с целью захватить крупные греческие города. После всех своих завоеваний он начал называть себя Богом и считал, что он без особых проблем сможет покорить Грецию. Однако в Афинах его армию ожидало достойное сопротивление флота под командованием полководца Фемистокла, объединившего свои усилия с царицей Горго, желающей отомстить Ксерксу за смерть своего мужа. Удастся ли завоевателю вновь одержать вверх над своим врагом, или ему все таки придется отступить?-Качество: BDRip
Контейнер: MKV
Формат 3D: Half SideBySide / Горизонтальная анаморфная стереопара
Видео кодек: x264
Аудио кодек: DTS, AC3
Видео: 1920x1080 (16:9), 23.976 fps, x264@L4.1 ~14400 kbps avg
Аудио 1: Russian 48 kHz, AC3, 3/2 (L,C,R,l,r) + LFE ch, 448.00 kbps avg | BD CEE
Аудио 2: Ukrainian 48 kHz, AC3, 3/2 (L,C,R,l,r) + LFE ch, 448.00 kbps avg | BD CEE
Аудио 3: English 48 kHz, DTS, 3/2 (L,C,R,l,r) + LFE ch, 1509.00 kbps avg | Original

Скриншоты

Медиаинфо

Общее
Формат : Matroska
Версия формата : Version 4 / Version 2
Размер файла : 12,3 Гбайт
Продолжительность : 1 ч. 42 м.
Общий поток : 17,1 Мбит/сек
Название фильма : 300 Rise of an Empire 2014
Дата кодирования : UTC 2014-08-04 19:17:12
Программа кодирования : mkvmerge v6.1.0 ('Old Devil') built on Mar 4 2013 09:10:42
Библиотека кодирования : libebml v1.3.0 + libmatroska v1.4.0Видео
Идентификатор : 1
Формат : AVC
Формат/Информация : Advanced Video Codec
Профиль формата : High@L4.1
Параметр CABAC формата : Да
Параметр ReFrames формата : 4 кадра
Параметр GOP формата : M=7, N=9
Идентификатор кодека : V_MPEG4/ISO/AVC
Продолжительность : 1 ч. 42 м.
Битрейт : 14,4 Мбит/сек
Ширина : 1920 пикселей
Высота : 1080 пикселей
Соотношение сторон : 16:9
Режим частоты кадров : Постоянный
Частота кадров : 23,976 кадра/сек
Цветовое пространство : YUV
Субдискретизация насыщенности : 4:2:0
Битовая глубина : 8 бит
Тип развёртки : Прогрессивная
Бит/(Пиксели*Кадры) : 0.289
Размер потока : 10,3 Гбайт (84%)
Заголовок : BDRip 1080p CEE 3D HSBS
Библиотека кодирования : x264 core 133 r2334 a3ac64b
Настройки программы : cabac=1 / ref=4 / deblock=1:-3:-3 / analyse=0x3:0x133 / me=umh / subme=9 / psy=1 / psy_rd=1.09:0.00 / mixed_ref=1 / me_range=24 / chroma_me=1 / trellis=1 / 8x8dct=1 / cqm=0 / deadzone=21,11 / fast_pskip=0 / chroma_qp_offset=-2 / threads=6 / lookahead_threads=1 / sliced_threads=0 / nr=0 / decimate=1 / interlaced=0 / bluray_compat=0 / constrained_intra=0 / bframes=6 / b_pyramid=2 / b_adapt=2 / b_bias=0 / direct=3 / weightb=1 / open_gop=0 / weightp=2 / keyint=9 / keyint_min=1 / scenecut=40 / intra_refresh=0 / rc_lookahead=17 / rc=crf / mbtree=0 / crf=17.0 / qcomp=0.60 / qpmin=0 / qpmax=69 / qpstep=4 / vbv_maxrate=40000 / vbv_bufsize=30000 / crf_max=0.0 / nal_hrd=none / ip_ratio=1.40 / pb_ratio=1.30 / aq=1:0.80
Язык : English
Default : Да
Forced : НетАудио #1
Идентификатор : 2
Формат : AC-3
Формат/Информация : Audio Coding 3
Расширение режима : CM (complete main)
Параметр Endianness формата : Big
Идентификатор кодека : A_AC3
Продолжительность : 1 ч. 42 м.
Вид битрейта : Постоянный
Битрейт : 448 Кбит/сек
Каналы : 6 каналов
Расположение каналов : Front: L C R, Side: L R, LFE
Частота : 48,0 КГц
Битовая глубина : 16 бит
Метод сжатия : С потерями
Размер потока : 329 Мбайт (3%)
Заголовок : BD CEE
Язык : Russian
Default : Да
Forced : НетАудио #2
Идентификатор : 3
Формат : AC-3
Формат/Информация : Audio Coding 3
Расширение режима : CM (complete main)
Параметр Endianness формата : Big
Идентификатор кодека : A_AC3
Продолжительность : 1 ч. 42 м.
Вид битрейта : Постоянный
Битрейт : 448 Кбит/сек
Каналы : 6 каналов
Расположение каналов : Front: L C R, Side: L R, LFE
Частота : 48,0 КГц
Битовая глубина : 16 бит
Метод сжатия : С потерями
Размер потока : 329 Мбайт (3%)
Заголовок : BD CEE
Язык : Ukrainian
Default : Нет
Forced : НетАудио #3
Идентификатор : 4
Формат : DTS
Формат/Информация : Digital Theater Systems
Режим : 16
Параметр Endianness формата : Big
Идентификатор кодека : A_DTS
Продолжительность : 1 ч. 42 м.
Вид битрейта : Постоянный
Битрейт : 1509 Кбит/сек
Каналы : 6 каналов
Расположение каналов : Front: L C R, Side: L R, LFE
Частота : 48,0 КГц
Битовая глубина : 24 бит
Метод сжатия : С потерями
Размер потока : 1,08 Гбайт (9%)
Заголовок : Original
Язык : English
Default : Нет
Forced : НетТекст #1
Идентификатор : 5
Формат : UTF-8
Идентификатор кодека : S_TEXT/UTF8
Идентификатор кодека/Информация : UTF-8 Plain Text
Заголовок : Forced
Язык : Russian
Default : Да
Forced : НетТекст #2
Идентификатор : 6
Формат : UTF-8
Идентификатор кодека : S_TEXT/UTF8
Идентификатор кодека/Информация : UTF-8 Plain Text
Заголовок : Full
Язык : Russian
Default : Нет
Forced : НетТекст #3
Идентификатор : 7
Формат : UTF-8
Идентификатор кодека : S_TEXT/UTF8
Идентификатор кодека/Информация : UTF-8 Plain Text
Заголовок : Full
Язык : Ukrainian
Default : Нет
Forced : НетТекст #4
Идентификатор : 8
Формат : UTF-8
Идентификатор кодека : S_TEXT/UTF8
Идентификатор кодека/Информация : UTF-8 Plain Text
Заголовок : Full
Язык : English
Default : Нет
Forced : НетТекст #5
Идентификатор : 9
Формат : UTF-8
Идентификатор кодека : S_TEXT/UTF8
Идентификатор кодека/Информация : UTF-8 Plain Text
Заголовок : Full SDH
Язык : English
Default : Нет
Forced : НетТекст #6
Идентификатор : 10
Формат : UTF-8
Идентификатор кодека : S_TEXT/UTF8
Идентификатор кодека/Информация : UTF-8 Plain Text
Заголовок : Full SDH Color
Язык : English
Default : Нет
Forced : НетМеню
00:00:00.000 : en:00:00:00.000
00:10:26.376 : en:00:10:26.376
00:20:54.628 : en:00:20:54.628
00:31:15.290 : en:00:31:15.290
00:40:58.498 : en:00:40:58.498
00:50:50.714 : en:00:50:50.714
01:00:05.435 : en:01:00:05.435
01:09:51.813 : en:01:09:51.813
01:19:51.245 : en:01:19:51.245
01:31:07.295 : en:01:31:07.295
01:33:57.131 : en:01:33:57.131
 

Current time is: 18-Sep 10:54

All times are UTC + 3