Search found 9 matches

Author Message

admin

Post 23-Mar-2019 04:37

[Quote]

-Гринч
The Grinch

«Символ нового года»
-[img=right] [/img]Год выпуска: 2018
Страна: Франция, Китай, Япония, США (Illumination Entertainment, Universal Pictures)
Жанр: мультфильм, фэнтези, комедия, семейный
Продолжительность: 01:25:50
Перевод: Профессиональный дублированный - iTunes
Режиссеры: Ярроу Чейни, Скотт Моужер / Yarrow Cheney, Scott Mosier-Роли озвучивали:
Гринч - Бенедикт Камбербэтч (Илья Исаев)
Синди-Лу - Кэмерон Сили (Василиса Савкина)
Донна Кто - Рашида Джонс (Анастасия Лапина)
Рассказчик - Фаррелл Уильямс (Алексей Колган)
Груперт - Тристан О’Хэйр (Иван Бычков)
Мистер Бриклбаум - Кенан Томпсон (Константин Карасик)
Оззи - Сэм Лаваньино (Максим Бытко)
Эксл - Рамон Хэмилтон (Тихон Ефименко)
Мэр МакГёркл - Анджела Лэнсбери (Нина Тобилевич)
Иззи - Скарлетт Эстевес (Ольга Мешкова)
Продавец в магазине - Майкл Битти
-Описание: Любой бы на месте Гринча позеленел и взбесился. Как порядочный интроверт он живёт в тёмной пещере на самой вершине горы подальше ото всех, но эти «все» готовят грандиознейшее празднование Нового года. Они шумят, всё украшают и дико бесят. Кто бы отказал себе в удовольствии испортить праздник? Гринч решает украсть Новый год.

Знаете ли вы, что...

Вначале фильм планировали выпустить в ноябре 2017 года, но впоследствии дату релиза перенесли на целый год, чтобы избежать конкуренции в прокате с другим проектом компании Sony Animation — фильмом Тимоти Рекарта «Путеводная звезда» (2017).
В оригинале Гринч крадёт не Новый год, а Рождество.
Премьера: 8 ноября 2018 (13 декабря 2018)
Бюджет: $75 000 000
Кассовые сборы: $511 303 509

-Качество: BDRip (by Ash61)
Контейнер: MKV
Формат 3D: Half OverUnder / Вертикальная анаморфная стереопара
Порядок ракурсов: левый ракурс первый-Видео: AVC / 1920х1080p / 23,976 fps / 8.0 Mbps
Аудио:
#1 - Русский / AC3 / 48 KHz / 5.1 ch / 384 Kbps (Дубляж - iTunes)
#2 - Английский / AC3 / 48 KHz / 5.1 ch / 448 Kbps (Original - BD 3D)
Субтитры (SRT):
Вшитые (softsub):
#1 - Русские Форсированные [от Ash61] (включены по умолчанию)
#2 - English Full
#3 - English SDH (BD 3D)
Внешние (UTF-8):
#1 - Русские Форсированные [от Ash61] (включены по умолчанию)

MediaInfo

General
Unique ID : 184704176722822831528381883184132607578 (0x8AF4BB00C33F43FAA4F88F67BD8B4E5A)
Complete name : J:TheGrinch(2018)3D-halfOU(Ash61)iTunesTheGrinch(2018)3D-halfOU(Ash61)iTunes.mkv
Format : Matroska
Format version : Version 2
File size : 5.30 GiB
Duration : 1h 25mn
Overall bit rate : 8 833 Kbps
Movie name : Гринч / The Grinch (2018) in 3D
Encoded date : UTC 2019-03-22 08:49:31
Writing application : mkvmerge v5.8.0 ('No Sleep / Pillow') built on Sep 2 2012 15:37:04
Writing library : libebml v1.2.3 + libmatroska v1.3.0
Video
ID : 1
Format : AVC
Format/Info : Advanced Video Codec
Format profile : High@L4.1
Format settings, CABAC : Yes
Format settings, ReFrames : 4 frames
Codec ID : V_MPEG4/ISO/AVC
Duration : 1h 25mn
Bit rate : 8 000 Kbps
Width : 1 920 pixels
Height : 1 080 pixels
Display aspect ratio : 16:9
Frame rate mode : Constant
Frame rate : 23.976 (24000/1001) fps
Color space : YUV
Chroma subsampling : 4:2:0
Bit depth : 8 bits
Scan type : Progressive
Bits/(Pixel*Frame) : 0.161
Stream size : 4.69 GiB (89%)
Title : BDRip by Ash61
Writing library : x264 core 146 r2538 121396c
Encoding settings : cabac=1 / ref=4 / deblock=1:-3:-3 / analyse=0x3:0x113 / me=umh / subme=10 / psy=1 / psy_rd=1.00:0.00 / mixed_ref=1 / me_range=32 / chroma_me=1 / trellis=2 / 8x8dct=1 / cqm=0 / deadzone=21,11 / fast_pskip=0 / chroma_qp_offset=-2 / threads=12 / lookahead_threads=2 / sliced_threads=0 / nr=0 / decimate=0 / interlaced=0 / bluray_compat=0 / constrained_intra=0 / bframes=9 / b_pyramid=2 / b_adapt=2 / b_bias=0 / direct=3 / weightb=1 / open_gop=0 / weightp=2 / keyint=250 / keyint_min=23 / scenecut=40 / intra_refresh=0 / rc_lookahead=60 / rc=2pass / mbtree=0 / bitrate=8000 / ratetol=1.0 / qcomp=0.70 / qpmin=0 / qpmax=69 / qpstep=4 / cplxblur=20.0 / qblur=0.5 / vbv_maxrate=40000 / vbv_bufsize=30000 / nal_hrd=none / filler=0 / frame-packing=4 / ip_ratio=1.40 / pb_ratio=1.30 / aq=1:0.70
Language : English
Default : Yes
Forced : No
Audio #1
ID : 2
Format : AC-3
Format/Info : Audio Coding 3
Mode extension : CM (complete main)
Format settings, Endianness : Big
Codec ID : A_AC3
Duration : 1h 25mn
Bit rate mode : Constant
Bit rate : 384 Kbps
Channel(s) : 6 channels
Channel positions : Front: L C R, Side: L R, LFE
Sampling rate : 48.0 KHz
Frame rate : 31.250 fps (1536 spf)
Compression mode : Lossy
Stream size : 236 MiB (4%)
Title : Дубляж (iTunes)
Language : Russian
Default : Yes
Forced : No
Audio #2
ID : 3
Format : AC-3
Format/Info : Audio Coding 3
Mode extension : CM (complete main)
Format settings, Endianness : Big
Codec ID : A_AC3
Duration : 1h 25mn
Bit rate mode : Constant
Bit rate : 448 Kbps
Channel(s) : 6 channels
Channel positions : Front: L C R, Side: L R, LFE
Sampling rate : 48.0 KHz
Frame rate : 31.250 fps (1536 spf)
Compression mode : Lossy
Stream size : 275 MiB (5%)
Title : Original (BD 3D Eur)
Language : English
Default : No
Forced : No
Text #1
ID : 4
Format : UTF-8
Codec ID : S_TEXT/UTF8
Codec ID/Info : UTF-8 Plain Text
Title : Форсированные [Ash61 (v2)]
Language : Russian
Default : Yes
Forced : No
Text #2
ID : 5
Format : UTF-8
Codec ID : S_TEXT/UTF8
Codec ID/Info : UTF-8 Plain Text
Title : Full
Language : English
Default : No
Forced : No
Text #3
ID : 6
Format : UTF-8
Codec ID : S_TEXT/UTF8
Codec ID/Info : UTF-8 Plain Text
Title : SDH (BD 3D Eur)
Language : English
Default : No
Forced : No
Menu
00:00:00.000 : :1
00:05:40.298 : :2
00:10:35.927 : :3
00:14:14.103 : :4
00:17:45.106 : :5
00:22:19.296 : :6
00:26:28.337 : :7
00:30:45.093 : :8
00:34:46.584 : :9
00:38:37.190 : :10
00:44:40.595 : :11
00:47:27.678 : :12
00:52:37.488 : :13
00:56:33.181 : :14
01:01:04.995 : :15
01:05:34.639 : :16
01:07:23.456 : :17
01:12:14.914 : :18
01:14:12.782 : :19
01:18:08.309 : :20

Для оценки 3Д - Анимированные скрины


















admin

Post 18-Mar-2019 05:17

[Quote]

-Человек-паук: Через вселенные
Spider-Man: Into the Spider-Verse

«Войдите во вселенную, где не один носит маску»
- Год выпуска: 2018
Страна: США (Columbia Pictures, Marvel, Sony Pictures Animation, Pascal Pictures)
Жанр: мультфильм, фантастика, боевик, приключения, семейный
Продолжительность: 01:56:50
Перевод: Профессиональный дублированный - iTunes
Режиссеры: Боб Персичетти, Питер Рэмзи, Родни Ротман / Bob Persichetti, Peter Ramsey, Rodney Rothman-Роли озвучивали (дублировали):
Miles Morales - Шамеик Мур (Иван Непомнящий)
Peter B. Parker - Джейк Джонсон (Сергей Смирнов)
Gwen Stacy - Хейли Стайнфелд (Дана Соколова)
Uncle Aaron - Махершала Али (Илья Исаев)
Jefferson Davis - Брайан Тайри Генри (Денис Беспалый)
Aunt May - Лили Томлин (Ирина Пономарева)
Rio Morales - Луна Лорен Велес (Елена Шульман)
Mary Jane - Зои Кравиц (Варвара Чабан)
Spider-Ham - Джон Малэйни (Сергей Стиллавин)
Peni Parker - Кимико Гленн (Александра Курагина)
Spider-Man Noir - Николас Кейдж (Алексей Мясников)
Doc Ock - Кэтрин Хан (Татьяна Шитова)
Wilson Fisk - Лив Шрайбер (Гоша Куценко)
Peter Parker - Крис Пайн (Филипп Лебедев)
Interesting Person #1 - Оскар Айзек (Сергей Пономарёв)
Stan - Стэн Ли (Владимир Левашёв)
Vanessa Fisk - Лэйк Белл (Елена Ивасишина)
-Описание: Мы всё знаем о Питере Паркере. Он спас город, влюбился, а потом спасал город снова и снова… Но все это — в нашем измерении. А что если в результате работы гигантского коллайдера откроется окно из одного измерения в другое? Найдется ли в нем свой Человек-паук? И как он будет выглядеть? Приготовьтесь к тому, что в разных вселенных могут быть разные Люди-пауки и однажды им придется собраться вместе для борьбы с почти непобедимым врагом.

Знаете ли вы, что...

Режиссёрский дебют аниматора Боба Персичетти.
Над анимацией трудилось 140 человек — это самая многочисленная команда аниматоров, которую когда-либо использовала компания Sony Animation Pictures.

Награды

Оскар, 2019 год
Победитель (1): Лучший анимационный фильм-Золотой глобус, 2019 год
Победитель (1): Лучший анимационный фильм-Британская академия, 2019 год
Победитель (1): Лучший анимационный фильм
Премьера: 6 декабря 2018 (13 декабря 2018)
Бюджет: $90 000 000
Кассовые сборы: $367 778 682
Топ-250 Кинопоиска: #208 (17.03.2019)
Top-250 IMDb: #37 (17.03.2019)

-Качество: BDRip (by Ash61)
Контейнер: MKV
Формат 3D: Half OverUnder / Вертикальная анаморфная стереопара
Порядок ракурсов: левый ракурс первый-Видео: AVC / 1920х1080p / 23,976 fps / 16.0 Mbps
Аудио:
#1 - Русский / AC3 / 48 KHz / 5.1 ch / 384 Kbps (Дубляж - iTunes)
#2 - Украинский / AC3 / 48 KHz / 2 ch / 192 Kbps (Дубляж)
#3 - Английский / AC3 / 48 KHz / 5.1 ch / 640 Kbps (Original - BD 3D)
Субтитры (SRT):
Вшитые (softsub):
#1 - Русские Форсированные (включены по умолчанию)
#2 - Русские Полные
#3 - Украинские Форсированные
#4 - Украинские Полные
#5 - English Full
#6 - English SDH
Внешние (UTF-8):
#1 - Русские Форсированные (включены по умолчанию)
#2 - Русские Полные
#3 - Украинские Форсированные

MediaInfo

General
Unique ID : 219918251854488339243874348441896741071 (0xA572B6F3B88AADCB91F61635CAF7E8CF)
Complete name : J:Spider-Man.IntoTheSpider-Verse(2018)3D-halfOU(Ash61)iTunesSpider-Man.IntoTheSpider-Verse(2018)3D-halfOU(Ash61)iTunes.mkv
Format : Matroska
Format version : Version 2
File size : 14.0 GiB
Duration : 1h 56mn
Overall bit rate : 17.2 Mbps
Movie name : Человек-паук: Через вселенные / Spider-Man: Into the Spider-Verse (2018) in 3D
Encoded date : UTC 2019-03-17 09:00:16
Writing application : mkvmerge v5.8.0 ('No Sleep / Pillow') built on Sep 2 2012 15:37:04
Writing library : libebml v1.2.3 + libmatroska v1.3.0
Video
ID : 1
Format : AVC
Format/Info : Advanced Video Codec
Format profile : High@L4.1
Format settings, CABAC : Yes
Format settings, ReFrames : 4 frames
Codec ID : V_MPEG4/ISO/AVC
Duration : 1h 56mn
Bit rate : 16.0 Mbps
Width : 1 920 pixels
Height : 1 080 pixels
Display aspect ratio : 16:9
Frame rate mode : Constant
Frame rate : 23.976 (24000/1001) fps
Color space : YUV
Chroma subsampling : 4:2:0
Bit depth : 8 bits
Scan type : Progressive
Bits/(Pixel*Frame) : 0.322
Stream size : 12.8 GiB (91%)
Title : BDRip by Ash61
Writing library : x264 core 146 r2538 121396c
Encoding settings : cabac=1 / ref=4 / deblock=1:-3:-3 / analyse=0x3:0x113 / me=umh / subme=10 / psy=1 / psy_rd=1.00:0.00 / mixed_ref=1 / me_range=32 / chroma_me=1 / trellis=2 / 8x8dct=1 / cqm=0 / deadzone=21,11 / fast_pskip=0 / chroma_qp_offset=-2 / threads=12 / lookahead_threads=3 / sliced_threads=0 / nr=0 / decimate=0 / interlaced=0 / bluray_compat=0 / constrained_intra=0 / bframes=10 / b_pyramid=2 / b_adapt=2 / b_bias=0 / direct=3 / weightb=1 / open_gop=0 / weightp=2 / keyint=250 / keyint_min=23 / scenecut=40 / intra_refresh=0 / rc_lookahead=60 / rc=2pass / mbtree=0 / bitrate=16000 / ratetol=1.0 / qcomp=0.70 / qpmin=0 / qpmax=69 / qpstep=4 / cplxblur=20.0 / qblur=0.5 / vbv_maxrate=40000 / vbv_bufsize=30000 / nal_hrd=none / filler=0 / frame-packing=4 / ip_ratio=1.40 / pb_ratio=1.30 / aq=1:0.70
Language : English
Default : Yes
Forced : No
Audio #1
ID : 2
Format : AC-3
Format/Info : Audio Coding 3
Mode extension : CM (complete main)
Format settings, Endianness : Big
Codec ID : A_AC3
Duration : 1h 56mn
Bit rate mode : Constant
Bit rate : 384 Kbps
Channel(s) : 6 channels
Channel positions : Front: L C R, Side: L R, LFE
Sampling rate : 48.0 KHz
Frame rate : 31.250 fps (1536 spf)
Compression mode : Lossy
Stream size : 321 MiB (2%)
Title : Дубляж (iTunes)
Language : Russian
Default : Yes
Forced : No
Audio #2
ID : 3
Format : AC-3
Format/Info : Audio Coding 3
Mode extension : CM (complete main)
Format settings, Endianness : Big
Codec ID : A_AC3
Duration : 1h 56mn
Bit rate mode : Constant
Bit rate : 192 Kbps
Channel(s) : 2 channels
Channel positions : Front: L R
Sampling rate : 48.0 KHz
Frame rate : 31.250 fps (1536 spf)
Compression mode : Lossy
Stream size : 160 MiB (1%)
Title : Дубляж
Language : Ukrainian
Default : No
Forced : No
Audio #3
ID : 4
Format : AC-3
Format/Info : Audio Coding 3
Mode extension : CM (complete main)
Format settings, Endianness : Big
Codec ID : A_AC3
Duration : 1h 56mn
Bit rate mode : Constant
Bit rate : 640 Kbps
Channel(s) : 6 channels
Channel positions : Front: L C R, Side: L R, LFE
Sampling rate : 48.0 KHz
Frame rate : 31.250 fps (1536 spf)
Compression mode : Lossy
Stream size : 535 MiB (4%)
Title : Original
Language : English
Default : No
Forced : No
Text #1
ID : 5
Format : UTF-8
Codec ID : S_TEXT/UTF8
Codec ID/Info : UTF-8 Plain Text
Title : Форсированные
Language : Russian
Default : Yes
Forced : No
Text #2
ID : 6
Format : UTF-8
Codec ID : S_TEXT/UTF8
Codec ID/Info : UTF-8 Plain Text
Title : Полные
Language : Russian
Default : No
Forced : No
Text #3
ID : 7
Format : UTF-8
Codec ID : S_TEXT/UTF8
Codec ID/Info : UTF-8 Plain Text
Title : Форсированные
Language : Ukrainian
Default : No
Forced : No
Text #4
ID : 8
Format : UTF-8
Codec ID : S_TEXT/UTF8
Codec ID/Info : UTF-8 Plain Text
Title : Полные
Language : Ukrainian
Default : No
Forced : No
Text #5
ID : 9
Format : UTF-8
Codec ID : S_TEXT/UTF8
Codec ID/Info : UTF-8 Plain Text
Title : Full
Language : English
Default : No
Forced : No
Text #6
ID : 10
Format : UTF-8
Codec ID : S_TEXT/UTF8
Codec ID/Info : UTF-8 Plain Text
Title : SDH
Language : English
Default : No
Forced : No
Menu
00:00:00.000 : :1
00:09:03.793 : :2
00:14:04.717 : :3
00:18:51.712 : :4
00:29:39.027 : :5
00:34:14.635 : :6
00:40:34.431 : :7
00:44:22.826 : :8
00:48:06.884 : :9
00:58:45.855 : :10
01:06:04.460 : :11
01:09:55.481 : :12
01:20:00.002 : :13
01:24:54.922 : :14
01:33:33.399 : :15
01:55:26.918 : :16

Для оценки 3Д - Анимированные скрины















admin

Post 18-Feb-2018 05:08

[Quote]

-Тэд-путешественник и тайна царя Мидаса
Tadeo Jones 2: El secreto del Rey Midas
Tad the Lost Explorer and the Secret of King Midas
- Год выпуска: 2017
Страна: Испания (Paramount Pictures, Mediaset España, Moviestar+, ...)
Жанр: Мультфильм, Комедия, Приключения, Семейный
Продолжительность: 01:24:59
Перевод: Профессиональный дублированный - iTunes
Режиссеры: Давид Алонсо, Энрике Гато / David Alonso, Enrique Gato-Роли озвучивали / дублировали: Оскар Барберан / Пётр Иващенко (Tadeo Jones), Мишель Хеннер / Татьяна Шитова (Sara Lavrof), Адриана Угарте / Анна Киселёва (Tiffany), Луис Посада / Илья Хвостиков (Momia), Мигель Анхель Хеннер / Михаил Белякович (Jack Rackham), Хосе Корбачо / Александр Новиков (Taxista), Росер Баталья (Secuaz Mujer), Рафаэль Калво / Александр Новиков (Obrero 1), Давид Брау / Антон Колесников (Obrero 2), Франческ Бельда / Александр Новиков (Secuaz musculoso / Capataz), Пабло Гомез / Олег Новиков (Marinero), Мануэль Осто / Григорий Маликов (Anticuario)-Описание: Тэд, не самый удачливый и ловкий исследователь и путешественник, и его странноватые друзья, в числе которых настоящая мумия и смышленый пес Джефф, отправляются на розыски злобного богача Джека Рэкхема, похитившего Сару. Любимая Тэда обнаружила, где спрятаны сокровища легендарного царя Мидаса, и злодей надеется их заполучить. Но Тэд и его команда должны разрушить планы беспринципного богача и освободить Сару!-Премьера: 13 июня 2017 (19 октября 2017)
Бюджет: €9 000 000

.
За исходный BD 3D спасибо и igornissan!
-Качество: BDRip (by Ash61)
Контейнер: MKV
Формат 3D: Half OverUnder / Вертикальная анаморфная стереопара
Порядок ракурсов: левый ракурс первый-Видео: AVC / 1920х1080p / 23,976 fps / 8000 Kbps
Аудио:
#1 - Русский / AC3 / 48 KHz / 5.1 ch / 384 Kbps (Дубляж - iTunes)
#2 - Английский / AC3 / 48 KHz / 5.1 ch / 384 Kbps (Dubbing - iTunes)
Субтитры (SRT):
Вшитые (softsub):
#1 - Русские Форсированные (включены по умолчанию)
#2 - Русские Полные
Внешние (UTF-8):
#1 - Русские Форсированные (включены по умолчанию)
#2 - Русские Полные

MediaInfo

General
Unique ID : 234539898039811586284518075974917735980 (0xB072BDC4733800B6856E6A0EE3D2C62C)
Complete name : D:TadeoJones2(2017)3D-halfOU(Ash61)iTunesTadeoJones2(2017)3D-halfOU(Ash61)iTunes.mkv
Format : Matroska
Format version : Version 4 / Version 2
File size : 5.21 GiB
Duration : 1h 24mn
Overall bit rate : 8 772 Kbps
Movie name : Тэд-путешественник и тайна царя Мидаса / Tadeo Jones 2: El secreto del Rey Midas / Tad the Lost Explorer and the Secret of King Midas (2017) in 3D
Encoded date : UTC 2018-01-14 17:08:14
Writing application : mkvmerge v19.0.0 ('Brave Captain') 64-bit
Writing library : libebml v1.3.5 + libmatroska v1.4.8
Video
ID : 1
Format : AVC
Format/Info : Advanced Video Codec
Format profile : High@L4.1
Format settings, CABAC : Yes
Format settings, ReFrames : 4 frames
Codec ID : V_MPEG4/ISO/AVC
Duration : 1h 24mn
Bit rate : 8 000 Kbps
Width : 1 920 pixels
Height : 1 080 pixels
Display aspect ratio : 16:9
Frame rate mode : Constant
Frame rate : 23.976 (24000/1001) fps
Color space : YUV
Chroma subsampling : 4:2:0
Bit depth : 8 bits
Scan type : Progressive
Bits/(Pixel*Frame) : 0.161
Stream size : 4.75 GiB (91%)
Title : BDRip by Ash61
Writing library : x264 core 146 r2538 121396c
Encoding settings : cabac=1 / ref=4 / deblock=1:-3:-3 / analyse=0x3:0x113 / me=umh / subme=10 / psy=1 / psy_rd=1.00:0.00 / mixed_ref=1 / me_range=32 / chroma_me=1 / trellis=2 / 8x8dct=1 / cqm=0 / deadzone=21,11 / fast_pskip=0 / chroma_qp_offset=-2 / threads=12 / lookahead_threads=2 / sliced_threads=0 / nr=0 / decimate=0 / interlaced=0 / bluray_compat=0 / constrained_intra=0 / bframes=8 / b_pyramid=2 / b_adapt=2 / b_bias=0 / direct=3 / weightb=1 / open_gop=0 / weightp=2 / keyint=250 / keyint_min=23 / scenecut=40 / intra_refresh=0 / rc_lookahead=60 / rc=2pass / mbtree=0 / bitrate=8000 / ratetol=1.0 / qcomp=0.70 / qpmin=0 / qpmax=69 / qpstep=4 / cplxblur=20.0 / qblur=0.5 / vbv_maxrate=40000 / vbv_bufsize=30000 / nal_hrd=none / filler=0 / frame-packing=4 / ip_ratio=1.40 / pb_ratio=1.30 / aq=1:0.70
Language : Spanish
Default : Yes
Forced : No
Audio #1
ID : 2
Format : AC-3
Format/Info : Audio Coding 3
Mode extension : CM (complete main)
Format settings, Endianness : Big
Codec ID : A_AC3
Duration : 1h 24mn
Bit rate mode : Constant
Bit rate : 384 Kbps
Channel(s) : 6 channels
Channel positions : Front: L C R, Side: L R, LFE
Sampling rate : 48.0 KHz
Frame rate : 31.250 fps (1536 spf)
Compression mode : Lossy
Stream size : 233 MiB (4%)
Title : Дубляж - iTunes
Language : Russian
Default : Yes
Forced : No
Audio #2
ID : 3
Format : AC-3
Format/Info : Audio Coding 3
Mode extension : CM (complete main)
Format settings, Endianness : Big
Codec ID : A_AC3
Duration : 1h 24mn
Bit rate mode : Constant
Bit rate : 384 Kbps
Channel(s) : 6 channels
Channel positions : Front: L C R, Side: L R, LFE
Sampling rate : 48.0 KHz
Frame rate : 31.250 fps (1536 spf)
Compression mode : Lossy
Stream size : 233 MiB (4%)
Title : Dubbing - iTunes
Language : English
Default : No
Forced : No
Text #1
ID : 4
Format : UTF-8
Codec ID : S_TEXT/UTF8
Codec ID/Info : UTF-8 Plain Text
Duration : 1h 13mn
Bit rate : 1 bps
Count of elements : 18
Stream size : 559 Bytes (0%)
Title : Форсированные
Language : Russian
Default : Yes
Forced : No
Text #2
ID : 5
Format : UTF-8
Codec ID : S_TEXT/UTF8
Codec ID/Info : UTF-8 Plain Text
Duration : 1h 24mn
Bit rate : 75 bps
Count of elements : 1000
Stream size : 47.0 KiB (0%)
Title : Полные
Language : Russian
Default : No
Forced : No
Menu
00:00:00.000 : :1
00:04:23.305 : :2
00:10:52.485 : :3
00:17:06.984 : :4
00:22:32.351 : :5
00:27:33.151 : :6
00:33:01.396 : :7
00:36:20.762 : :8
00:43:11.380 : :9
00:50:25.773 : :10
00:55:26.907 : :11
00:59:23.226 : :12
01:05:02.857 : :13
01:14:30.716 : :14
01:17:35.276 : :15

Для оценки 3Д - Анимированные скрины















admin

Post 29-Nov-2017 04:31

[Quote]

Рождественская история в 3Д / A Christmas Carol 3D Год выпуска: 2009
Страна: США
Студия: Walt Disney Pictures, ImageMovers
Жанр: мультфильм, фэнтези, драма, семейный
Продолжительность: 01:35:48Перевод: Профессиональный (дублированный) + украинский дубляж + оригинальная дорога
Русские субтитры: есть
Режиссер: Роберт Земекис / Robert Zemeckis
В ролях: Джим Керри, Стив Валентайн, Дэрил Сабара, Сэйдж Райан, Эмбер Гейни Миде, Райан Очоа, Бобби Пейдж, Рон Боттитта, Сэмми Ханратти, Джулиан Холлоуэй
Роли озвучивали: Александр Филиппенко, Андрей Лёвин, Вадим Романов, Максим Сергеев, Юрий Лазарев
Описание:
Это викторианская поучительная история о старом и ожесточившемся скупердяе Эбенезере Скрудже, который в течение одной ночи переживает испытание глубокого очищения. Мистер Скрудж — финансист/денежный меняла, который посвятил всю свою жизнь накоплению богатства. Он презирает всё, кроме денег, включая дружбу, любовь и рождественские праздники.
Качество: BDrip
Контейнер: MKV
Формат 3D: Half OverUnder / Вертикальная анаморфная стереопара
Порядок ракурсов: левый ракурс первый
Видео кодек: x264
Аудио кодек: AC3
Видео: AVC / High@L4.1 / 23,976 fps / 1920х1080p / 6272 Kbps
Аудио: AC3 / 5.1 ch / 640 kbps / русский дубляж (по умолчанию)
Аудио 2: AC3 / 5.1 ch / 640 kbps / украинский дубляж
Аудио 3: DTS / 5.1 ch / 1510 kbps / Original (английский)
Субтитры: есть (русские форсированные (по умолчанию), русские полные и комментарии на русском, украинские форсированные, украинские полные и комментраии на украинском, английские полные)
Дополнительно: Сохранены оригинальные чаптеры как на Blu-ray.
Рип от: Killbrain-----------------------------------------------------------------------------------------
Проверено на оборудовании:
3D медиаплеер: iconBIT XDS73D
3D телевизор: 3D LED-Телевизор 40" Samsung UE40 ES6850M
----------------------------------------------------------------------------------------

Знаете ли вы, что...

- Режиссер картины, Роберт Земекис не работал с «Walt Disney Company» с 1988 года. Именно тогда он поставил свой анимированный фильм «Кто подставил кролика Роджера».- «Рождественская история» это уже третья по счёту диснеевская адаптация классической повести Чарльза Диккенса. В 1983 году вышел мультфильм «Веселое Рождество у Микки», в которой приняли участие практически все персонажи диснеевской анимационной классики. Девять лет спустя, в 1992 году, на экраны вышла кукольная версия «Рождественский гимн Маппет-шоу», прокатчиком которой была также студия Disney.- Это первый проект Джима Керри на студии Disney за всю его многолетнюю актёрскую карьеру.- В доме Крэтчитов можно заметить портрет автора «Рождественской истории» Чарльза Диккенса, висящий над камином.- Когда Скрудж падает в свою могилу, мы можем увидеть момент, когда камера приближается к лицу Призрака Грядущего Рождества, и его пустые глазницы вспыхивают голубым огнём. Это прямая отсылка к Смерти из цикла «Плоский мир» популярного британского писателя Терри Пратчетта: «Его глазницы пусты, но в их глубине горят крохотные синие огоньки».

Технические детали съёмки:

Формат изображения: 1.44 : 1 (IMAX 3-D version)
1.85 : 1 (3-D version)
2.35 : 1Формат копии: 35 mm (anamorphic)
70 mm (horizontal) (IMAX version)
70 mm (horizontal) (Kodak Vision 2383) (IMAX DMR blow-up) (dual-strip 3-D)
D-Cinema (3-D version)Формат съёмок: DigitalИзображение: цветное

MediaInfo:

Общее
Уникальный идентификатор : 194979049765993518462197628000424658876 (0x92AF995B2919C932BAB4CB2A223387BC)
Полное имя : F:\Скачка торрент\A.christmas.carol.3D.BDRip1080p.HalfOverUnder.(Killbrain).mkv
Формат : Matroska
Версия формата : Version 2
Размер файла : 6,19 Гбайт
Продолжительность : 1 ч. 35 м.
Общий поток : 9246 Кбит/сек
Название фильма : A Christmas Carol (2009) (3D) by Killbrain
Дата кодирования : UTC 2012-09-17 21:57:11
Программа кодирования : mkvmerge v5.8.0 ('No Sleep / Pillow') built on Sep 2 2012 15:37:04
Библиотека кодирования : libebml v1.2.3 + libmatroska v1.3.0Видео
Идентификатор : 1
Формат : AVC
Формат/Информация : Advanced Video Codec
Профиль формата : High@L4.1
Параметр CABAC формата : Да
Параметр ReFrames формата : 4 кадра
Идентификатор кодека : V_MPEG4/ISO/AVC
Битрейт : 6272 Кбит/сек
Ширина : 1920 пикселей
Высота : 1080 пикселей
Соотношение сторон : 16:9
Режим частоты кадров : Переменный
Частота кадров в оригинале : 23,976 кадра/сек
Цветовое пространство : YUV
Субдискретизация насыщенности : 4:2:0
Битовая глубина : 8 бит
Тип развёртки : Прогрессивная
Заголовок : A Christmas Carol (2009) (3D)
Библиотека кодирования : x264 core 125 r2208 d9d2288
Настройки программы : cabac=1 / ref=4 / deblock=1:-3:-3 / analyse=0x3:0x113 / me=umh / subme=9 / psy=1 / psy_rd=1.00:0.15 / mixed_ref=1 / me_range=24 / chroma_me=1 / trellis=2 / 8x8dct=1 / cqm=0 / deadzone=21,11 / fast_pskip=1 / chroma_qp_offset=-3 / threads=3 / lookahead_threads=1 / sliced_threads=0 / slices=4 / nr=0 / decimate=1 / interlaced=0 / bluray_compat=0 / constrained_intra=0 / bframes=6 / b_pyramid=2 / b_adapt=2 / b_bias=0 / direct=3 / weightb=1 / open_gop=0 / weightp=2 / keyint=250 / keyint_min=23 / scenecut=40 / intra_refresh=0 / rc_lookahead=60 / rc=crf / mbtree=1 / crf=17.0 / qcomp=0.70 / qpmin=0 / qpmax=69 / qpstep=4 / vbv_maxrate=40000 / vbv_bufsize=40000 / crf_max=0.0 / nal_hrd=none / frame-packing=4 / ip_ratio=1.40 / aq=1:0.70
Язык : English
Default : Да
Forced : НетАудио #1
Идентификатор : 2
Формат : AC-3
Формат/Информация : Audio Coding 3
Расширение режима : CM (complete main)
Параметр Endianness формата : Big
Идентификатор кодека : A_AC3
Продолжительность : 1 ч. 35 м.
Вид битрейта : Постоянный
Битрейт : 640 Кбит/сек
Каналы : 6 каналов
Расположение каналов : Front: L C R, Side: L R, LFE
Частота : 48,0 КГц
Битовая глубина : 16 бит
Метод сжатия : С потерями
Размер потока : 439 Мбайт (7%)
Заголовок : AC3 / 5.1 ch / 640 kbps / русский дубляж
Язык : Russian
Default : Да
Forced : НетАудио #2
Идентификатор : 3
Формат : AC-3
Формат/Информация : Audio Coding 3
Расширение режима : CM (complete main)
Параметр Endianness формата : Big
Идентификатор кодека : A_AC3
Продолжительность : 1 ч. 35 м.
Вид битрейта : Постоянный
Битрейт : 640 Кбит/сек
Каналы : 6 каналов
Расположение каналов : Front: L C R, Side: L R, LFE
Частота : 48,0 КГц
Битовая глубина : 16 бит
Метод сжатия : С потерями
Размер потока : 439 Мбайт (7%)
Заголовок : AC3 / 5.1 ch / 640 kbps / украинский дубляж
Язык : Ukrainian
Default : Нет
Forced : НетАудио #3
Идентификатор : 4
Формат : DTS
Формат/Информация : Digital Theater Systems
Идентификатор кодека : A_DTS
Продолжительность : 1 ч. 35 м.
Вид битрейта : Постоянный
Битрейт : 1510 Кбит/сек
Каналы : 6 каналов
Расположение каналов : Front: L C R, Side: L R, LFE
Частота : 48,0 КГц
Битовая глубина : 24 бит
Метод сжатия : С потерями
Размер потока : 1,01 Гбайт (16%)
Заголовок : DTS / 5.1 ch / 1510 kbps / Original
Язык : English
Default : Нет
Forced : НетТекст #1
Идентификатор : 5
Формат : UTF-8
Идентификатор кодека : S_TEXT/UTF8
Идентификатор кодека/Информация : UTF-8 Plain Text
Заголовок : русские форсированные
Язык : Russian
Default : Да
Forced : НетТекст #2
Идентификатор : 6
Формат : UTF-8
Идентификатор кодека : S_TEXT/UTF8
Идентификатор кодека/Информация : UTF-8 Plain Text
Заголовок : русские полные
Язык : Russian
Default : Нет
Forced : НетТекст #3
Идентификатор : 7
Формат : UTF-8
Идентификатор кодека : S_TEXT/UTF8
Идентификатор кодека/Информация : UTF-8 Plain Text
Заголовок : комментарии на русском
Язык : Russian
Default : Нет
Forced : НетТекст #4
Идентификатор : 8
Формат : UTF-8
Идентификатор кодека : S_TEXT/UTF8
Идентификатор кодека/Информация : UTF-8 Plain Text
Заголовок : украинские форсированные
Язык : Ukrainian
Default : Нет
Forced : НетТекст #5
Идентификатор : 9
Формат : UTF-8
Идентификатор кодека : S_TEXT/UTF8
Идентификатор кодека/Информация : UTF-8 Plain Text
Заголовок : украинские полные
Язык : Ukrainian
Default : Нет
Forced : НетТекст #6
Идентификатор : 10
Формат : UTF-8
Идентификатор кодека : S_TEXT/UTF8
Идентификатор кодека/Информация : UTF-8 Plain Text
Заголовок : комментарии на украинском
Язык : Ukrainian
Default : Нет
Forced : НетТекст #7
Идентификатор : 11
Формат : UTF-8
Идентификатор кодека : S_TEXT/UTF8
Идентификатор кодека/Информация : UTF-8 Plain Text
Заголовок : английские полные
Язык : English
Default : Нет
Forced : НетМеню
00:00:00.000 : :01
00:07:39.459 : :02
00:16:04.046 : :03
00:29:14.752 : :04
00:37:13.230 : :05
00:41:04.461 : :06
00:44:54.274 : :07
00:57:07.090 : :08
01:01:44.325 : :09
01:08:41.951 : :10
01:11:08.013 : :11
01:16:13.568 : :12
01:19:31.766 : :13
01:25:21.866 : :14
01:27:20.526 : :15
01:30:19.413 : :16

Скриншоты:

Чёрно-белые скриншоты в анаглифе для оценки качества 3Д:

admin

Post 29-Nov-2017 04:25

[Quote]

-Робинзон Крузо: Очень обитаемый остров
Robinson Crusoe- Год выпуска: 2016
Страна: Франция, Бельгия (StudioCanal, nWave Pictures, Illuminata Pictures)
Жанр: Мультфильм, Комедия, Приключения
Продолжительность: 01:30:28
Перевод: Профессиональный дублированный - Лицензия
Режиссеры: Винсент Кестелут, Бен Стассен / Vincent Kesteloot, Ben Stassen-Роли озвучивали (на русском): Пётр Иващенко (Робинзон Крузо), Сергей Чихачев (Вторник)-Описание: Все знают историю о Робинзоне Крузо, попавшем на необитаемый остров. Однако, как же можно назвать его необитаемым, если он населен разнообразными веселыми животными и птицами? Они очень удивились, впервые встретив это странное существо, и даже приняли его за морское чудовище. Попугаю по кличке Вторник и его друзьям — хамелеону, тапиру и другим обитателям острова предстоит поближе познакомиться с незнакомым зверем «человеком» и вместе с ним пережить массу опасных и веселых приключений.-Доп. инфо: 3Д глубокое, в отличие от большинства современных фильмов - режиссёр тот же, что и снял любимые многими за глубину 3Д Шевели ластами и Шевели ластами 2.-Премьера: 4 февраля 2016 (14 апреля 2016)
.
За исходный BD 3D Custom спасибо -Качество: BDRip (by Ash61) (с BD 3D Ger)
Контейнер: MKV
Формат 3D: Half OverUnder / Вертикальная анаморфная стереопара
Порядок ракурсов: левый ракурс первый-Видео: AVC / 1920х1080p / 23,976 fps / 8574 KbpsАудио:
#1 - Русский / AC3 / 48 KHz / 5.1 ch / 640 Kbps (Дубляж - BD Rus)
#2 - Немецкий / AC3 / 48 KHz / 5.1 ch / 640 Kbps (Дубляж - BD 3D)Субтитры: Отсутствуют

MediaInfo

General
Unique ID : 194663444062757677338650306960596240657 (0x9272D0CB2609EF0D97F11CEF39758911)
Complete name : E:\RobinsonCrusoe(2016)3D-halfOU(Ash61).mkv
Format : Matroska
Format version : Version 2
File size : 6.35 GiB
Duration : 1h 30mn
Overall bit rate : 10.1 Mbps
Movie name : Робинзон Крузо: Очень обитаемый остров / Robinson Crusoe (2016) в 3Д
Encoded date : UTC 2016-07-23 17:36:20
Writing application : mkvmerge v5.8.0 ('No Sleep / Pillow') built on Sep 2 2012 15:37:04
Writing library : libebml v1.2.3 + libmatroska v1.3.0Video
ID : 1
Format : AVC
Format/Info : Advanced Video Codec
Format profile : High@L4.1
Format settings, CABAC : Yes
Format settings, ReFrames : 4 frames
Codec ID : V_MPEG4/ISO/AVC
Duration : 1h 30mn
Bit rate : 8 574 Kbps
Width : 1 920 pixels
Height : 1 080 pixels
Display aspect ratio : 16:9
Frame rate mode : Constant
Frame rate : 23.976 fps
Color space : YUV
Chroma subsampling : 4:2:0
Bit depth : 8 bits
Scan type : Progressive
Bits/(Pixel*Frame) : 0.172
Stream size : 5.42 GiB (85%)
Title : BDRip by Ash61 (с BD 3D Ger)
Writing library : x264 core 146 r2538 121396c
Encoding settings : cabac=1 / ref=4 / deblock=1:-3:-3 / analyse=0x3:0x113 / me=umh / subme=10 / psy=1 / psy_rd=1.00:0.00 / mixed_ref=1 / me_range=32 / chroma_me=1 / trellis=2 / 8x8dct=1 / cqm=0 / deadzone=21,11 / fast_pskip=1 / chroma_qp_offset=-2 / threads=12 / lookahead_threads=3 / sliced_threads=0 / nr=0 / decimate=1 / interlaced=0 / bluray_compat=0 / constrained_intra=0 / bframes=12 / b_pyramid=2 / b_adapt=2 / b_bias=0 / direct=3 / weightb=1 / open_gop=0 / weightp=2 / keyint=250 / keyint_min=23 / scenecut=40 / intra_refresh=0 / rc_lookahead=60 / rc=crf / mbtree=1 / crf=15.0 / qcomp=0.70 / qpmin=0 / qpmax=69 / qpstep=4 / vbv_maxrate=40000 / vbv_bufsize=30000 / crf_max=0.0 / nal_hrd=none / filler=0 / frame-packing=4 / ip_ratio=1.40 / aq=1:0.70
Language : French
Default : Yes
Forced : NoAudio #1
ID : 2
Format : AC-3
Format/Info : Audio Coding 3
Mode extension : CM (complete main)
Format settings, Endianness : Big
Codec ID : A_AC3
Duration : 1h 30mn
Bit rate mode : Constant
Bit rate : 640 Kbps
Channel(s) : 6 channels
Channel positions : Front: L C R, Side: L R, LFE
Sampling rate : 48.0 KHz
Bit depth : 16 bits
Compression mode : Lossy
Stream size : 414 MiB (6%)
Title : Дубляж - BD Rus
Language : Russian
Default : Yes
Forced : NoAudio #2
ID : 3
Format : AC-3
Format/Info : Audio Coding 3
Mode extension : CM (complete main)
Format settings, Endianness : Big
Codec ID : A_AC3
Duration : 1h 30mn
Bit rate mode : Constant
Bit rate : 640 Kbps
Channel(s) : 6 channels
Channel positions : Front: L C R, Side: L R, LFE
Sampling rate : 48.0 KHz
Bit depth : 16 bits
Compression mode : Lossy
Stream size : 414 MiB (6%)
Language : German
Default : No
Forced : NoMenu
00:00:00.000 : :1
00:11:40.323 : :2
00:24:47.067 : :3
00:35:02.266 : :4
00:44:30.208 : :5
00:54:34.271 : :6
01:04:27.280 : :7
01:15:12.632 : :8
01:25:14.650 : :9

Для оценки 3Д - Анимированные скрины




















admin

Post 29-Nov-2017 04:19

[Quote]

-Зверополис
Zootopia
(Русскоязычный видеоряд)- Год выпуска: 2016
Страна: США (Walt Disney Animation Studios)
Жанр: Мультфильм, Боевик, Комедия, Криминал, Приключения, Семейный
Продолжительность: 01:48:44
Перевод: Профессиональный дублированный - лицензия
Режиссеры: Байрон Ховард, Рич Мур, Джаред Буш / Byron Howard, Rich Moore, Jared Bush-Роли озвучивали
Judy Hopps - Джиннифер Гудвин (Мария Ивакова)
Nick Wilde - Джейсон Бейтман (Антон Лаврентьев)
Chief Bogo - Идрис Эльба (Борис Хасанов)
Bellwether - Дженни Слейт (Мария Аронова)
Clawhauser - Нейт Торренс (Андрей Мошков)
Bonnie Hopps - Бонни Хант (Татьяна Шитова)
Stu Hopps - Дон Лейк (Денис Некрасов)
Yax - Томми Чонг (Денис Некрасов)
Mayor Lionheart - Дж.К. Симмонс (Владимир Меньшов)
Mrs. Otterton - Октавия Спенсер (Инга Сметанина)
Duke Weaselton - Алан Тьюдик (Филипп Лебедев)
Gazelle - Шакира (Варвара Чабан)
Priscilla - Кристен Белл-Описание: Добро пожаловать в Зверополис — современный город, населенный самыми разными животными, от огромных слонов до крошечных мышек. Зверополис разделен на районы, полностью повторяющие естественную среду обитания разных жителей — здесь есть и элитный район Площадь Сахары и неприветливый Тундратаун. В этом городе появляется новый офицер полиции, жизнерадостная зайчиха Джуди Хоппс, которая с первых дней работы понимает, как сложно быть маленькой и пушистой среди больших и сильных полицейских. Джуди хватается за первую же возможность проявить себя, несмотря на то, что ее партнером будет болтливый хитрый лис Ник Уайлд. Вдвоем им предстоит раскрыть сложное дело, от которого будет зависеть судьба всех обитателей Зверополиса.-Доп.инфо: Главы проименованы на русском.

Знаете ли вы, что...

  • Это первый из двух анимационных фильмов с участием Идриса Эльбы, предназначенный к выходу в 2016 году. Вторым будет «В поисках Дори».
  • Персонаж Джуди Хоппс в исполнении Джиннифер Гудвин назван в честь персонажа Джуди Хоффс в исполнении Холли Робинсон Пит из сериала «Джамп стрит, 21» (1987).
  • Дюка Хорьковица (в оригинале англ. Duke Weaselton) озвучивает Алан Тьюдик, который также озвучил герцога Варавского (в оригинале англ. Duke of Weselton) в мультфильме «Холодное сердце» (2013). Герцог по-английски «duke».
  • В анимационном «Городе героев» (2014) в эпизоде полёта Бэймакса и Хиро можно увидеть постер «Зверополиса».
  • На футляре телефона Хани Лемон из «Города героев» (2014) изображено главное действующее лицо «Зверополиса».
  • Персонаж Ника Уайлда срисован с диснеевского Робина Гуда из одноимённого мультфильма, который тоже был лисом.
  • Для актёра Алана Тьюдика это работа уже в четвёртом подряд мультфильме, который продюсирует «Walt Disney Animation Studios», после «Ральфа» (2012), «Холодного сердца» (2013) и «Города героев»(2014).
  • Это уже третий мультфильм студии «Disney», в котором действуют антропоморфные животные и в котором нет ни людей, ни не-антропоморфных животных. Первыми двумя были «Робин Гуд» (1973) и «Цыплёнок Цыпа» (2005).
  • Это первый анимационный фильм студии «Disney» после мультфильма «Медвежонок Винни и его друзья» (2011), премьера которого состоится не в ноябре.
Премьера: 11 февраля 2016 (3 марта 2016)
Релиз на Blu-Ray (DVD) (Россия): 3 июня 2016
Бюджет: $150 000 000
Кассовые сборы: $1 023 191 334
Топ 250 Кинопоиска: №50 (19.08.2016г)
Топ 250 IMDb: #152 (28.05.2016г)
.
За исходный БД 3Д спасибо vlaa8!-Качество: BDRip (by Ash61)
Контейнер: MKV
Формат 3D: Half OverUnder / Вертикальная анаморфная стереопара
Порядок ракурсов: левый ракурс первый-Видео: AVC / 1920х1080p / 23,976 fps / 8667 KbpsАудио:
#1 - Русский / AC3 / 48 KHz / 5.1 ch / 640 Kbps (Дубляж - BD 3D CEE)
#2 - Английский / AC3 / 48 KHz / 5.1 ch / 640 Kbps (Original - BD 3D CEE)Субтитры (внешние SRT UTF-8):
#1 - Русские Полные
#2 - Украинские Полные
#3 - English Full

MediaInfo

General
Unique ID : 194401702716693802753997117246369283951 (0x924067F2E7D25D309E6C3BF048A5BF6F)
Complete name : E:\Zootopia(2016)3D-halfOU(Ash61)Video.Rus\Zootopia(2016)3D-halfOU(Ash61)Video.Rus.mkv
Format : Matroska
Format version : Version 2
File size : 7.71 GiB
Duration : 1h 48mn
Overall bit rate : 10.1 Mbps
Movie name : Зверополис / Zootopia (2016) в 3Д
Encoded date : UTC 2016-08-19 15:09:55
Writing application : mkvmerge v5.8.0 ('No Sleep / Pillow') built on Sep 2 2012 15:37:04
Writing library : libebml v1.2.3 + libmatroska v1.3.0Video
ID : 1
Format : AVC
Format/Info : Advanced Video Codec
Format profile : High@L4.1
Format settings, CABAC : Yes
Format settings, ReFrames : 4 frames
Codec ID : V_MPEG4/ISO/AVC
Duration : 1h 48mn
Bit rate : 8 667 Kbps
Width : 1 920 pixels
Height : 1 080 pixels
Display aspect ratio : 16:9
Frame rate mode : Constant
Frame rate : 23.976 fps
Color space : YUV
Chroma subsampling : 4:2:0
Bit depth : 8 bits
Scan type : Progressive
Bits/(Pixel*Frame) : 0.174
Stream size : 6.58 GiB (85%)
Title : BDRip by Ash61 (видеоряд русскоязычный)
Writing library : x264 core 146 r2538 121396c
Encoding settings : cabac=1 / ref=4 / deblock=1:-3:-3 / analyse=0x3:0x113 / me=umh / subme=10 / psy=1 / psy_rd=1.00:0.00 / mixed_ref=1 / me_range=32 / chroma_me=1 / trellis=2 / 8x8dct=1 / cqm=0 / deadzone=21,11 / fast_pskip=1 / chroma_qp_offset=-2 / threads=12 / lookahead_threads=2 / sliced_threads=0 / nr=0 / decimate=1 / interlaced=0 / bluray_compat=0 / constrained_intra=0 / bframes=8 / b_pyramid=2 / b_adapt=2 / b_bias=0 / direct=3 / weightb=1 / open_gop=0 / weightp=2 / keyint=250 / keyint_min=23 / scenecut=40 / intra_refresh=0 / rc_lookahead=60 / rc=crf / mbtree=1 / crf=15.4 / qcomp=0.70 / qpmin=0 / qpmax=69 / qpstep=4 / vbv_maxrate=40000 / vbv_bufsize=30000 / crf_max=0.0 / nal_hrd=none / filler=0 / frame-packing=4 / ip_ratio=1.40 / aq=1:0.70
Language : English
Default : Yes
Forced : NoAudio #1
ID : 2
Format : AC-3
Format/Info : Audio Coding 3
Mode extension : CM (complete main)
Format settings, Endianness : Big
Codec ID : A_AC3
Duration : 1h 48mn
Bit rate mode : Constant
Bit rate : 640 Kbps
Channel(s) : 6 channels
Channel positions : Front: L C R, Side: L R, LFE
Sampling rate : 48.0 KHz
Bit depth : 16 bits
Compression mode : Lossy
Stream size : 498 MiB (6%)
Title : Дубляж - BD CEE
Language : Russian
Default : Yes
Forced : NoAudio #2
ID : 3
Format : AC-3
Format/Info : Audio Coding 3
Mode extension : CM (complete main)
Format settings, Endianness : Big
Codec ID : A_AC3
Duration : 1h 48mn
Bit rate mode : Constant
Bit rate : 640 Kbps
Channel(s) : 6 channels
Channel positions : Front: L C R, Side: L R, LFE
Sampling rate : 48.0 KHz
Bit depth : 16 bits
Compression mode : Lossy
Stream size : 498 MiB (6%)
Title : Original - BD 3D CEE
Language : English
Default : No
Forced : NoMenu
00:00:00.000 : : 1. Пролог
00:00:59.558 : : 2. Гидеон Грей
00:05:50.098 : : 3. Полицейская академия
00:10:05.562 : : 4. Добро пожаловать в Зверополис
00:14:31.537 : : 5. Инспекция парковок
00:18:24.019 : : 6. Лапочки на палочке
00:26:03.353 : : 7. Погоня за Хорьковицем
00:30:57.438 : : 8. Это жульничество
00:37:07.099 : : 9. Клуб натуралистов
00:40:43.440 : : 10. Управление Дорожно-Хвостовой Службы
00:44:31.751 : : 11. Мистер Биг
00:51:40.429 : : 12. Одичавший Манчас
00:55:40.378 : : 13. Гондола
01:00:48.268 : : 14. Помощь Барашкис
01:03:37.855 : : 15. Клиника на Утёсе
01:09:19.822 : : 16. Мы раскрыли дело
01:13:39.163 : : 17. Хопс сдаётся
01:17:07.372 : : 18. Извинения Хопс
01:21:52.364 : : 19. Лаборатория Дугласа
01:28:19.167 : : 20. Музей естественной истории
01:32:43.431 : : 21. Эпилог
01:36:12.140 : : 22. Финальные титры

Для оценки 3Д - Анимированные скрины




















19.08.2016. Релиз обновлён - видеоряд заменён на русскоязычный, русская дорога iTunes заменена на лицензию.
Желающие, скачайте заново торрент-файл.

admin

Post 29-Nov-2017 04:14

[Quote]

-МоанаMoana
«Океан зовёт!»- Год выпуска: 2016
Страна: США (Walt Disney Pictures, Walt Disney Animation Studios)
Жанр: Мультфильм, Мюзикл, Фэнтези, Комедия, Приключения, Семейный
Продолжительность: 01:47:20
Перевод: Профессиональный дублированный (лицензия)
Режиссеры: Рон Клементс, Дон Холл, Джон Маскер, Крис Уильямс / Ron Clements, Don Hall, John Musker, Chris Williams-Роли озвучивали
Moana - Аулии Кравалхо (Зина Куприянович)
Maui - Дуэйн Джонсон (Григорий Сиятвинда)
Gramma Tala - Рэйчел Хаус (Мариам Мерабова)
Chief Tui - Темуэра Моррисон (Денис Клявер)
Tamatoa - Джемейн Клемент (Илья Лагутенко)
Sina - Николь Шерзингер (Юлианна Караулова)
Heihei / Villager #3 - Алан Тьюдик
Fisherman - Оскар Кайтли
Villager #1 - Трой Поламалу
Villager #2 - Пуанани Кравальо
Toddler Moana - Луиз Буш-Описание: Бесстрашная Моана, дочь вождя маленького племени на острове в Тихом океане, больше всего на свете мечтает о приключениях и решает отправиться в опасное морское путешествие. Вместе с некогда могущественным полубогом Мауи им предстоит пересечь океан, сразиться со страшными чудовищами и разрушить древнее заклятие.-Премьера: 14 ноября 2016 (1 декабря 2016)
Релиз на Blu-Ray (DVD) (Россия): 27 марта 2017
Бюджет: $150 000 000
Кассовые сборы: $565 247 918
.

Знаете ли вы, что...

  • Моана — первая полинезийская принцесса в классическом диснеевском фильме.
  • Выбор девушки Моаны на роль мореплавательницы необычен тем, что большинство полинезийских навигаторов — мужчины. Во время навигации очень важно уметь читать свой курс, для чего нужно садиться на дно лодки и «чувствовать» движение океанской волны через самую чувствительную часть тела — яички.
  • Слово «моана» означает «океан» или «море» на гавайском и маори. Это же слово используется для обозначения синего цвета.
  • Это первый полнометражный компьютерный анимационный фильм сценаристов и режиссеров Джона Маскера и Рона Клементса. До этого творческий тандем работал только с рисованной анимацией, а именно: «Великий мышиный сыщик» (1986), «Русалочка» (1989), «Аладдин» (1992), «Геркулес» (1997), «Планета сокровищ» (2002) и «Принцесса и лягушка» (2009).
  • Это вторая картина режиссеров Джона Маскера и Рона Клементса после «Русалочки» (1989), где события разворачиваются в океане.
  • Несмотря на то, что это компьютерный анимационный фильм, все татуировки персонажа Мауи нарисованы от руки.
  • Это 20-ый анимационный фильм студии Disney, названный просто в честь главного персонажа. Среди остальных: «Белоснежка и семь гномов» (1937), «Пиноккио» (1940), «Дамбо» (1941), «Бэмби» (1942), «Золушка» (1950), «Питер Пэн» (1953), «Леди и Бродяга» (1955), «Робин Гуд» (1973), «Оливер и компания» (1988), «Аладдин» (1992), «Покахонтас» (1995), «Геркулес» (1997), «Мулан» (1998), «Тарзан» (1999), «Лило и Стич» (2002), «Цыпленок Цыпа» (2005), «Вольт» (2008), «Медвежонок Винни и его друзья» (2011) и «Ральф» (2012).
  • Фирменный знак студии: Босоногий персонаж: все человеческие персонажи на протяжении всего фильма ходят босиком.
  • Режиссеры Джон Маскер и Рон Клементс на целые месяцы с головой погрузились в изучение полинезийской культуры, чтобы создать картину, которая бы с уважением относилась к мифологии и культуре полинезийского народа.
  • Главная героиня живёт на острове Мотунуи, которого на самом деле не существует — создатели не захотели рассматривать культуру лишь одного острова и решили отдать дань уважения им всем.
  • В Бельгии, Хорватии, Германии, Венгрии, Норвегии, Польше, Португалии, Испании, Швеции, Нидерландах и на Украине мультфильм назывется «Ваяна» из-за проблем с авторским правами. Во Франции он называется «Ваяна: Легенда о конце света», а в Латинской Америке имеет подзаголовок: «Морские приключения». В Китае «Моану» переименовали в «Океанский романс». В Италии название фильма изменят на «Океанию», а главную героиню зовут Ваяна, чтобы не вызывать ассоциацию с порноактрисой Моаной Поцци.
  • «Моана» является первым мультфильмом, который будет переведён на таитянский.
  • К моменту проведения кастинга Аулии Кравалхо, дизайн Моаны был окончательно завершён.
  • Изначально петух Хей-хей был задуман как вспыльчивый задира, но затем его характер резко изменили и он стал «очень, очень глупым».
  • Более 700 набросков проекта были созданы Джаредом Бушем за первый год работы на проекте.
  • Некоторые из мест, посещённых аниматорами во время исследования, оказали большое влияние на фильм, такие как Фиджи, Самоа и Таити.
  • Аули Кравалхо — самая юная актриса, озвучившая принцессу (дочь правителя) в анимационных фильмах студии Disney. На момент работы над фильмом ей было 14.
  • После анимационного фильма Криса Сандерса «Лило и Стич», действие которого разворачивается на Гавайских островах (2002), «Моана» — второй фильм студии Disney, события которого происходят в Полинезии.
  • На озвучивание роли Моаны пробовалась Дина Джейн Хансен из образованной в 2012 году американской гёрл-группы Fifth Harmony.
  • Первый фильм, продюсером которого выступил Оснат Шурер, вице-президент Walt Disney Animation Studios.
  • Контракт с Лином-Мануэлем Мирандой на написание музыки для анимационного фильма «Моана» подписали ещё до того, как бродвейский мюзикл «Гамильтон» (2015) завоевал международное признание. Слова и музыку к мюзиклу написал Миранда, он же и играл в нём поначалу. После подписания контракта Миранда часто общался со съёмочной группой фильма «Моана» по «скайпу» из-за кулис, иногда даже не сняв сценического костюма.
  • Один из немногих анимационных фильмов студии Disney, в котором каждый актёр на озвучивании имитирует движение губ своего персонажа. Таким образом, запись диалогов была закончена всего за 4 месяца до премьеры фильма. Обычно диалоги записывают ещё до начала анимации (или же ближе к концу работы над фильмом).
  • Второй фильм студии Disney после фильма «Вольт» (Крис Уильямс и Байрон Ховард, 2008), в котором применяется в основном метод компьютерной анимации с небольшими вкраплениями традиционной рисованной анимации.
  • Петух Хей-Хей и поросёнок Пуа срисованы с режиссёров фильма Джона Маскера и Рона Клементса. У Маскера и Клементса есть традиция, согласно которой во всех их фильмах, начиная с «Русалочки» (1989) обязательно присутствуют персонажи, чей облик является карикатурой на их собственный. В прежних фильмах срисованные с них персонажи появлялись лишь в эпизодических ролях, однако теперь они играют второстепенных персонажей — преданных помощников Моаны.

    Осторожно, остальные факты содержат спойлеры!

    • Моана является второй диснеевской принцессой (после Мериды из картины «Храбрая сердцем» (2012)), чья история не основана на сказке или легенде, и у которой, к тому же, нет романтической линии.
    • В трейлере, а также в самом фильме показано, что Мауи превращается в сокола. Такой способностью он обладает в мифах маори.
    • Когда Моана и Мауи попадают в пещеру к Таматоа, и там Мауи пытается во время боя с Томатоа превратиться в Сокола, то в попытках при превращении Мауи случайно превращается в разных животных, одним из которым оказывается олень Свен, из еще предыдущего полнометражного мультфильма Дисней «Холодное сердце».
    • В трейлере к фильму Мауи заявляет, что может замедлять бег Солнца волшебным рыболовным крючком, и что это именно он вытащил сушу из океанских глубин. Это сюжет легенд народа маори, рассказывающих о происхождении Новой Зеландии. По легендам, Мауи вытащил её из-под воды, пока рыбачил. Движение Солнца по небу он замедлил, когда решил, что дни слишком коротки. Есть, однако, легенды, согласно которым Мауи замедлил бег Солнца, поймав его рыболовной сетью.
    • В анимационном фильме «Зверополис» (Байрон Ховард, Рич Мур и Джаред Буш, 2016) на прилавке с дисками ("Они ещё не вышли в прокат», — говорит Дюк Хорьковиц) можно заметить диск будущего фильма «Моана».
    • «Крик Гуфи» (один из легендарных сэмплов, которые используются в кинематографе десятки лет) звучит, когда Мауи прыгает в Царство Чудищ. Таким образом, «Моана» (2016) стал первым фильмом Disney, созданным посредством компьютерной анимации, где использован «крик Гуфи».
Качество: BDRip (by Ash61)
Контейнер: MKV
Формат 3D: Half OverUnder / Вертикальная анаморфная стереопара
Порядок ракурсов: левый ракурс первый-Видео: AVC / 1920х1080p / 23,976 fps / 15.0 MbpsАудио:
#1 - Русский / AC3 / 48 KHz / 5.1 ch / 640 Kbps (Дубляж - BD Eur)
#2 - Английский / AC3 / 48 KHz / 5.1 ch / 640 Kbps (Original - BD 3D)Субтитры (внешние SRT UTF-8):
#1 - Русские Полные (iTunes)
#2 - English Full
#3 - English SDH

MediaInfo

General
Unique ID : 214987436504928640223083613034047999331 (0xA1BD12FC5BD80409B21421FB49220D63)
Complete name : E:\Moana(2016)3D-halfOU(Ash61)\Moana(2016)3D-halfOU(Ash61).mkv
Format : Matroska
Format version : Version 2
File size : 12.4 GiB
Duration : 1h 47mn
Overall bit rate : 16.6 Mbps
Movie name : Моана / Moana (2016) в 3Д
Encoded date : UTC 2017-03-22 16:48:05
Writing application : mkvmerge v5.8.0 ('No Sleep / Pillow') built on Sep 2 2012 15:37:04
Writing library : libebml v1.2.3 + libmatroska v1.3.0Video
ID : 1
Format : AVC
Format/Info : Advanced Video Codec
Format profile : High@L4.1
Format settings, CABAC : Yes
Format settings, ReFrames : 4 frames
Codec ID : V_MPEG4/ISO/AVC
Duration : 1h 47mn
Bit rate : 15.0 Mbps
Width : 1 920 pixels
Height : 1 080 pixels
Display aspect ratio : 16:9
Frame rate mode : Constant
Frame rate : 23.976 fps
Color space : YUV
Chroma subsampling : 4:2:0
Bit depth : 8 bits
Scan type : Progressive
Bits/(Pixel*Frame) : 0.301
Stream size : 11.2 GiB (90%)
Title : BDRip by Ash61
Writing library : x264 core 146 r2538 121396c
Encoding settings : cabac=1 / ref=4 / deblock=1:-3:-3 / analyse=0x3:0x113 / me=umh / subme=10 / psy=1 / psy_rd=1.00:0.00 / mixed_ref=1 / me_range=32 / chroma_me=1 / trellis=2 / 8x8dct=1 / cqm=0 / deadzone=21,11 / fast_pskip=1 / chroma_qp_offset=-2 / threads=12 / lookahead_threads=3 / sliced_threads=0 / nr=0 / decimate=1 / interlaced=0 / bluray_compat=0 / constrained_intra=0 / bframes=12 / b_pyramid=2 / b_adapt=2 / b_bias=0 / direct=3 / weightb=1 / open_gop=0 / weightp=2 / keyint=250 / keyint_min=23 / scenecut=40 / intra_refresh=0 / rc_lookahead=60 / rc=crf / mbtree=1 / crf=14.7 / qcomp=0.70 / qpmin=0 / qpmax=69 / qpstep=4 / vbv_maxrate=40000 / vbv_bufsize=30000 / crf_max=0.0 / nal_hrd=none / filler=0 / frame-packing=4 / ip_ratio=1.40 / aq=1:0.70
Language : English
Default : Yes
Forced : NoAudio #1
ID : 2
Format : AC-3
Format/Info : Audio Coding 3
Mode extension : CM (complete main)
Format settings, Endianness : Big
Codec ID : A_AC3
Duration : 1h 47mn
Bit rate mode : Constant
Bit rate : 640 Kbps
Channel(s) : 6 channels
Channel positions : Front: L C R, Side: L R, LFE
Sampling rate : 48.0 KHz
Bit depth : 16 bits
Compression mode : Lossy
Stream size : 491 MiB (4%)
Title : Дубляж - BD Eur
Language : Russian
Default : Yes
Forced : NoAudio #2
ID : 3
Format : AC-3
Format/Info : Audio Coding 3
Mode extension : CM (complete main)
Format settings, Endianness : Big
Codec ID : A_AC3
Duration : 1h 47mn
Bit rate mode : Constant
Bit rate : 640 Kbps
Channel(s) : 6 channels
Channel positions : Front: L C R, Side: L R, LFE
Sampling rate : 48.0 KHz
Bit depth : 16 bits
Compression mode : Lossy
Stream size : 491 MiB (4%)
Title : Original
Language : English
Default : No
Forced : NoMenu
00:00:00.000 : :1
00:07:15.685 : :2
00:11:59.802 : :3
00:16:13.764 : :4
00:21:29.578 : :5
00:28:02.806 : :6
00:32:11.346 : :7
00:35:16.280 : :8
00:41:36.869 : :9
00:45:04.867 : :10
00:49:10.322 : :11
00:53:21.030 : :12
00:57:33.324 : :13
01:05:45.023 : :14
01:10:46.074 : :15
01:12:52.117 : :16
01:15:41.953 : :17
01:23:17.074 : :18
01:29:50.926 : :19
01:36:13.725 : :20

Для оценки 3Д - Анимированные скрины















admin

Post 29-Nov-2017 04:08

[Quote]

-Тайная жизнь домашних животныхThe Secret Life of Pets
«Думаете, они ждут вас у порога весь день?»- Год выпуска: 2016
Страна: Япония, США (Universal Pictures, Illumination Entertainment, Chris Meledandri Production)
Жанр: Мультфильм, Комедия, Приключения, Семейный
Продолжительность: 01:26:28Перевод: Профессиональный дублированный (Лицензия)Режиссеры: Ярроу Чейни, Крис Рено / Yarrow Cheney, Chris Renaud-Роли озвучивали
Max - Луис С.К. (Сергей Смирнов)
Duke - Эрик Стоунстрит (Юрий Брежнев)
Snowball - Кевин Харт (Илья Исаев)
Gidget - Дженни Слейт (Вероника Саркисова)
Katie - Элли Кемпер (Ирина Киреева)
Tiberius - Альберт Брукс (Тимофей Спивак)
Chloe - Лэйк Белл (Анастасия Лапина)
Pops - Дэна Карви (Алексей Колган)
Buddy - Хэннибал Бёресс (Данил Щебланов)
Mel - Бобби Мойнахан (Константин Карасик)
Norman - Крис Рено (Диомид Виноградов)
Ozone / Reginald - Стив Куган (Иван Калинин / Даниил Эльдаров)
Tattoo - Майкл Битти (Диомид Виноградов)
Maria - Сандра Эчеверриа--Описание: Что делают домашние животные пока хозяева пропадают на работе? С тоской смотрят в окно? Смиренно дремлют на коврике у двери? Как бы не так. Они ведут свою тайную жизнь.--Премьера: 16 июня 2016 (18 августа 2016)
Бюджет: $75 000 000
Кассовые сборы: $871 041 597

Знаете ли вы, что...

  • Первый анимационный фильм в актёрской карьере Эрика Стоунстрита.
  • Третий анимационный фильм, в озвучивании которого принял участие Стив Куган. Он уже озвучивал персонажей мультфильмов «Гадкий я 2» (2013) и «Миньоны» (2015).
  • Первый анимационный фильм, в озвучивании героев которого приняли участие Луис С. К. и Кевин Харт.
  • Четвёртый анимационный фильм, один из героев которого говорит голосом Альберта Брукса. Ранее этот актёр принимал участие в озвучивании полнометражных мультфильмов «В поисках Немо» (2003), «Симпсоны в кино» (2007) и «В поисках Дори» (2016).
  • Дженни Слейт и Луис С. К. вместе играли в телесериале «Парки и зоны отдыха» (2009-2015).
  • В апреле 2016 года актёр и комик Сет Майерс и его пёс по кличке Фрисби снялись в рекламе автомобилей, в которой рекламировалась анимационная комедия «Тайная жизнь домашних животных».
  • В трейлере звучит композиция «Downtown».
  • В одной из сцен на стене в квартире можно заметить постер классического фильма Альфреда Хичкока «Птицы».

    Осторожно, следующие факты содержат спойлеры!

    • Песня, которую слушает белый пудель после ухода хозяина, это композиция «Bounce» американской группы System of a Down.
    • В 2008 году в фильме с Мэттью МакКонахи «Золото дураков» Кевин Харт сыграл злодея по кличке Биг Банни ("bunny» по-английски «кролик»). В «Тайной жизни домашних животных» он озвучил одержимого местью кролика по имени Снежок, предводителя армии выброшенных на улицу домашних питомцев.
    • На автобусе, в котором кролик Снежок едет в трейлере, висит рекламный постер компьютерно-анимационного мюзикла Гарта Дженнингса «Путь к славе» производства компании «Illumination Entertainment», выход которого также запланирован на 2016 год.
Качество: BDRip (by Ash61)
Контейнер: MKV
Формат 3D: Half OverUnder / Вертикальная анаморфная стереопара
Порядок ракурсов: левый ракурс первый-Видео: AVC / 1920х1080p / 23,976 fps / 11.7 MbpsАудио:
#1 - Русский / AC3 / 48 KHz / 5.1 ch / 640 Kbps (Дубляж - BD CEE)
#2 - Украинский / AC3 / 48 KHz / 5.1 ch / 640 Kbps (Дубляж - BD CEE)
#3 - Английский / AC3 / 48 KHz / 5.1 ch / 640 Kbps (Original - BD 3D)Субтитры (SRT):
Вшитые (softsub):
#1 - Русские Форсированные [редакция Ash61] (включены по умолчанию)
#2 - Русские Полные
#3 - Украинские Форсированные [редакция Ash61]
#4 - Украинские Полные
#5 - English Full
#6 - English SDHВнешние (UTF-8):
#1 - Русские Форсированные [редакция Ash61] (включены по умолчанию)
#2 - Украинские Форсированные [редакция Ash61]

MediaInfo

General
Unique ID : 170435214919273981915430118017321689479 (0x8038A0DEC39BF93C818519E940806187)
Complete name : E:\TheSecretLifeOfPets(2016)3D-halfOU(Ash61)\TheSecretLifeOfPets(2016)3D-halfOU(Ash61).mkv
Format : Matroska
Format version : Version 2
File size : 8.40 GiB
Duration : 1h 26mn
Overall bit rate : 13.9 Mbps
Movie name : Тайная жизнь домашних животных / The Secret Life of Pets (2016) в 3Д
Encoded date : UTC 2016-12-10 12:32:31
Writing application : mkvmerge v5.8.0 ('No Sleep / Pillow') built on Sep 2 2012 15:37:04
Writing library : libebml v1.2.3 + libmatroska v1.3.0Video
ID : 1
Format : AVC
Format/Info : Advanced Video Codec
Format profile : High@L4.1
Format settings, CABAC : Yes
Format settings, ReFrames : 4 frames
Codec ID : V_MPEG4/ISO/AVC
Duration : 1h 26mn
Bit rate : 11.7 Mbps
Width : 1 920 pixels
Height : 1 080 pixels
Display aspect ratio : 16:9
Frame rate mode : Constant
Frame rate : 23.976 fps
Color space : YUV
Chroma subsampling : 4:2:0
Bit depth : 8 bits
Scan type : Progressive
Bits/(Pixel*Frame) : 0.235
Stream size : 7.07 GiB (84%)
Title : BDRip by Ash61
Writing library : x264 core 146 r2538 121396c
Encoding settings : cabac=1 / ref=4 / deblock=1:-3:-3 / analyse=0x3:0x113 / me=umh / subme=10 / psy=1 / psy_rd=1.00:0.00 / mixed_ref=1 / me_range=32 / chroma_me=1 / trellis=2 / 8x8dct=1 / cqm=0 / deadzone=21,11 / fast_pskip=1 / chroma_qp_offset=-2 / threads=12 / lookahead_threads=3 / sliced_threads=0 / nr=0 / decimate=1 / interlaced=0 / bluray_compat=0 / constrained_intra=0 / bframes=12 / b_pyramid=2 / b_adapt=2 / b_bias=0 / direct=3 / weightb=1 / open_gop=0 / weightp=2 / keyint=250 / keyint_min=23 / scenecut=40 / intra_refresh=0 / rc_lookahead=60 / rc=crf / mbtree=1 / crf=14.5 / qcomp=0.70 / qpmin=0 / qpmax=69 / qpstep=4 / vbv_maxrate=40000 / vbv_bufsize=30000 / crf_max=0.0 / nal_hrd=none / filler=0 / frame-packing=4 / ip_ratio=1.40 / aq=1:0.70
Language : English
Default : Yes
Forced : NoAudio #1
ID : 2
Format : AC-3
Format/Info : Audio Coding 3
Mode extension : CM (complete main)
Format settings, Endianness : Big
Codec ID : A_AC3
Duration : 1h 26mn
Bit rate mode : Constant
Bit rate : 640 Kbps
Channel(s) : 6 channels
Channel positions : Front: L C R, Side: L R, LFE
Sampling rate : 48.0 KHz
Bit depth : 16 bits
Compression mode : Lossy
Stream size : 396 MiB (5%)
Title : Дубляж - BD CEE
Language : Russian
Default : Yes
Forced : NoAudio #2
ID : 3
Format : AC-3
Format/Info : Audio Coding 3
Mode extension : CM (complete main)
Format settings, Endianness : Big
Codec ID : A_AC3
Duration : 1h 26mn
Bit rate mode : Constant
Bit rate : 640 Kbps
Channel(s) : 6 channels
Channel positions : Front: L C R, Side: L R, LFE
Sampling rate : 48.0 KHz
Bit depth : 16 bits
Compression mode : Lossy
Stream size : 396 MiB (5%)
Title : Дубляж - BD CEE
Language : Ukrainian
Default : No
Forced : NoAudio #3
ID : 4
Format : AC-3
Format/Info : Audio Coding 3
Mode extension : CM (complete main)
Format settings, Endianness : Big
Codec ID : A_AC3
Duration : 1h 26mn
Bit rate mode : Constant
Bit rate : 640 Kbps
Channel(s) : 6 channels
Channel positions : Front: L C R, Side: L R, LFE
Sampling rate : 48.0 KHz
Bit depth : 16 bits
Compression mode : Lossy
Stream size : 396 MiB (5%)
Title : Original - BD 3D
Language : English
Default : No
Forced : NoText #1
ID : 5
Format : UTF-8
Codec ID : S_TEXT/UTF8
Codec ID/Info : UTF-8 Plain Text
Title : Форсированные (редакция Ash61)
Language : Russian
Default : Yes
Forced : NoText #2
ID : 6
Format : UTF-8
Codec ID : S_TEXT/UTF8
Codec ID/Info : UTF-8 Plain Text
Title : Полные - BD 3D CEE
Language : Russian
Default : No
Forced : NoText #3
ID : 7
Format : UTF-8
Codec ID : S_TEXT/UTF8
Codec ID/Info : UTF-8 Plain Text
Title : Форсированные (редакция Ash61)
Language : Ukrainian
Default : No
Forced : NoText #4
ID : 8
Format : UTF-8
Codec ID : S_TEXT/UTF8
Codec ID/Info : UTF-8 Plain Text
Title : Полные - BD CEE
Language : Ukrainian
Default : No
Forced : NoText #5
ID : 9
Format : UTF-8
Codec ID : S_TEXT/UTF8
Codec ID/Info : UTF-8 Plain Text
Title : Full
Language : English
Default : No
Forced : NoText #6
ID : 10
Format : UTF-8
Codec ID : S_TEXT/UTF8
Codec ID/Info : UTF-8 Plain Text
Title : SDH
Language : English
Default : No
Forced : NoMenu
00:00:00.000 : :1
00:05:05.847 : :2
00:09:24.063 : :3
00:13:18.840 : :4
00:18:03.666 : :5
00:22:14.458 : :6
00:28:51.855 : :7
00:32:54.848 : :8
00:36:55.839 : :9
00:42:27.295 : :10
00:44:46.767 : :11
00:50:21.227 : :12
00:54:45.407 : :13
00:59:33.987 : :14
01:02:36.544 : :15
01:07:12.362 : :16
01:13:06.841 : :17
01:16:04.602 : :18
01:18:48.057 : :19
01:19:58.836 : :20

Для оценки 3Д - Анимированные скрины















admin

Post 29-Nov-2017 04:01

[Quote]

Гадкий Я 3 / Despicable Me 3- Год выпуска: 2017
Страна: США
Студия: Illumination Entertainment, Universal Pictures
Жанр: Мультфильм, фантастика, боевик, комедия, приключения, семейный
Продолжительность: 01:29:40-Перевод: Профессиональный (дублированный) Лицензия
Русские субтитры: есть
Режиссер на русском: Эрик Гуильон, Кайл Балда, Пьер Коффан
Режиссер на английском: Kyle Balda, Pierre Coffin-Роли озвучивали: Стив Карелл, Кристен Уиг, Трей Паркер, Миранда Косгров, Дэна Гайер, Пьер Коффан, Стив Кугэн, Джули Эндрюс, Дженни Слейт
Описание: Семейная приключенческая комедия «Гадкий я 3 » возвращает зрителям полюбившихся героев, — Грю, его возлюбленную Люси, их трех приемных дочек и армию миньонов. Они изменились, — Грю больше не пытается быть супер злодеем, окончательно став супер папой. События предыдущих фильмов доставили им немало беспокойств, и теперь они надеются на заслуженный покой, но не тут-то было! Новые опасности совсем близко, и справиться с ними будет очень непросто.-Бонусы: Отсутствуют-Качество: BDremux
Контейнер: ISO
Формат 3D: Blu-ray 3D
Порядок ракурсов: левый ракурс первый
Видео кодек: AVC, MVC
Аудио кодек: DTS
Видео: MPEG-4 AVC, 29861 Кбит/с, 1920x1080, MPEG-4 MVC Video 14892 kbps
Аудио: Русский (DTS 5.1 / 48 kHz / 768 Кбит/с)
Субтитры: Русские /53,247 kbps/- -При отсутствии 3Д оборудования релиз можно смотреть в 2ДРаздача обновлена. Звуковая дорога заменена на лицензию. Желающие заново скачайте торрент - файл.-

BDInfo

Disc Title: Despicable Me 3 3D remux emweka
Disc Size: 32 101 218 500 bytes
Protection: AACS
BD-Java: No
Extras: Blu-ray 3D
BDInfo: 0.5.8Notes:BDINFO HOME:
Cinema Squid
http://www.cinemasquid.com/blu-ray/tools/bdinfoINCLUDES FORUMS REPORT FOR:
AVS Forum Blu-ray Audio and Video Specifications Thread
http://www.avsforum.com/avs-vb/showthread.php?t=1155731********************
PLAYLIST: 00000.MPLS
********************<--- BEGIN FORUMS PASTE --->
Код:Total Video
Title Codec Length Movie Size Disc Size Bitrate Bitrate Main Audio Track Secondary Audio Track
----- ------ ------- -------------- -------------- ------- ------- ------------------ ---------------------
00000.MPLS AVC 1:29:39 32 101 048 320 32 101 218 500 47,74 29,86 DTS 5.1 768Kbps (48kHz/24-bit)
Код:DISC INFO:Disc Title: Despicable Me 3 3D remux emweka
Disc Size: 32 101 218 500 bytes
Protection: AACS
BD-Java: No
Extras: Blu-ray 3D
BDInfo: 0.5.8PLAYLIST REPORT:Name: 00000.MPLS
Length: 1:29:39.499 (h:m:s.ms)
Size: 32 101 048 320 bytes
Total Bitrate: 47,74 MbpsVIDEO:Codec Bitrate Description
----- ------- -----------
MPEG-4 AVC Video 29861 kbps 1080p / 23,976 fps / 16:9 / High Profile 4.1
MPEG-4 MVC Video 14892 kbpsAUDIO:Codec Language Bitrate Description
----- -------- ------- -----------
DTS Audio Russian 768 kbps 5.1 / 48 kHz / 768 kbps / 24-bitSUBTITLES:Codec Language Bitrate Description
----- -------- ------- -----------
Presentation Graphics Russian 0,727 kbpsFILES:Name Time In Length Size Total Bitrate
---- ------- ------ ---- -------------
00000.SSIF 0:00:00.000 1:29:39.499 32 101 048 320 47 738CHAPTERS:Number Time In Length Avg Video Rate Max 1-Sec Rate Max 1-Sec Time Max 5-Sec Rate Max 5-Sec Time Max 10Sec Rate Max 10Sec Time Avg Frame Size Max Frame Size Max Frame Time
------ ------- ------ -------------- -------------- -------------- -------------- -------------- -------------- -------------- -------------- -------------- --------------
1 0:00:00.000 0:05:00.000 30 202 kbps 34 547 kbps 00:03:13.484 32 045 kbps 00:03:23.411 31 758 kbps 00:03:22.452 157 431 bytes 383 238 bytes 00:03:27.415
2 0:05:00.000 0:05:00.000 31 023 kbps 39 923 kbps 00:07:52.305 33 453 kbps 00:07:48.301 32 356 kbps 00:07:43.296 161 735 bytes 630 428 bytes 00:07:53.097
3 0:10:00.000 0:05:00.000 28 386 kbps 32 901 kbps 00:12:11.605 32 000 kbps 00:14:10.015 31 673 kbps 00:12:11.981 147 987 bytes 465 568 bytes 00:13:25.804
4 0:15:00.000 0:05:00.000 28 134 kbps 33 619 kbps 00:15:29.136 31 868 kbps 00:15:08.574 31 748 kbps 00:19:32.254 146 672 bytes 418 442 bytes 00:15:28.177
5 0:20:00.000 0:05:00.000 31 157 kbps 34 031 kbps 00:21:08.016 32 298 kbps 00:20:48.747 32 019 kbps 00:20:48.747 162 435 bytes 470 062 bytes 00:20:53.669
6 0:25:00.000 0:05:00.000 30 588 kbps 35 433 kbps 00:29:09.122 32 464 kbps 00:28:56.609 32 048 kbps 00:29:15.628 159 490 bytes 639 132 bytes 00:29:11.875
7 0:30:00.000 0:05:00.000 30 554 kbps 34 631 kbps 00:32:53.554 32 228 kbps 00:33:00.395 32 015 kbps 00:32:59.977 159 289 bytes 583 333 bytes 00:33:05.400
8 0:35:00.000 0:05:00.000 30 461 kbps 34 307 kbps 00:38:39.942 32 130 kbps 00:39:18.647 31 841 kbps 00:38:46.240 158 804 bytes 490 847 bytes 00:39:05.634
9 0:40:00.000 0:05:00.000 28 965 kbps 33 736 kbps 00:41:23.898 32 026 kbps 00:41:30.946 31 841 kbps 00:41:26.567 151 004 bytes 463 435 bytes 00:41:47.087
10 0:45:00.000 0:05:00.000 29 898 kbps 34 336 kbps 00:49:44.648 32 060 kbps 00:48:30.741 31 856 kbps 00:48:41.918 155 871 bytes 480 507 bytes 00:46:49.765
11 0:50:00.000 0:05:00.000 30 094 kbps 34 323 kbps 00:50:48.253 32 405 kbps 00:50:44.458 31 982 kbps 00:50:31.069 156 912 bytes 545 887 bytes 00:51:41.807
12 0:55:00.000 0:05:00.000 30 003 kbps 34 407 kbps 00:56:48.947 32 196 kbps 00:56:44.818 31 852 kbps 00:55:01.798 156 416 bytes 521 953 bytes 00:55:24.821
13 1:00:00.000 0:05:00.000 27 876 kbps 35 568 kbps 01:04:58.394 31 925 kbps 01:03:06.157 31 167 kbps 01:04:20.064 145 329 bytes 374 572 bytes 01:03:11.120
14 1:05:00.000 0:05:00.000 29 673 kbps 33 586 kbps 01:07:04.687 32 113 kbps 01:07:02.727 31 922 kbps 01:07:04.729 154 695 bytes 446 230 bytes 01:08:45.538
15 1:10:00.000 0:05:00.000 30 800 kbps 34 497 kbps 01:13:46.797 32 276 kbps 01:12:09.158 31 881 kbps 01:12:04.153 160 574 bytes 530 680 bytes 01:13:47.798
16 1:15:00.000 0:05:00.000 30 684 kbps 34 576 kbps 01:18:02.135 32 373 kbps 01:17:40.864 31 983 kbps 01:17:54.878 159 990 bytes 522 532 bytes 01:18:03.136
17 1:20:00.000 0:05:00.000 29 740 kbps 38 783 kbps 01:22:46.461 33 045 kbps 01:22:42.457 32 344 kbps 01:22:37.452 155 046 bytes 412 487 bytes 01:23:37.595
18 1:25:00.000 0:04:39.499 29 212 kbps 33 721 kbps 01:29:36.537 31 792 kbps 01:28:54.662 31 691 kbps 01:28:51.492 152 328 bytes 317 516 bytes 01:28:54.078STREAM DIAGNOSTICS:File PID Type Codec Language Seconds Bitrate Bytes Packets
---- --- ---- ----- -------- -------------- -------------- ------------- -----
00000.SSIF 4114 (0x1012) 0x20 MVC 5379,416 14 893 10 014 141 087 54 510 516
00000.SSIF 4113 (0x1011) 0x1B AVC 5379,416 29 861 20 079 437 931 109 204 669
00000.SSIF 4352 (0x1100) 0x82 DTS rus (Russian) 5379,416 768 516 520 960 3 026 490
00000.SSIF 4608 (0x1200) 0x90 PGS rus (Russian) 5379,416 1 488 748 2 865
<---- END FORUMS PASTE ---->
 

Current time is: 12-Dec 00:07

All times are UTC + 3