Search found 3 matches

Author Message

admin

Post 05-Jan-2019 02:25

[Quote]

-Дорога в Вакен
Road to Wacken
- Год выпуска: 2011
Страна: Испания
Жанр: Документальный, Художественный, Музыка, Heavy Melal
Продолжительность: 01:21:55
Перевод: Отсутствует (почти)
Режиссер: Pablo Aragüés-В фильме снимались: Alice Cooper, David Sancho, Nicholas Stratton, Andrea Dueso, Alexandra Pineiro, Ángeles Maeso, Karola Sánchez-Описание: Музыкальный роуд-муви, в котором мы вместе с группой "Princess of the Night" отправимся на крупнейший в мире хэви-метал фестиваль - Wacken Open Air 2010 (Германия).
Сюжетые эпизоды фильма сфокусированы на "Princess of the Night", испанской хэви-металлической группе, полностью состоящей из девушек из маленького города, без особых надежд и мечтаний, больших, чем музыка, которую они играют в грязных барах. Несмотря на то, что они выигрывают в Metal Battle, конкурсе Wacken Open Air, который проводится каждый год в 26 странах, чтобы дать начинающим группам возможность выступить на крупнейшем фестивале тяжелой музыки в мире. Итак, история начинается на последнем концерте "Princess of the Night" в их городке, перед тем как отправиться в Вакен, и, по крайней мере, попытаться осуществить свою мечту. Члены группы, молодые, милые и дерзкие, со своим неуклюжим менеджером, проводят нас через этот дорожный фильм, где мы можем наслаждаться живыми выступлениями групп Wacken Open Air 2010, с такими легендарными именами, как Alice Cooper, Soulfly, Edguy, Grave Digger, Stratovarius, и т. д., и сотрудничестве Blind Guardian, Helloween или Doro.
-Доп. инфо: В части эпизодов присутствует временной рассинхрон между ракурсами (смотри скрины "Для оценки 3Д") - так смонтировали фильм создатели.
Перевод субтитрами только на испанскую речь. На английскую нет перевода.
Разбивку на главы сделал свою, более полезную, чем оригинальная. Добавил названия основных глав.-Премьера (мир): 2 апреля 2011
-Качество: BDRip (by Ash61)
Контейнер: MKV
Формат 3D: Half OverUnder / Вертикальная анаморфная стереопара
Порядок ракурсов: левый ракурс первый-Видео: AVC / 1920х1080p / 23,976 fps / 22.0 Mbps
Аудио: Английский+Испанский, Немецкий, Французский / AC3 / 48 KHz / 5.1 ch / 640 Kbps (Original - BD 3D)
Субтитры (SRT):
Вшитые (softsub):
#1 - Русские Форсированные (на испанскую речь + названия групп / песен) [Ash61] (включены по умолчанию)
#2 - English Forced (on spanish)
Внешние (UTF-8):
#1 - Русские Форсированные (на испанскую речь + названия групп / песен) [Ash61] (включены по умолчанию)

Tracklist

(00:00:26-00:03:21) Edguy - Intro
(00:03:21-00:07:54) Edguy - Lavatory Love Machine
(00:15:54-00:19:29) The Bosshoss - Stallion Battalion
(00:22:12-00:29:10) Overkill - The Green And Black
(00:31:17-00:33:17) Atrocity - Intro
(00:33:17-00:36:49) Atrocity - The Great Commandment
(00:37:26-00:43:26) Grave Digger - Rebellion
(00:44:05-00:48:44) Stratovarius - Hunting High and Low
(00:49:28-00:57:07) Edguy - Tears of a Mandrake
(00:59:40-01:05:27) Grave Digger - The Ballad Of Mary
(01:07:10-01:13:30) U.D.O. - Man and Machine
(01:16:15-01:18:45) Alice Cooper – School’s Out
(01:18:45-01:21:53) Final titles (Skyline - Harder, Faster, Louder)

MediaInfo

General
Unique ID : 224112300170298811947709240835561104508 (0xA89A757FBC6FC79E8CFE9D27359E247C)
Complete name : D:RoadToWacken(2011)3D-halfOU(Ash61)EngRoadToWacken(2011)3D-halfOU(Ash61)Eng.mkv
Format : Matroska
Format version : Version 2
File size : 12.9 GiB
Duration : 1h 21mn
Overall bit rate : 22.6 Mbps
Movie name : Дорога в Вакен / Road to Wacken (2011) in 3D
Encoded date : UTC 2019-01-04 12:38:26
Writing application : mkvmerge v5.8.0 ('No Sleep / Pillow') built on Sep 2 2012 15:37:04
Writing library : libebml v1.2.3 + libmatroska v1.3.0
Video
ID : 1
Format : AVC
Format/Info : Advanced Video Codec
Format profile : High@L4.1
Format settings, CABAC : Yes
Format settings, ReFrames : 4 frames
Codec ID : V_MPEG4/ISO/AVC
Duration : 1h 21mn
Bit rate : 22.0 Mbps
Width : 1 920 pixels
Height : 1 080 pixels
Display aspect ratio : 16:9
Frame rate mode : Constant
Frame rate : 23.976 (24000/1001) fps
Color space : YUV
Chroma subsampling : 4:2:0
Bit depth : 8 bits
Scan type : Progressive
Bits/(Pixel*Frame) : 0.443
Stream size : 12.3 GiB (95%)
Title : BDRip by Ash61
Writing library : x264 core 146 r2538 121396c
Encoding settings : cabac=1 / ref=4 / deblock=1:-3:-3 / analyse=0x3:0x113 / me=umh / subme=10 / psy=1 / psy_rd=1.00:0.00 / mixed_ref=1 / me_range=32 / chroma_me=1 / trellis=2 / 8x8dct=1 / cqm=0 / deadzone=21,11 / fast_pskip=0 / chroma_qp_offset=-2 / threads=12 / lookahead_threads=2 / sliced_threads=0 / nr=0 / decimate=0 / interlaced=0 / bluray_compat=0 / constrained_intra=0 / bframes=9 / b_pyramid=2 / b_adapt=2 / b_bias=0 / direct=3 / weightb=1 / open_gop=0 / weightp=2 / keyint=250 / keyint_min=23 / scenecut=40 / intra_refresh=0 / rc_lookahead=60 / rc=2pass / mbtree=0 / bitrate=22000 / ratetol=1.0 / qcomp=0.70 / qpmin=0 / qpmax=69 / qpstep=4 / cplxblur=20.0 / qblur=0.5 / vbv_maxrate=40000 / vbv_bufsize=30000 / nal_hrd=none / filler=0 / frame-packing=4 / ip_ratio=1.40 / pb_ratio=1.30 / aq=1:0.70
Language : English
Default : Yes
Forced : No
Audio
ID : 2
Format : AC-3
Format/Info : Audio Coding 3
Mode extension : CM (complete main)
Format settings, Endianness : Big
Codec ID : A_AC3
Duration : 1h 21mn
Bit rate mode : Constant
Bit rate : 640 Kbps
Channel(s) : 6 channels
Channel positions : Front: L C R, Side: L R, LFE
Sampling rate : 48.0 KHz
Frame rate : 31.250 fps (1536 spf)
Compression mode : Lossy
Stream size : 375 MiB (3%)
Title : Original
Language : English
Default : Yes
Forced : No
Text #1
ID : 3
Format : UTF-8
Codec ID : S_TEXT/UTF8
Codec ID/Info : UTF-8 Plain Text
Title : Форсированные (на испанскую речь) [от Ash61]
Language : Russian
Default : Yes
Forced : No
Text #2
ID : 4
Format : UTF-8
Codec ID : S_TEXT/UTF8
Codec ID/Info : UTF-8 Plain Text
Title : Forced
Language : English
Default : No
Forced : No
Menu
00:00:00.000 : : 1.
00:00:25.972 : : 2. Edguy - Intro
00:03:21.254 : : 3. Edguy - Lavatory Love Machine
00:07:54.542 : : 4.
00:15:53.752 : : 5. The Bosshoss - Stallion Battalion
00:19:29.497 : : 6.
00:22:12.328 : : 7. Overkill - The Green And Black
00:29:10.469 : : 8.
00:31:17.373 : : 9. Atrocity - Intro
00:33:16.565 : : 10. Atrocity - The Great Commandment
00:36:48.754 : : 11.
00:37:25.599 : : 12. Grave Digger - Rebellion
00:43:26.000 : : 13.
00:44:04.972 : : 14. Stratovarius - Hunting High and Low
00:48:44.254 : : 15.
00:49:27.542 : : 16. Edguy - Tears of a Mandrake
00:57:06.752 : : 17.
00:59:40.497 : : 18. Grave Digger - The Ballad Of Mary
01:05:27.328 : : 19.
01:07:10.469 : : 20. U.D.O. - Man and Machine
01:13:30.373 : : 21.
01:16:14.565 : : 22. Alice Cooper – School’s Out
01:18:44.754 : : 23. Final titles (Skyline - Harder, Faster, Louder)

Для оценки 3Д - Анимированные скрины




















admin

Post 30-Nov-2017 03:30

[Quote]

Флоренция и Галерея Уффици 3D
Firenze e gli Uffizi 3D/4K
Florence and the Uffizi Gallery 3D/4K- Год выпуска: 2015
Страна: Италия (Sky 3D, Magnitudo, Nexo Digital)
Жанр: Документальный, Живопись, Скульптура, Архитектура
Продолжительность: 01:30:58Перевод: ОтсутствуетРежиссер: Лука Виотто / Luca Viotto-В фильме снимались: Саймон Мерреллс (Lorenzo il magnifico), Антонио Натали (директор Галереи Уффици), Марко Чатти, Артуро Галанзино-Описание: Неповторимое путешествие по городу, который когда-то был колыбелью, а сейчас является главным музеем Ренессанса. Этот поразительный город, который может по праву называться музеем под открытым небом, стал альма-матер для легендарных творцов — Микеланджело, Брунеллески, Рафаэля, Леонардо да Винчи и Сандро Боттичелли. Фильм дарит незабываемую встречу с главной итальянской сокровищницей, в которой собраны шедевры этих легендарных мастеров, — галереей Уффици.
Невероятные съемки с применением передовых технологий 3D и 4K, захватывающими дух ракурсами, многоуровневыми панорамами и новейшими технологиями объемного изображения позволяют зрителю погрузиться в великолепие Флоренции — слушать и созерцать, чувствовать и наслаждаться самым выдающимся и знаменитым средоточием гениальных творений в истории искусств.-Доп. инфо: Встретите где-нибудь перевод - сообщайте в топике.-Премьера: 3 ноября 2015 (11 декабря 2015)
. -Качество: BDRip (by Ash61) (с BD 2D/3D Ita)
Контейнер: MKV
Формат 3D: Half OverUnder / Вертикальная анаморфная стереопара
Порядок ракурсов: левый ракурс первый-Видео: AVC / 1920х1080p / 23,976 fps / 16.0 Mbps
Аудио: Английский / AC3 / 48 KHz / 5.1 ch / 640 Kbps (BD 2D/3D Ita)
Субтитры: Отсутствуют

MediaInfo

General
Unique ID : 238681391801652582484306566091612804825 (0xB3905D2CBCAC2E51AEEF3AC6BB92D6D9)
Complete name : D:\FlorenceAndTheUffiziGallery(2015)3D-halfOU(Ash61)Eng.mkv
Format : Matroska
Format version : Version 2
File size : 10.6 GiB
Duration : 1 h 30 min
Overall bit rate : 16.6 Mb/s
Movie name : Флоренция и Галерея Уффици 3D / Firenze e gli Uffizi 3D/4K / Florence and the Uffizi Gallery 3D/4K (2015) in 3D
Encoded date : UTC 2017-10-15 11:48:07
Writing application : mkvmerge v5.8.0 ('No Sleep / Pillow') built on Sep 2 2012 15:37:04
Writing library : libebml v1.2.3 + libmatroska v1.3.0Video
ID : 1
Format : AVC
Format/Info : Advanced Video Codec
Format profile : High@L4.1
Format settings, CABAC : Yes
Format settings, RefFrames : 4 frames
Codec ID : V_MPEG4/ISO/AVC
Duration : 1 h 30 min
Bit rate : 16.0 Mb/s
Width : 1 920 pixels
Height : 1 080 pixels
Display aspect ratio : 16:9
Frame rate mode : Constant
Frame rate : 23.976 (24000/1001) FPS
Color space : YUV
Chroma subsampling : 4:2:0
Bit depth : 8 bits
Scan type : Progressive
Bits/(Pixel*Frame) : 0.322
Stream size : 9.95 GiB (94%)
Title : BDRip by Ash61
Writing library : x264 core 146 r2538 121396c
Encoding settings : cabac=1 / ref=4 / deblock=1:-3:-3 / analyse=0x3:0x113 / me=umh / subme=10 / psy=1 / psy_rd=1.00:0.00 / mixed_ref=1 / me_range=32 / chroma_me=1 / trellis=2 / 8x8dct=1 / cqm=0 / deadzone=21,11 / fast_pskip=0 / chroma_qp_offset=-2 / threads=12 / lookahead_threads=3 / sliced_threads=0 / nr=0 / decimate=0 / interlaced=0 / bluray_compat=0 / constrained_intra=0 / bframes=10 / b_pyramid=2 / b_adapt=2 / b_bias=0 / direct=3 / weightb=1 / open_gop=0 / weightp=2 / keyint=250 / keyint_min=23 / scenecut=40 / intra_refresh=0 / rc=2pass / mbtree=0 / bitrate=16000 / ratetol=1.0 / qcomp=0.70 / qpmin=0 / qpmax=69 / qpstep=4 / cplxblur=20.0 / qblur=0.5 / frame-packing=4 / ip_ratio=1.40 / pb_ratio=1.30 / aq=1:0.70
Language : Italian
Default : Yes
Forced : NoAudio
ID : 2
Format : AC-3
Format/Info : Audio Coding 3
Format settings, Endianness : Big
Codec ID : A_AC3
Duration : 1 h 30 min
Bit rate mode : Constant
Bit rate : 640 kb/s
Channel(s) : 6 channels
Channel positions : Front: L C R, Side: L R, LFE
Sampling rate : 48.0 kHz
Frame rate : 31.250 FPS (1536 SPF)
Bit depth : 16 bits
Compression mode : Lossy
Stream size : 416 MiB (4%)
Language : English
Service kind : Complete Main
Default : Yes
Forced : NoMenu
00:00:00.000 : :1
00:00:05.005 : :2
00:04:21.845 : :3
00:08:47.986 : :4
00:16:49.467 : :5
00:24:37.476 : :6
00:33:46.733 : :7
00:44:11.440 : :8
00:50:04.877 : :9
00:57:47.172 : :10
01:06:53.927 : :11
01:12:29.929 : :12
01:18:36.128 : :13
01:23:01.727 : :14
01:26:35.232 : :15

Для оценки 3Д - Анимированные скрины

























admin

Post 29-Nov-2017 04:39

[Quote]

-Тайны невидимого мира
Mysteries of the Unseen World- Год выпуска: 2013
Страна: США (National Geographic, Lockheed Martin, National Science Foundation, FEI)
Жанр: Документальный, Короткометражка
Продолжительность: 00:39:07
Перевод: Любительский одноголосый закадровый (перевод - Ash61)
Режиссер: Луи Шварцберг / Louie Schwartzberg
Рассказчик на английском: Форест Уитакер / Forest Whitaker-Описание: Этот фильм переносит зрителей в места нашей планеты, где они никогда раньше не были, чтобы увидеть вещи, которые находятся за пределами нашего нормального зрения, но буквально прямо перед глазами. "Тайны невидимого мира" показывает явления, которые нельзя увидеть невооруженным глазом, приглашая зрителей в земные миры, которые спрятаны от нас другими масштабами измерения времени и пространства. Зрители увидят события, которые разворачиваются слишком медленно для человеческого восприятия. Они увидят красоту, драму, и даже юмор явлений, которые происходят за одну микросекунду. Они попадут в микроскопический мир, который когда-то предназначался только для ученых, но данный фильм делает его доступным и для нас. Они поймут, что то, что мы видим, на самом деле лишь малая доля существующего на нашей планете. Высокоскоростная и замедленная съемки, электронная микроскопия и нанотехнологии - лишь некоторые из достижений в области науки, которые теперь позволяют нам увидеть совершенно новую вселенную вещей, событий, существ и процессов, о существовании которых мы даже не подозревали. Эти технологии дали нам "сверхвозможности", позволяющие заглянуть в глубины того, что находится перед нами. Визуально ошеломляющий и основанный на передовых исследованиях, этот фильм доставит любознательным зрителям истинное наслаждение, поскольку они увидят всю грандиозность мира, который они не могут видеть, мира, который существует в воздухе, которым они дышат, на их телах, и во всех событиях, которые происходят вокруг них минута за минутой, наносекунда за наносекундой. И с этим пониманием мы заново оценим удивительность и возможности науки.-Премьера (мир): 1 ноября 2013
. -Качество: BDRip (by Ash61)
Контейнер: MKV
Формат 3D: Half OverUnder / Вертикальная анаморфная стереопара
Порядок ракурсов: левый ракурс первый-Видео: AVC / 23,976 fps / 1920х1080p / 13.9 MbpsАудио:
#1 - Русский / AC3 / 48 KHz / 5.1 ch / 640 Kbps (VO)
#2 - Английский / AC3 / 48 KHz / 5.1 ch / 640 Kbps (Original - BD 3D US)Субтитры (внешние SRT UTF-8):
#1 - Русские Полные
#2 - English Full
#3 - English SDH

MediaInfo

General
Unique ID : 214513538855760020025003355045625552129 (0xA161CE071A4946D68C7667FB7BFB5D01)
Complete name : E:\MysteriesOfTheUnseenWorld(2013)3D-halfOU(Ash61)VO\MysteriesOfTheUnseenWorld(2013)3D-halfOU(Ash61)VO.mkv
Format : Matroska
Format version : Version 2
File size : 4.23 GiB
Duration : 39mn 7s
Overall bit rate : 15.5 Mbps
Movie name : Тайны невидимого мира / Mysteries of the Unseen World (2013) в 3Д
Encoded date : UTC 2016-05-02 12:10:17
Writing application : mkvmerge v5.8.0 ('No Sleep / Pillow') built on Sep 2 2012 15:37:04
Writing library : libebml v1.2.3 + libmatroska v1.3.0Video
ID : 1
Format : AVC
Format/Info : Advanced Video Codec
Format profile : High@L4.1
Format settings, CABAC : Yes
Format settings, ReFrames : 4 frames
Codec ID : V_MPEG4/ISO/AVC
Duration : 39mn 7s
Bit rate : 13.9 Mbps
Width : 1 920 pixels
Height : 1 080 pixels
Display aspect ratio : 16:9
Frame rate mode : Constant
Frame rate : 23.976 fps
Color space : YUV
Chroma subsampling : 4:2:0
Bit depth : 8 bits
Scan type : Progressive
Bits/(Pixel*Frame) : 0.279
Stream size : 3.79 GiB (90%)
Title : BDRip by Ash61
Writing library : x264 core 146 r2538 121396c
Encoding settings : cabac=1 / ref=4 / deblock=1:-3:-3 / analyse=0x3:0x113 / me=umh / subme=10 / psy=1 / psy_rd=1.00:0.00 / mixed_ref=1 / me_range=32 / chroma_me=1 / trellis=2 / 8x8dct=1 / cqm=0 / deadzone=21,11 / fast_pskip=1 / chroma_qp_offset=-2 / threads=12 / lookahead_threads=3 / sliced_threads=0 / nr=0 / decimate=1 / interlaced=0 / bluray_compat=0 / constrained_intra=0 / bframes=12 / b_pyramid=2 / b_adapt=2 / b_bias=0 / direct=3 / weightb=1 / open_gop=0 / weightp=2 / keyint=250 / keyint_min=23 / scenecut=40 / intra_refresh=0 / rc_lookahead=60 / rc=crf / mbtree=1 / crf=16.0 / qcomp=0.70 / qpmin=0 / qpmax=69 / qpstep=4 / vbv_maxrate=40000 / vbv_bufsize=30000 / crf_max=0.0 / nal_hrd=none / filler=0 / frame-packing=4 / ip_ratio=1.40 / aq=1:0.70
Language : English
Default : Yes
Forced : NoAudio #1
ID : 2
Format : AC-3
Format/Info : Audio Coding 3
Mode extension : CM (complete main)
Format settings, Endianness : Big
Codec ID : A_AC3
Duration : 39mn 7s
Bit rate mode : Constant
Bit rate : 640 Kbps
Channel(s) : 6 channels
Channel positions : Front: L C R, Side: L R, LFE
Sampling rate : 48.0 KHz
Bit depth : 16 bits
Compression mode : Lossy
Stream size : 179 MiB (4%)
Title : Любительский одноголосый закадровый (перевод любительский - Ash61)
Language : Russian
Default : Yes
Forced : NoAudio #2
ID : 3
Format : AC-3
Format/Info : Audio Coding 3
Mode extension : CM (complete main)
Format settings, Endianness : Big
Codec ID : A_AC3
Duration : 39mn 7s
Bit rate mode : Constant
Bit rate : 640 Kbps
Channel(s) : 6 channels
Channel positions : Front: L C R, Side: L R, LFE
Sampling rate : 48.0 KHz
Bit depth : 16 bits
Compression mode : Lossy
Stream size : 179 MiB (4%)
Title : Original - BD 3D US
Language : English
Default : No
Forced : NoMenu
00:00:00.000 : :1
00:04:17.090 : :2. Invisible Light
00:08:34.514 : :3. Too Slow
00:15:07.907 : :4. Too Fast
00:21:35.294 : :5. Too Small
00:29:46.910 : :6. NanoWorld
00:34:17.597 : :7
00:36:02.160 : :8. Credits

Для оценки 3Д - Анимированные скрины




















 

Current time is: 14-Dec 20:01

All times are UTC + 3