Search found 500 matches

Author Message

admin

Post 27-Jul-2021 04:37

[Quote]

Информация о фильме
Название: Жесткое прошлое / Прошлое
Оригинальное название: The Bygone
Год выхода: 2019
Жанр: Драма, криминал, детектив
Режиссер: Грэм Филлипс, Паркер Филлипс
В ролях: Ирен Бедард, Шон Хэтоси, Жаклин Тобони, Грэм Филлипс, Джейми МакШейн, Ричи Костер, Джералд Токала Клиффорд, Джо Херсли

О фильме: Молодой американский фермер заводит отношения с девушкой из индейской резервации, расположенной по соседству. Когда его подруга внезапно исчезает, герой отправляется на ее поиски, которые неожиданно открывают ему страшные тайны его прошлого.
«Жесткое прошлое» — криминальная драма о противостоянии коренного народа Америки и переселенцев с Запада.

Страна: США
Продолжительность: 01:46:23
Перевод: Профессиональный многоголосый | iTunes
Качество: BDRip 720p
Видео: MPEG-4 AVC, 1280x536, 4322 Кbit/s, 23.976 fps
Аудио #01: 48 kHz, AC3, 5.1, 384 Kbps | Дублированный | RUS |
Аудио #02: 48 kHz, AC3, 5.1, 640 Kbps | Оригинал | ENG |
Субтитры: Английские

Скриншоты

MI

General
Unique ID : 173156130145814013948527191717269211201 (0x8244A859246E37A39EAA6158DECC0841)
Complete name : G:VideoTh.Bygone.2019.BDRip.720p.seleZen.mkv
Format : Matroska
Format version : Version 4
File size : 3.97 GiB
Duration : 1 h 46 min
Overall bit rate : 5 349 kb/s
Movie name : The Bygone 2019 from seleZen
Encoded date : UTC 2021-07-26 02:27:16
Writing application : mkvmerge v59.0.0 ('Shining Star') 64-bit
Writing library : libebml v1.4.2 + libmatroska v1.6.4
Video
ID : 1
Format : AVC
Format/Info : Advanced Video Codec
Format profile : High@L4.1
Format settings : CABAC / 12 Ref Frames
Format settings, CABAC : Yes
Format settings, Reference : 12 frames
Codec ID : V_MPEG4/ISO/AVC
Duration : 1 h 46 min
Bit rate : 4 322 kb/s
Width : 1 280 pixels
Height : 536 pixels
Display aspect ratio : 2.40:1
Frame rate mode : Constant
Frame rate : 23.976 (24000/1001) FPS
Color space : YUV
Chroma subsampling : 4:2:0
Bit depth : 8 bits
Scan type : Progressive
Bits/(Pixel*Frame) : 0.263
Stream size : 3.21 GiB (81%)
Writing library : x264 core 146 -from seleZen
Encoding settings : cabac=1 / ref=12 / deblock=1:-2:-2 / analyse=0x3:0x133 / me=umh / subme=11 / psy=1 / psy_rd=1.03:0.05 / mixed_ref=1 / me_range=32 / chroma_me=1 / trellis=2 / 8x8dct=1 / cqm=0 / deadzone=21,11 / fast_pskip=0 / chroma_qp_offset=-3 / threads=48 / lookahead_threads=4 / sliced_threads=0 / nr=0 / decimate=0 / interlaced=0 / bluray_compat=0 / constrained_intra=0 / bframes=9 / b_pyramid=2 / b_adapt=2 / b_bias=0 / direct=3 / weightb=1 / open_gop=0 / weightp=2 / keyint=240 / keyint_min=23 / scenecut=40 / intra_refresh=0 / rc_lookahead=50 / rc=2pass / mbtree=0 / bitrate=4322 / ratetol=1.0 / qcomp=0.60 / qpmin=0 / qpmax=51 / qpstep=4 / cplxblur=20.0 / qblur=0.5 / vbv_maxrate=50000 / vbv_bufsize=62500 / nal_hrd=none / filler=0 / ip_ratio=1.40 / pb_ratio=1.30 / aq=3:0.80
Language : English
Default : Yes
Forced : No
Audio #1
ID : 2
Format : AC-3
Format/Info : Audio Coding 3
Commercial name : Dolby Digital
Codec ID : A_AC3
Duration : 1 h 46 min
Bit rate mode : Constant
Bit rate : 384 kb/s
Channel(s) : 6 channels
Channel layout : L R C LFE Ls Rs
Sampling rate : 48.0 kHz
Frame rate : 31.250 FPS (1536 SPF)
Compression mode : Lossy
Stream size : 292 MiB (7%)
Title : iTunes
Language : Russian
Service kind : Complete Main
Default : Yes
Forced : Yes
Audio #2
ID : 3
Format : AC-3
Format/Info : Audio Coding 3
Commercial name : Dolby Digital
Codec ID : A_AC3
Duration : 1 h 46 min
Bit rate mode : Constant
Bit rate : 640 kb/s
Channel(s) : 6 channels
Channel layout : L R C LFE Ls Rs
Sampling rate : 48.0 kHz
Frame rate : 31.250 FPS (1536 SPF)
Compression mode : Lossy
Stream size : 487 MiB (12%)
Title : Original
Language : English
Service kind : Complete Main
Default : No
Forced : No
Text
ID : 4
Format : UTF-8
Codec ID : S_TEXT/UTF8
Codec ID/Info : UTF-8 Plain Text
Duration : 1 h 44 min
Bit rate : 35 b/s
Count of elements : 1019
Stream size : 27.6 KiB (0%)
Title : SDH
Language : English
Default : No
Forced : No
Menu
00:00:00.000 : Глава 01
00:10:57.240 : Глава 02
00:19:08.939 : Глава 03
00:26:35.928 : Глава 04
00:44:46.017 : Глава 05
00:57:44.211 : Глава 06
01:05:49.863 : Глава 07
01:21:14.787 : Глава 08
01:28:02.777 : Глава 09

admin

Post 27-Jul-2021 04:36

[Quote]

Информация о фильме
Название: Жесткое прошлое / Прошлое
Оригинальное название: The Bygone
Год выхода: 2019
Жанр: Драма, криминал, детектив
Режиссер: Грэм Филлипс, Паркер Филлипс
В ролях: Ирен Бедард, Шон Хэтоси, Жаклин Тобони, Грэм Филлипс, Джейми МакШейн, Ричи Костер, Джералд Токала Клиффорд, Джо Херсли

О фильме: Молодой американский фермер заводит отношения с девушкой из индейской резервации, расположенной по соседству. Когда его подруга внезапно исчезает, герой отправляется на ее поиски, которые неожиданно открывают ему страшные тайны его прошлого.
«Жесткое прошлое» — криминальная драма о противостоянии коренного народа Америки и переселенцев с Запада.

Страна: США
Продолжительность: 01:46:23
Перевод: Профессиональный многоголосый | iTunes
Качество: BDRip 1080p
Видео: MPEG-4 AVC, 1920x804, 8799 Кbit/s, 23.976 fps
Аудио #01: 48 kHz, AC3, 5.1, 384 Kbps | Дублированный | RUS |
Аудио #02: 48 kHz, AC3, 5.1, 640 Kbps | Оригинал | ENG |
Субтитры: Английские

Скриншоты

MI

General
Unique ID : 1881987518063003363251039220700052184 (0x16A752608A881E233CB153E1C307AD8)
Complete name : G:VideoTh.Bygone.2019.BDRip.1080p.seleZen.mkv
Format : Matroska
Format version : Version 4
File size : 7.30 GiB
Duration : 1 h 46 min
Overall bit rate : 9 825 kb/s
Movie name : The Bygone 2019 from seleZen
Encoded date : UTC 2021-07-26 02:20:33
Writing application : mkvmerge v59.0.0 ('Shining Star') 64-bit
Writing library : libebml v1.4.2 + libmatroska v1.6.4
Video
ID : 1
Format : AVC
Format/Info : Advanced Video Codec
Format profile : High@L4.1
Format settings : CABAC / 5 Ref Frames
Format settings, CABAC : Yes
Format settings, Reference : 5 frames
Codec ID : V_MPEG4/ISO/AVC
Duration : 1 h 46 min
Bit rate : 8 799 kb/s
Width : 1 920 pixels
Height : 804 pixels
Display aspect ratio : 2.40:1
Frame rate mode : Constant
Frame rate : 23.976 (24000/1001) FPS
Color space : YUV
Chroma subsampling : 4:2:0
Bit depth : 8 bits
Scan type : Progressive
Bits/(Pixel*Frame) : 0.238
Stream size : 6.54 GiB (90%)
Writing library : x264 core 146 -from seleZen
Encoding settings : cabac=1 / ref=5 / deblock=1:-2:-2 / analyse=0x3:0x133 / me=umh / subme=11 / psy=1 / psy_rd=1.03:0.05 / mixed_ref=1 / me_range=32 / chroma_me=1 / trellis=2 / 8x8dct=1 / cqm=0 / deadzone=21,11 / fast_pskip=0 / chroma_qp_offset=-3 / threads=48 / lookahead_threads=6 / sliced_threads=0 / nr=0 / decimate=0 / interlaced=0 / bluray_compat=0 / constrained_intra=0 / bframes=9 / b_pyramid=2 / b_adapt=2 / b_bias=0 / direct=3 / weightb=1 / open_gop=0 / weightp=2 / keyint=240 / keyint_min=23 / scenecut=40 / intra_refresh=0 / rc_lookahead=50 / rc=2pass / mbtree=0 / bitrate=8799 / ratetol=1.0 / qcomp=0.60 / qpmin=0 / qpmax=51 / qpstep=4 / cplxblur=20.0 / qblur=0.5 / vbv_maxrate=50000 / vbv_bufsize=62500 / nal_hrd=none / filler=0 / ip_ratio=1.40 / pb_ratio=1.30 / aq=3:0.80
Language : English
Default : Yes
Forced : No
Audio #1
ID : 2
Format : AC-3
Format/Info : Audio Coding 3
Commercial name : Dolby Digital
Codec ID : A_AC3
Duration : 1 h 46 min
Bit rate mode : Constant
Bit rate : 384 kb/s
Channel(s) : 6 channels
Channel layout : L R C LFE Ls Rs
Sampling rate : 48.0 kHz
Frame rate : 31.250 FPS (1536 SPF)
Compression mode : Lossy
Stream size : 292 MiB (4%)
Title : iTunes
Language : Russian
Service kind : Complete Main
Default : Yes
Forced : Yes
Audio #2
ID : 3
Format : AC-3
Format/Info : Audio Coding 3
Commercial name : Dolby Digital
Codec ID : A_AC3
Duration : 1 h 46 min
Bit rate mode : Constant
Bit rate : 640 kb/s
Channel(s) : 6 channels
Channel layout : L R C LFE Ls Rs
Sampling rate : 48.0 kHz
Frame rate : 31.250 FPS (1536 SPF)
Compression mode : Lossy
Stream size : 487 MiB (7%)
Title : Original
Language : English
Service kind : Complete Main
Default : No
Forced : No
Text
ID : 4
Format : UTF-8
Codec ID : S_TEXT/UTF8
Codec ID/Info : UTF-8 Plain Text
Duration : 1 h 44 min
Bit rate : 35 b/s
Count of elements : 1019
Stream size : 27.6 KiB (0%)
Title : SDH
Language : English
Default : No
Forced : No
Menu
00:00:00.000 : Глава 01
00:10:57.240 : Глава 02
00:19:08.939 : Глава 03
00:26:35.928 : Глава 04
00:44:46.017 : Глава 05
00:57:44.211 : Глава 06
01:05:49.863 : Глава 07
01:21:14.787 : Глава 08
01:28:02.777 : Глава 09

admin

Post 27-Jul-2021 04:30

[Quote]

Информация о фильме
Название: Глупец / День дурака
Оригинальное название: Le dindon
Год выхода: 2019
Жанр: Комедия
Режиссер: Жалиль Леспер
В ролях: Дэни Бун, Гийом Гальенн, Алис Поль, Ахмед Силла, Лор Калами, Камилль Лелуш, Холт Маккэллани, Джессика Шерман, Анри Гибе, Эрик Де Старк
О фильме: Мсье де Понтаньяк — большой любитель красивых женщин, что создаёт ему немало проблем. Однажды, следуя за прекрасной дамой, он попадает в её дом, где встречается с её мужем и его другом, нотариусом Ватленом.

Выпущено: Франция, Бельгия / Cinéfrance Studios, Pathé, Artémis Productions
Продолжительность: 01:25:23
Озвучивание: Профессиональное (многоголосое) | iTunes
Файл
Формат: MKV
Качество: WEB-DL 1080p
Видео: MPEG-4 AVC, 4551 Кb/s, 1912x800
Аудио #1: Russian: 48 kHz, AC3 Dolby Digital, 3/2 (L, C, R, l, r) + LFE ch, ~384 Kbps | MVO | iTunes
Аудио #2: French: 48 kHz, AC3 Dolby Digital, 3/2 (L, C, R, l, r) + LFE ch, ~384 Kbps | Original
Субтитры: Нет
Дополнительно: Сохранены оригинальные чаптеры.

MediaInfo:

Complete name: Glupets.2019.WEB-DL.1080p.ELEKTRI4KA.UNIONGANG.mkv
Format: Matroska
Format version: Version 4
File size: 3.17 GiB
Duration: 1 h 25 min
Overall bit rate: 5 321 kb/s
Movie name: Glupets.2019.WEB-DL.1080p.ELEKTRI4KA.UNIONGANG.
Encoded date: UTC 2021-07-26 19:42:06
Writing application: mkvmerge v8.3.0 ('Over the Horizon') 32bit
Writing library: libebml v1.3.1 + libmatroska v1.4.2
Video
ID: 1
Format: AVC
Format/Info: Advanced Video Codec
Format profile: High@L4
Format settings: CABAC / 5 Ref Frames
Format settings, CABAC: Yes
Format settings, Reference frames: 5 frames
Codec ID: V_MPEG4/ISO/AVC
Duration: 1 h 25 min
Bit rate: 4 551 kb/s
Width: 1 912 pixels
Height: 800 pixels
Display aspect ratio: 2.40:1
Frame rate mode: Constant
Frame rate: 24.000 FPS
Color space: YUV
Chroma subsampling: 4:2:0
Bit depth: 8 bits
Scan type: Progressive
Bits/(Pixel*Frame): 0.124
Stream size: 2.71 GiB (86%)
Language: English
Default: Yes
Forced: No
Color range: Limited
Color primaries: BT.709
Transfer characteristics: BT.709
Matrix coefficients: BT.709
Audio #1
ID: 2
Format: AC-3
Format/Info: Audio Coding 3
Commercial name: Dolby Digital
Codec ID: A_AC3
Duration: 1 h 25 min
Bit rate mode: Constant
Bit rate: 384 kb/s
Channel(s): 6 channels
Channel layout: L R C LFE Ls Rs
Sampling rate: 48.0 kHz
Frame rate: 31.250 FPS (1536 SPF)
Compression mode: Lossy
Delay relative to video: -42 ms
Stream size: 235 MiB (7%)
Title: MVO (iTunes)
Language: Russian
Service kind: Complete Main
Default: Yes
Forced: Yes
Audio #2
ID: 3
Format: AC-3
Format/Info: Audio Coding 3
Commercial name: Dolby Digital
Codec ID: A_AC3
Duration: 1 h 25 min
Bit rate mode: Constant
Bit rate: 384 kb/s
Channel(s): 6 channels
Channel layout: L R C LFE Ls Rs
Sampling rate: 48.0 kHz
Frame rate: 31.250 FPS (1536 SPF)
Compression mode: Lossy
Delay relative to video: -42 ms
Stream size: 235 MiB (7%)
Language: French
Service kind: Complete Main
Default: No
Forced: No
Menu
00:00:00.000: en:Chapitre 01
00:05:04.000: en:Chapitre 02
00:11:17.000: en:Chapitre 03
00:17:53.000: en:Chapitre 04
00:26:44.000: en:Chapitre 05
00:37:23.000: en:Chapitre 06
00:45:24.000: en:Chapitre 07
00:57:56.000: en:Chapitre 08
01:04:51.000: en:Chapitre 09
01:16:13.000: en:Chapitre 10

Скриншоты

admin

Post 26-Jul-2021 05:59

[Quote]

Информация о фильме
Название: Код Да Винчи
Оригинальное название: The Da Vinci Code
Год выхода: 2006
Жанр: триллер, детектив
Режиссер: Рон Ховард / Ron Howard
В ролях: Том Хэнкс, Одри Тоту, Иэн МакКеллен, Жан Рено, Пол Беттани, Альфред Молина, Юрген Прохнов, Жан-Ив Бертело, Этьен Шико, Жан-Пьер Марьель
О фильме:
Гарвардского профессора Роберта Лэнгдона подозревают в чудовищном преступлении, которого он не совершал. Лэнгдон знакомится с криптографом парижской полиции Софи Невё и вместе с ней пытается раскрыть тайну, которая может подорвать могущество католической церкви.
Роберт и Софи должны это сделать до того, как их схватят блюстители закона или остановят противники, готовые на все ради сохранения великого религиозного секрета…

Страна: США, Мальта, Франция, Великобритания
Студия: Columbia Pictures, Imagine Entertainment, Skylark Productions
Продолжительность: 02:28:47
Перевод: Профессиональный (дублированный), Профессиональный (двухголосый, закадровый)
Файл
Качество: WEB-DL 1080p | Open Matte
Формат: MKV
Видео: 1920x1080, 23.976 fps, MPEG-4 AVC, 9920 kb/s
Аудио 1: Russian: 48 kHz, AC3, 6 ch, ~640 kbps avg - Дубляж
Аудио 2: Russian: 48 kHz, AC3, 6 ch, ~448 kbps avg - Гланц и Королева
Аудио 5: English: 48 kHz, AC3, 6 ch, ~640 kbps avg
Субтитры: Русские (forced, full), английские
Исходник видео: Amazon

MediaInfo

General
Unique ID : 205864234009275570272369779506548089009 (0x9AE0025FE41866088B6E810AAA84A0B1)
Complete name : D:The.Da.Vinci.Code.2006.Open.Matte.1080p.mkv
Format : Matroska
Format version : Version 4
File size : 12.1 GiB
Duration : 2 h 28 min
Overall bit rate : 11.7 Mb/s
Movie name : The.Da.Vinci.Code.2006.Theatrical.Cut.Open.Matte.1080p.WEB-DL.2xRus.Eng.TeamHD-spartanec163
Encoded date : UTC 2019-10-27 16:39:22
Writing application : mkvmerge v8.3.0 ('Over the Horizon') 32bit
Writing library : libebml v1.3.1 + libmatroska v1.4.2
Video
ID : 1
Format : AVC
Format/Info : Advanced Video Codec
Format profile : High@L4
Format settings : CABAC / 4 Ref Frames
Format settings, CABAC : Yes
Format settings, Reference : 4 frames
Codec ID : V_MPEG4/ISO/AVC
Duration : 2 h 28 min
Bit rate : 9 920 kb/s
Width : 1 920 pixels
Height : 1 080 pixels
Display aspect ratio : 16:9
Frame rate mode : Constant
Frame rate : 23.976 (24000/1001) FPS
Color space : YUV
Chroma subsampling : 4:2:0
Bit depth : 8 bits
Scan type : Progressive
Bits/(Pixel*Frame) : 0.200
Stream size : 10.3 GiB (85%)
Title : WEB-DL 1080p (Amazon)
Language : English
Default : Yes
Forced : No
Color range : Limited
Color primaries : BT.709
Transfer characteristics : BT.709
Matrix coefficients : BT.709
Audio #1
ID : 2
Format : AC-3
Format/Info : Audio Coding 3
Commercial name : Dolby Digital
Codec ID : A_AC3
Duration : 2 h 28 min
Bit rate mode : Constant
Bit rate : 640 kb/s
Channel(s) : 6 channels
Channel layout : L R C LFE Ls Rs
Sampling rate : 48.0 kHz
Frame rate : 31.250 FPS (1536 SPF)
Bit depth : 16 bits
Compression mode : Lossy
Stream size : 681 MiB (5%)
Title : DUB
Language : Russian
Service kind : Complete Main
Default : Yes
Forced : No
Audio #2
ID : 3
Format : AC-3
Format/Info : Audio Coding 3
Commercial name : Dolby Digital
Codec ID : A_AC3
Duration : 2 h 28 min
Bit rate mode : Constant
Bit rate : 448 kb/s
Channel(s) : 6 channels
Channel layout : L R C LFE Ls Rs
Sampling rate : 48.0 kHz
Frame rate : 31.250 FPS (1536 SPF)
Bit depth : 16 bits
Compression mode : Lossy
Stream size : 477 MiB (4%)
Title : DVO
Language : Russian
Service kind : Complete Main
Default : No
Forced : No
Audio #3
ID : 4
Format : E-AC-3
Format/Info : Enhanced AC-3
Commercial name : Dolby Digital Plus
Codec ID : A_EAC3
Duration : 2 h 28 min
Bit rate mode : Constant
Bit rate : 640 kb/s
Channel(s) : 6 channels
Channel layout : L R C LFE Ls Rs
Sampling rate : 48.0 kHz
Frame rate : 31.250 FPS (1536 SPF)
Compression mode : Lossy
Stream size : 681 MiB (5%)
Language : English
Service kind : Complete Main
Default : No
Forced : No
Text #1
ID : 5
Format : UTF-8
Codec ID : S_TEXT/UTF8
Codec ID/Info : UTF-8 Plain Text
Duration : 1 h 28 min
Bit rate : 2 b/s
Count of elements : 23
Stream size : 1.32 KiB (0%)
Title : forced
Language : Russian
Default : Yes
Forced : No
Text #2
ID : 6
Format : UTF-8
Codec ID : S_TEXT/UTF8
Codec ID/Info : UTF-8 Plain Text
Duration : 2 h 19 min
Bit rate : 96 b/s
Count of elements : 1679
Stream size : 99.2 KiB (0%)
Title : Full
Language : Russian
Default : No
Forced : No
Text #3
ID : 7
Format : UTF-8
Codec ID : S_TEXT/UTF8
Codec ID/Info : UTF-8 Plain Text
Duration : 2 h 18 min
Bit rate : 54 b/s
Count of elements : 1649
Stream size : 54.9 KiB (0%)
Language : English
Default : No
Forced : No
Menu
00:00:00.000 : en:Chapter 1
00:12:55.900 : en:Chapter 2
00:28:57.693 : en:Chapter 3
00:40:04.233 : en:Chapter 4
00:41:42.206 : en:Chapter 5
00:48:22.939 : en:Chapter 7
01:04:44.211 : en:Chapter 8
01:13:05.336 : en:Chapter 9
01:24:32.689 : en:Chapter 10
01:29:26.690 : en:Chapter 11
01:36:28.403 : en:Chapter 12
01:41:43.092 : en:Chapter 13
01:51:44.693 : en:Chapter 14
02:00:05.317 : en:Chapter 15
02:11:27.749 : en:Chapter 16
02:17:04.918 : en:Chapter 17
02:21:26.930 : en:Chapter 18

Сравнения



Скриншоты

admin

Post 26-Jul-2021 05:46

[Quote]

«You're in for a shock»
Информация о фильме
Название: Красотка на взводе
Оригинальное название: Jolt
Год выпуска: 2021
Страна / студия: США, Busted Shark Productions, Campbell Grobman Films, Eclectic Pictures Inc., Jolt Productions, Millennium Films, Nu Boyana Film Studios
Жанр: боевик, комедия
Продолжительность:
Перевод: Любительский двухголосый (Pazl Voice)
Режиссер: Таня Уэкслер
В ролях: Кейт Бекинсейл, Джей Кортни, Стэнли Туччи, Бобби Каннавале, Лаверн Кокс, Константин Грегори, Ори Пфеффер, Дэвид Брэдли, Сьюзан Сарандон, Льюис Иэн Брэй, Натан Купер, Джозеф Гроган, Софи Сандерсон, Стивен Осборн, Том Ксандер, Эван Шарп, Сообразительный Клемент, София Уэлдон, Элия Ор, Дороттия Барток
О фильме: Вышибала Линди плохо умеет управлять собственным гневом и постоянно боится кого-то убить в приступе ярости. В качестве самоконтроля она носит специальный жилет, который бьёт её током и успокаивает, прежде чем она совершит необратимое. Но после смерти возлюбленного Линди вынуждена забыть о контроле и отправиться на поиски убийцы.



Качество: WEB-DL 1080p
Видео: MPEG-4 AVC, 6326 Кбит/с, 1920x800
Аудио 1: AC3, 6 ch, 448 kb/s
Аудио 2: E-AC3, 6 ch, 640 kb/s
Субтитры: Английские

Скриншоты


Инфо

Общее
Уникальный идентификатор : 159035076928217707508583095114473282942 (0x77A50AABF5B5008F0D3778F047C21D7E)
Полное имя : E:DownloadsКрасотка.на.взводе.(2021).WEB-DL.1080p..mkv
Формат : Matroska
Версия формата : Version 4
Размер файла : 4,72 Гбайт
Продолжительность : 1 ч. 31 м.
Общий поток : 7 416 Кбит/сек
Название фильма : Красотка.на.взводе.(2021).WEB-DL.1080p.
Дата кодирования : UTC 2021-07-24 18:27:19
Программа кодирования : mkvmerge v59.0.0 ('Shining Star') 64-bit
Библиотека кодирования : libebml v1.4.2 + libmatroska v1.6.4
Видео
Идентификатор : 1
Формат : AVC
Формат/Информация : Advanced Video Codec
Профиль формата : High@L4
Настройки формата : CABAC / 4 Ref Frames
Параметр CABAC формата : Да
Параметр RefFrames формата : 4 кадра
Идентификатор кодека : V_MPEG4/ISO/AVC
Продолжительность : 1 ч. 31 м.
Вид битрейта : Постоянный
Битрейт : 6 326 Кбит/сек
Номинальный битрейт : 10 000 Кбит/сек
Ширина : 1 920 пикселей
Высота : 800 пикселей
Соотношение сторон : 2,40:1
Режим частоты кадров : Постоянный
Частота кадров : 23,976 (24000/1001) кадра/сек
Цветовое пространство : YUV
Субдискретизация насыщенности : 4:2:0
Битовая глубина : 8 бит
Тип развёртки : Прогрессивная
Бит/(Пиксели*Кадры) : 0.172
Размер потока : 4,02 Гбайт (85%)
Default : Да
Forced : Нет
Цветовой диапазон : Limited
Основные цвета : BT.709
Характеристики трансфера : BT.709
Коэффициенты матрицы : BT.709
Аудио #1
Идентификатор : 2
Формат : AC-3
Формат/Информация : Audio Coding 3
Коммерческое название : Dolby Digital
Идентификатор кодека : A_AC3
Продолжительность : 1 ч. 31 м.
Вид битрейта : Постоянный
Битрейт : 448 Кбит/сек
Каналы : 6 каналов
Channel layout : L R C LFE Ls Rs
Частота : 48,0 КГц
Частота кадров : 31,250 кадров/сек (1536 SPF)
Метод сжатия : С потерями
Размер потока : 292 Мбайт (6%)
Заголовок : [DVO] Pazl Voice | KinoPub
Язык : Russian
Service kind : Complete Main
Default : Да
Forced : Нет
Аудио #2
Идентификатор : 3
Формат : E-AC-3
Формат/Информация : Enhanced AC-3
Коммерческое название : Dolby Digital Plus
Идентификатор кодека : A_EAC3
Продолжительность : 1 ч. 31 м.
Вид битрейта : Постоянный
Битрейт : 640 Кбит/сек
Каналы : 6 каналов
Channel layout : L R C LFE Ls Rs
Частота : 48,0 КГц
Частота кадров : 31,250 кадров/сек (1536 SPF)
Метод сжатия : С потерями
Размер потока : 417 Мбайт (9%)
Заголовок : English
Язык : English
Service kind : Complete Main
Default : Нет
Forced : Нет
Текст
Идентификатор : 4
Формат : UTF-8
Идентификатор кодека : S_TEXT/UTF8
Идентификатор кодека/Информация : UTF-8 Plain Text
Продолжительность : 1 ч. 24 м.
Битрейт : 61 бит/сек
Count of elements : 1332
Размер потока : 38,3 Кбайт (0%)
Заголовок : English
Язык : English
Default : Нет
Forced : Нет

admin

Post 26-Jul-2021 05:34

[Quote]

Информация о фильме
Название: Плохая компания
Оригинальное название: Bad Company
Год выхода: 2002
Жанр: Боевик, триллер, комедия, приключения
Режиссер: Джоэл Шумахер
В ролях: Крис Рок, Энтони Хопкинс, Керри Вашигтон, Брук Смит, Гарселл Бьювайс, Ших Уигхэм, Майкл Или, Петер Стормаре, Гэбриел Махт, Адони Маропис, Гарсель Бове, Драган Мичанович, Джон Слэттери, Брук Смит, Дэниэл Санжата, ДеВоун Лоусон мл., Марек Вашут, Питер Макдисси, Ирма П. Холл, Петр Якл, Дэн Зиски, Джон Эйлуорд, Джон Финк, Дебора Раш, Ян Немейовски, Винтер Б. Уларик, Майкл Или, Джанет Рэкуэл.
О фильме:
Когда во время очередного задания погибает агент ЦРУ, агентство решает заменить его братом-близнецом и закончить сверхсекретную операцию, над которой работал погибший. Однако замену трудно назвать адекватной. На место опытного агента, выпускника Гарварда, пришлось поставить ничего не подозревающего уличного прощелыгу. Чтобы окончательно не провалить дело, руководство приставляет к новобранцу одного из своих лучших агентов. Сладкая парочка приступает к теперь уже вдвойне рискованной операции...

Страна: США, Чехия
Студия: Jerry Bruckheimer Films, Stillking Films, Touchstone Pictures
Продолжительность: 01:56:47
Перевод: Дублированный, профессиональный многоголосый, авторский
Файл
Кодек: AVC
Качество: WEB-DL 1080p | Bad.Company.2002.1080p.AMZN.WEB-DL.DDP5.1.H.264-SiGMA
Видео: MPEG-4 AVC, 12.1 Mбит/с, 1920x1080, 23.976 кадр/с
Аудио #1: Русский (АС3, 6ch, 384 Кбит/с, 48.0 KHz) Профессиональный (полное дублирование) Нева-1
Аудио #2: Русский (АС3, 6ch, 384 Кбит/с, 48.0 KHz) Профессиональный (многоголосый, закадровый)
Аудио #3: Русский (АС3, 2ch, 192 Кбит/с, 48.0 KHz) Профессиональный (многоголосый, закадровый) 1 канал
Аудио #4: Русский (АС3, 2ch, 192 Кбит/с, 48.0 KHz) Авторский (одноголосый, закадровый) Андрей Гаврилов
Аудио #5: Русский (АС3, 6ch, 384 Кбит/с, 48.0 KHz) Авторский (одноголосый, закадровый) Петр Гланц
Аудио #6: Английский (E-АС3, 6ch, 640 Кбит/с, 48.0 KHz)
Субтитры: Русские, английские (*srt)

MediaInfo

Источник: Bad.Company.2002.1080p.AMZN.WEB-DL.DDP5.1.H.264-SiGMA
General
Unique ID : 221865576404638533924290440078250870056 (0xA6E9C1770A03774AAF236C1E6ABE0528)
Complete name : Bad.Company.2002.WEB-DL.1080p.mkv
Format : Matroska
Format version : Version 4 / Version 2
File size : 11.7 GiB
Duration : 1 h 56 min
Overall bit rate : 14.3 Mb/s
Encoded date : UTC 2019-04-23 23:03:58
Writing application : mkvmerge v7.1.0 ('Good Love') 64bit built on Jul 27 2014 13:06:55
Writing library : libebml v1.3.0 + libmatroska v1.4.1
Video
ID : 1
Format : AVC
Format/Info : Advanced Video Codec
Format profile : High@L4
Format settings, CABAC : Yes
Format settings, RefFrames : 4 frames
Codec ID : V_MPEG4/ISO/AVC
Duration : 1 h 56 min
Bit rate : 12.1 Mb/s
Width : 1 920 pixels
Height : 1 080 pixels
Display aspect ratio : 16:9
Frame rate mode : Constant
Frame rate : 23.976 (24000/1001) FPS
Color space : YUV
Chroma subsampling : 4:2:0
Bit depth : 8 bits
Scan type : Progressive
Bits/(Pixel*Frame) : 0.243
Stream size : 9.87 GiB (85%)
Language : English
Default : Yes
Forced : No
Color range : Limited
Color primaries : BT.709
Transfer characteristics : BT.709
Matrix coefficients : BT.709
Audio #1
ID : 2
Format : AC-3
Format/Info : Audio Coding 3
Format settings, Endianness : Big
Codec ID : A_AC3
Duration : 1 h 56 min
Bit rate mode : Constant
Bit rate : 384 kb/s
Channel(s) : 6 channels
Channel positions : Front: L C R, Side: L R, LFE
Sampling rate : 48.0 kHz
Frame rate : 31.250 FPS (1536 SPF)
Bit depth : 16 bits
Compression mode : Lossy
Stream size : 321 MiB (3%)
Title : Дубляж
Language : Russian
Service kind : Complete Main
Default : Yes
Forced : No
Audio #2
ID : 3
Format : AC-3
Format/Info : Audio Coding 3
Format settings, Endianness : Big
Codec ID : A_AC3
Duration : 1 h 56 min
Bit rate mode : Constant
Bit rate : 384 kb/s
Channel(s) : 6 channels
Channel positions : Front: L C R, Side: L R, LFE
Sampling rate : 48.0 kHz
Frame rate : 31.250 FPS (1536 SPF)
Bit depth : 16 bits
Compression mode : Lossy
Stream size : 321 MiB (3%)
Title : MVO
Language : Russian
Service kind : Complete Main
Default : No
Forced : No
Audio #3
ID : 4
Format : AC-3
Format/Info : Audio Coding 3
Format settings, Endianness : Big
Codec ID : A_AC3
Duration : 1 h 56 min
Bit rate mode : Constant
Bit rate : 192 kb/s
Channel(s) : 2 channels
Channel positions : Front: L R
Sampling rate : 48.0 kHz
Frame rate : 31.250 FPS (1536 SPF)
Bit depth : 16 bits
Compression mode : Lossy
Stream size : 160 MiB (1%)
Title : MVO | 1 канал
Language : Russian
Service kind : Complete Main
Default : No
Forced : No
Audio #4
ID : 5
Format : AC-3
Format/Info : Audio Coding 3
Format settings, Endianness : Big
Codec ID : A_AC3
Duration : 1 h 56 min
Bit rate mode : Constant
Bit rate : 192 kb/s
Channel(s) : 2 channels
Channel positions : Front: L R
Sampling rate : 48.0 kHz
Frame rate : 31.250 FPS (1536 SPF)
Bit depth : 16 bits
Compression mode : Lossy
Stream size : 160 MiB (1%)
Title : AVO | Андрей Гаврилов
Language : Russian
Service kind : Complete Main
Default : No
Forced : No
Audio #5
ID : 6
Format : AC-3
Format/Info : Audio Coding 3
Format settings, Endianness : Big
Codec ID : A_AC3
Duration : 1 h 56 min
Bit rate mode : Constant
Bit rate : 384 kb/s
Channel(s) : 6 channels
Channel positions : Front: L C R, Side: L R, LFE
Sampling rate : 48.0 kHz
Frame rate : 31.250 FPS (1536 SPF)
Bit depth : 16 bits
Compression mode : Lossy
Stream size : 321 MiB (3%)
Title : AVO | Петр Гланц
Language : Russian
Service kind : Complete Main
Default : No
Forced : No
Audio #6
ID : 7
Format : E-AC-3
Format/Info : Enhanced Audio Coding 3
Format settings, Endianness : Big
Codec ID : A_EAC3
Duration : 1 h 56 min
Bit rate mode : Constant
Bit rate : 640 kb/s
Channel(s) : 6 channels
Channel positions : Front: L C R, Side: L R, LFE
Sampling rate : 48.0 kHz
Frame rate : 187.500 FPS (256 SPF)
Compression mode : Lossy
Stream size : 535 MiB (4%)
Language : English
Service kind : Complete Main
Default : No
Forced : No
Text #1
ID : 8
Format : UTF-8
Codec ID : S_TEXT/UTF8
Codec ID/Info : UTF-8 Plain Text
Duration : 1 h 50 min
Bit rate : 93 b/s
Count of elements : 1335
Stream size : 75.9 KiB (0%)
Language : Russian
Default : No
Forced : No
Text #2
ID : 9
Format : UTF-8
Codec ID : S_TEXT/UTF8
Codec ID/Info : UTF-8 Plain Text
Duration : 1 h 53 min
Bit rate : 72 b/s
Count of elements : 1974
Stream size : 60.2 KiB (0%)
Language : English
Default : No
Forced : No
Text #3
ID : 10
Format : UTF-8
Codec ID : S_TEXT/UTF8
Codec ID/Info : UTF-8 Plain Text
Duration : 1 h 53 min
Bit rate : 80 b/s
Count of elements : 2157
Stream size : 67.0 KiB (0%)
Title : SDH
Language : English
Default : No
Forced : No
Menu
00:00:00.000 : en:Opening Credits
00:07:37.000 : en:A New Identity
00:19:38.000 : en:The Transformation
00:27:37.000 : en:The Test
00:35:53.000 : en:Finding Jake
00:40:15.000 : en:Getting Serious About the Truth
00:45:45.000 : en:Welcome to Prague
00:49:10.000 : en:The Meeting
00:53:35.000 : en:Don't Cheat, Just Eat
01:06:28.000 : en:Checking Out the Merchandise
01:14:58.000 : en:Code Red
01:23:39.000 : en:Dangling a Worm on a Hook
01:26:59.000 : en:Julie's Abduction
01:31:55.000 : en:Moving the Pawn
01:38:04.000 : en:Grand Central Station
01:47:44.000 : en:Book of Forgotten Heroes/End Credits

Скриншоты

admin

Post 25-Jul-2021 03:40

[Quote]

Информация о фильме
Название: Те, кто желает мне смерти
Оригинальное название: Those Who Wish Me Dead
Год выхода: 2021
Жанр: Боевик, триллер, драма
Режиссер: Тейлор Шеридан
В ролях: Анджелина Джоли, Николас Холт, Джон Бернтал, Эйдан Гиллен, Тайлер Перри, Джейк Уэбер, Джеймс Джордан, Медина Сенгхоур, Лора Каннингэм, Дилан Кенин, Финн Литтл, Ховард Фергюсон мл., Джейкоб Браун, Мэтт Медрано, Рене Эррера, Элисон Грэйнджер

О фильме: Спасательница Ханна (Анджелина Джоли) переживает эмоциональное потрясение после трагического инцидента, унесшего жизни троих человек. Однажды во время патрулирования отдаленного участка леса героиня встречает до смерти напуганного 12-летнего мальчика, ставшего свидетелем убийства и преследуемого киллерами. Ханна должна спасти ребенка, в то время как всем им угрожает смертельный огонь.
Страна: Канада, США
Студия: Bron Studios, Creative Wealth Media Finance, Film Rites
Продолжительность: 01:39:41
Перевод(ы):
#1: Дублированный | iTunes
#2: Профессиональный многоголосый | HDRezka Studio

Качество: BDRip 1080p
Видео: MPEG-4 AVC, 1920x804, 11.2 Mbit/s, 23.976 fps
Аудио #01: 48 kHz, AC3, 5.1, 384 Kbps | Дублированный | iTunes | RUS |
Аудио #02: 48 kHz, AC3, 5.1, 448 Kbps | Профессиональный многоголосый | HDRezka Studio | RUS |
Аудио #03: 48 kHz, AC3, 5.1, 640 Kbps | Оригинал | ENG |
Субтитры: Русские (2 x forced, full), английские

Скриншоты

MI

General
Unique ID : 175849840328001875978115155600262303540 (0x844B728395FCB369B6F876C0D1700F34)
Complete name : G:VideoThose.Who.Wish.Me.Dead.2021.D.MVO.BDRip.1080p.seleZen.mkv
Format : Matroska
Format version : Version 4
File size : 8.85 GiB
Duration : 1 h 39 min
Overall bit rate : 12.7 Mb/s
Movie name : Those Who Wish Me Dead 2021 from seleZen
Encoded date : UTC 2021-07-24 21:51:12
Writing application : mkvmerge v53.0.0 ('Fool's Gold') 64-bit
Writing library : libebml v1.4.1 + libmatroska v1.6.2
Video
ID : 1
Format : AVC
Format/Info : Advanced Video Codec
Format profile : High@L4.1
Format settings : CABAC / 5 Ref Frames
Format settings, CABAC : Yes
Format settings, Reference : 5 frames
Codec ID : V_MPEG4/ISO/AVC
Duration : 1 h 39 min
Bit rate : 11.2 Mb/s
Width : 1 920 pixels
Height : 804 pixels
Display aspect ratio : 2.40:1
Frame rate mode : Constant
Frame rate : 23.976 (24000/1001) FPS
Color space : YUV
Chroma subsampling : 4:2:0
Bit depth : 8 bits
Scan type : Progressive
Bits/(Pixel*Frame) : 0.303
Stream size : 7.82 GiB (88%)
Title : MTeam
Writing library : x264 core 157 r2938 2b00a84 TnP@MTeam Mod
Encoding settings : cabac=1 / ref=5 / deblock=1:-3:-3 / analyse=0x3:0x133 / me=umh / subme=10 / psy=1 / psy_rd=1.05:0.00 / mixed_ref=1 / me_range=32 / chroma_me=1 / trellis=2 / 8x8dct=1 / cqm=0 / deadzone=21,11 / fast_pskip=0 / chroma_qp_offset=-2 / threads=12 / lookahead_threads=2 / sliced_threads=0 / nr=0 / decimate=0 / interlaced=0 / bluray_compat=0 / constrained_intra=0 / bframes=8 / b_pyramid=2 / b_adapt=2 / b_bias=0 / direct=3 / weightb=1 / open_gop=0 / weightp=2 / keyint=250 / keyint_min=24 / scenecut=40 / intra_refresh=0 / rc_lookahead=250 / rc=crf / mbtree=0 / crf=16.8 / qcomp=0.60 / qpmin=0 / qpmax=69 / qpstep=4 / vbv_maxrate=62500 / vbv_bufsize=78125 / crf_max=0.0 / nal_hrd=none / filler=0 / ip_ratio=1.30 / pb_ratio=1.20 / aq=3:0.80
Language : English
Default : Yes
Forced : No
Color range : Limited
Color primaries : BT.709
Matrix coefficients : BT.709
Audio #1
ID : 2
Format : AC-3
Format/Info : Audio Coding 3
Commercial name : Dolby Digital
Codec ID : A_AC3
Duration : 1 h 39 min
Bit rate mode : Constant
Bit rate : 384 kb/s
Channel(s) : 6 channels
Channel layout : L R C LFE Ls Rs
Sampling rate : 48.0 kHz
Frame rate : 31.250 FPS (1536 SPF)
Compression mode : Lossy
Stream size : 274 MiB (3%)
Title : Dub [iTunes]
Language : Russian
Service kind : Complete Main
Default : Yes
Forced : Yes
Audio #2
ID : 3
Format : AC-3
Format/Info : Audio Coding 3
Commercial name : Dolby Digital
Codec ID : A_AC3
Duration : 1 h 39 min
Bit rate mode : Constant
Bit rate : 448 kb/s
Channel(s) : 6 channels
Channel layout : L R C LFE Ls Rs
Sampling rate : 48.0 kHz
Frame rate : 31.250 FPS (1536 SPF)
Compression mode : Lossy
Stream size : 319 MiB (4%)
Title : MVO [HDRezka Studio]
Language : Russian
Service kind : Complete Main
Default : No
Forced : No
Audio #3
ID : 4
Format : AC-3
Format/Info : Audio Coding 3
Commercial name : Dolby Digital
Codec ID : A_AC3
Duration : 1 h 39 min
Bit rate mode : Constant
Bit rate : 640 kb/s
Channel(s) : 6 channels
Channel layout : L R C LFE Ls Rs
Sampling rate : 48.0 kHz
Frame rate : 31.250 FPS (1536 SPF)
Compression mode : Lossy
Stream size : 456 MiB (5%)
Title : Original
Language : English
Service kind : Complete Main
Default : No
Forced : No
Text #1
ID : 5
Format : UTF-8
Codec ID : S_TEXT/UTF8
Codec ID/Info : UTF-8 Plain Text
Duration : 1 h 37 min
Bit rate : 0 b/s
Count of elements : 14
Stream size : 710 Bytes (0%)
Title : Forced
Language : Russian
Default : Yes
Forced : Yes
Text #2
ID : 6
Format : UTF-8
Codec ID : S_TEXT/UTF8
Codec ID/Info : UTF-8 Plain Text
Duration : 1 h 30 min
Bit rate : 1 b/s
Count of elements : 17
Stream size : 931 Bytes (0%)
Title : Forced [HDRezka Studio]
Language : Russian
Default : No
Forced : No
Text #3
ID : 7
Format : UTF-8
Codec ID : S_TEXT/UTF8
Codec ID/Info : UTF-8 Plain Text
Duration : 1 h 37 min
Bit rate : 71 b/s
Count of elements : 981
Stream size : 51.4 KiB (0%)
Title : Full
Language : Russian
Default : No
Forced : No
Text #4
ID : 8
Format : UTF-8
Codec ID : S_TEXT/UTF8
Codec ID/Info : UTF-8 Plain Text
Duration : 1 h 32 min
Bit rate : 39 b/s
Count of elements : 958
Stream size : 26.8 KiB (0%)
Title : Full
Language : English
Default : No
Forced : No
Text #5
ID : 9
Format : UTF-8
Codec ID : S_TEXT/UTF8
Codec ID/Info : UTF-8 Plain Text
Duration : 1 h 35 min
Bit rate : 44 b/s
Count of elements : 1113
Stream size : 31.1 KiB (0%)
Title : English [SDH]
Language : English
Default : No
Forced : No
Menu
00:00:00.000 : en:Chapter 01
00:02:11.757 : en:Chapter 02
00:11:36.988 : en:Chapter 03
00:21:10.936 : en:Chapter 04
00:31:00.358 : en:Chapter 05
00:39:21.401 : en:Chapter 06
00:48:41.794 : en:Chapter 07
00:56:57.914 : en:Chapter 08
01:04:54.808 : en:Chapter 09
01:14:37.348 : en:Chapter 10
01:23:47.940 : en:Chapter 11
01:33:30.230 : en:Chapter 12

admin

Post 25-Jul-2021 03:40

[Quote]

Информация о фильме
Название: Те, кто желает мне смерти
Оригинальное название: Those Who Wish Me Dead
Год выхода: 2021
Жанр: Боевик, триллер, драма
Режиссер: Тейлор Шеридан
В ролях: Анджелина Джоли, Николас Холт, Джон Бернтал, Эйдан Гиллен, Тайлер Перри, Джейк Уэбер, Джеймс Джордан, Медина Сенгхоур, Лора Каннингэм, Дилан Кенин, Финн Литтл, Ховард Фергюсон мл., Джейкоб Браун, Мэтт Медрано, Рене Эррера, Элисон Грэйнджер

О фильме: Спасательница Ханна (Анджелина Джоли) переживает эмоциональное потрясение после трагического инцидента, унесшего жизни троих человек. Однажды во время патрулирования отдаленного участка леса героиня встречает до смерти напуганного 12-летнего мальчика, ставшего свидетелем убийства и преследуемого киллерами. Ханна должна спасти ребенка, в то время как всем им угрожает смертельный огонь.
Страна: Канада, США
Студия: Bron Studios, Creative Wealth Media Finance, Film Rites
Продолжительность: 01:39:41
Перевод(ы):
#1: Дублированный | iTunes
#2: Профессиональный многоголосый | HDRezka Studio

Качество: BDRip 720p
Видео: MPEG-4 AVC, 1280x536, 4046 Kbit/s, 23.976 fps
Аудио #01: 48 kHz, AC3, 5.1, 384 Kbps | Дублированный | iTunes | RUS |
Аудио #02: 48 kHz, AC3, 5.1, 448 Kbps | Профессиональный многоголосый | HDRezka Studio | RUS |
Аудио #03: 48 kHz, AC3, 5.1, 640 Kbps | Оригинал | ENG |
Субтитры: Русские (2 x forced, full), английские

Скриншоты

MI

General
Unique ID : 238893972429076825856632662382401672265 (0xB3B94E3579D5DF9F07A71B4171CDD449)
Complete name : G:VideoThose.Who.Wish.Me.Dead.2021.D.MVO.BDRip.720p.seleZen.mkv
Format : Matroska
Format version : Version 4
File size : 3.84 GiB
Duration : 1 h 39 min
Overall bit rate : 5 521 kb/s
Movie name : Those Who Wish Me Dead 2021 from seleZen
Encoded date : UTC 2021-07-24 22:05:24
Writing application : mkvmerge v53.0.0 ('Fool's Gold') 64-bit
Writing library : libebml v1.4.1 + libmatroska v1.6.2
Video
ID : 1
Format : AVC
Format/Info : Advanced Video Codec
Format profile : High@L4.1
Format settings : CABAC / 12 Ref Frames
Format settings, CABAC : Yes
Format settings, Reference : 12 frames
Codec ID : V_MPEG4/ISO/AVC
Duration : 1 h 39 min
Bit rate : 4 046 kb/s
Width : 1 280 pixels
Height : 536 pixels
Display aspect ratio : 2.40:1
Frame rate mode : Constant
Frame rate : 23.976 (24000/1001) FPS
Color space : YUV
Chroma subsampling : 4:2:0
Bit depth : 8 bits
Scan type : Progressive
Bits/(Pixel*Frame) : 0.246
Stream size : 2.82 GiB (73%)
Title : MTeam
Writing library : x264 core 157 r2938 2b00a84 TnP@MTeam Mod
Encoding settings : cabac=1 / ref=12 / deblock=1:-3:-3 / analyse=0x3:0x133 / me=umh / subme=10 / psy=1 / psy_rd=1.05:0.00 / mixed_ref=1 / me_range=32 / chroma_me=1 / trellis=2 / 8x8dct=1 / cqm=0 / deadzone=21,11 / fast_pskip=0 / chroma_qp_offset=-2 / threads=12 / lookahead_threads=2 / sliced_threads=0 / nr=0 / decimate=0 / interlaced=0 / bluray_compat=0 / constrained_intra=0 / bframes=8 / b_pyramid=2 / b_adapt=2 / b_bias=0 / direct=3 / weightb=1 / open_gop=0 / weightp=2 / keyint=250 / keyint_min=24 / scenecut=40 / intra_refresh=0 / rc_lookahead=250 / rc=crf / mbtree=0 / crf=16.8 / qcomp=0.60 / qpmin=0 / qpmax=69 / qpstep=4 / vbv_maxrate=62500 / vbv_bufsize=78125 / crf_max=0.0 / nal_hrd=none / filler=0 / ip_ratio=1.30 / pb_ratio=1.20 / aq=3:0.80
Language : English
Default : Yes
Forced : No
Color range : Limited
Color primaries : BT.709
Matrix coefficients : BT.709
Audio #1
ID : 2
Format : AC-3
Format/Info : Audio Coding 3
Commercial name : Dolby Digital
Codec ID : A_AC3
Duration : 1 h 39 min
Bit rate mode : Constant
Bit rate : 384 kb/s
Channel(s) : 6 channels
Channel layout : L R C LFE Ls Rs
Sampling rate : 48.0 kHz
Frame rate : 31.250 FPS (1536 SPF)
Compression mode : Lossy
Stream size : 274 MiB (7%)
Title : Dub [iTunes]
Language : Russian
Service kind : Complete Main
Default : Yes
Forced : Yes
Audio #2
ID : 3
Format : AC-3
Format/Info : Audio Coding 3
Commercial name : Dolby Digital
Codec ID : A_AC3
Duration : 1 h 39 min
Bit rate mode : Constant
Bit rate : 448 kb/s
Channel(s) : 6 channels
Channel layout : L R C LFE Ls Rs
Sampling rate : 48.0 kHz
Frame rate : 31.250 FPS (1536 SPF)
Compression mode : Lossy
Stream size : 319 MiB (8%)
Title : MVO [HDRezka Studio]
Language : Russian
Service kind : Complete Main
Default : No
Forced : No
Audio #3
ID : 4
Format : AC-3
Format/Info : Audio Coding 3
Commercial name : Dolby Digital
Codec ID : A_AC3
Duration : 1 h 39 min
Bit rate mode : Constant
Bit rate : 640 kb/s
Channel(s) : 6 channels
Channel layout : L R C LFE Ls Rs
Sampling rate : 48.0 kHz
Frame rate : 31.250 FPS (1536 SPF)
Compression mode : Lossy
Stream size : 456 MiB (12%)
Title : Original
Language : English
Service kind : Complete Main
Default : No
Forced : No
Text #1
ID : 5
Format : UTF-8
Codec ID : S_TEXT/UTF8
Codec ID/Info : UTF-8 Plain Text
Duration : 1 h 37 min
Bit rate : 0 b/s
Count of elements : 14
Stream size : 710 Bytes (0%)
Title : Forced
Language : Russian
Default : Yes
Forced : Yes
Text #2
ID : 6
Format : UTF-8
Codec ID : S_TEXT/UTF8
Codec ID/Info : UTF-8 Plain Text
Duration : 1 h 30 min
Bit rate : 1 b/s
Count of elements : 17
Stream size : 931 Bytes (0%)
Title : Forced [HDRezka Studio]
Language : Russian
Default : No
Forced : No
Text #3
ID : 7
Format : UTF-8
Codec ID : S_TEXT/UTF8
Codec ID/Info : UTF-8 Plain Text
Duration : 1 h 37 min
Bit rate : 71 b/s
Count of elements : 981
Stream size : 51.4 KiB (0%)
Title : Full
Language : Russian
Default : No
Forced : No
Text #4
ID : 8
Format : UTF-8
Codec ID : S_TEXT/UTF8
Codec ID/Info : UTF-8 Plain Text
Duration : 1 h 32 min
Bit rate : 39 b/s
Count of elements : 958
Stream size : 26.8 KiB (0%)
Title : Full
Language : English
Default : No
Forced : No
Text #5
ID : 9
Format : UTF-8
Codec ID : S_TEXT/UTF8
Codec ID/Info : UTF-8 Plain Text
Duration : 1 h 35 min
Bit rate : 44 b/s
Count of elements : 1113
Stream size : 31.1 KiB (0%)
Title : English [SDH]
Language : English
Default : No
Forced : No
Menu
00:00:00.000 : en:Chapter 01
00:02:11.757 : en:Chapter 02
00:11:36.988 : en:Chapter 03
00:21:10.936 : en:Chapter 04
00:31:00.358 : en:Chapter 05
00:39:21.401 : en:Chapter 06
00:48:41.794 : en:Chapter 07
00:56:57.914 : en:Chapter 08
01:04:54.808 : en:Chapter 09
01:14:37.348 : en:Chapter 10
01:23:47.940 : en:Chapter 11
01:33:30.230 : en:Chapter 12

admin

Post 25-Jul-2021 03:19

[Quote]

Информация о фильме
Название: Заложники Марса / Поселенцы
Оригинальное название: Settlers
Год выхода: 2021
Жанр: Фантастика, драма
Режиссер: Уайатт Рокфеллер
В ролях: София Бутелла, Джонни Ли Миллер, Нелл Тайгер Фри, Бруклин Принс, Исмаэль Круз, Натали Уолш, Мэттью Ван Лееве
О фильме:
Семья переселенцев с Земли пытается выжить на новой планете. Их дом подвергается постоянным нападкам со стороны чужаков. После очередного рейда, вместо главы семейства, возвращается бывший собственник дома.

Страна: Великобритания
Студия: Brittle-Star PicturesFilm, ConstellationJericho, Motion Pictures
Продолжительность: 01:43:31
Перевод: Дублированный | iTunes , Aвторский одноголосый | Андрей Важенин (BadBajo)
Файл
Кодек: x.264
Качество: WEB-DL 1080p | Settlers.2021.1080p.WEB-DL.DD5.1.x264-NOGRP
Видео: MPEG-4 AVC, 6718 Kбит/с, 1920x800, 23.976 кадр/с
Аудио #1: Русский (АС3, 6 ch, 384 Кбит/с, 48.0 KHz) Профессиональный (дублированный) iTunes
Аудио #2: Русский (АС3, 6 ch, 384 Кбит/с, 48.0 KHz) Aвторский (одноголосый, закадровый) Андрей Важенин
Аудио #3: Английский (АС3, 6 ch, 384 Кбит/с, 48.0 KHz)
Субтитры: Русские (форсированные, полные), Английские
► Без Рекламы!

MediaInfo

Источник: Settlers.2021.1080p.WEB-DL.DD5.1.x264-NOGRP
General
Unique ID : 234972305341189430119423981084954399496 (0xB0C60517E4A221198D15B7AACD6D1308)
Complete name : Settlers.2021.D.A.WEB-DL.1080p.mkv
Format : Matroska
Format version : Version 4 / Version 2
File size : 5.69 GiB
Duration : 1 h 43 min
Overall bit rate : 7 873 kb/s
Encoded date : UTC 2021-07-24 16:13:25
Writing application : mkvmerge v7.1.0 ('Good Love') 64bit built on Jul 27 2014 13:06:55
Writing library : libebml v1.3.0 + libmatroska v1.4.1
Video
ID : 1
Format : AVC
Format/Info : Advanced Video Codec
Format profile : High@L4
Format settings, CABAC : Yes
Format settings, RefFrames : 5 frames
Codec ID : V_MPEG4/ISO/AVC
Duration : 1 h 43 min
Bit rate : 6 718 kb/s
Width : 1 920 pixels
Height : 800 pixels
Display aspect ratio : 2.40:1
Frame rate mode : Constant
Frame rate : 23.976 (24000/1001) FPS
Color space : YUV
Chroma subsampling : 4:2:0
Bit depth : 8 bits
Scan type : Progressive
Bits/(Pixel*Frame) : 0.182
Stream size : 4.86 GiB (85%)
Language : English
Default : Yes
Forced : No
Color range : Limited
Color primaries : BT.709
Transfer characteristics : BT.709
Matrix coefficients : BT.709
Audio #1
ID : 2
Format : AC-3
Format/Info : Audio Coding 3
Format settings, Endianness : Big
Codec ID : A_AC3
Duration : 1 h 43 min
Bit rate mode : Constant
Bit rate : 384 kb/s
Channel(s) : 6 channels
Channel positions : Front: L C R, Side: L R, LFE
Sampling rate : 48.0 kHz
Frame rate : 31.250 FPS (1536 SPF)
Bit depth : 16 bits
Compression mode : Lossy
Stream size : 284 MiB (5%)
Title : DUB | iTunes
Language : Russian
Service kind : Complete Main
Default : Yes
Forced : No
Audio #2
ID : 3
Format : AC-3
Format/Info : Audio Coding 3
Format settings, Endianness : Big
Codec ID : A_AC3
Duration : 1 h 43 min
Bit rate mode : Constant
Bit rate : 384 kb/s
Channel(s) : 6 channels
Channel positions : Front: L C R, Side: L R, LFE
Sampling rate : 48.0 kHz
Frame rate : 31.250 FPS (1536 SPF)
Bit depth : 16 bits
Compression mode : Lossy
Stream size : 284 MiB (5%)
Title : BadBajo
Language : Russian
Service kind : Complete Main
Default : No
Forced : No
Audio #3
ID : 4
Format : AC-3
Format/Info : Audio Coding 3
Format settings, Endianness : Big
Codec ID : A_AC3
Duration : 1 h 43 min
Bit rate mode : Constant
Bit rate : 384 kb/s
Channel(s) : 6 channels
Channel positions : Front: L C R, Side: L R, LFE
Sampling rate : 48.0 kHz
Frame rate : 31.250 FPS (1536 SPF)
Bit depth : 16 bits
Compression mode : Lossy
Stream size : 284 MiB (5%)
Title : English
Language : English
Service kind : Complete Main
Default : No
Forced : No
Text #1
ID : 5
Format : UTF-8
Codec ID : S_TEXT/UTF8
Codec ID/Info : UTF-8 Plain Text
Duration : 1 h 38 min
Bit rate : 1 b/s
Count of elements : 31
Stream size : 1.38 KiB (0%)
Title : Forced
Language : Russian
Default : Yes
Forced : No
Text #2
ID : 6
Format : UTF-8
Codec ID : S_TEXT/UTF8
Codec ID/Info : UTF-8 Plain Text
Duration : 1 h 38 min
Bit rate : 26 b/s
Count of elements : 669
Stream size : 19.3 KiB (0%)
Title : Full
Language : Russian
Default : No
Forced : No
Text #3
ID : 7
Format : UTF-8
Codec ID : S_TEXT/UTF8
Codec ID/Info : UTF-8 Plain Text
Duration : 1 h 35 min
Bit rate : 17 b/s
Count of elements : 534
Stream size : 12.0 KiB (0%)
Language : English
Default : No
Forced : No
Menu
00:00:00.000 : en:Scene 1
00:14:56.000 : en:Scene 2
00:29:41.250 : en:Scene 3
00:44:45.000 : en:Scene 4
00:59:36.350 : en:Scene 5
01:14:53.250 : en:Scene 6
01:31:34.150 : en:Scene 7
01:38:50.000 : en:Scene 8

Скриншоты

admin

Post 24-Jul-2021 06:18

[Quote]

Информация о фильме
Название: Никому не говори
Оригинальное название: Don't Tell a Soul
Год выхода: 2020
Жанр: Триллер, драма, криминал
Режиссер: Алекс Маколи
В ролях: Финн Уайтхед, Джек Дилан Грейзер, Мена Сувари, Рэйн Уилсон, Ричард Файк, Грэхэм Лютес, Маккенна Кристин По

О фильме: Братья Мэтт и Джои решают ограбить дом, чтобы помочь своей больной матери оплатить медицинские счета. Их замечает охранник Хэмби, который бросается в погоню за мальчишками и падает в глубокий колодец. Братья расходятся во мнении, что делать с человеком в колодце, о местонахождении которого знают только они. Младший Джои считает, что Хэмби нужно помочь, а старший Мэтт не хочет, чтобы охранник сдал их полиции. Хэмби же начинает свою игру, понимая, что его жизнь зависит от того, кто из братьев окажется сильнее.
«Никому не говори» — криминальный триллер об игре в кошки-мышки между хитрым охранником и двумя братьями-подростками.

Страна: США
Студия: Mangano Movies & Media, Unbridled Films
Продолжительность: 01:23:32
Перевод: Дублированный | iTunes
Качество: BDRip 1080p
Видео: MPEG-4 AVC, 1920x804, 11.9 Mbit/s, 23.976 fps
Аудио #01: 48 kHz, AC3, 5.1, 384 Kbps | Дублированный | RUS |
Аудио #02: 48 kHz, AC3, 5.1, 640 Kbps | Оригинал | ENG |
Субтитры: Русские (Forced, full), английские

Скриншоты

MI

General
Unique ID : 219424102432851389445250688851947729272 (0xA5138B8128E84D6A735F8B6F3672B178)
Complete name : G:VideoDont.Tell.a.Soul.2020.BDRip.1080p.seleZen.mkv
Format : Matroska
Format version : Version 4
File size : 7.56 GiB
Duration : 1 h 23 min
Overall bit rate : 13.0 Mb/s
Movie name : Dont Tell a Soul 2020 from seleZen
Encoded date : UTC 2021-07-23 01:41:59
Writing application : mkvmerge v53.0.0 ('Fool's Gold') 64-bit
Writing library : libebml v1.4.1 + libmatroska v1.6.2
Video
ID : 1
Format : AVC
Format/Info : Advanced Video Codec
Format profile : High@L4.1
Format settings : CABAC / 5 Ref Frames
Format settings, CABAC : Yes
Format settings, Reference : 5 frames
Codec ID : V_MPEG4/ISO/AVC
Duration : 1 h 23 min
Bit rate : 11.9 Mb/s
Width : 1 920 pixels
Height : 804 pixels
Display aspect ratio : 2.40:1
Frame rate mode : Constant
Frame rate : 23.976 (24000/1001) FPS
Color space : YUV
Chroma subsampling : 4:2:0
Bit depth : 8 bits
Scan type : Progressive
Bits/(Pixel*Frame) : 0.323
Stream size : 6.97 GiB (92%)
Title : iFT
Writing library : x264 core 161 r3048+58M ~ Encoded by Mocunaman in Portugal
Encoding settings : cabac=1 / ref=5 / deblock=1:-3:-3 / analyse=0x3:0x113 / me=umh / subme=11 / psy=1 / fade_compensate=0.00 / psy_rd=1.00:0.00 / mixed_ref=1 / me_range=32 / chroma_me=1 / trellis=2 / 8x8dct=1 / cqm=0 / deadzone=21,11 / fast_pskip=0 / chroma_qp_offset=-2 / threads=25 / lookahead_threads=6 / sliced_threads=0 / nr=0 / decimate=0 / interlaced=0 / bluray_compat=0 / constrained_intra=0 / fgo=0 / bframes=14 / b_pyramid=2 / b_adapt=2 / b_bias=0 / direct=3 / weightb=1 / open_gop=0 / weightp=2 / keyint=250 / keyint_min=23 / scenecut=40 / intra_refresh=0 / rc_lookahead=60 / rc=crf / mbtree=0 / crf=17.3000 / qcomp=0.60 / qpmin=0:0:0 / qpmax=69:69:69 / qpstep=4 / vbv_maxrate=62500 / vbv_bufsize=78125 / crf_max=0.0 / nal_hrd=none / filler=0 / ip_ratio=1.30 / pb_ratio=1.20 / aq=3:0.85 / aq-sensitivity=10.00 / aq-factor=1.00:1.00:1.00 / aq2=0 / aq3=0 / zones=0,1392,crf=15.3/1608,2377,crf=16.8/4600,6032,crf=15.3/8919,12997,crf=16.3/15565,17533,crf=16.8/22208,26144,crf=16.8/28880,35024,crf=16.8/35972,45309,crf=15.3/48093,52430,crf=15.3/54179,70179,crf=15.8/70635,78651,crf=16.3/79707,80858,crf=16.8/103490,104360,crf=16.8/106428,113388,crf=16.8
Language : English
Default : Yes
Forced : No
Color range : Limited
Color primaries : BT.709
Transfer characteristics : BT.709
Matrix coefficients : BT.709
Audio #1
ID : 2
Format : AC-3
Format/Info : Audio Coding 3
Commercial name : Dolby Digital
Codec ID : A_AC3
Duration : 1 h 23 min
Bit rate mode : Constant
Bit rate : 384 kb/s
Channel(s) : 6 channels
Channel layout : L R C LFE Ls Rs
Sampling rate : 48.0 kHz
Frame rate : 31.250 FPS (1536 SPF)
Compression mode : Lossy
Stream size : 229 MiB (3%)
Title : iTunes
Language : Russian
Service kind : Complete Main
Default : Yes
Forced : Yes
Audio #2
ID : 3
Format : AC-3
Format/Info : Audio Coding 3
Commercial name : Dolby Digital
Codec ID : A_AC3
Duration : 1 h 23 min
Bit rate mode : Constant
Bit rate : 640 kb/s
Channel(s) : 6 channels
Channel layout : L R C LFE Ls Rs
Sampling rate : 48.0 kHz
Frame rate : 31.250 FPS (1536 SPF)
Compression mode : Lossy
Stream size : 382 MiB (5%)
Title : Original
Language : English
Service kind : Complete Main
Default : No
Forced : No
Text #1
ID : 4
Format : UTF-8
Codec ID : S_TEXT/UTF8
Codec ID/Info : UTF-8 Plain Text
Duration : 1 h 22 min
Bit rate : 0 b/s
Count of elements : 6
Stream size : 249 Bytes (0%)
Title : Forced
Language : Russian
Default : Yes
Forced : Yes
Text #2
ID : 5
Format : UTF-8
Codec ID : S_TEXT/UTF8
Codec ID/Info : UTF-8 Plain Text
Duration : 1 h 17 min
Bit rate : 83 b/s
Count of elements : 949
Stream size : 47.4 KiB (0%)
Title : Full
Language : Russian
Default : No
Forced : No
Text #3
ID : 6
Format : UTF-8
Codec ID : S_TEXT/UTF8
Codec ID/Info : UTF-8 Plain Text
Duration : 1 h 16 min
Bit rate : 55 b/s
Count of elements : 1026
Stream size : 31.1 KiB (0%)
Title : Full
Language : English
Default : No
Forced : No
Text #4
ID : 7
Format : UTF-8
Codec ID : S_TEXT/UTF8
Codec ID/Info : UTF-8 Plain Text
Duration : 1 h 17 min
Bit rate : 58 b/s
Count of elements : 1142
Stream size : 33.3 KiB (0%)
Title : SDH
Language : English
Default : No
Forced : No
Menu
00:00:00.000 : en:Chapter 01
00:06:11.997 : en:Chapter 02
00:09:02.125 : en:Chapter 03
00:12:21.282 : en:Chapter 04
00:18:44.373 : en:Chapter 05
00:24:21.627 : en:Chapter 06
00:28:03.974 : en:Chapter 07
00:31:29.805 : en:Chapter 08
00:35:44.392 : en:Chapter 09
00:37:39.716 : en:Chapter 10
00:44:04.350 : en:Chapter 11
00:52:43.744 : en:Chapter 12
01:00:36.550 : en:Chapter 13
01:05:14.994 : en:Chapter 14
01:08:31.816 : en:Chapter 15
01:16:16.947 : en:Chapter 16

admin

Post 24-Jul-2021 06:17

[Quote]

Информация о фильме
Название: Никому не говори
Оригинальное название: Don't Tell a Soul
Год выхода: 2020
Жанр: Триллер, драма, криминал
Режиссер: Алекс Маколи
В ролях: Финн Уайтхед, Джек Дилан Грейзер, Мена Сувари, Рэйн Уилсон, Ричард Файк, Грэхэм Лютес, Маккенна Кристин По

О фильме: Братья Мэтт и Джои решают ограбить дом, чтобы помочь своей больной матери оплатить медицинские счета. Их замечает охранник Хэмби, который бросается в погоню за мальчишками и падает в глубокий колодец. Братья расходятся во мнении, что делать с человеком в колодце, о местонахождении которого знают только они. Младший Джои считает, что Хэмби нужно помочь, а старший Мэтт не хочет, чтобы охранник сдал их полиции. Хэмби же начинает свою игру, понимая, что его жизнь зависит от того, кто из братьев окажется сильнее.
«Никому не говори» — криминальный триллер об игре в кошки-мышки между хитрым охранником и двумя братьями-подростками.

Страна: США
Студия: Mangano Movies & Media, Unbridled Films
Продолжительность: 01:23:32
Перевод: Дублированный | iTunes
Качество: BDRip 720p
Видео: MPEG-4 AVC, 1280x536, 5517 Kbit/s, 23.976 fps
Аудио #01: 48 kHz, AC3, 5.1, 384 Kbps | Дублированный | RUS |
Аудио #02: 48 kHz, AC3, 5.1, 640 Kbps | Оригинал | ENG |
Субтитры: Русские (Forced, full), английские

Скриншоты

MI

General
Unique ID : 139247987416770771223256053575832929646 (0x68C22FD675F4BC7F30F770FD2CF9856E)
Complete name : G:VideoDont.Tell.a.Soul.2020.BDRip.720p.seleZen.mkv
Format : Matroska
Format version : Version 4
File size : 3.82 GiB
Duration : 1 h 23 min
Overall bit rate : 6 543 kb/s
Movie name : Dont Tell a Soul 2020 from seleZen
Encoded date : UTC 2021-07-23 02:00:56
Writing application : mkvmerge v53.0.0 ('Fool's Gold') 64-bit
Writing library : libebml v1.4.1 + libmatroska v1.6.2
Video
ID : 1
Format : AVC
Format/Info : Advanced Video Codec
Format profile : High@L4.1
Format settings : CABAC / 12 Ref Frames
Format settings, CABAC : Yes
Format settings, Reference : 12 frames
Codec ID : V_MPEG4/ISO/AVC
Duration : 1 h 23 min
Bit rate : 5 517 kb/s
Width : 1 280 pixels
Height : 536 pixels
Display aspect ratio : 2.40:1
Frame rate mode : Constant
Frame rate : 23.976 (24000/1001) FPS
Color space : YUV
Chroma subsampling : 4:2:0
Bit depth : 8 bits
Scan type : Progressive
Bits/(Pixel*Frame) : 0.335
Stream size : 3.22 GiB (84%)
Title : iFT
Writing library : x264 core 161 r3048+58M ~ Encoded by Mocunaman in Portugal
Encoding settings : cabac=1 / ref=12 / deblock=1:-3:-3 / analyse=0x3:0x113 / me=umh / subme=11 / psy=1 / fade_compensate=0.00 / psy_rd=1.00:0.00 / mixed_ref=1 / me_range=32 / chroma_me=1 / trellis=2 / 8x8dct=1 / cqm=0 / deadzone=21,11 / fast_pskip=0 / chroma_qp_offset=-2 / threads=17 / lookahead_threads=4 / sliced_threads=0 / nr=0 / decimate=0 / interlaced=0 / bluray_compat=0 / constrained_intra=0 / fgo=0 / bframes=14 / b_pyramid=2 / b_adapt=2 / b_bias=0 / direct=3 / weightb=1 / open_gop=0 / weightp=2 / keyint=250 / keyint_min=23 / scenecut=40 / intra_refresh=0 / rc_lookahead=60 / rc=crf / mbtree=0 / crf=16.5000 / qcomp=0.60 / qpmin=0:0:0 / qpmax=69:69:69 / qpstep=4 / vbv_maxrate=62500 / vbv_bufsize=78125 / crf_max=0.0 / nal_hrd=none / filler=0 / ip_ratio=1.30 / pb_ratio=1.20 / aq=3:0.85 / aq-sensitivity=10.00 / aq-factor=1.00:1.00:1.00 / aq2=0 / aq3=0 / zones=0,1392,crf=14.5/1608,2377,crf=16/4600,6032,crf=14.5/8919,12997,crf=15.5/15565,17533,crf=16/22208,26144,crf=16/28880,35024,crf=16/35972,45309,crf=14.5/48093,52430,crf=14.5/54179,70179,crf=15/70635,78651,crf=15.5/79707,80858,crf=16/103490,104360,crf=16/106428,113388,crf=16
Language : English
Default : Yes
Forced : No
Color range : Limited
Color primaries : BT.709
Transfer characteristics : BT.709
Matrix coefficients : BT.709
Audio #1
ID : 2
Format : AC-3
Format/Info : Audio Coding 3
Commercial name : Dolby Digital
Codec ID : A_AC3
Duration : 1 h 23 min
Bit rate mode : Constant
Bit rate : 384 kb/s
Channel(s) : 6 channels
Channel layout : L R C LFE Ls Rs
Sampling rate : 48.0 kHz
Frame rate : 31.250 FPS (1536 SPF)
Compression mode : Lossy
Stream size : 229 MiB (6%)
Title : iTunes
Language : Russian
Service kind : Complete Main
Default : Yes
Forced : Yes
Audio #2
ID : 3
Format : AC-3
Format/Info : Audio Coding 3
Commercial name : Dolby Digital
Codec ID : A_AC3
Duration : 1 h 23 min
Bit rate mode : Constant
Bit rate : 640 kb/s
Channel(s) : 6 channels
Channel layout : L R C LFE Ls Rs
Sampling rate : 48.0 kHz
Frame rate : 31.250 FPS (1536 SPF)
Compression mode : Lossy
Stream size : 382 MiB (10%)
Title : Original
Language : English
Service kind : Complete Main
Default : No
Forced : No
Text #1
ID : 4
Format : UTF-8
Codec ID : S_TEXT/UTF8
Codec ID/Info : UTF-8 Plain Text
Duration : 1 h 22 min
Bit rate : 0 b/s
Count of elements : 6
Stream size : 249 Bytes (0%)
Title : Forced
Language : Russian
Default : Yes
Forced : Yes
Text #2
ID : 5
Format : UTF-8
Codec ID : S_TEXT/UTF8
Codec ID/Info : UTF-8 Plain Text
Duration : 1 h 17 min
Bit rate : 83 b/s
Count of elements : 949
Stream size : 47.4 KiB (0%)
Title : Full
Language : Russian
Default : No
Forced : No
Text #3
ID : 6
Format : UTF-8
Codec ID : S_TEXT/UTF8
Codec ID/Info : UTF-8 Plain Text
Duration : 1 h 16 min
Bit rate : 55 b/s
Count of elements : 1026
Stream size : 31.1 KiB (0%)
Title : Full
Language : English
Default : No
Forced : No
Text #4
ID : 7
Format : UTF-8
Codec ID : S_TEXT/UTF8
Codec ID/Info : UTF-8 Plain Text
Duration : 1 h 17 min
Bit rate : 58 b/s
Count of elements : 1142
Stream size : 33.3 KiB (0%)
Title : SDH
Language : English
Default : No
Forced : No
Menu
00:00:00.000 : en:Chapter 01
00:06:11.997 : en:Chapter 02
00:09:02.125 : en:Chapter 03
00:12:21.282 : en:Chapter 04
00:18:44.373 : en:Chapter 05
00:24:21.627 : en:Chapter 06
00:28:03.974 : en:Chapter 07
00:31:29.805 : en:Chapter 08
00:35:44.392 : en:Chapter 09
00:37:39.716 : en:Chapter 10
00:44:04.350 : en:Chapter 11
00:52:43.744 : en:Chapter 12
01:00:36.550 : en:Chapter 13
01:05:14.994 : en:Chapter 14
01:08:31.816 : en:Chapter 15
01:16:16.947 : en:Chapter 16

admin

Post 24-Jul-2021 05:29

[Quote]

Кроваво-красное небо / Blood Red Sky
Год выпуска: 2021
Страна / студия: Германия, США, Rat Pack Filmproduktion GmbH, Sirena Film
Жанр: Ужасы, боевик
Продолжительность: 02:03:06
Перевод: Профессиональный (дублированный) | SDI Media по заказу Netflix
Режиссер: Петер Торварт
В ролях: Пери Баумайстер, Грэм МакТавиш, Роланд Мёллер, Доминик Пёрселл, Александр Шеер, Карл Антон Кох, Чиди Аджуфо, Ребекка Дайсон-Смит, Гордон Браун, Рой МакКрири, Ребекка Дайсон-Смит, Гордон Браун, Рой МакКрири, Каис Сетти
О фильме: Надя и её десятилетний сын летят ночным рейсом из Германии в Нью-Йорк, но их самолёт внезапно захватывает группа террористов, которая грозится убить пассажиров. Надя встаёт перед выбором: продолжать ли скрывать свою тёмную сторону или выпустить монстра на свободу ради спасения сына?

Качество: WEB-DL 720p
Видео: MPEG-4 AVC, 1148 Кбит/с, 1280x720
Аудио 1: AC3, 6 ch, 384 Кбит/с
Аудио 2: E-AC3, 6 ch, 640 Кбит/с
Субтитры: Русские, английские, украинские

Скриншоты

Инфо

Общее
Уникальный идентификатор : 323771751840947080881135822349729023990 (0xF3942BD3E03978DDAD274531504C47F6)
Полное имя : E:DownloadsКроваво-красное небо.2021.WEB-DL.720p..mkv
Формат : Matroska
Версия формата : Version 4
Размер файла : 1,87 Гбайт
Продолжительность : 2 ч. 3 м.
Режим общего битрейта : Переменный
Общий поток : 2 174 Кбит/сек
Название фильма : Кроваво-красное небо.2021.WEB-DL.720p.
Дата кодирования : UTC 2021-07-23 09:24:38
Программа кодирования : mkvmerge v59.0.0 ('Shining Star') 64-bit
Библиотека кодирования : libebml v1.4.2 + libmatroska v1.6.4
Видео
Идентификатор : 1
Формат : AVC
Формат/Информация : Advanced Video Codec
Профиль формата : Main@L3.1
Настройки формата : CABAC / 3 Ref Frames
Параметр CABAC формата : Да
Параметр RefFrames формата : 3 кадра
Идентификатор кодека : V_MPEG4/ISO/AVC
Продолжительность : 2 ч. 3 м.
Вид битрейта : Переменный
Битрейт : 1 148 Кбит/сек
Номинальный битрейт : 1 330 Кбит/сек
Максимальный битрейт : 1 995 Кбит/сек
Ширина : 1 280 пикселей
Высота : 720 пикселей
Соотношение сторон : 16:9
Режим частоты кадров : Постоянный
Частота кадров : 25,000 кадров/сек
Цветовое пространство : YUV
Субдискретизация насыщенности : 4:2:0
Битовая глубина : 8 бит
Тип развёртки : Прогрессивная
Бит/(Пиксели*Кадры) : 0.050
Размер потока : 1 011 Мбайт (53%)
Библиотека кодирования : x264 core 148 r2722 1b0121b
Настройки программы : cabac=1 / ref=3 / deblock=1:0:0 / analyse=0x1:0x111 / me=umh / subme=10 / psy=1 / psy_rd=1.00:0.00 / mixed_ref=1 / me_range=24 / chroma_me=1 / trellis=2 / 8x8dct=0 / cqm=0 / deadzone=21,11 / fast_pskip=1 / chroma_qp_offset=-2 / threads=8 / lookahead_threads=1 / sliced_threads=0 / nr=0 / decimate=1 / interlaced=0 / bluray_compat=0 / stitchable=1 / constrained_intra=0 / bframes=2 / b_pyramid=0 / b_adapt=2 / b_bias=0 / direct=3 / weightb=1 / open_gop=0 / weightp=2 / keyint=250 / keyint_min=25 / scenecut=0 / intra_refresh=0 / rc_lookahead=50 / rc=2pass / mbtree=1 / bitrate=1330 / ratetol=1.0 / qcomp=0.50 / qpmin=6 / qpmax=51 / qpstep=4 / cplxblur=20.0 / qblur=0.5 / vbv_maxrate=1995 / vbv_bufsize=2660 / nal_hrd=vbr / filler=0 / ip_ratio=1.40 / aq=1:1.00
Default : Да
Forced : Нет
Аудио #1
Идентификатор : 2
Формат : AC-3
Формат/Информация : Audio Coding 3
Коммерческое название : Dolby Digital
Идентификатор кодека : A_AC3
Продолжительность : 2 ч. 3 м.
Вид битрейта : Постоянный
Битрейт : 384 Кбит/сек
Каналы : 6 каналов
Channel layout : L R C LFE Ls Rs
Частота : 48,0 КГц
Частота кадров : 31,250 кадров/сек (1536 SPF)
Метод сжатия : С потерями
Размер потока : 338 Мбайт (18%)
Заголовок : SDI Media
Язык : Russian
Service kind : Complete Main
Default : Да
Forced : Нет
Аудио #2
Идентификатор : 3
Формат : E-AC-3
Формат/Информация : Enhanced AC-3
Коммерческое название : Dolby Digital Plus
Идентификатор кодека : A_EAC3
Продолжительность : 2 ч. 3 м.
Вид битрейта : Постоянный
Битрейт : 640 Кбит/сек
Каналы : 6 каналов
Channel layout : L R C LFE Ls Rs
Частота : 48,0 КГц
Частота кадров : 31,250 кадров/сек (1536 SPF)
Метод сжатия : С потерями
Размер потока : 564 Мбайт (29%)
Язык : English
Service kind : Complete Main
Default : Нет
Forced : Нет
Текст #1
Идентификатор : 4
Формат : UTF-8
Идентификатор кодека : S_TEXT/UTF8
Идентификатор кодека/Информация : UTF-8 Plain Text
Продолжительность : 2 ч. 1 м.
Битрейт : 46 бит/сек
Count of elements : 987
Размер потока : 40,9 Кбайт (0%)
Заголовок : Русский
Язык : Russian
Default : Нет
Forced : Нет
Текст #2
Идентификатор : 5
Формат : UTF-8
Идентификатор кодека : S_TEXT/UTF8
Идентификатор кодека/Информация : UTF-8 Plain Text
Продолжительность : 1 ч. 51 м.
Битрейт : 12 бит/сек
Count of elements : 379
Размер потока : 9,97 Кбайт (0%)
Заголовок : English
Язык : English
Default : Нет
Forced : Нет
Текст #3
Идентификатор : 6
Формат : UTF-8
Идентификатор кодека : S_TEXT/UTF8
Идентификатор кодека/Информация : UTF-8 Plain Text
Продолжительность : 1 ч. 53 м.
Битрейт : 43 бит/сек
Count of elements : 1472
Размер потока : 36,6 Кбайт (0%)
Заголовок : English (SDH)
Язык : English
Default : Нет
Forced : Нет
Текст #4
Идентификатор : 7
Формат : UTF-8
Идентификатор кодека : S_TEXT/UTF8
Идентификатор кодека/Информация : UTF-8 Plain Text
Продолжительность : 2 ч. 1 м.
Битрейт : 45 бит/сек
Count of elements : 985
Размер потока : 40,0 Кбайт (0%)
Заголовок : Українська
Язык : Ukrainian
Default : Нет
Forced : Нет

admin

Post 23-Jul-2021 05:14

[Quote]

Информация о фильме
Название: Ограбление по-джентльменски
Оригинальное название: The Misfits
Год выхода: 2021
Жанр: Боевик, триллер, приключения
Режиссер: Ренни Харлин
В ролях: Пирс Броснан, Джейми Чанг, Тим Рот, Гермиона Корфилд, Ник Кэннон, Гонсало Менендес, Дэвид Бэтчелор, Марк Чиннери

О фильме: Команда современных авантюристов, известных как Изгои, занимается тем, что восстанавливает мировую справедливость. На этот раз Изгоям нужна помощь известного вора Ричарда Пейса, который должен помочь им украсть золото у крупного бизнесмена Шульца. Это золото используется для финансирования террористических групп по всему миру. Пейс соглашается, ведь у него тоже есть старые счеты с Шульцем, который когда-то посадил его в тюрьму. Теперь Изгои должны добраться из Лос-Анджелеса в Абу-Даби, используя свои мошеннические навыки и самые последние достижения технического прогресса.
Страна: США
Студия: FilmGate Productions, Highland Film Group (HFG), K. JAM Media, RNG Entertainment, The Misfits Project
Продолжительность: 01:34:22
Перевод: Дублированный (Марафон)
Качество: WEB-DL 1080p
Видео: MPEG-4 AVC, 1920x800, 7414 Kbit/s, 23.976 fps
Аудио #01: 48 kHz, AC3, 5.1, 448 Kbps | Дублированный (Марафон) | RUS |
Аудио #02: 48 kHz, E-AC3, 5.1, 640 Kbps | Оригинал | ENG |
Субтитры: Английские

Скриншоты

MI

General
Unique ID : 88362603269908693361572691129719185512 (0x427A04B3403F3D3B9D3312C6A011E068)
Complete name : G:VideoThe.Misfits.2021.AMZN.WEB-DL.1080p.seleZen.mkv
Format : Matroska
Format version : Version 4
File size : 5.61 GiB
Duration : 1 h 34 min
Overall bit rate : 8 471 kb/s
Movie name : The Misfits 2021 from seleZen
Encoded date : UTC 2021-07-22 09:10:48
Writing application : mkvmerge v53.0.0 ('Fool's Gold') 64-bit
Writing library : libebml v1.4.1 + libmatroska v1.6.2
Video
ID : 1
Format : AVC
Format/Info : Advanced Video Codec
Format profile : High@L4
Format settings : CABAC / 4 Ref Frames
Format settings, CABAC : Yes
Format settings, Reference : 4 frames
Codec ID : V_MPEG4/ISO/AVC
Duration : 1 h 34 min
Bit rate mode : Constant
Bit rate : 7 414 kb/s
Nominal bit rate : 10 000 kb/s
Width : 1 920 pixels
Height : 800 pixels
Display aspect ratio : 2.40:1
Frame rate mode : Constant
Frame rate : 23.976 (24000/1001) FPS
Color space : YUV
Chroma subsampling : 4:2:0
Bit depth : 8 bits
Scan type : Progressive
Bits/(Pixel*Frame) : 0.201
Stream size : 4.89 GiB (87%)
Language : English
Default : Yes
Forced : No
Color range : Limited
Color primaries : BT.709
Transfer characteristics : BT.709
Matrix coefficients : BT.709
Audio #1
ID : 2
Format : AC-3
Format/Info : Audio Coding 3
Commercial name : Dolby Digital
Codec ID : A_AC3
Duration : 1 h 34 min
Bit rate mode : Constant
Bit rate : 448 kb/s
Channel(s) : 6 channels
Channel layout : L R C LFE Ls Rs
Sampling rate : 48.0 kHz
Frame rate : 31.250 FPS (1536 SPF)
Compression mode : Lossy
Stream size : 304 MiB (5%)
Title : Dub [Марафон]
Language : Russian
Service kind : Complete Main
Default : Yes
Forced : Yes
Audio #2
ID : 3
Format : E-AC-3
Format/Info : Enhanced AC-3
Commercial name : Dolby Digital Plus
Codec ID : A_EAC3
Duration : 1 h 34 min
Bit rate mode : Constant
Bit rate : 640 kb/s
Channel(s) : 6 channels
Channel layout : L R C LFE Ls Rs
Sampling rate : 48.0 kHz
Frame rate : 31.250 FPS (1536 SPF)
Compression mode : Lossy
Stream size : 432 MiB (8%)
Title : Original
Language : English
Service kind : Complete Main
Default : No
Forced : No
Text #1
ID : 4
Format : UTF-8
Codec ID : S_TEXT/UTF8
Codec ID/Info : UTF-8 Plain Text
Duration : 1 h 26 min
Bit rate : 65 b/s
Count of elements : 1103
Stream size : 41.8 KiB (0%)
Title : Full
Language : English
Default : No
Forced : No
Text #2
ID : 5
Format : UTF-8
Codec ID : S_TEXT/UTF8
Codec ID/Info : UTF-8 Plain Text
Duration : 1 h 26 min
Bit rate : 71 b/s
Count of elements : 1254
Stream size : 45.5 KiB (0%)
Title : SDH
Language : English
Default : No
Forced : No

admin

Post 23-Jul-2021 05:11

[Quote]

Информация о фильме
Название: Ограбление по-джентльменски
Оригинальное название: The Misfits
Год выхода: 2021
Жанр: Боевик, триллер, приключения
Режиссер: Ренни Харлин
В ролях: Пирс Броснан, Тим Рот, Ник Кэннон, Рами Джабер, Джейми Чон, Гермиона Корфилд, Пират Нитипаисалкул, Кайс Кандиль, Мартин Коррадо, Роберт Хенни, Самер Аль Масри, Гонсало Менендес, Ахмед Эль-Мавас, Кристиан Мэндел
О фильме:
После дерзкого побега из тюрьмы самый известный вор в мире Ричард Пейс заключает сделку с «Командой изгоев», которые грабят богатых и отдают деньги бедным. Под началом бывалого вора-джентльмена новые Робин Гуды нацеливаются на крупнейшее хранилище золотых слитков в мире, владелец которого — Уорнер Шольц — отмывает деньги международных преступников, а по совместительству является давним врагом Пейса. Грабить они будут красиво, задорно и со вкусом — по-джентльменски.

Страна: США
Студия: FilmGate Productions, Highland Film Group (HFG), K. JAM Media, RNG Entertainment, The Misfits Project
Продолжительность: 01:34:22
Перевод: Дублированный | iTunes
Файл
Кодек: x.264
Качество: WEBRip 720p | The.Misfits.2021.1080p.AMZN.WEB-DL.DDP5.1.x264
Видео: MPEG-4 AVC, 2600 Kбит/с, 1280x528, 23.976 кадр/с
Аудио #1: Русский (АС3, 6 ch, 384 Кбит/с, 48.0 KHz) Профессиональный (дублированный) iTunes
Аудио #2: Английский (E-АС3, 6 ch, 640 Кбит/с, 48.0 KHz)
Аудио #3: Испанский (АС3, 6 ch, 640 Кбит/с, 48.0 KHz)
Субтитры: Aнглийские, испанские
► Без Рекламы!

MediaInfo

Источник: The.Misfits.2021.1080p.AMZN.WEB-DL.DDP5.1.x264
General
Unique ID : 190204923287505159329892772891063537383 (0x8F1822BF64A827F7A3EDE975B2D4CEE7)
Complete name : The.Misfits.2021.AMZN.WEBRip.720p.mkv
Format : Matroska
Format version : Version 4 / Version 2
File size : 2.81 GiB
Duration : 1 h 34 min
Overall bit rate : 4 250 kb/s
Encoded date : UTC 2021-07-22 12:57:02
Writing application : mkvmerge v7.1.0 ('Good Love') 64bit built on Jul 27 2014 13:06:55
Writing library : libebml v1.3.0 + libmatroska v1.4.1
Video
ID : 1
Format : AVC
Format/Info : Advanced Video Codec
Format profile : High@L4.1
Format settings, CABAC : Yes
Format settings, RefFrames : 5 frames
Codec ID : V_MPEG4/ISO/AVC
Duration : 1 h 34 min
Bit rate : 2 600 kb/s
Width : 1 280 pixels
Height : 528 pixels
Display aspect ratio : 2.40:1
Frame rate mode : Constant
Frame rate : 23.976 (24000/1001) FPS
Color space : YUV
Chroma subsampling : 4:2:0
Bit depth : 8 bits
Scan type : Progressive
Bits/(Pixel*Frame) : 0.160
Stream size : 1.71 GiB (61%)
Writing library : x264 core 152 r2851 ba24899
Encoding settings : cabac=1 / ref=5 / deblock=1:-3:-3 / analyse=0x3:0x113 / me=umh / subme=11 / psy=1 / psy_rd=1.00:0.00 / mixed_ref=1 / me_range=48 / chroma_me=1 / trellis=2 / 8x8dct=1 / cqm=0 / deadzone=21,11 / fast_pskip=0 / chroma_qp_offset=-2 / threads=16 / lookahead_threads=2 / sliced_threads=0 / nr=0 / decimate=1 / interlaced=0 / bluray_compat=0 / constrained_intra=0 / bframes=3 / b_pyramid=2 / b_adapt=2 / b_bias=0 / direct=1 / weightb=1 / open_gop=0 / weightp=2 / keyint=240 / keyint_min=23 / scenecut=40 / intra_refresh=0 / rc_lookahead=45 / rc=2pass / mbtree=1 / bitrate=2600 / ratetol=1.0 / qcomp=0.70 / qpmin=0 / qpmax=69 / qpstep=4 / cplxblur=20.0 / qblur=0.5 / vbv_maxrate=62500 / vbv_bufsize=78125 / nal_hrd=none / filler=0 / ip_ratio=1.40 / aq=1:1.10
Language : English
Default : Yes
Forced : No
Audio #1
ID : 2
Format : AC-3
Format/Info : Audio Coding 3
Format settings, Endianness : Big
Codec ID : A_AC3
Duration : 1 h 34 min
Bit rate mode : Constant
Bit rate : 384 kb/s
Channel(s) : 6 channels
Channel positions : Front: L C R, Side: L R, LFE
Sampling rate : 48.0 kHz
Frame rate : 31.250 FPS (1536 SPF)
Bit depth : 16 bits
Compression mode : Lossy
Stream size : 259 MiB (9%)
Title : DUB | iTunes
Language : Russian
Service kind : Complete Main
Default : Yes
Forced : No
Audio #2
ID : 3
Format : E-AC-3
Format/Info : Enhanced Audio Coding 3
Format settings, Endianness : Big
Codec ID : A_EAC3
Duration : 1 h 34 min
Bit rate mode : Constant
Bit rate : 640 kb/s
Channel(s) : 6 channels
Channel positions : Front: L C R, Side: L R, LFE
Sampling rate : 48.0 kHz
Frame rate : 187.500 FPS (256 SPF)
Compression mode : Lossy
Stream size : 432 MiB (15%)
Language : English
Service kind : Complete Main
Default : No
Forced : No
Audio #3
ID : 4
Format : AC-3
Format/Info : Audio Coding 3
Format settings, Endianness : Big
Codec ID : A_AC3
Duration : 1 h 34 min
Bit rate mode : Constant
Bit rate : 640 kb/s
Channel(s) : 6 channels
Channel positions : Front: L C R, Side: L R, LFE
Sampling rate : 48.0 kHz
Frame rate : 31.250 FPS (1536 SPF)
Bit depth : 16 bits
Compression mode : Lossy
Stream size : 434 MiB (15%)
Language : Spanish
Service kind : Complete Main
Default : No
Forced : No
Text #1
ID : 5
Format : UTF-8
Codec ID : S_TEXT/UTF8
Codec ID/Info : UTF-8 Plain Text
Duration : 1 h 26 min
Bit rate : 65 b/s
Count of elements : 1103
Stream size : 41.8 KiB (0%)
Title : Full
Language : English
Default : No
Forced : No
Text #2
ID : 6
Format : UTF-8
Codec ID : S_TEXT/UTF8
Codec ID/Info : UTF-8 Plain Text
Duration : 1 h 26 min
Bit rate : 71 b/s
Count of elements : 1254
Stream size : 45.5 KiB (0%)
Title : SDH
Language : English
Default : No
Forced : No
Text #3
ID : 7
Format : UTF-8
Codec ID : S_TEXT/UTF8
Codec ID/Info : UTF-8 Plain Text
Duration : 1 h 28 min
Bit rate : 66 b/s
Count of elements : 1169
Stream size : 43.1 KiB (0%)
Language : Spanish
Default : No
Forced : No

Скриншоты

admin

Post 22-Jul-2021 05:19

[Quote]

Информация о фильме
Название: В конце туннеля
Оригинальное название: Al final del túnel
Год выпуска: 2016
Жанр: Триллер, криминал
Режиссер: Родриго Гранде
В ролях: Леонардо Сбараглиа, Пабло Эчарри, Клара Лаго, Уолтер Донато, Серджо Феррейро, Хавьер Годино, Федерико Луппи
Описание: Банда грабителей пытается сорвать большой куш, построив подземный туннель под банком. Происходящее привлекает внимание Хоакина, парализованного человека в инвалидном кресле, проживающего в соседнем доме. Но он совсем не торопится разоблачить гангстеров, так как считает, что у него появился шанс.

Страна: Аргентина, Испания
Студия: Haddock Films, Televisión Española (TVE), Tornasol Films
Продолжительность: 02:00:23
Перевод: Профессиональный (полное дублирование) | iTunes
Субтитры: Русские (full), испанские (SDH)
Файл
Качество: BDRip 720p | исх. Al.final.del.tunel.2016.BDRemux.1080p.NovaLan |
Видео: AVC, 1280x536 (2.40:1), 3120 kbps, 23.976 fps, 0,190 bpp
Аудио1: 48 kHz, AC3, 5.1, 384 Kbps | RUS |
Аудио2: 48 kHz, AC3, 5.1, 640 Kbps | SPA |

MI

General
Unique ID : 224127123921236466042336716954568452748 (0xA89D505DC704B8D4B0B07BA3CC8F6A8C)
Complete name : F:Al.final.del.tunel.2016.BDRip.720p.ExKinoRay.mkv
Format : Matroska
Format version : Version 4
File size : 3.48 GiB
Duration : 2 h 0 min
Overall bit rate : 4 140 kb/s
Movie name : Al final del tunel (2016) from ExKinoRay
Encoded date : UTC 2021-07-21 03:55:33
Writing application : mkvmerge v7.8.0 ('River Man') 64bit built on Mar 27 2015 16:31:37
Writing library : libebml v1.3.1 + libmatroska v1.4.2
Video
ID : 1
Format : AVC
Format/Info : Advanced Video Codec
Format profile : High@L4.1
Format settings : CABAC / 12 Ref Frames
Format settings, CABAC : Yes
Format settings, Reference : 12 frames
Codec ID : V_MPEG4/ISO/AVC
Duration : 2 h 0 min
Bit rate : 3 120 kb/s
Width : 1 280 pixels
Height : 536 pixels
Display aspect ratio : 2.40:1
Frame rate mode : Constant
Frame rate : 23.976 (24000/1001) FPS
Color space : YUV
Chroma subsampling : 4:2:0
Bit depth : 8 bits
Scan type : Progressive
Bits/(Pixel*Frame) : 0.190
Stream size : 2.62 GiB (75%)
Title : Enigma
Writing library : x264 core 144 r2525 40bb568
Encoding settings : cabac=1 / ref=12 / deblock=1:-2:-2 / analyse=0x3:0x113 / me=umh / subme=10 / psy=1 / psy_rd=1.05:0.08 / mixed_ref=1 / me_range=32 / chroma_me=1 / trellis=2 / 8x8dct=1 / cqm=0 / deadzone=21,11 / fast_pskip=1 / chroma_qp_offset=-3 / threads=12 / lookahead_threads=3 / sliced_threads=0 / nr=0 / decimate=0 / interlaced=0 / bluray_compat=0 / constrained_intra=0 / bframes=10 / b_pyramid=2 / b_adapt=2 / b_bias=0 / direct=3 / weightb=1 / open_gop=0 / weightp=2 / keyint=240 / keyint_min=23 / scenecut=40 / intra_refresh=0 / rc_lookahead=40 / rc=2pass / mbtree=0 / bitrate=3120 / ratetol=1.0 / qcomp=0.60 / qpmin=0 / qpmax=51 / qpstep=4 / cplxblur=20.0 / qblur=0.5 / vbv_maxrate=50000 / vbv_bufsize=62500 / nal_hrd=none / filler=0 / ip_ratio=1.40 / pb_ratio=1.30 / aq=3:0.90
Language : English
Default : Yes
Forced : No
Color range : Limited
Color primaries : BT.709
Transfer characteristics : BT.709
Matrix coefficients : BT.709
Audio #1
ID : 2
Format : AC-3
Format/Info : Audio Coding 3
Commercial name : Dolby Digital
Codec ID : A_AC3
Duration : 2 h 0 min
Bit rate mode : Constant
Bit rate : 384 kb/s
Channel(s) : 6 channels
Channel layout : L R C LFE Ls Rs
Sampling rate : 48.0 kHz
Frame rate : 31.250 FPS (1536 SPF)
Compression mode : Lossy
Stream size : 330 MiB (9%)
Language : Russian
Service kind : Complete Main
Default : Yes
Forced : No
Audio #2
ID : 3
Format : AC-3
Format/Info : Audio Coding 3
Commercial name : Dolby Digital
Codec ID : A_AC3
Duration : 2 h 0 min
Bit rate mode : Constant
Bit rate : 640 kb/s
Channel(s) : 6 channels
Channel layout : L R C LFE Ls Rs
Sampling rate : 48.0 kHz
Frame rate : 31.250 FPS (1536 SPF)
Compression mode : Lossy
Stream size : 551 MiB (15%)
Language : Spanish
Service kind : Complete Main
Default : No
Forced : No
Text #1
ID : 4
Format : UTF-8
Codec ID : S_TEXT/UTF8
Codec ID/Info : UTF-8 Plain Text
Duration : 1 h 52 min
Bit rate : 74 b/s
Count of elements : 1183
Stream size : 61.4 KiB (0%)
Language : Russian
Default : No
Forced : No
Text #2
ID : 5
Format : UTF-8
Codec ID : S_TEXT/UTF8
Codec ID/Info : UTF-8 Plain Text
Duration : 1 h 54 min
Bit rate : 56 b/s
Count of elements : 1442
Stream size : 47.5 KiB (0%)
Language : Spanish
Default : No
Forced : No
Menu
00:00:00.000 : en:00:00:00.000
00:09:06.296 : en:00:09:06.296
00:17:22.750 : en:00:17:22.750
00:24:26.130 : en:00:24:26.130
00:30:44.843 : en:00:30:44.843
00:39:58.895 : en:00:39:58.895
00:45:13.710 : en:00:45:13.710
00:52:21.930 : en:00:52:21.930
01:04:19.522 : en:01:04:19.522
01:11:23.779 : en:01:11:23.779
01:25:56.902 : en:01:25:56.902
01:34:39.256 : en:01:34:39.256
01:48:56.697 : en:01:48:56.697
01:56:15.886 : en:01:56:15.886
02:00:22.912 : en:02:00:22.912

Скриншоты

 

Current time is: 05-Aug 17:35

All times are UTC + 3