Search found 500 matches

Author Message

admin

Post Today 05:42

[Quote]

Информация о фильме
Название: Фестиваль Рифкина
Оригинальное название: Rifkin's Festival
Год выхода: 2020
Жанр: Комедия
Режиссер: Вуди Аллен
В ролях: Уоллес Шоун, Майкл Гарви, Дэмиан Чапа, Бобби Слэйтон, Джина Гершон, Луи Гаррель, Стефани Фигейра, Лус Киприота, Годелив Ван ден Брандт, Ману Фуйола
О фильме:
Самый красивый город на берегу солнечной Испании, романтическое настроение и престижный мировой кинофестиваль, сияющий кинозвездами – именно за этим тысячи людей ежегодно отправляются в Сан-Себастьян. Однако для одной супружеской пары магия кино оказывается реальной. Их затягивает в водоворот соблазнов и приключений, где жанры стремительно сменяют друг друга словно эмоции влюбленных.


Страна: Испания, США, Италия
Студия: Gravier Productions, Mediapro, Orange, Televisió de Catalunya (TV3), Wildside Media
Продолжительность: 01:32:40
Перевод: Профессиональный (полное дублирование) | СинеЛаб СаундМикс | iTunes
Файл
Качество: BDRip 1080p
Исходник: Rifkins.Festival.2020.ITA.Blu-ray.AVC.DTS-HD.MA.5.1-LFi
Формат: MKV
Кодек: MPEG-4 AVC
Видео: 1920x960 (2.000:1), 23.976 fps, MPEG-4 AVC ~ 12.0 Mbps avg, 0.272 bit/pixel
Аудио: AC3, 48 kHz, 6 ch, ~384.00 kbps avg | русский | iTunes
Аудио: AC3, 48 kHz, 6 ch, ~384.00 kbps avg | украинский | iTunes
Аудио: AC3, 48 kHz, 6 ch, ~640.00 kbps avg | английский |
Субтитры: Русские (форсированные, полные)

Инфо-файл

Общее
Уникальный идентификатор : 217859426751279386417982908848813839016 (0xA3E63309912EBF3290495DF4D24712A8)
Полное имя : Rifkins.Festival.2020.1080p.BluRay.DD.5.1.x264.MegaPeer.mkv
Формат : Matroska
Версия формата : Version 4
Размер файла : 8,65 Гбайт
Продолжительность : 1 ч. 32 м.
Общий поток : 13,4 Мбит/сек
Название фильма : Фестиваль Рифкина / Rifkin's Festival (2020) от stillet@MegaPeer
Дата кодирования : UTC 2021-12-06 09:48:37
Программа кодирования : mkvmerge v15.0.0 ('Duel with the Devil') 64-bit
Библиотека кодирования : libebml v1.3.5 + libmatroska v1.4.5
Обложка : Yes
Attachments : cover.jpg
Видео
Идентификатор : 1
Формат : AVC
Формат/Информация : Advanced Video Codec
Профиль формата : High@L4.1
Настройки формата : CABAC / 4 Ref Frames
Параметр CABAC формата : Да
Параметр RefFrames формата : 4 кадра
Идентификатор кодека : V_MPEG4/ISO/AVC
Продолжительность : 1 ч. 32 м.
Битрейт : 12,0 Мбит/сек
Ширина : 1 920 пикселей
Высота : 960 пикселей
Соотношение сторон : 2,000
Режим частоты кадров : Постоянный
Частота кадров : 23,976 кадра/сек
Цветовое пространство : YUV
Субдискретизация насыщенности : 4:2:0
Битовая глубина : 8 бит
Тип развёртки : Прогрессивная
Бит/(Пиксели*Кадры) : 0.272
Размер потока : 7,74 Гбайт (89%)
Заголовок : stillet@MegaPeer
Библиотека кодирования : x264 core 161 r3018 db0d417
Настройки программы : cabac=1 / ref=4 / deblock=1:-3:-3 / analyse=0x3:0x113 / me=umh / subme=10 / psy=1 / psy_rd=1.00:0.00 / mixed_ref=1 / me_range=48 / chroma_me=1 / trellis=2 / 8x8dct=1 / cqm=0 / deadzone=21,11 / fast_pskip=0 / chroma_qp_offset=-2 / threads=24 / lookahead_threads=6 / sliced_threads=0 / nr=0 / decimate=0 / interlaced=0 / bluray_compat=0 / constrained_intra=0 / bframes=11 / b_pyramid=2 / b_adapt=2 / b_bias=0 / direct=3 / weightb=1 / open_gop=0 / weightp=2 / keyint=240 / keyint_min=24 / scenecut=40 / intra_refresh=0 / rc_lookahead=40 / rc=2pass / mbtree=0 / bitrate=12000 / ratetol=1.0 / qcomp=0.60 / qpmin=0 / qpmax=69 / qpstep=4 / cplxblur=20.0 / qblur=0.5 / vbv_maxrate=50000 / vbv_bufsize=62500 / nal_hrd=none / filler=0 / ip_ratio=1.40 / pb_ratio=1.30 / aq=1:1.10
Язык : Italian
Default : Да
Forced : Нет
Аудио #1
Идентификатор : 2
Формат : AC-3
Формат/Информация : Audio Coding 3
Коммерческое название : Dolby Digital
Идентификатор кодека : A_AC3
Продолжительность : 1 ч. 32 м.
Вид битрейта : Постоянный
Битрейт : 384 Кбит/сек
Каналы : 6 каналов
Channel layout : L R C LFE Ls Rs
Частота : 48,0 КГц
Частота кадров : 31,250 кадров/сек (1536 SPF)
Метод сжатия : С потерями
Размер потока : 254 Мбайт (3%)
Заголовок : DUB | СинеЛаб СаундМикс | iTunes
Язык : Russian
Service kind : Complete Main
Default : Да
Forced : Нет
Аудио #2
Идентификатор : 3
Формат : AC-3
Формат/Информация : Audio Coding 3
Коммерческое название : Dolby Digital
Идентификатор кодека : A_AC3
Продолжительность : 1 ч. 32 м.
Вид битрейта : Постоянный
Битрейт : 384 Кбит/сек
Каналы : 6 каналов
Channel layout : L R C LFE Ls Rs
Частота : 48,0 КГц
Частота кадров : 31,250 кадров/сек (1536 SPF)
Метод сжатия : С потерями
Размер потока : 254 Мбайт (3%)
Заголовок : iTunes
Язык : Ukrainian
Service kind : Complete Main
Default : Нет
Forced : Нет
Аудио #3
Идентификатор : 4
Формат : AC-3
Формат/Информация : Audio Coding 3
Коммерческое название : Dolby Digital
Идентификатор кодека : A_AC3
Продолжительность : 1 ч. 32 м.
Вид битрейта : Постоянный
Битрейт : 640 Кбит/сек
Каналы : 6 каналов
Channel layout : L R C LFE Ls Rs
Частота : 48,0 КГц
Частота кадров : 31,250 кадров/сек (1536 SPF)
Метод сжатия : С потерями
Размер потока : 424 Мбайт (5%)
Язык : English
Service kind : Complete Main
Default : Нет
Forced : Нет
Текст #1
Идентификатор : 5
Формат : UTF-8
Идентификатор кодека : S_TEXT/UTF8
Идентификатор кодека/Информация : UTF-8 Plain Text
Продолжительность : 2 с. 0 мс.
Битрейт : 128 бит/сек
Count of elements : 1
Размер потока : 32,0 байт (0%)
Заголовок : Forced
Язык : Russian
Default : Да
Forced : Нет
Текст #2
Идентификатор : 6
Формат : UTF-8
Идентификатор кодека : S_TEXT/UTF8
Идентификатор кодека/Информация : UTF-8 Plain Text
Продолжительность : 1 ч. 26 м.
Битрейт : 131 бит/сек
Count of elements : 1527
Размер потока : 83,3 Кбайт (0%)
Заголовок : Full
Язык : Russian
Default : Нет
Forced : Нет
Меню
00:00:00.000 : :ita: 01
00:08:22.459 : :ita: 02
00:15:02.025 : :ita: 03
00:22:40.817 : :ita: 04
00:34:14.552 : :ita: 05
00:39:13.516 : :ita: 06
00:49:22.333 : :ita: 07
00:54:45.114 : :ita: 08
01:03:44.987 : :ita: 09
01:10:44.782 : :ita: 10
01:19:40.274 : :ita: 11
01:23:39.180 : :ita: 12

Скриншоты

admin

Post Today 05:40

[Quote]

Информация о фильме
Название: Фестиваль Рифкина
Оригинальное название: Rifkin's Festival
Год выхода: 2020
Жанр: Комедия
Режиссер: Вуди Аллен
В ролях: Уоллес Шоун, Майкл Гарви, Дэмиан Чапа, Бобби Слэйтон, Джина Гершон, Луи Гаррель, Стефани Фигейра, Лус Киприота, Годелив Ван ден Брандт, Ману Фуйола
О фильме:
Самый красивый город на берегу солнечной Испании, романтическое настроение и престижный мировой кинофестиваль, сияющий кинозвездами – именно за этим тысячи людей ежегодно отправляются в Сан-Себастьян. Однако для одной супружеской пары магия кино оказывается реальной. Их затягивает в водоворот соблазнов и приключений, где жанры стремительно сменяют друг друга словно эмоции влюбленных.


Страна: Испания, США, Италия
Студия: Gravier Productions, Mediapro, Orange, Televisió de Catalunya (TV3), Wildside Media
Продолжительность: 01:32:40
Перевод: Профессиональный (полное дублирование) | СинеЛаб СаундМикс | iTunes
Файл
Качество: BDRip 1080p
Исходник: Rifkins.Festival.2020.ITA.Blu-ray.AVC.DTS-HD.MA.5.1-LFi
Формат: MKV
Кодек: MPEG-4 AVC
Видео: 1280x640 (2.000:1), 23.976 fps, MPEG-4 AVC ~ 4 800 Kbps avg, 0.244 bit/pixel
Аудио: AC3, 48 kHz, 6 ch, ~384.00 kbps avg | русский | iTunes
Аудио: AC3, 48 kHz, 6 ch, ~384.00 kbps avg | украинский | iTunes
Аудио: AC3, 48 kHz, 6 ch, ~640.00 kbps avg | английский |
Субтитры: Русские (форсированные, полные)

Инфо-файл

Общее
Уникальный идентификатор : 241199028295359375003272088548381502758 (0xB5753E3CCAC66C20BD6407ED0B472D26)
Полное имя : Rifkins.Festival.2020.720p.BluRay.DD.5.1.x264.MegaPeer.mkv
Формат : Matroska
Версия формата : Version 4
Размер файла : 4,02 Гбайт
Продолжительность : 1 ч. 32 м.
Общий поток : 6 205 Кбит/сек
Название фильма : Фестиваль Рифкина / Rifkin's Festival (2020) от stillet@MegaPeer
Дата кодирования : UTC 2021-12-06 13:59:21
Программа кодирования : mkvmerge v15.0.0 ('Duel with the Devil') 64-bit
Библиотека кодирования : libebml v1.3.5 + libmatroska v1.4.5
Обложка : Yes
Attachments : cover.jpg
Видео
Идентификатор : 1
Формат : AVC
Формат/Информация : Advanced Video Codec
Профиль формата : High@L4.1
Настройки формата : CABAC / 11 Ref Frames
Параметр CABAC формата : Да
Параметр RefFrames формата : 11 кадров
Идентификатор кодека : V_MPEG4/ISO/AVC
Продолжительность : 1 ч. 32 м.
Битрейт : 4 800 Кбит/сек
Ширина : 1 280 пикселей
Высота : 640 пикселей
Соотношение сторон : 2,000
Режим частоты кадров : Постоянный
Частота кадров : 23,976 кадра/сек
Цветовое пространство : YUV
Субдискретизация насыщенности : 4:2:0
Битовая глубина : 8 бит
Тип развёртки : Прогрессивная
Бит/(Пиксели*Кадры) : 0.244
Размер потока : 3,10 Гбайт (77%)
Заголовок : stillet@MegaPeer
Библиотека кодирования : x264 core 161 r3018 db0d417
Настройки программы : cabac=1 / ref=11 / deblock=1:-3:-3 / analyse=0x3:0x113 / me=umh / subme=10 / psy=1 / psy_rd=1.00:0.00 / mixed_ref=1 / me_range=48 / chroma_me=1 / trellis=2 / 8x8dct=1 / cqm=0 / deadzone=21,11 / fast_pskip=0 / chroma_qp_offset=-2 / threads=20 / lookahead_threads=5 / sliced_threads=0 / nr=0 / decimate=0 / interlaced=0 / bluray_compat=0 / constrained_intra=0 / bframes=16 / b_pyramid=2 / b_adapt=2 / b_bias=0 / direct=3 / weightb=1 / open_gop=0 / weightp=2 / keyint=240 / keyint_min=24 / scenecut=40 / intra_refresh=0 / rc_lookahead=40 / rc=2pass / mbtree=0 / bitrate=4800 / ratetol=1.0 / qcomp=0.60 / qpmin=0 / qpmax=69 / qpstep=4 / cplxblur=20.0 / qblur=0.5 / vbv_maxrate=50000 / vbv_bufsize=62500 / nal_hrd=none / filler=0 / ip_ratio=1.40 / pb_ratio=1.30 / aq=1:1.10
Язык : Italian
Default : Да
Forced : Нет
Аудио #1
Идентификатор : 2
Формат : AC-3
Формат/Информация : Audio Coding 3
Коммерческое название : Dolby Digital
Идентификатор кодека : A_AC3
Продолжительность : 1 ч. 32 м.
Вид битрейта : Постоянный
Битрейт : 384 Кбит/сек
Каналы : 6 каналов
Channel layout : L R C LFE Ls Rs
Частота : 48,0 КГц
Частота кадров : 31,250 кадров/сек (1536 SPF)
Метод сжатия : С потерями
Размер потока : 254 Мбайт (6%)
Заголовок : DUB | СинеЛаб СаундМикс | iTunes
Язык : Russian
Service kind : Complete Main
Default : Да
Forced : Нет
Аудио #2
Идентификатор : 3
Формат : AC-3
Формат/Информация : Audio Coding 3
Коммерческое название : Dolby Digital
Идентификатор кодека : A_AC3
Продолжительность : 1 ч. 32 м.
Вид битрейта : Постоянный
Битрейт : 384 Кбит/сек
Каналы : 6 каналов
Channel layout : L R C LFE Ls Rs
Частота : 48,0 КГц
Частота кадров : 31,250 кадров/сек (1536 SPF)
Метод сжатия : С потерями
Размер потока : 254 Мбайт (6%)
Заголовок : iTunes
Язык : Ukrainian
Service kind : Complete Main
Default : Нет
Forced : Нет
Аудио #3
Идентификатор : 4
Формат : AC-3
Формат/Информация : Audio Coding 3
Коммерческое название : Dolby Digital
Идентификатор кодека : A_AC3
Продолжительность : 1 ч. 32 м.
Вид битрейта : Постоянный
Битрейт : 640 Кбит/сек
Каналы : 6 каналов
Channel layout : L R C LFE Ls Rs
Частота : 48,0 КГц
Частота кадров : 31,250 кадров/сек (1536 SPF)
Метод сжатия : С потерями
Размер потока : 424 Мбайт (10%)
Язык : English
Service kind : Complete Main
Default : Нет
Forced : Нет
Текст #1
Идентификатор : 5
Формат : UTF-8
Идентификатор кодека : S_TEXT/UTF8
Идентификатор кодека/Информация : UTF-8 Plain Text
Продолжительность : 2 с. 0 мс.
Битрейт : 128 бит/сек
Count of elements : 1
Размер потока : 32,0 байт (0%)
Заголовок : Forced
Язык : Russian
Default : Да
Forced : Нет
Текст #2
Идентификатор : 6
Формат : UTF-8
Идентификатор кодека : S_TEXT/UTF8
Идентификатор кодека/Информация : UTF-8 Plain Text
Продолжительность : 1 ч. 26 м.
Битрейт : 131 бит/сек
Count of elements : 1527
Размер потока : 83,3 Кбайт (0%)
Заголовок : Full
Язык : Russian
Default : Нет
Forced : Нет
Меню
00:00:00.000 : :ita: 01
00:08:22.459 : :ita: 02
00:15:02.025 : :ita: 03
00:22:40.817 : :ita: 04
00:34:14.552 : :ita: 05
00:39:13.516 : :ita: 06
00:49:22.333 : :ita: 07
00:54:45.114 : :ita: 08
01:03:44.987 : :ita: 09
01:10:44.782 : :ita: 10
01:19:40.274 : :ita: 11
01:23:39.180 : :ita: 12

Скриншоты

admin

Post Today 05:29

[Quote]

Информация о фильме
Название: Холодный расчет
Оригинальное название: The Card Counter
Год выхода: 2021
Жанр: Боевик, триллер, драма, криминал
Режиссер: Пол Шредер
В ролях: Оскар Айзек, Уиллем Дефо, Тиффани Хэддиш, Тай Шеридан, Джоэль Майкли, Эми Гуссет, Александр Бабара, Марлон Хэйс, Хассель Кромер, Бриттон Вебб

О фильме: Уильям Телл — бывший военный, который после ухода со службы стал заядлым игроком в карты. Однажды к нему за помощью обращается Кирк, жаждущий отомстить их общему врагу, полковнику. Телл надеется искупить собственные грехи, пытаясь переубедить молодого человека. Вместе они колесят по многочисленным казино Лас-Вегаса, пока пучина прошлого не накрывает их с головой.
Страна: Великобритания, Китай, США
Студия: Astrakan Film AB, Bona Film Group, Convergent Media, Convergent Media., Enriched Media Group
Продолжительность: 01:51:29
Перевод: Дублированный | Мосфильм-Мастер
Качество: BDRip 1080p
Видео: MPEG-4 AVC, 1800x1080, 17.1 Mbit/s, 23.976 fps
Аудио #01: 48 kHz, AC3, 5.1, 448 Kbps | Дублированный | Мосфильм-Мастер | RUS |
Аудио #02: 48 kHz, AC3, 5.1, 640 Kbps | Оригинал | ENG |
Субтитры: Русские (Full), английские

Скриншоты

MI

General
Unique ID : 294614292477973876136929833106068257227 (0xDDA4A617489748D758DF59058138B9CB)
Complete name : E:Video1The.Card.Counter.2021.BDRip.1080p.seleZen.mkv
Format : Matroska
Format version : Version 4
File size : 14.1 GiB
Duration : 1 h 51 min
Overall bit rate : 18.2 Mb/s
Movie name : The Card Counter 2021 from seleZen
Encoded date : UTC 2021-12-06 15:58:36
Writing application : mkvmerge v59.0.0 ('Shining Star') 64-bit
Writing library : libebml v1.4.2 + libmatroska v1.6.4
Video
ID : 1
Format : AVC
Format/Info : Advanced Video Codec
Format profile : High@L4.1
Format settings : CABAC / 4 Ref Frames
Format settings, CABAC : Yes
Format settings, Reference frames : 4 frames
Codec ID : V_MPEG4/ISO/AVC
Duration : 1 h 51 min
Bit rate : 17.1 Mb/s
Width : 1 800 pixels
Height : 1 080 pixels
Display aspect ratio : 5:3
Frame rate mode : Constant
Frame rate : 23.976 (24000/1001) FPS
Color space : YUV
Chroma subsampling : 4:2:0
Bit depth : 8 bits
Scan type : Progressive
Bits/(Pixel*Frame) : 0.366
Stream size : 13.3 GiB (94%)
Title : CHD
Writing library : x264 core 157 r2867+150 7e91e0e t_mod_Custom_2 [8-bit@all X86_64]
Encoding settings : cabac=1 / ref=4 / deblock=1:-3:-3 / analyse=0x3:0x133 / me=umh / subme=11 / psy=1 / fade_compensate=0.00 / psy_rd=0.90:0.10 / mixed_ref=1 / me_range=64 / chroma_me=1 / trellis=2 / 8x8dct=1 / cqm=0 / deadzone=21,11 / fast_pskip=0 / chroma_qp_offset=-4 / threads=34 / lookahead_threads=5 / sliced_threads=0 / nr=0 / decimate=1 / interlaced=0 / bluray_compat=0 / constrained_intra=0 / fgo=0 / bframes=8 / b_pyramid=2 / b_adapt=2 / b_bias=0 / direct=3 / weightb=1 / open_gop=0 / weightp=2 / keyint=250 / keyint_min=23 / scenecut=40 / intra_refresh=0 / rc_lookahead=60 / rc=crf / mbtree=0 / crf=17.0000 / qcomp=0.70 / qpmin=0:0:0 / qpmax=69:69:69 / qpstep=4 / vbv_maxrate=35000 / vbv_bufsize=35000 / crf_max=0.0 / nal_hrd=none / filler=0 / ip_ratio=1.40 / pb_ratio=1.30 / aq=3:1.00 / aq-sensitivity=10.00 / aq-factor=1.00:1.00:1.00 / aq2=0 / aq3=0
Language : English
Default : Yes
Forced : No
Audio #1
ID : 2
Format : AC-3
Format/Info : Audio Coding 3
Commercial name : Dolby Digital
Codec ID : A_AC3
Duration : 1 h 51 min
Bit rate mode : Constant
Bit rate : 448 kb/s
Channel(s) : 6 channels
Channel layout : L R C LFE Ls Rs
Sampling rate : 48.0 kHz
Frame rate : 31.250 FPS (1536 SPF)
Compression mode : Lossy
Stream size : 357 MiB (2%)
Title : Dub
Language : Russian
Service kind : Complete Main
Default : Yes
Forced : Yes
Audio #2
ID : 3
Format : AC-3
Format/Info : Audio Coding 3
Commercial name : Dolby Digital
Codec ID : A_AC3
Duration : 1 h 51 min
Bit rate mode : Constant
Bit rate : 640 kb/s
Channel(s) : 6 channels
Channel layout : L R C LFE Ls Rs
Sampling rate : 48.0 kHz
Frame rate : 31.250 FPS (1536 SPF)
Compression mode : Lossy
Stream size : 510 MiB (4%)
Title : Original
Language : English
Service kind : Complete Main
Default : No
Forced : No
Text #1
ID : 4
Format : UTF-8
Codec ID : S_TEXT/UTF8
Codec ID/Info : UTF-8 Plain Text
Duration : 1 h 43 min
Bit rate : 77 b/s
Count of elements : 1212
Stream size : 58.8 KiB (0%)
Title : Full
Language : Russian
Default : No
Forced : No
Text #2
ID : 5
Format : UTF-8
Codec ID : S_TEXT/UTF8
Codec ID/Info : UTF-8 Plain Text
Duration : 1 h 43 min
Bit rate : 49 b/s
Count of elements : 1351
Stream size : 37.5 KiB (0%)
Title : Full
Language : English
Default : No
Forced : No
Menu
00:00:00.000 : Chapter 01
00:05:20.487 : Chapter 02
00:09:02.041 : Chapter 03
00:16:36.204 : Chapter 04
00:20:18.092 : Chapter 05
00:23:23.819 : Chapter 06
00:31:04.404 : Chapter 07
00:37:41.176 : Chapter 08
00:43:58.803 : Chapter 09
00:48:45.172 : Chapter 10
00:54:17.713 : Chapter 11
01:00:18.615 : Chapter 12
01:07:48.481 : Chapter 13
01:13:34.201 : Chapter 14
01:18:26.744 : Chapter 15
01:21:35.766 : Chapter 16
01:28:04.613 : Chapter 17
01:32:26.666 : Chapter 18
01:38:31.739 : Chapter 19
01:46:18.163 : Chapter 20

admin

Post Today 05:28

[Quote]

Информация о фильме
Название: Холодный расчет
Оригинальное название: The Card Counter
Год выхода: 2021
Жанр: Боевик, триллер, драма, криминал
Режиссер: Пол Шредер
В ролях: Оскар Айзек, Уиллем Дефо, Тиффани Хэддиш, Тай Шеридан, Джоэль Майкли, Эми Гуссет, Александр Бабара, Марлон Хэйс, Хассель Кромер, Бриттон Вебб

О фильме: Уильям Телл — бывший военный, который после ухода со службы стал заядлым игроком в карты. Однажды к нему за помощью обращается Кирк, жаждущий отомстить их общему врагу, полковнику. Телл надеется искупить собственные грехи, пытаясь переубедить молодого человека. Вместе они колесят по многочисленным казино Лас-Вегаса, пока пучина прошлого не накрывает их с головой.
Страна: Великобритания, Китай, США
Студия: Astrakan Film AB, Bona Film Group, Convergent Media, Convergent Media., Enriched Media Group
Продолжительность: 01:51:29
Перевод: Дублированный | Мосфильм-Мастер
Качество: BDRip 720p
Видео: MPEG-4 AVC, 1200x720, 6618 Kbit/s, 23.976 fps
Аудио #01: 48 kHz, AC3, 5.1, 448 Kbps | Дублированный | Мосфильм-Мастер | RUS |
Аудио #02: 48 kHz, AC3, 5.1, 640 Kbps | Оригинал | ENG |
Субтитры: Русские (Full), английские

Скриншоты

MI

General
Unique ID : 278404217015682108140712904979117652610 (0xD172B3AA6FF9FA03C263805F5F1A3A82)
Complete name : E:VideoThe.Card.Counter.2021.BDRip.720p.seleZen.mkv
Format : Matroska
Format version : Version 4
File size : 6.00 GiB
Duration : 1 h 51 min
Overall bit rate : 7 709 kb/s
Movie name : The Card Counter 2021 from seleZen
Encoded date : UTC 2021-12-06 21:08:01
Writing application : mkvmerge v59.0.0 ('Shining Star') 64-bit
Writing library : libebml v1.4.2 + libmatroska v1.6.4
Video
ID : 1
Format : AVC
Format/Info : Advanced Video Codec
Format profile : High@L4.1
Format settings : CABAC / 9 Ref Frames
Format settings, CABAC : Yes
Format settings, Reference frames : 9 frames
Codec ID : V_MPEG4/ISO/AVC
Duration : 1 h 51 min
Bit rate : 6 618 kb/s
Width : 1 200 pixels
Height : 720 pixels
Display aspect ratio : 5:3
Frame rate mode : Constant
Frame rate : 23.976 (24000/1001) FPS
Color space : YUV
Chroma subsampling : 4:2:0
Bit depth : 8 bits
Scan type : Progressive
Bits/(Pixel*Frame) : 0.319
Stream size : 5.15 GiB (86%)
Title : iFT
Writing library : x264 core 163 r3059+79M ~ Encoded by Mocunaman in Portugal
Encoding settings : cabac=1 / ref=9 / deblock=1:-3:-3 / analyse=0x3:0x113 / me=umh / subme=11 / psy=1 / fade_compensate=0.00 / psy_rd=1.00:0.00 / mixed_ref=1 / me_range=48 / chroma_me=1 / trellis=2 / 8x8dct=1 / cqm=0 / deadzone=21,11 / fast_pskip=0 / chroma_qp_offset=-2 / threads=22 / lookahead_threads=3 / sliced_threads=0 / nr=0 / decimate=0 / interlaced=0 / bluray_compat=0 / constrained_intra=0 / fgo=0 / bframes=9 / b_pyramid=2 / b_adapt=2 / b_bias=0 / direct=3 / weightb=1 / open_gop=0 / weightp=2 / keyint=250 / keyint_min=23 / scenecut=40 / intra_refresh=0 / rc_lookahead=60 / rc=crf / mbtree=0 / crf=16.5000 / qcomp=0.60 / qpmin=0:0:0 / qpmax=69:69:69 / qpstep=4 / vbv_maxrate=62500 / vbv_bufsize=78125 / crf_max=0.0 / nal_hrd=none / filler=0 / ip_ratio=1.30 / pb_ratio=1.20 / aq=3:0.80 / aq-sensitivity=10.00 / aq-factor=1.00:1.00:1.00 / aq2=0 / aq3=0 / zones=3817,4832,crf=14.5/10064,13018,crf=14.5/22858,24070,crf=14.5/29205,30333,crf=14.5/31819,33427,crf=15.5/40963,43147,crf=15.5/79285,80097,crf=13.5/80413,81441,crf=13.5/84378,84806,crf=14.5/86437,86759,crf=14.5/97631,98288,crf=14.5/105554,105834,crf=14.5/105835,109771,crf=15.5/117402,126780,crf=15.5/138225,149941,crf=14.5/150205,159277,crf=14.5
Language : English
Default : Yes
Forced : No
Color range : Limited
Color primaries : BT.709
Transfer characteristics : BT.709
Matrix coefficients : BT.709
Audio #1
ID : 2
Format : AC-3
Format/Info : Audio Coding 3
Commercial name : Dolby Digital
Codec ID : A_AC3
Duration : 1 h 51 min
Bit rate mode : Constant
Bit rate : 448 kb/s
Channel(s) : 6 channels
Channel layout : L R C LFE Ls Rs
Sampling rate : 48.0 kHz
Frame rate : 31.250 FPS (1536 SPF)
Compression mode : Lossy
Stream size : 357 MiB (6%)
Title : Dub
Language : Russian
Service kind : Complete Main
Default : Yes
Forced : Yes
Audio #2
ID : 3
Format : AC-3
Format/Info : Audio Coding 3
Commercial name : Dolby Digital
Codec ID : A_AC3
Duration : 1 h 51 min
Bit rate mode : Constant
Bit rate : 640 kb/s
Channel(s) : 6 channels
Channel layout : L R C LFE Ls Rs
Sampling rate : 48.0 kHz
Frame rate : 31.250 FPS (1536 SPF)
Compression mode : Lossy
Stream size : 510 MiB (8%)
Title : Original
Language : English
Service kind : Complete Main
Default : No
Forced : No
Text #1
ID : 4
Format : UTF-8
Codec ID : S_TEXT/UTF8
Codec ID/Info : UTF-8 Plain Text
Duration : 1 h 43 min
Bit rate : 77 b/s
Count of elements : 1212
Stream size : 58.8 KiB (0%)
Title : Full
Language : Russian
Default : No
Forced : No
Text #2
ID : 5
Format : UTF-8
Codec ID : S_TEXT/UTF8
Codec ID/Info : UTF-8 Plain Text
Duration : 1 h 43 min
Bit rate : 49 b/s
Count of elements : 1351
Stream size : 37.5 KiB (0%)
Title : Full
Language : English
Default : No
Forced : No
Menu
00:00:00.000 : Chapter 01
00:05:20.487 : Chapter 02
00:09:02.041 : Chapter 03
00:16:36.204 : Chapter 04
00:20:18.092 : Chapter 05
00:23:23.819 : Chapter 06
00:31:04.404 : Chapter 07
00:37:41.176 : Chapter 08
00:43:58.803 : Chapter 09
00:48:45.172 : Chapter 10
00:54:17.713 : Chapter 11
01:00:18.615 : Chapter 12
01:07:48.481 : Chapter 13
01:13:34.201 : Chapter 14
01:18:26.744 : Chapter 15
01:21:35.766 : Chapter 16
01:28:04.613 : Chapter 17
01:32:26.666 : Chapter 18
01:38:31.739 : Chapter 19
01:46:18.163 : Chapter 20

admin

Post Yesterday 06:03

[Quote]

Информация о фильме
Название: Белфаст
Оригинальное название: Belfast
Год выхода: 2021
Жанр: Драма
Режиссер: Кеннет Брана
В ролях: Джуд Хилл, Льюис Макаски, Катрина Балф, Джейми Дорнан, Джуди Денч, Киаран Хайндс, Джози Уокер, Фрейя Йейтс, Несса Эрикссон, Чарли Барнард
Слоган: «Как далеко вы ни зайдете, никогда не забудете, откуда пришли»
О фильме: История дружной ирландской семьи , показанная в разрезе исторических событий: противостоянии католиков и протестантов, тяжелого экономического кризиса и безработицы...

Выпущено: Великобритания / TKBC
Продолжительность: 01:38:15
Перевод: Любительский (двухголосый закадровый) [Pazl Voice]
Файл
Качество: WEB-DL 720p
Формат: MKV
Видео: MPEG-4 AVC/H.264, 3637 Кбит/сек, 1280x694
Аудио #1: Русский: AC3, 6 ch, 448 Кбит/сек
Аудио #2: Английский: E-AC3, 6 ch, 768 Кбит/сек
Субтитры: английские, украинские [вшитые отключаемые]
Дополнительно: Сохранены оригинальные главы (чаптеры)

MediaInfo:

Общее
Уникальный идентификатор : 146766623821006034558432326483976031215 (0x6E6A393B94278E0A23596B87839A8BEF)
Полное имя : F:1.ФИЛЬМЫ1. ФИЛЬМЫБелфаст Belfast (2021)Belfast Belfast (2021) WEB-DL 720p.mkv
Формат : Matroska
Версия формата : Version 4
Размер файла : 3,33 Гбайт
Продолжительность : 1 ч. 38 м.
Режим общего битрейта : Переменный
Общий поток : 4 854 Кбит/сек
Дата кодирования : UTC 2021-12-05 12:46:47
Программа кодирования : mkvmerge v63.0.0 ('Everything') 64-bit
Библиотека кодирования : libebml v1.4.2 + libmatroska v1.6.4
Видео
Идентификатор : 1
Формат : AVC
Формат/Информация : Advanced Video Codec
Профиль формата : High@L4.1
Настройки формата : CABAC / 2 Ref Frames
Параметр CABAC формата : Да
Параметр RefFrames формата : 2 кадра
Идентификатор кодека : V_MPEG4/ISO/AVC
Продолжительность : 1 ч. 38 м.
Вид битрейта : Переменный
Битрейт : 3 637 Кбит/сек
Максимальный битрейт : 10,9 Мбит/сек
Ширина : 1 280 пикселей
Высота : 694 пикселя
Соотношение сторон : 1,85:1
Режим частоты кадров : Постоянный
Частота кадров : 23,976 (24000/1001) кадра/сек
Цветовое пространство : YUV
Субдискретизация насыщенности : 4:2:0
Битовая глубина : 8 бит
Тип развёртки : Прогрессивная
Бит/(Пиксели*Кадры) : 0.171
Размер потока : 2,50 Гбайт (75%)
Заголовок : Spain, France (CiBy 2000, El Deseo S.A.)
Язык : English
Default : Да
Forced : Нет
Цветовой диапазон : Limited
Основные цвета : BT.709
Характеристики трансфера : BT.709
Коэффициенты матрицы : BT.709
Аудио #1
Идентификатор : 2
Формат : AC-3
Формат/Информация : Audio Coding 3
Коммерческое название : Dolby Digital
Идентификатор кодека : A_AC3
Продолжительность : 1 ч. 38 м.
Вид битрейта : Постоянный
Битрейт : 448 Кбит/сек
Каналы : 6 каналов
Channel layout : L R C LFE Ls Rs
Частота : 48,0 КГц
Частота кадров : 31,250 кадров/сек (1536 SPF)
Метод сжатия : С потерями
Размер потока : 314 Мбайт (9%)
Заголовок : DVO (Pazl Voice)
Язык : Russian
Service kind : Complete Main
Default : Да
Forced : Нет
Аудио #2
Идентификатор : 3
Формат : E-AC-3 JOC
Формат/Информация : Enhanced AC-3 with Joint Object Coding
Коммерческое название : Dolby Digital Plus with Dolby Atmos
Идентификатор кодека : A_EAC3
Продолжительность : 1 ч. 38 м.
Вид битрейта : Постоянный
Битрейт : 768 Кбит/сек
Каналы : 6 каналов
Channel layout : L R C LFE Ls Rs
Частота : 48,0 КГц
Частота кадров : 31,250 кадров/сек (1536 SPF)
Метод сжатия : С потерями
Размер потока : 539 Мбайт (16%)
Заголовок : Original (English)
Язык : English
Service kind : Complete Main
Default : Нет
Forced : Нет
Complexity index : 16
Number of dynamic objects : 15
Bed channel count : 1 канал
Bed channel configuration : LFE
Текст #1
Идентификатор : 4
Формат : UTF-8
Идентификатор кодека : S_TEXT/UTF8
Идентификатор кодека/Информация : UTF-8 Plain Text
Продолжительность : 1 ч. 37 м.
Битрейт : 84 бит/сек
Count of elements : 1830
Размер потока : 60,2 Кбайт (0%)
Заголовок : English
Язык : English
Default : Нет
Forced : Нет
Текст #2
Идентификатор : 5
Формат : UTF-8
Идентификатор кодека : S_TEXT/UTF8
Идентификатор кодека/Информация : UTF-8 Plain Text
Продолжительность : 1 ч. 37 м.
Битрейт : 91 бит/сек
Count of elements : 2003
Размер потока : 65,3 Кбайт (0%)
Заголовок : English [SDH]
Язык : English
Default : Нет
Forced : Нет
Текст #3
Идентификатор : 6
Формат : ASS
Идентификатор кодека : S_TEXT/ASS
Идентификатор кодека/Информация : Advanced Sub Station Alpha
Продолжительность : 1 ч. 37 м.
Битрейт : 197 бит/сек
Count of elements : 1830
Метод сжатия : Без потерь
Размер потока : 141 Кбайт (0%)
Язык : Ukrainian
Default : Да
Forced : Нет
Меню
00:00:00.000 : en:Studio Logo
00:01:12.000 : en:Opening Credits
00:03:02.000 : en:Scene 3
00:07:53.000 : en:Scene 4
00:10:05.000 : en:Scene 5
00:11:06.000 : en:Scene 6
00:12:34.000 : en:Scene 7
00:14:37.000 : en:Scene 8
00:16:05.000 : en:Scene 9
00:22:38.000 : en:Scene 10
00:26:04.000 : en:Scene 11
00:28:20.000 : en:Scene 12
00:35:19.000 : en:Scene 13
00:39:47.000 : en:Scene 14
00:46:22.000 : en:Scene 15
00:52:01.000 : en:Scene 16
00:54:33.000 : en:Scene 17
01:00:31.000 : en:Scene 18
01:10:11.000 : en:Scene 19
01:13:32.000 : en:Scene 20
01:19:45.000 : en:Scene 21
01:22:22.000 : en:Scene 22
01:25:07.000 : en:Scene 23
01:33:23.000 : en:End Credits
СЭМПЛ

admin

Post Yesterday 06:03

[Quote]

Белфаст / Belfast
Год выпуска: 2021
Выпущено: Великобритания / TKBC
Жанр: драма
Режиссер: Кеннет Брана
В ролях: Джуд Хилл, Льюис Макаски, Катрина Балф, Джейми Дорнан, Джуди Денч, Киаран Хайндс, Джози Уокер, Фрейя Йейтс, Несса Эрикссон, Чарли Барнард
О фильме: История дружной ирландской семьи , показанная в разрезе исторических событий: противостоянии католиков и протестантов, тяжелого экономического кризиса и безработицы...


Продолжительность: 01:38:15
Перевод: Любительский двухголосый (Pazl Voice)
Субтитры: Английские
Качество: WEB-DL 1080p | AMZN
Видео: MPEG-4 AVC, 6702 Кбит/с, 1920x1040
Аудио #1: AC3, 6 ch, 448 Кбит/с | RUS | Tnx.KinoPub
Аудио #2: E-AC3 JOC, 6 ch, 768 Кбит/с | ENG |

Скриншоты

M.info

Общее
Уникальный идентификатор : 127461053033030995479320461504157383334 (0x5FE41B1AD124865CA3CD6B64C978FAA6)
Полное имя : E:TorrentsBelfast.2021.1080p.AMZN.от New-Team_by_JNS82.mkv
Формат : Matroska
Версия формата : Version 4
Размер файла : 5,43 Гбайт
Продолжительность : 1 ч. 38 м.
Общий поток : 7 918 Кбит/сек
Название фильма : Belfast.2021.1080p.AMZN.от New-Team_by_JNS82
Дата кодирования : UTC 2021-12-05 05:33:04
Программа кодирования : mkvmerge v59.0.0 ('Shining Star') 64-bit
Библиотека кодирования : libebml v1.4.2 + libmatroska v1.6.4
Видео
Идентификатор : 1
Формат : AVC
Формат/Информация : Advanced Video Codec
Профиль формата : High@L4
Настройки формата : CABAC / 4 Ref Frames
Параметр CABAC формата : Да
Параметр RefFrames формата : 4 кадра
Идентификатор кодека : V_MPEG4/ISO/AVC
Продолжительность : 1 ч. 38 м.
Вид битрейта : Постоянный
Битрейт : 6 702 Кбит/сек
Номинальный битрейт : 10 000 Кбит/сек
Ширина : 1 920 пикселей
Высота : 1 040 пикселей
Соотношение сторон : 1,85:1
Режим частоты кадров : Постоянный
Частота кадров : 23,976 (24000/1001) кадра/сек
Цветовое пространство : YUV
Субдискретизация насыщенности : 4:2:0
Битовая глубина : 8 бит
Тип развёртки : Прогрессивная
Бит/(Пиксели*Кадры) : 0.140
Размер потока : 4,60 Гбайт (85%)
Default : Да
Forced : Нет
Цветовой диапазон : Limited
Основные цвета : BT.709
Характеристики трансфера : BT.709
Коэффициенты матрицы : BT.709
Аудио #1
Идентификатор : 2
Формат : AC-3
Формат/Информация : Audio Coding 3
Коммерческое название : Dolby Digital
Идентификатор кодека : A_AC3
Продолжительность : 1 ч. 38 м.
Вид битрейта : Постоянный
Битрейт : 448 Кбит/сек
Каналы : 6 каналов
Channel layout : L R C LFE Ls Rs
Частота : 48,0 КГц
Частота кадров : 31,250 кадров/сек (1536 SPF)
Метод сжатия : С потерями
Размер потока : 314 Мбайт (6%)
Заголовок : [DVO] Pazl Voice
Язык : Russian
Service kind : Complete Main
Default : Да
Forced : Нет
Аудио #2
Идентификатор : 3
Формат : E-AC-3 JOC
Формат/Информация : Enhanced AC-3 with Joint Object Coding
Коммерческое название : Dolby Digital Plus with Dolby Atmos
Идентификатор кодека : A_EAC3
Продолжительность : 1 ч. 38 м.
Вид битрейта : Постоянный
Битрейт : 768 Кбит/сек
Каналы : 6 каналов
Channel layout : L R C LFE Ls Rs
Частота : 48,0 КГц
Частота кадров : 31,250 кадров/сек (1536 SPF)
Метод сжатия : С потерями
Размер потока : 539 Мбайт (10%)
Заголовок : English
Язык : English
Service kind : Complete Main
Default : Нет
Forced : Нет
Complexity index : 16
Number of dynamic objects : 15
Bed channel count : 1 канал
Bed channel configuration : LFE
Текст #1
Идентификатор : 4
Формат : UTF-8
Идентификатор кодека : S_TEXT/UTF8
Идентификатор кодека/Информация : UTF-8 Plain Text
Продолжительность : 1 ч. 37 м.
Битрейт : 84 бит/сек
Count of elements : 1830
Размер потока : 60,2 Кбайт (0%)
Заголовок : English
Язык : English
Default : Нет
Forced : Нет
Текст #2
Идентификатор : 5
Формат : UTF-8
Идентификатор кодека : S_TEXT/UTF8
Идентификатор кодека/Информация : UTF-8 Plain Text
Продолжительность : 1 ч. 37 м.
Битрейт : 91 бит/сек
Count of elements : 2003
Размер потока : 65,3 Кбайт (0%)
Заголовок : English [SDH]
Язык : English
Default : Нет
Forced : Нет
Меню
00:00:00.000 : Studio Logo
00:01:12.000 : Opening Credits
00:03:02.000 : Scene 3
00:07:53.000 : Scene 4
00:10:05.000 : Scene 5
00:11:06.000 : Scene 6
00:12:34.000 : Scene 7
00:14:37.000 : Scene 8
00:16:05.000 : Scene 9
00:22:38.000 : Scene 10
00:26:04.000 : Scene 11
00:28:20.000 : Scene 12
00:35:19.000 : Scene 13
00:39:47.000 : Scene 14
00:46:22.000 : Scene 15
00:52:01.000 : Scene 16
00:54:33.000 : Scene 17
01:00:31.000 : Scene 18
01:10:11.000 : Scene 19
01:13:32.000 : Scene 20
01:19:45.000 : Scene 21
01:22:22.000 : Scene 22
01:25:07.000 : Scene 23
01:33:23.000 : End Credits

admin

Post Yesterday 05:45

[Quote]

Тихая ночь / Silent Night
Год выпуска: 2021
Выпущено: Великобритания / Marv Films, Maven Screen Media
Жанр: комедия, драма, ужасы
Режиссер: Камилль Гриффин / Camille Griffin
В ролях: Аннабелль Уоллис, Лили-Роуз Депп, Кира Найтли, Мэттью Гуд, Кирби Хауэлл-Баптист, Люси Панч, Роман Гриффин Дэвис, Труди Стайлер, Сопе Дирису, Холли Аирд
О фильме: Супруги Нелл и Саймон и трое их сыновей готовы приветствовать друзей на идеальном рождественском ужине в своем красивом загородном доме. Идеально всё, за исключением одного: скоро миру придет конец, и все умрут.

Продолжительность: 01:30:44
Перевод: Профессиональный, многоголосый закадровый (Jaskier / KinoPub)
Субтитры: Английские
Качество: WEB-DL 1080p | Silent.Night.Und.Morgen.Sind.Wir.Tot.2021.1080p.WEB-DL.DD5.1.H.264-EVO
Видео: MPEG-4 AVC, 6725 Кбит/с, 1918x802
Аудио #1: AC3, 6 ch, 448 Кбит/с | RUS |
Аудио #2: AC3, 6 ch, 384 Кбит/с | ENG |

Скриншоты

M.info

Общее
Уникальный идентификатор : 170579167458141499722992466643936428972 (0x80545A473EFAF871A962FA6D0A2943AC)
Полное имя : E:TorrentsSilent.Night.2021.1080p_от New-Team.mkv
Формат : Matroska
Версия формата : Version 4
Размер файла : 4,78 Гбайт
Продолжительность : 1 ч. 30 м.
Общий поток : 7 540 Кбит/сек
Название фильма : Silent.Night.2021.1080p_от New-Team
Дата кодирования : UTC 2021-12-05 13:50:48
Программа кодирования : mkvmerge v59.0.0 ('Shining Star') 64-bit
Библиотека кодирования : libebml v1.4.2 + libmatroska v1.6.4
Видео
Идентификатор : 1
Формат : AVC
Формат/Информация : Advanced Video Codec
Профиль формата : High@L4
Настройки формата : CABAC / 5 Ref Frames
Параметр CABAC формата : Да
Параметр RefFrames формата : 5 кадров
Идентификатор кодека : V_MPEG4/ISO/AVC
Продолжительность : 1 ч. 30 м.
Битрейт : 6 725 Кбит/сек
Ширина : 1 918 пикселей
Высота : 802 пикселя
Соотношение сторон : 2,40:1
Режим частоты кадров : Постоянный
Частота кадров : 23,976 (24000/1001) кадра/сек
Цветовое пространство : YUV
Субдискретизация насыщенности : 4:2:0
Битовая глубина : 8 бит
Тип развёртки : Прогрессивная
Бит/(Пиксели*Кадры) : 0.182
Размер потока : 4,25 Гбайт (89%)
Default : Да
Forced : Нет
Цветовой диапазон : Limited
Основные цвета : BT.709
Характеристики трансфера : BT.709
Коэффициенты матрицы : BT.709
Аудио #1
Идентификатор : 2
Формат : AC-3
Формат/Информация : Audio Coding 3
Коммерческое название : Dolby Digital
Идентификатор кодека : A_AC3
Продолжительность : 1 ч. 30 м.
Вид битрейта : Постоянный
Битрейт : 448 Кбит/сек
Каналы : 6 каналов
Channel layout : L R C LFE Ls Rs
Частота : 48,0 КГц
Частота кадров : 31,250 кадров/сек (1536 SPF)
Метод сжатия : С потерями
Размер потока : 291 Мбайт (6%)
Заголовок : [MVO] Jaskier
Язык : Russian
Service kind : Complete Main
Default : Да
Forced : Нет
Аудио #2
Идентификатор : 3
Формат : AC-3
Формат/Информация : Audio Coding 3
Коммерческое название : Dolby Digital
Идентификатор кодека : A_AC3
Продолжительность : 1 ч. 30 м.
Вид битрейта : Постоянный
Битрейт : 384 Кбит/сек
Каналы : 6 каналов
Channel layout : L R C LFE Ls Rs
Частота : 48,0 КГц
Частота кадров : 31,250 кадров/сек (1536 SPF)
Метод сжатия : С потерями
Размер потока : 249 Мбайт (5%)
Заголовок : English
Язык : English
Service kind : Complete Main
Default : Нет
Forced : Нет
Текст
Идентификатор : 4
Формат : UTF-8
Идентификатор кодека : S_TEXT/UTF8
Идентификатор кодека/Информация : UTF-8 Plain Text
Продолжительность : 1 ч. 30 м.
Битрейт : 61 бит/сек
Count of elements : 1565
Размер потока : 40,3 Кбайт (0%)
Язык : English
Default : Нет
Forced : Нет

admin

Post 05-Dec-2021 05:53

[Quote]

«Час настал»
Информация о фильме
Название: Дюна /
Оригинальное название: Dune: Part One
Год выхода: 2021
Жанр: Фантастика, боевик, драма, приключения
Режиссер: Дени Вильнёв
В ролях: Тимоти Шаламе, Ребекка Фергюсон, Оскар Айзек, Джош Бролин, Джейсон Момоа, Зендея, Стеллан Скарсгард, Хавьер Бардем, Дэйв Батиста, Шарлотта Рэмплинг
О фильме:
Наследник знаменитого дома Атрейдесов Пол отправляется вместе с семьей на одну из самых опасных планет во Вселенной — Арракис. Здесь нет ничего, кроме песка, палящего солнца, гигантских чудовищ и основной причины межгалактических конфликтов — невероятно ценного ресурса, который называется меланж. В результате захвата власти Пол вынужден бежать и скрываться, и это становится началом его эпического путешествия. Враждебный мир Арракиса приготовил для него множество тяжелых испытаний, но только тот, кто готов взглянуть в глаза своему страху, достоин стать избранным.


Страна: США, Канада, Венгрия
Студия: Legendary Pictures, Villeneuve Films, Warner Bros.
Продолжительность: 02:35:26
Перевод: Профессиональный (полное дублирование) | Пифагор | Кинопоиск HD
Файл
Качество: BDRip 1080p
Формат: MKV
Кодек: MPEG-4 AVC
Видео: 1920x804 (2.40:1), 23.976 fps, MPEG-4 AVC ~ 15,5 Мbps avg, 0.420 bit/pixel
Аудио: AC3, 48 kHz, 6 ch, ~448.00 kbps avg | русский | DUB |
Аудио: AC3, 48 kHz, 6 ch, ~640.00 kbps avg | английский |
Субтитры: Русские (форсированные, полные), английские

Инфо-файл

Общее
Уникальный идентификатор : 233065033319962367906008843541308731858 (0xAF56B1528FFA46DA8B7290C8538B71D2)
Полное имя : Dune.2021.1080p.BluRay.DD.5.1.x264.MegaPeer.mkv
Формат : Matroska
Версия формата : Version 4
Размер файла : 18,1 Гбайт
Продолжительность : 2 ч. 35 м.
Общий поток : 16,6 Мбит/сек
Название фильма : Дюна / Dune: Part One (2021)
Дата кодирования : UTC 2021-12-04 11:26:07
Программа кодирования : mkvmerge v15.0.0 ('Duel with the Devil') 64-bit
Библиотека кодирования : libebml v1.3.5 + libmatroska v1.4.5
Обложка : Yes
Attachments : cover.jpg
Видео
Идентификатор : 1
Формат : AVC
Формат/Информация : Advanced Video Codec
Профиль формата : High@L4.1
Настройки формата : CABAC / 5 Ref Frames
Параметр CABAC формата : Да
Параметр RefFrames формата : 5 кадров
Идентификатор кодека : V_MPEG4/ISO/AVC
Продолжительность : 2 ч. 35 м.
Битрейт : 15,5 Мбит/сек
Ширина : 1 920 пикселей
Высота : 804 пикселя
Соотношение сторон : 2,40:1
Режим частоты кадров : Постоянный
Частота кадров : 23,976 (24000/1001) кадра/сек
Цветовое пространство : YUV
Субдискретизация насыщенности : 4:2:0
Битовая глубина : 8 бит
Тип развёртки : Прогрессивная
Бит/(Пиксели*Кадры) : 0.420
Размер потока : 16,9 Гбайт (93%)
Заголовок : # LoRD
Библиотека кодирования : x264 core 164 r3075->LoRD
Настройки программы : cabac=1 / ref=5 / deblock=1:-3:-3 / analyse=0x3:0x133 / me=umh / subme=10 / psy=1 / psy_rd=1.00:0.00 / mixed_ref=1 / me_range=24 / chroma_me=1 / trellis=2 / 8x8dct=1 / cqm=0 / deadzone=21,11 / fast_pskip=0 / chroma_qp_offset=-2 / threads=24 / lookahead_threads=4 / sliced_threads=0 / nr=0 / decimate=0 / interlaced=0 / bluray_compat=0 / constrained_intra=0 / bframes=9 / b_pyramid=2 / b_adapt=2 / b_bias=0 / direct=3 / weightb=1 / open_gop=0 / weightp=2 / keyint=250 / keyint_min=23 / scenecut=40 / intra_refresh=0 / rc_lookahead=60 / rc=crf / mbtree=0 / crf=16.1 / qcomp=0.65 / qpmin=0 / qpmax=69 / qpstep=4 / vbv_maxrate=62500 / vbv_bufsize=78125 / crf_max=0.0 / nal_hrd=none / filler=0 / ip_ratio=1.20 / pb_ratio=1.20 / aq=3:0.85
Язык : English
Default : Да
Forced : Нет
Цветовой диапазон : Limited
Основные цвета : BT.709
Характеристики трансфера : BT.709
Коэффициенты матрицы : BT.709
Аудио #1
Идентификатор : 2
Формат : AC-3
Формат/Информация : Audio Coding 3
Коммерческое название : Dolby Digital
Идентификатор кодека : A_AC3
Продолжительность : 2 ч. 35 м.
Вид битрейта : Постоянный
Битрейт : 448 Кбит/сек
Каналы : 6 каналов
Channel layout : L R C LFE Ls Rs
Частота : 48,0 КГц
Частота кадров : 31,250 кадров/сек (1536 SPF)
Метод сжатия : С потерями
Размер потока : 498 Мбайт (3%)
Заголовок : DUB | Пифагор
Язык : Russian
Service kind : Complete Main
Default : Да
Forced : Нет
Аудио #2
Идентификатор : 3
Формат : AC-3
Формат/Информация : Audio Coding 3
Коммерческое название : Dolby Digital
Идентификатор кодека : A_AC3
Продолжительность : 2 ч. 35 м.
Вид битрейта : Постоянный
Битрейт : 640 Кбит/сек
Каналы : 6 каналов
Channel layout : L R C LFE Ls Rs
Частота : 48,0 КГц
Частота кадров : 31,250 кадров/сек (1536 SPF)
Метод сжатия : С потерями
Размер потока : 712 Мбайт (4%)
Язык : English
Service kind : Complete Main
Default : Нет
Forced : Нет
Текст #1
Идентификатор : 4
Формат : UTF-8
Идентификатор кодека : S_TEXT/UTF8
Идентификатор кодека/Информация : UTF-8 Plain Text
Продолжительность : 2 ч. 27 м.
Битрейт : 2 бит/сек
Count of elements : 51
Размер потока : 2,45 Кбайт (0%)
Заголовок : Forced
Язык : Russian
Default : Да
Forced : Нет
Текст #2
Идентификатор : 5
Формат : UTF-8
Идентификатор кодека : S_TEXT/UTF8
Идентификатор кодека/Информация : UTF-8 Plain Text
Продолжительность : 2 ч. 28 м.
Битрейт : 53 бит/сек
Count of elements : 1254
Размер потока : 58,0 Кбайт (0%)
Заголовок : Full
Язык : Russian
Default : Нет
Forced : Нет
Текст #3
Идентификатор : 6
Формат : UTF-8
Идентификатор кодека : S_TEXT/UTF8
Идентификатор кодека/Информация : UTF-8 Plain Text
Продолжительность : 2 ч. 25 м.
Битрейт : 31 бит/сек
Count of elements : 1300
Размер потока : 33,8 Кбайт (0%)
Заголовок : Full
Язык : English
Default : Нет
Forced : Нет
Меню
00:00:00.000 : en:Chapter 01
00:03:16.154 : en:Chapter 02
00:12:54.816 : en:Chapter 03
00:22:00.736 : en:Chapter 04
00:29:16.922 : en:Chapter 05
00:39:10.932 : en:Chapter 06
00:47:19.795 : en:Chapter 07
00:56:53.493 : en:Chapter 08
01:06:50.381 : en:Chapter 09
01:16:44.892 : en:Chapter 10
01:26:00.655 : en:Chapter 11
01:36:00.380 : en:Chapter 12
01:45:09.470 : en:Chapter 13
01:53:50.323 : en:Chapter 14
02:03:38.536 : en:Chapter 15
02:12:13.342 : en:Chapter 16
02:20:45.771 : en:Chapter 17
02:27:27.797 : en:Chapter 18

Скриншоты

admin

Post 05-Dec-2021 05:49

[Quote]

Информация о фильме
Название: Дюна
Оригинальное название: Dune: Part One
Год выхода: 2021
Жанр: Фантастика, боевик, драма, приключения
Режиссер: Дени Вильнёв
В ролях: Тимоти Шаламе, Зендая, Ребекка Фергюсон, Оскар Айзек, Джош Бролин, Джейсон Момоа, Дэйв Батиста, Стеллан Скарсгард, Хавьер Бардем, Шарлотта Рэмплинг, Чан Чэнь, Давид Дастмалчян, Стивен Хендерсон, Шэрон Дункан-Брюстер, Бабс Олусанмокун, Майкл Нардон, Оливер Райан, Глория Обианё

О фильме: События ленты разворачиваются в далеком будущем на планете Арракис, единственном источнике главного ресурса вселенной, необходимого для космических перелетов, — специи. По приказу императора глава дома Атрейдесов назначается правителем Арракиса. Его сын, молодой Пол Атрейдес, видит вещие сны и обладает удивительным даром. В его руках оказывается будущее всей планеты и его народа.
Страна: США, Канада, Венгрия
Студия: Legendary Pictures, Villeneuve Films, Warner Bros.
Продолжительность: 02:35:26
Перевод: Дублированный | Пифагор
Качество: BDRip 720p
Видео: MPEG-4 AVC, 1280x534, 6400 Kbit/s, 23.976 fps
Аудио #01: 48 kHz, E-AC3, 5.1, 448 Kbps | Дублированный | Пифагор | RUS |
Аудио #02: 48 kHz, AC3, 5.1, 448 Kbps | Дублированный | Пифагор | RUS |
Аудио #03: 48 kHz, AC3, 5.1, 448 Kbps | Оригинал | ENG |
Субтитры: Русские (Forced, full), английские

Скриншоты

MI

General
Unique ID : 324879133298533251386057464321481319256 (0xF46971F2E699771CFEFF775225CF2358)
Complete name : E:VideoDune.2021.BDRip.720p.seleZen.mkv
Format : Matroska
Format version : Version 4
File size : 8.41 GiB
Duration : 2 h 35 min
Overall bit rate : 7 743 kb/s
Movie name : Dune Part One 2021 from seleZen
Encoded date : UTC 2021-12-04 15:11:54
Writing application : mkvmerge v59.0.0 ('Shining Star') 64-bit
Writing library : libebml v1.4.2 + libmatroska v1.6.4
Video
ID : 1
Format : AVC
Format/Info : Advanced Video Codec
Format profile : High@L4.1
Format settings : CABAC / 12 Ref Frames
Format settings, CABAC : Yes
Format settings, Reference frames : 12 frames
Codec ID : V_MPEG4/ISO/AVC
Duration : 2 h 35 min
Bit rate : 6 400 kb/s
Width : 1 280 pixels
Height : 534 pixels
Display aspect ratio : 2.40:1
Frame rate mode : Constant
Frame rate : 23.976 (24000/1001) FPS
Color space : YUV
Chroma subsampling : 4:2:0
Bit depth : 8 bits
Scan type : Progressive
Bits/(Pixel*Frame) : 0.391
Stream size : 6.95 GiB (83%)
Title : WiKi
Writing library : x264 core 133 r2334 a3ac64b
Encoding settings : cabac=1 / ref=12 / deblock=1:-3:-3 / analyse=0x3:0x113 / me=umh / subme=11 / psy=1 / psy_rd=1.00:0.05 / mixed_ref=1 / me_range=32 / chroma_me=1 / trellis=2 / 8x8dct=1 / cqm=0 / deadzone=21,11 / fast_pskip=0 / chroma_qp_offset=-5 / threads=36 / lookahead_threads=4 / sliced_threads=0 / nr=0 / decimate=0 / interlaced=0 / bluray_compat=0 / constrained_intra=0 / bframes=8 / b_pyramid=2 / b_adapt=2 / b_bias=0 / direct=3 / weightb=1 / open_gop=0 / weightp=2 / keyint=250 / keyint_min=23 / scenecut=40 / intra_refresh=0 / rc=2pass / mbtree=0 / bitrate=6400 / ratetol=1.0 / qcomp=0.60 / qpmin=0 / qpmax=69 / qpstep=4 / cplxblur=20.0 / qblur=0.5 / ip_ratio=1.40 / pb_ratio=1.30 / aq=1:0.80
Language : English
Default : Yes
Forced : No
Audio #1
ID : 2
Format : E-AC-3
Format/Info : Enhanced AC-3
Commercial name : Dolby Digital Plus
Codec ID : A_EAC3
Duration : 2 h 35 min
Bit rate mode : Constant
Bit rate : 448 kb/s
Channel(s) : 6 channels
Channel layout : L R C LFE Ls Rs
Sampling rate : 48.0 kHz
Frame rate : 31.250 FPS (1536 SPF)
Compression mode : Lossy
Stream size : 498 MiB (6%)
Title : Dub
Language : Russian
Service kind : Complete Main
Default : Yes
Forced : Yes
Audio #2
ID : 3
Format : AC-3
Format/Info : Audio Coding 3
Commercial name : Dolby Digital
Codec ID : A_AC3
Duration : 2 h 35 min
Bit rate mode : Constant
Bit rate : 448 kb/s
Channel(s) : 6 channels
Channel layout : L R C LFE Ls Rs
Sampling rate : 48.0 kHz
Frame rate : 31.250 FPS (1536 SPF)
Compression mode : Lossy
Stream size : 498 MiB (6%)
Title : Dub
Language : Russian
Service kind : Complete Main
Default : No
Forced : No
Audio #3
ID : 4
Format : AC-3
Format/Info : Audio Coding 3
Commercial name : Dolby Digital
Format settings : Dolby Surround EX
Codec ID : A_AC3
Duration : 2 h 35 min
Bit rate mode : Constant
Bit rate : 448 kb/s
Channel(s) : 6 channels
Channel layout : L R C LFE Ls Rs
Sampling rate : 48.0 kHz
Frame rate : 31.250 FPS (1536 SPF)
Compression mode : Lossy
Stream size : 498 MiB (6%)
Title : Original
Language : English
Service kind : Complete Main
Default : No
Forced : No
Text #1
ID : 5
Format : UTF-8
Codec ID : S_TEXT/UTF8
Codec ID/Info : UTF-8 Plain Text
Duration : 2 h 27 min
Bit rate : 2 b/s
Count of elements : 51
Stream size : 2.45 KiB (0%)
Title : Forced
Language : Russian
Default : Yes
Forced : Yes
Text #2
ID : 6
Format : UTF-8
Codec ID : S_TEXT/UTF8
Codec ID/Info : UTF-8 Plain Text
Duration : 2 h 28 min
Bit rate : 53 b/s
Count of elements : 1254
Stream size : 58.0 KiB (0%)
Title : Full
Language : Russian
Default : No
Forced : No
Text #3
ID : 7
Format : UTF-8
Codec ID : S_TEXT/UTF8
Codec ID/Info : UTF-8 Plain Text
Duration : 2 h 25 min
Bit rate : 31 b/s
Count of elements : 1353
Stream size : 34.1 KiB (0%)
Title : Full
Language : English
Default : No
Forced : No
Text #4
ID : 8
Format : UTF-8
Codec ID : S_TEXT/UTF8
Codec ID/Info : UTF-8 Plain Text
Duration : 2 h 26 min
Bit rate : 41 b/s
Count of elements : 1724
Stream size : 44.3 KiB (0%)
Title : SDH
Language : English
Default : No
Forced : No
Menu
00:00:00.000 : Chapter 01
00:03:16.154 : Chapter 02
00:12:54.816 : Chapter 03
00:22:00.736 : Chapter 04
00:29:16.922 : Chapter 05
00:39:10.932 : Chapter 06
00:47:19.795 : Chapter 07
00:56:53.493 : Chapter 08
01:06:50.381 : Chapter 09
01:16:44.892 : Chapter 10
01:26:00.655 : Chapter 11
01:36:00.380 : Chapter 12
01:45:09.470 : Chapter 13
01:53:50.323 : Chapter 14
02:03:38.536 : Chapter 15
02:12:13.342 : Chapter 16
02:20:45.771 : Chapter 17
02:27:27.797 : Chapter 18

admin

Post 05-Dec-2021 05:22

[Quote]

Информация о фильме
Название: Клаустрофобы 2: Лига выживших
Оригинальное название: Escape Room: Tournament of Champions
Год выпуска: 2021
Жанр: Ужасы, боевик
Режиссер: Адам Робител
В ролях: Тейлор Расселл, Логан Миллер, Томас Кокерел, Холлэнд Роден, Индия Мур, Карлито Оливеро, Джей Ирвинг, Джеймс Батлер, Джеймс Фрейн
О фильме:
Шестеро незнакомцев, каждый из которых стал единственным победителем одного из смертельно опасных квестов, вновь оказываются в игре не по своей воле. Но прежние задания покажутся им сущим пустяком по сравнению с жуткими испытаниями, которые ожидают их на этот раз: игра стала еще опаснее и безжалостнее, а шансы на выживание стремятся к нулю

Выпущено: США, Columbia Pictures, Original Film, Shaken Not Stirred
Продолжительность: 01:39:23
Перевод: Профессиональный (полное дублирование) | Лицензия
Субтитры: Русские, английские
Файл
Формат: Matroska
Качество: BDRip 720p
Видео: 1280x536 at 23.976 fps, x264@L4.1, ~4000kbps
Аудио 1: AC3, 6 ch, ~448 kbps - | Русский | -
Аудио 2: AC3, 6 ch, ~448 kbps - | Английский | -
Формат субтитров: softsub (SRT)

M/I

x264 info: frame I:1525 Avg QP:14.15 size:123609
x264 info: frame P:34681 Avg QP:16.95 size: 42076
x264 info: frame B:101554 Avg QP:18.88 size: 12061
x264 info: consecutive B-frames: 4.6% 4.8% 10.0% 29.3% 15.6% 24.2% 5.1% 5.2% 0.9% 0.3%
General
Unique ID : 32304650613883198508317875591640959037 (0x184DA63ED15F721674D441D54FB6C83D)
Complete name : L:Escape.Room-Tournament.of.Champions.(1991).EXT.DUB.BDRip.x264.720p.mkv
Format : Matroska
Format version : Version 4
File size : 3.28 GiB
Duration : 1 h 39 min
Overall bit rate : 4 720 kb/s
Encoded date : UTC 2021-12-04 07:08:50
Writing application : mkvmerge v63.0.0 ('Everything') 64-bit
Writing library : libebml v1.4.2 + libmatroska v1.6.4
Cover : Yes
Attachments : Cover.jpg / Cover 2.jpg
Video
ID : 1
Format : AVC
Format/Info : Advanced Video Codec
Format profile : High@L4.1
Format settings : CABAC / 12 Ref Frames
Format settings, CABAC : Yes
Format settings, Reference : 12 frames
Codec ID : V_MPEG4/ISO/AVC
Duration : 1 h 35 min
Bit rate : 4 000 kb/s
Width : 1 280 pixels
Height : 536 pixels
Display aspect ratio : 2.40:1
Frame rate mode : Constant
Frame rate : 23.976 (24000/1001) FPS
Color space : YUV
Chroma subsampling : 4:2:0
Bit depth : 8 bits
Scan type : Progressive
Bits/(Pixel*Frame) : 0.243
Stream size : 2.68 GiB (82%)
Title : -=DoMiNo=-
Writing library : x264 core 161 r3020 d198931
Encoding settings : cabac=1 / ref=12 / deblock=1:-3:-3 / analyse=0x3:0x133 / me=umh / subme=10 / psy=1 / psy_rd=1.00:0.05 / mixed_ref=1 / me_range=32 / chroma_me=1 / trellis=2 / 8x8dct=1 / cqm=0 / deadzone=21,11 / fast_pskip=0 / chroma_qp_offset=-3 / threads=24 / lookahead_threads=4 / sliced_threads=0 / nr=0 / decimate=0 / interlaced=0 / bluray_compat=0 / constrained_intra=0 / bframes=9 / b_pyramid=2 / b_adapt=2 / b_bias=0 / direct=3 / weightb=1 / open_gop=0 / weightp=2 / keyint=240 / keyint_min=24 / scenecut=40 / intra_refresh=0 / rc=2pass / mbtree=0 / bitrate=4000 / ratetol=1.0 / qcomp=0.60 / qpmin=0 / qpmax=69 / qpstep=4 / cplxblur=20.0 / qblur=0.5 / ip_ratio=1.40 / pb_ratio=1.30 / aq=1:1.00
Language : English
Default : Yes
Forced : No
Audio #1
ID : 2
Format : AC-3
Format/Info : Audio Coding 3
Commercial name : Dolby Digital
Codec ID : A_AC3
Duration : 1 h 35 min
Bit rate mode : Constant
Bit rate : 448 kb/s
Channel(s) : 6 channels
Channel layout : L R C LFE Ls Rs
Sampling rate : 48.0 kHz
Frame rate : 31.250 FPS (1536 SPF)
Compression mode : Lossy
Stream size : 307 MiB (9%)
Title : DUB
Language : Russian
Service kind : Complete Main
Default : Yes
Forced : No
Audio #2
ID : 3
Format : AC-3
Format/Info : Audio Coding 3
Commercial name : Dolby Digital
Codec ID : A_AC3
Duration : 1 h 35 min
Bit rate mode : Constant
Bit rate : 448 kb/s
Channel(s) : 6 channels
Channel layout : L R C LFE Ls Rs
Sampling rate : 48.0 kHz
Frame rate : 31.250 FPS (1536 SPF)
Compression mode : Lossy
Stream size : 307 MiB (9%)
Language : English
Service kind : Complete Main
Default : No
Forced : No
Text #1
ID : 4
Format : UTF-8
Codec ID : S_TEXT/UTF8
Codec ID/Info : UTF-8 Plain Text
Duration : 1 h 38 min
Bit rate : 85 b/s
Count of elements : 1350
Stream size : 61.8 KiB (0%)
Title : milf2010
Language : Russian
Default : No
Forced : No
Text #2
ID : 5
Format : UTF-8
Codec ID : S_TEXT/UTF8
Codec ID/Info : UTF-8 Plain Text
Duration : 1 h 28 min
Bit rate : 67 b/s
Count of elements : 1328
Stream size : 43.6 KiB (0%)
Language : English
Default : No
Forced : No
Text #3
ID : 6
Format : UTF-8
Codec ID : S_TEXT/UTF8
Codec ID/Info : UTF-8 Plain Text
Duration : 1 h 28 min
Bit rate : 76 b/s
Count of elements : 1513
Stream size : 49.8 KiB (0%)
Title : SDH
Language : English
Default : No
Forced : No
Menu
00:00:00.000 : en:Chapter 01
00:19:06.770 : en:Chapter 02
00:25:27.567 : en:Chapter 03
00:30:42.882 : en:Chapter 04
00:33:33.886 : en:Chapter 05
00:38:49.952 : en:Chapter 06
00:41:18.476 : en:Chapter 07
00:43:18.345 : en:Chapter 08
00:48:28.113 : en:Chapter 09
00:51:47.062 : en:Chapter 10
00:54:30.934 : en:Chapter 11
01:00:02.599 : en:Chapter 12
01:04:35.204 : en:Chapter 13
01:09:26.787 : en:Chapter 14
01:11:07.554 : en:Chapter 15
01:15:05.918 : en:Chapter 16

Скриншоты

admin

Post 05-Dec-2021 05:22

[Quote]

Название: Клаустрофобы 2: Лига выживших
Оригинальное название: Escape Room: Tournament of Champions
Год выхода: 2021
Жанр: Ужасы, боевик
Режиссер: Адам Робител
В ролях:
Тейлор Расселл, Логан Миллер, Дебора Энн Уолл, Томас Кокерел, Холлэнд Роден, Индия Мур, Карлито Оливеро, Matt Esof, Джеми-Ли Мани, Уэйн Харрисон и др.
Описание фильма:
Зои и Бэн пытаются найти тех, кто заставил их принять участие в том садистском испытании, но вместе с другими четырьмя победителями смертельно опасных квестов вновь оказываются в игре. Прежние задания покажутся им сущими пустяками по сравнению с тем, что их поджидает на этот раз: игра стала еще опаснее и безжалостнее, а шансы на выживание стремятся к нулю.
Страна: США, ЮАР
Студия: Columbia Pictures Corporation, Moonlighting Films South Africa, Original Film, Shaken Not Stirred
Продолжительность: 01:39:23
Перевод: Профессиональный (полное дублирование) Лицензия
Субтитры: Русские (Full), английские (Full, SDH)

Файл
Формат: MKV
Качество: BDRip (1080p)
Видео: 1920x804 (2,40:1), 23,976 fps, AVC (х264), High@L4.1, 10,9 Мбит/сек avg, 0.294 bit/pixel
Аудио RUS: 48 kHz, AC3, 3/2 (L,C,R,l,r) + LFE ch, ~448 kbps avg
Аудио ENG: 48 kHz, DTS, 3/2 (L,C,R,l,r) + LFE ch, ~2344 kbps avg

MediaInfo

Общее
Уникальный идентификатор : 62404893377638498082814845823530381234 (0x2EF2BECAE1B5649E8A63281E69852FB2)
Полное имя : Escape.Room.Tournament.of.Champions.2021.D.BDRip.1080p.mkv
Формат : Matroska
Версия формата : Version 4
Размер файла : 9,15 Гбайт
Продолжительность : 1 ч. 39 м.
Режим общего битрейта : Переменный
Общий поток : 13,2 Мбит/сек
Название фильма : Escape Room: Tournament of Champions (2021)
Дата кодирования : UTC 2021-12-04 05:29:34
Программа кодирования : mkvmerge v63.0.0 ('Everything') 64-bit
Библиотека кодирования : libebml v1.4.2 + libmatroska v1.6.4
Видео
Идентификатор : 1
Формат : AVC
Формат/Информация : Advanced Video Codec
Профиль формата : High@L4.1
Настройки формата : CABAC / 5 Ref Frames
Параметр CABAC формата : Да
Параметр RefFrames формата : 5 кадров
Идентификатор кодека : V_MPEG4/ISO/AVC
Продолжительность : 1 ч. 35 м.
Битрейт : 10,9 Мбит/сек
Ширина : 1 920 пикселей
Высота : 804 пикселя
Соотношение сторон : 2,40:1
Режим частоты кадров : Постоянный
Частота кадров : 23,976 (24000/1001) кадра/сек
Цветовое пространство : YUV
Субдискретизация насыщенности : 4:2:0
Битовая глубина : 8 бит
Тип развёртки : Прогрессивная
Бит/(Пиксели*Кадры) : 0.294
Размер потока : 7,28 Гбайт (80%)
Библиотека кодирования : x264 core 164 r3065 ae03d92
Настройки программы : cabac=1 / ref=5 / deblock=1:1:1 / analyse=0x3:0x133 / me=umh / subme=9 / psy=1 / psy_rd=0.70:0.00 / mixed_ref=1 / me_range=16 / chroma_me=1 / trellis=2 / 8x8dct=1 / cqm=0 / deadzone=21,11 / fast_pskip=0 / chroma_qp_offset=-2 / threads=24 / lookahead_threads=2 / sliced_threads=0 / nr=0 / decimate=0 / interlaced=0 / bluray_compat=0 / constrained_intra=0 / bframes=3 / b_pyramid=2 / b_adapt=2 / b_bias=0 / direct=3 / weightb=1 / open_gop=0 / weightp=2 / keyint=250 / keyint_min=23 / scenecut=40 / intra_refresh=0 / rc=crf / mbtree=0 / crf=17.0 / qcomp=0.60 / qpmin=0 / qpmax=69 / qpstep=4 / ip_ratio=1.40 / pb_ratio=1.30 / aq=3:1.00
Язык : English
Default : Да
Forced : Нет
Цветовой диапазон : Limited
Коэффициенты матрицы : BT.709
Аудио #1
Идентификатор : 2
Формат : AC-3
Формат/Информация : Audio Coding 3
Коммерческое название : Dolby Digital
Идентификатор кодека : A_AC3
Продолжительность : 1 ч. 35 м.
Вид битрейта : Постоянный
Битрейт : 448 Кбит/сек
Каналы : 6 каналов
Channel layout : L R C LFE Ls Rs
Частота : 48,0 КГц
Частота кадров : 31,250 кадров/сек (1536 SPF)
Метод сжатия : С потерями
Размер потока : 307 Мбайт (3%)
Язык : Russian
Default : Да
Forced : Нет
Аудио #2
Идентификатор : 3
Формат : DTS XLL
Формат/Информация : Digital Theater Systems
Коммерческое название : DTS-HD Master Audio
Идентификатор кодека : A_DTS
Продолжительность : 1 ч. 35 м.
Вид битрейта : Переменный
Битрейт : 2 344 Кбит/сек
Каналы : 6 каналов
Channel layout : C L R Ls Rs LFE
Частота : 48,0 КГц
Частота кадров : 93,750 кадра/сек (512 SPF)
Битовая глубина : 16 бит
Метод сжатия : Без потерь
Размер потока : 1,57 Гбайт (17%)
Язык : English
Default : Нет
Forced : Нет
Текст #1
Идентификатор : 4
Формат : UTF-8
Идентификатор кодека : S_TEXT/UTF8
Идентификатор кодека/Информация : UTF-8 Plain Text
Продолжительность : 1 ч. 38 м.
Битрейт : 85 бит/сек
Count of elements : 1350
Размер потока : 61,8 Кбайт (0%)
Заголовок : Full
Язык : Russian
Default : Нет
Forced : Нет
Текст #2
Идентификатор : 5
Формат : UTF-8
Идентификатор кодека : S_TEXT/UTF8
Идентификатор кодека/Информация : UTF-8 Plain Text
Продолжительность : 1 ч. 28 м.
Битрейт : 67 бит/сек
Count of elements : 1328
Размер потока : 43,6 Кбайт (0%)
Заголовок : English (SRT)
Язык : English
Default : Нет
Forced : Нет
Текст #3
Идентификатор : 6
Формат : UTF-8
Идентификатор кодека : S_TEXT/UTF8
Идентификатор кодека/Информация : UTF-8 Plain Text
Продолжительность : 1 ч. 28 м.
Битрейт : 76 бит/сек
Count of elements : 1513
Размер потока : 49,8 Кбайт (0%)
Заголовок : English (SDH SRT)
Язык : English
Default : Нет
Forced : Нет
Меню
00:00:00.000 : en:Chapter 01
00:19:06.771 : en:Chapter 02
00:25:27.568 : en:Chapter 03
00:30:42.883 : en:Chapter 04
00:33:33.887 : en:Chapter 05
00:38:50.203 : en:Chapter 06
00:41:18.434 : en:Chapter 07
00:43:18.346 : en:Chapter 08
00:48:28.114 : en:Chapter 09
00:51:47.313 : en:Chapter 10
00:54:31.310 : en:Chapter 11
01:00:02.599 : en:Chapter 12
01:04:35.497 : en:Chapter 13
01:09:27.121 : en:Chapter 14
01:11:07.555 : en:Chapter 15
01:15:05.918 : en:Chapter 16
01:30:35.430 : en:Chapter 17

Скриншоты

admin

Post 04-Dec-2021 05:18

[Quote]

Информация о фильме
Название: Веном 2
Оригинальное название: Venom: Let There Be Carnage
Год выхода: 2021
Жанр: Фантастика, боевик, триллер
Режиссер: Энди Серкис
В ролях: Том Харди, Вуди Харрельсон, Стивен Грэм, Мишель Уильямс, Наоми Харрис, Рейд Скотт, Шон Делани, Пегги Лу, Уилльям Барбо, Джесси Виннинг
О фильме:
Более чем через год после тех событий журналист Эдди Брок пытается приспособиться к жизни в качестве хозяина инопланетного симбиота Венома, который наделяет его сверхчеловеческими способностями. Брок пытается возродить свою карьеру и берет интервью у серийного убийцы Клетуса Касади, который по воле случая становится хозяином Карнажа и сбегает из тюрьмы после неудавшейся казни.

Выпущено: США / Marvel Entertainment, Pascal Pictures, Sony Pictures Entertainment (SPE)
Продолжительность: 01:37:18
Озвучивание: Дублированное | КиноПоиск HD
Файл
Формат: MKV
Качество: BDRip 720p
Видео: MPEG-4 AVC, 3929 Kb/s, 1280x692
Аудио: Russian: AC3, 448 Kb/s (6 ch) / Е-AC3, 448 Kb/s (6 ch), English: AC3, 640 Kb/s (6 ch)
Субтитры: Russian (Forced, Full), English
Дополнительно: Сохранены оригинальные чаптеры.

Инфо-файл:

Complete name : Venom.2.2021.BDRip.720p.ELEKTRI4KA.UNIONGANG.mkv
Format : Matroska
Format version : Version 4
File size : 3.72 GiB
Duration : 1 h 37 min
Overall bit rate : 5 465 kb/s
Movie name : Venom.2.2021.BDRip.720p.ELEKTRI4KA.UNIONGANG.
Encoded date : UTC 2021-12-03 18:09:01
Writing application : mkvmerge v8.3.0 ('Over the Horizon') 32bit
Writing library : libebml v1.3.1 + libmatroska v1.4.2
Video
ID : 1
Format : AVC
Format/Info : Advanced Video Codec
Format profile : High@L4.1
Format settings : CABAC / 9 Ref Frames
Format settings, CABAC : Yes
Format settings, Reference frames : 9 frames
Codec ID : V_MPEG4/ISO/AVC
Duration : 1 h 37 min
Bit rate : 3 929 kb/s
Width : 1 280 pixels
Height : 692 pixels
Display aspect ratio : 1.85:1
Frame rate mode : Constant
Frame rate : 23.976 (24000/1001) FPS
Color space : YUV
Chroma subsampling : 4:2:0
Bit depth : 8 bits
Scan type : Progressive
Bits/(Pixel*Frame) : 0.185
Stream size : 2.67 GiB (72%)
Writing library : x264 core 157 r2938 2b00a84 TnP@MTeam Mod
Encoding settings : cabac=1 / ref=9 / deblock=1:-3:-3 / analyse=0x3:0x133 / me=umh / subme=10 / psy=1 / psy_rd=1.05:0.00 / mixed_ref=1 / me_range=32 / chroma_me=1 / trellis=2 / 8x8dct=1 / cqm=0 / deadzone=21,11 / fast_pskip=0 / chroma_qp_offset=-2 / threads=12 / lookahead_threads=2 / sliced_threads=0 / nr=0 / decimate=0 / interlaced=0 / bluray_compat=0 / constrained_intra=0 / bframes=8 / b_pyramid=2 / b_adapt=2 / b_bias=0 / direct=3 / weightb=1 / open_gop=0 / weightp=2 / keyint=250 / keyint_min=24 / scenecut=40 / intra_refresh=0 / rc_lookahead=250 / rc=crf / mbtree=0 / crf=16.8 / qcomp=0.60 / qpmin=0 / qpmax=69 / qpstep=4 / vbv_maxrate=62500 / vbv_bufsize=78125 / crf_max=0.0 / nal_hrd=none / filler=0 / ip_ratio=1.30 / pb_ratio=1.20 / aq=3:0.80
Language : English
Default : Yes
Forced : No
Color range : Limited
Color primaries : BT.709
Matrix coefficients : BT.709
Audio #1
ID : 2
Format : AC-3
Format/Info : Audio Coding 3
Commercial name : Dolby Digital
Codec ID : A_AC3
Duration : 1 h 37 min
Bit rate mode : Constant
Bit rate : 448 kb/s
Channel(s) : 6 channels
Channel layout : L R C LFE Ls Rs
Sampling rate : 48.0 kHz
Frame rate : 31.250 FPS (1536 SPF)
Compression mode : Lossy
Stream size : 312 MiB (8%)
Title : DUB AC3 (Kinopoisk HD)
Language : Russian
Service kind : Complete Main
Default : Yes
Forced : Yes
Audio #2
ID : 3
Format : AC-3
Format/Info : Audio Coding 3
Commercial name : Dolby Digital
Codec ID : A_AC3
Duration : 1 h 37 min
Bit rate mode : Constant
Bit rate : 448 kb/s
Channel(s) : 6 channels
Channel layout : L R C LFE Ls Rs
Sampling rate : 48.0 kHz
Frame rate : 31.250 FPS (1536 SPF)
Compression mode : Lossy
Stream size : 312 MiB (8%)
Title : DUB EAC3 (Kinopoisk HD)
Language : Russian
Service kind : Complete Main
Default : No
Forced : No
Audio #3
ID : 4
Format : AC-3
Format/Info : Audio Coding 3
Commercial name : Dolby Digital
Codec ID : A_AC3
Duration : 1 h 37 min
Bit rate mode : Constant
Bit rate : 640 kb/s
Channel(s) : 6 channels
Channel layout : L R C LFE Ls Rs
Sampling rate : 48.0 kHz
Frame rate : 31.250 FPS (1536 SPF)
Compression mode : Lossy
Stream size : 445 MiB (12%)
Title : Origunal
Language : English
Service kind : Complete Main
Default : No
Forced : No
Text #1
ID : 5
Format : UTF-8
Codec ID : S_TEXT/UTF8
Codec ID/Info : UTF-8 Plain Text
Duration : 10 min 25 s
Bit rate : 3 b/s
Count of elements : 7
Stream size : 246 Bytes (0%)
Title : Forced
Language : Russian
Default : Yes
Forced : Yes
Text #2
ID : 6
Format : UTF-8
Codec ID : S_TEXT/UTF8
Codec ID/Info : UTF-8 Plain Text
Duration : 1 h 36 min
Bit rate : 72 b/s
Count of elements : 1086
Stream size : 50.7 KiB (0%)
Title : Full
Language : Russian
Default : No
Forced : No
Text #3
ID : 7
Format : UTF-8
Codec ID : S_TEXT/UTF8
Codec ID/Info : UTF-8 Plain Text
Duration : 1 h 35 min
Bit rate : 60 b/s
Count of elements : 1495
Stream size : 42.3 KiB (0%)
Title : Full
Language : English
Default : No
Forced : No
Text #4
ID : 8
Format : UTF-8
Codec ID : S_TEXT/UTF8
Codec ID/Info : UTF-8 Plain Text
Duration : 1 h 36 min
Bit rate : 71 b/s
Count of elements : 1860
Stream size : 50.5 KiB (0%)
Title : SDH
Language : English
Default : No
Forced : No
Menu
00:00:00.000 : en:Chapter 01
00:05:24.991 : en:Chapter 02
00:09:33.239 : en:Chapter 03
00:12:20.406 : en:Chapter 04
00:18:23.436 : en:Chapter 05
00:23:01.213 : en:Chapter 06
00:30:17.858 : en:Chapter 07
00:35:03.601 : en:Chapter 08
00:39:26.781 : en:Chapter 09
00:45:35.066 : en:Chapter 10
00:50:40.329 : en:Chapter 11
00:55:29.826 : en:Chapter 12
01:01:01.032 : en:Chapter 13
01:06:57.639 : en:Chapter 14
01:14:36.681 : en:Chapter 15
01:21:57.579 : en:Chapter 16

Скриншоты

admin

Post 04-Dec-2021 05:17

[Quote]

Информация о фильме
Название: Веном 2
Оригинальное название: Venom: Let There Be Carnage
Год выхода: 2021
Жанр: Фантастика, боевик, триллер
Режиссер: Энди Серкис
В ролях: Том Харди, Вуди Харрельсон, Стивен Грэм, Мишель Уильямс, Наоми Харрис, Рейд Скотт, Шон Делани, Пегги Лу, Уилльям Барбо, Джесси Виннинг
О фильме:
Более чем через год после тех событий журналист Эдди Брок пытается приспособиться к жизни в качестве хозяина инопланетного симбиота Венома, который наделяет его сверхчеловеческими способностями. Брок пытается возродить свою карьеру и берет интервью у серийного убийцы Клетуса Касади, который по воле случая становится хозяином Карнажа и сбегает из тюрьмы после неудавшейся казни.

Выпущено: США / Marvel Entertainment, Pascal Pictures, Sony Pictures Entertainment (SPE)
Продолжительность: 01:37:18
Озвучивание: Дублированное | КиноПоиск HD
Файл
Формат: MKV
Качество: BDRip 1080p
Видео: MPEG-4 AVC, 10.8 Mb/s, 1920x1038
Аудио: Russian: AC3, 448 Kb/s (6 ch), English: AC3, 640 Kb/s (6 ch)
Субтитры: Russian (Forced, Full), English
Дополнительно: Сохранены оригинальные чаптеры.

Инфо-файл:

Complete name : Venom.2.2021.BDRip.1080p.ELEKTRI4KA.UNIONGANG.mkv
Format : Matroska
Format version : Version 4
File size : 8.40 GiB
Duration : 1 h 37 min
Overall bit rate : 12.4 Mb/s
Movie name : Venom.2.2021.BDRip.1080p.ELEKTRI4KA.UNIONGANG.
Encoded date : UTC 2021-12-03 13:26:23
Writing application : mkvmerge v8.3.0 ('Over the Horizon') 32bit
Writing library : libebml v1.3.1 + libmatroska v1.4.2
Video
ID : 1
Format : AVC
Format/Info : Advanced Video Codec
Format profile : High@L4.1
Format settings : CABAC / 4 Ref Frames
Format settings, CABAC : Yes
Format settings, Reference frames : 4 frames
Codec ID : V_MPEG4/ISO/AVC
Duration : 1 h 37 min
Bit rate : 10.8 Mb/s
Width : 1 920 pixels
Height : 1 038 pixels
Display aspect ratio : 1.85:1
Frame rate mode : Constant
Frame rate : 23.976 (24000/1001) FPS
Color space : YUV
Chroma subsampling : 4:2:0
Bit depth : 8 bits
Scan type : Progressive
Bits/(Pixel*Frame) : 0.227
Stream size : 7.36 GiB (88%)
Writing library : x264 core 157 r2938 2b00a84 TnP@MTeam Mod
Encoding settings : cabac=1 / ref=4 / deblock=1:-3:-3 / analyse=0x3:0x133 / me=umh / subme=10 / psy=1 / psy_rd=1.05:0.00 / mixed_ref=1 / me_range=32 / chroma_me=1 / trellis=2 / 8x8dct=1 / cqm=0 / deadzone=21,11 / fast_pskip=0 / chroma_qp_offset=-2 / threads=12 / lookahead_threads=2 / sliced_threads=0 / nr=0 / decimate=0 / interlaced=0 / bluray_compat=0 / constrained_intra=0 / bframes=8 / b_pyramid=2 / b_adapt=2 / b_bias=0 / direct=3 / weightb=1 / open_gop=0 / weightp=2 / keyint=250 / keyint_min=24 / scenecut=40 / intra_refresh=0 / rc_lookahead=250 / rc=crf / mbtree=0 / crf=16.8 / qcomp=0.60 / qpmin=0 / qpmax=69 / qpstep=4 / vbv_maxrate=62500 / vbv_bufsize=78125 / crf_max=0.0 / nal_hrd=none / filler=0 / ip_ratio=1.30 / pb_ratio=1.20 / aq=3:0.80
Language : English
Default : Yes
Forced : No
Color range : Limited
Color primaries : BT.709
Matrix coefficients : BT.709
Audio #1
ID : 2
Format : AC-3
Format/Info : Audio Coding 3
Commercial name : Dolby Digital
Codec ID : A_AC3
Duration : 1 h 37 min
Bit rate mode : Constant
Bit rate : 448 kb/s
Channel(s) : 6 channels
Channel layout : L R C LFE Ls Rs
Sampling rate : 48.0 kHz
Frame rate : 31.250 FPS (1536 SPF)
Compression mode : Lossy
Stream size : 312 MiB (4%)
Title : DUB AC3 (Kinopoisk HD)
Language : Russian
Service kind : Complete Main
Default : Yes
Forced : Yes
Audio #2
ID : 3
Format : AC-3
Format/Info : Audio Coding 3
Commercial name : Dolby Digital
Codec ID : A_AC3
Duration : 1 h 37 min
Bit rate mode : Constant
Bit rate : 448 kb/s
Channel(s) : 6 channels
Channel layout : L R C LFE Ls Rs
Sampling rate : 48.0 kHz
Frame rate : 31.250 FPS (1536 SPF)
Compression mode : Lossy
Stream size : 312 MiB (4%)
Title : DUB EAC3 (Kinopoisk HD)
Language : Russian
Service kind : Complete Main
Default : No
Forced : No
Audio #3
ID : 4
Format : AC-3
Format/Info : Audio Coding 3
Commercial name : Dolby Digital
Codec ID : A_AC3
Duration : 1 h 37 min
Bit rate mode : Constant
Bit rate : 640 kb/s
Channel(s) : 6 channels
Channel layout : L R C LFE Ls Rs
Sampling rate : 48.0 kHz
Frame rate : 31.250 FPS (1536 SPF)
Compression mode : Lossy
Stream size : 445 MiB (5%)
Title : Origunal
Language : English
Service kind : Complete Main
Default : No
Forced : No
Text #1
ID : 5
Format : UTF-8
Codec ID : S_TEXT/UTF8
Codec ID/Info : UTF-8 Plain Text
Duration : 10 min 25 s
Bit rate : 3 b/s
Count of elements : 7
Stream size : 246 Bytes (0%)
Title : Forced
Language : Russian
Default : Yes
Forced : Yes
Text #2
ID : 6
Format : UTF-8
Codec ID : S_TEXT/UTF8
Codec ID/Info : UTF-8 Plain Text
Duration : 1 h 36 min
Bit rate : 72 b/s
Count of elements : 1086
Stream size : 50.7 KiB (0%)
Title : Full
Language : Russian
Default : No
Forced : No
Text #3
ID : 7
Format : UTF-8
Codec ID : S_TEXT/UTF8
Codec ID/Info : UTF-8 Plain Text
Duration : 1 h 35 min
Bit rate : 60 b/s
Count of elements : 1495
Stream size : 42.3 KiB (0%)
Title : Full
Language : English
Default : No
Forced : No
Text #4
ID : 8
Format : UTF-8
Codec ID : S_TEXT/UTF8
Codec ID/Info : UTF-8 Plain Text
Duration : 1 h 36 min
Bit rate : 71 b/s
Count of elements : 1860
Stream size : 50.5 KiB (0%)
Title : SDH
Language : English
Default : No
Forced : No
Menu
00:00:00.000 : en:Chapter 01
00:05:24.991 : en:Chapter 02
00:09:33.239 : en:Chapter 03
00:12:20.406 : en:Chapter 04
00:18:23.436 : en:Chapter 05
00:23:01.213 : en:Chapter 06
00:30:17.858 : en:Chapter 07
00:35:03.601 : en:Chapter 08
00:39:26.781 : en:Chapter 09
00:45:35.066 : en:Chapter 10
00:50:40.329 : en:Chapter 11
00:55:29.826 : en:Chapter 12
01:01:01.032 : en:Chapter 13
01:06:57.639 : en:Chapter 14
01:14:36.681 : en:Chapter 15
01:21:57.579 : en:Chapter 16

Скриншоты

admin

Post 04-Dec-2021 05:11

[Quote]

«You're in for a shock»
Информация о фильме
Название: Красотка на взводе
Оригинальное название: Jolt
Год выхода: 2021
Жанр: Боевик, комедия
Режиссер: Таня Уэкслер
В ролях: Кейт Бекинсейл, Лаверн Кокс, Стэнли Туччи, Бобби Каннавале, Джай Кортни, Сьюзен Сарандон, Константин Грегори, Ори Феффер, Дэвид Брэдли, Льюис Иэн Брэй
О фильме:
Вышибала Линди плохо умеет управлять собственным гневом и постоянно боится кого-то убить в приступе ярости. В качестве самоконтроля она носит специальный жилет, который бьёт её током и успокаивает, прежде чем она совершит необратимое. Но после смерти возлюбленного Линди вынуждена забыть о контроле и отправиться на поиски убийцы.


Страна: США
Студия: Busted Shark Productions, Campbell Grobman Films, Eclectic Pictures Inc., Jolt Productions, Millennium Films, Nu Boyana Film Studios
Продолжительность: 01:31:15
Перевод:
Профессиональный (полное дублирование) | Мосфильм-Мастер | Кинопоиск HD
Профессиональный (многоголосый, закадровый) | HDRezka Studio |
Файл
Качество: BDRip 1080p
Исходник: Jolt.2021.COMPLETE.BLURAY-UNTOUCHED
Формат: MKV
Кодек: MPEG-4 AVC
Видео: 1920x804 (2.40:1), 24 fps, XviD ~ 10 000 Kbps avg, 0.270 bit/pixel
Аудио: AC3, 48 kHz, 6 ch, ~448.00 kbps avg | русский | DUB
Аудио: AC3, 48 kHz, 6 ch, ~448.00 kbps avg | русский | HDRezka Studio | с цензурой
Аудио: AC3, 48 kHz, 6 ch, ~448.00 kbps avg | русский | HDRezka Studio | без цкезуры
Аудио: AC3, 48 kHz, 6 ch, ~384.00 kbps avg | украинский | DUB
Аудио: AC3, 48 kHz, 6 ch, ~640.00 kbps avg | английский |
Субтитры: Русские (форсированные, полные), английские (полные, SDH)

Инфо-файл

Общее
Уникальный идентификатор : 218501482362683824885291675782221392333 (0xA461DAD2B33D6104B591D2E57797E9CD)
Полное имя : Jolt.2021.1080p.BluRay.DD.5.1.x264.MegaPeer.mkv
Формат : Matroska
Версия формата : Version 4
Размер файла : 7,87 Гбайт
Продолжительность : 1 ч. 31 м.
Общий поток : 12,4 Мбит/сек
Название фильма : Красотка на взводе / Jolt (2021) от MegaPeer
Дата кодирования : UTC 2021-12-03 11:51:21
Программа кодирования : mkvmerge v15.0.0 ('Duel with the Devil') 64-bit
Библиотека кодирования : libebml v1.3.5 + libmatroska v1.4.5
Обложка : Yes
Attachments : cover.jpg
Видео
Идентификатор : 1
Формат : AVC
Формат/Информация : Advanced Video Codec
Профиль формата : High@L4.1
Настройки формата : CABAC / 4 Ref Frames
Параметр CABAC формата : Да
Параметр RefFrames формата : 4 кадра
Идентификатор кодека : V_MPEG4/ISO/AVC
Продолжительность : 1 ч. 31 м.
Битрейт : 10 000 Кбит/сек
Ширина : 1 920 пикселей
Высота : 804 пикселя
Соотношение сторон : 2,40:1
Режим частоты кадров : Постоянный
Частота кадров : 24,000 кадра/сек
Цветовое пространство : YUV
Субдискретизация насыщенности : 4:2:0
Битовая глубина : 8 бит
Тип развёртки : Прогрессивная
Бит/(Пиксели*Кадры) : 0.270
Размер потока : 6,36 Гбайт (81%)
Заголовок : stillet@MegaPeer
Библиотека кодирования : x264 core 161 r3018 db0d417
Настройки программы : cabac=1 / ref=4 / deblock=1:-3:-3 / analyse=0x3:0x113 / me=umh / subme=10 / psy=1 / psy_rd=1.05:0.03 / mixed_ref=1 / me_range=48 / chroma_me=1 / trellis=2 / 8x8dct=1 / cqm=0 / deadzone=21,11 / fast_pskip=0 / chroma_qp_offset=-3 / threads=24 / lookahead_threads=6 / sliced_threads=0 / nr=0 / decimate=0 / interlaced=0 / bluray_compat=0 / constrained_intra=0 / bframes=14 / b_pyramid=2 / b_adapt=2 / b_bias=0 / direct=3 / weightb=1 / open_gop=0 / weightp=2 / keyint=240 / keyint_min=24 / scenecut=40 / intra_refresh=0 / rc_lookahead=40 / rc=2pass / mbtree=0 / bitrate=10000 / ratetol=1.0 / qcomp=0.60 / qpmin=0 / qpmax=69 / qpstep=4 / cplxblur=20.0 / qblur=0.5 / vbv_maxrate=50000 / vbv_bufsize=62500 / nal_hrd=none / filler=0 / ip_ratio=1.40 / pb_ratio=1.30 / aq=1:1.10
Язык : German
Default : Да
Forced : Нет
Аудио #1
Идентификатор : 2
Формат : AC-3
Формат/Информация : Audio Coding 3
Коммерческое название : Dolby Digital
Идентификатор кодека : A_AC3
Продолжительность : 1 ч. 31 м.
Вид битрейта : Постоянный
Битрейт : 448 Кбит/сек
Каналы : 6 каналов
Channel layout : L R C LFE Ls Rs
Частота : 48,0 КГц
Частота кадров : 31,250 кадров/сек (1536 SPF)
Метод сжатия : С потерями
Размер потока : 292 Мбайт (4%)
Заголовок : DUB | Мосфильм-Мастер
Язык : Russian
Service kind : Complete Main
Default : Да
Forced : Нет
Аудио #2
Идентификатор : 3
Формат : AC-3
Формат/Информация : Audio Coding 3
Коммерческое название : Dolby Digital
Идентификатор кодека : A_AC3
Продолжительность : 1 ч. 31 м.
Вид битрейта : Постоянный
Битрейт : 448 Кбит/сек
Каналы : 6 каналов
Channel layout : L R C LFE Ls Rs
Частота : 48,0 КГц
Частота кадров : 31,250 кадров/сек (1536 SPF)
Метод сжатия : С потерями
Размер потока : 292 Мбайт (4%)
Заголовок : MVO | HDrezka Studio
Язык : Russian
Service kind : Complete Main
Default : Нет
Forced : Нет
Аудио #3
Идентификатор : 4
Формат : AC-3
Формат/Информация : Audio Coding 3
Коммерческое название : Dolby Digital
Идентификатор кодека : A_AC3
Продолжительность : 1 ч. 31 м.
Вид битрейта : Постоянный
Битрейт : 448 Кбит/сек
Каналы : 6 каналов
Channel layout : L R C LFE Ls Rs
Частота : 48,0 КГц
Частота кадров : 31,250 кадров/сек (1536 SPF)
Метод сжатия : С потерями
Размер потока : 292 Мбайт (4%)
Заголовок : MVO | HDrezka Studio 18+
Язык : Russian
Service kind : Complete Main
Default : Нет
Forced : Нет
Аудио #4
Идентификатор : 5
Формат : AC-3
Формат/Информация : Audio Coding 3
Коммерческое название : Dolby Digital
Идентификатор кодека : A_AC3
Продолжительность : 1 ч. 31 м.
Вид битрейта : Постоянный
Битрейт : 384 Кбит/сек
Каналы : 6 каналов
Channel layout : L R C LFE Ls Rs
Частота : 48,0 КГц
Частота кадров : 31,250 кадров/сек (1536 SPF)
Метод сжатия : С потерями
Размер потока : 251 Мбайт (3%)
Заголовок : DUB
Язык : Ukrainian
Service kind : Complete Main
Default : Нет
Forced : Нет
Аудио #5
Идентификатор : 6
Формат : AC-3
Формат/Информация : Audio Coding 3
Коммерческое название : Dolby Digital
Идентификатор кодека : A_AC3
Продолжительность : 1 ч. 31 м.
Вид битрейта : Постоянный
Битрейт : 640 Кбит/сек
Каналы : 6 каналов
Channel layout : L R C LFE Ls Rs
Частота : 48,0 КГц
Частота кадров : 31,250 кадров/сек (1536 SPF)
Метод сжатия : С потерями
Размер потока : 418 Мбайт (5%)
Язык : English
Service kind : Complete Main
Default : Нет
Forced : Нет
Текст #1
Идентификатор : 7
Формат : UTF-8
Идентификатор кодека : S_TEXT/UTF8
Идентификатор кодека/Информация : UTF-8 Plain Text
Продолжительность : 1 ч. 24 м.
Битрейт : 1 бит/сек
Count of elements : 26
Размер потока : 1,18 Кбайт (0%)
Заголовок : Forced
Язык : Russian
Default : Да
Forced : Нет
Текст #2
Идентификатор : 8
Формат : UTF-8
Идентификатор кодека : S_TEXT/UTF8
Идентификатор кодека/Информация : UTF-8 Plain Text
Продолжительность : 1 ч. 24 м.
Битрейт : 96 бит/сек
Count of elements : 1030
Размер потока : 59,8 Кбайт (0%)
Заголовок : Full
Язык : Russian
Default : Нет
Forced : Нет
Текст #3
Идентификатор : 9
Формат : UTF-8
Идентификатор кодека : S_TEXT/UTF8
Идентификатор кодека/Информация : UTF-8 Plain Text
Продолжительность : 1 ч. 24 м.
Битрейт : 61 бит/сек
Count of elements : 1332
Размер потока : 38,3 Кбайт (0%)
Заголовок : Full
Язык : English
Default : Нет
Forced : Нет
Текст #4
Идентификатор : 10
Формат : UTF-8
Идентификатор кодека : S_TEXT/UTF8
Идентификатор кодека/Информация : UTF-8 Plain Text
Продолжительность : 1 ч. 24 м.
Битрейт : 71 бит/сек
Count of elements : 1588
Размер потока : 44,0 Кбайт (0%)
Заголовок : SDH
Язык : English
Default : Нет
Forced : Нет
Меню
00:00:00.000 : :ger: 01
00:11:20.875 : :ger: 02
00:22:42.375 : :ger: 03
00:32:00.665 : :ger: 04
00:44:03.083 : :ger: 05
00:51:41.708 : :ger: 06
01:03:19.625 : :ger: 07
01:15:45.250 : :ger: 08
01:25:10.957 : :ger: 09

Скриншоты

admin

Post 04-Dec-2021 05:10

[Quote]

«You're in for a shock»
Информация о фильме
Название: Красотка на взводе
Оригинальное название: Jolt
Год выхода: 2021
Жанр: Боевик, комедия
Режиссер: Таня Уэкслер
В ролях: Кейт Бекинсейл, Лаверн Кокс, Стэнли Туччи, Бобби Каннавале, Джай Кортни, Сьюзен Сарандон, Константин Грегори, Ори Феффер, Дэвид Брэдли, Льюис Иэн Брэй
О фильме:
Вышибала Линди плохо умеет управлять собственным гневом и постоянно боится кого-то убить в приступе ярости. В качестве самоконтроля она носит специальный жилет, который бьёт её током и успокаивает, прежде чем она совершит необратимое. Но после смерти возлюбленного Линди вынуждена забыть о контроле и отправиться на поиски убийцы.


Страна: США
Студия: Busted Shark Productions, Campbell Grobman Films, Eclectic Pictures Inc., Jolt Productions, Millennium Films, Nu Boyana Film Studios
Продолжительность: 01:31:15
Перевод:
Профессиональный (полное дублирование) | Мосфильм-Мастер | Кинопоиск HD
Профессиональный (многоголосый, закадровый) | HDRezka Studio |
Файл
Качество: BDRip 720p
Исходник: Jolt.2021.COMPLETE.BLURAY-UNTOUCHED
Формат: MKV
Кодек: MPEG-4 AVC
Видео: 1280x536 (2.40:1), 24 fps, XviD ~ 3500 Kbps avg, 0.213 bit/pixel
Аудио: AC3, 48 kHz, 6 ch, ~448.00 kbps avg | русский | DUB
Аудио: AC3, 48 kHz, 6 ch, ~448.00 kbps avg | русский | HDRezka Studio | с цензурой
Аудио: AC3, 48 kHz, 6 ch, ~448.00 kbps avg | русский | HDRezka Studio | без цкезуры
Аудио: AC3, 48 kHz, 6 ch, ~384.00 kbps avg | украинский | DUB
Аудио: AC3, 48 kHz, 6 ch, ~640.00 kbps avg | английский |
Субтитры: Русские (форсированные, полные), английские (полные, SDH)

Инфо-файл

Общее
Уникальный идентификатор : 194783878029293391856528315202976615785 (0x928A02A583AD23109FCB4FCC8C9C0D69)
Полное имя : Jolt.2021.720p.BluRay.DD.5.1.x264.MegaPeer.mkv
Формат : Matroska
Версия формата : Version 4
Размер файла : 3,73 Гбайт
Продолжительность : 1 ч. 31 м.
Общий поток : 5 853 Кбит/сек
Название фильма : Красотка на взводе / Jolt (2021) от MegaPeer
Дата кодирования : UTC 2021-12-03 11:56:17
Программа кодирования : mkvmerge v15.0.0 ('Duel with the Devil') 64-bit
Библиотека кодирования : libebml v1.3.5 + libmatroska v1.4.5
Обложка : Yes
Attachments : cover.jpg
Видео
Идентификатор : 1
Формат : AVC
Формат/Информация : Advanced Video Codec
Профиль формата : High@L4.1
Настройки формата : CABAC / 12 Ref Frames
Параметр CABAC формата : Да
Параметр RefFrames формата : 12 кадров
Идентификатор кодека : V_MPEG4/ISO/AVC
Продолжительность : 1 ч. 31 м.
Битрейт : 3 500 Кбит/сек
Ширина : 1 280 пикселей
Высота : 536 пикселей
Соотношение сторон : 2,40:1
Режим частоты кадров : Постоянный
Частота кадров : 24,000 кадра/сек
Цветовое пространство : YUV
Субдискретизация насыщенности : 4:2:0
Битовая глубина : 8 бит
Тип развёртки : Прогрессивная
Бит/(Пиксели*Кадры) : 0.213
Размер потока : 2,22 Гбайт (59%)
Заголовок : stillet@MegaPeer
Библиотека кодирования : x264 core 161 r3018 db0d417
Настройки программы : cabac=1 / ref=12 / deblock=1:-3:-3 / analyse=0x3:0x113 / me=umh / subme=10 / psy=1 / psy_rd=1.05:0.03 / mixed_ref=1 / me_range=48 / chroma_me=1 / trellis=2 / 8x8dct=1 / cqm=0 / deadzone=21,11 / fast_pskip=0 / chroma_qp_offset=-3 / threads=17 / lookahead_threads=4 / sliced_threads=0 / nr=0 / decimate=0 / interlaced=0 / bluray_compat=0 / constrained_intra=0 / bframes=14 / b_pyramid=2 / b_adapt=2 / b_bias=0 / direct=3 / weightb=1 / open_gop=0 / weightp=2 / keyint=240 / keyint_min=24 / scenecut=40 / intra_refresh=0 / rc_lookahead=40 / rc=2pass / mbtree=0 / bitrate=3500 / ratetol=1.0 / qcomp=0.60 / qpmin=0 / qpmax=69 / qpstep=4 / cplxblur=20.0 / qblur=0.5 / vbv_maxrate=50000 / vbv_bufsize=62500 / nal_hrd=none / filler=0 / ip_ratio=1.40 / pb_ratio=1.30 / aq=1:1.10
Язык : German
Default : Да
Forced : Нет
Аудио #1
Идентификатор : 2
Формат : AC-3
Формат/Информация : Audio Coding 3
Коммерческое название : Dolby Digital
Идентификатор кодека : A_AC3
Продолжительность : 1 ч. 31 м.
Вид битрейта : Постоянный
Битрейт : 448 Кбит/сек
Каналы : 6 каналов
Channel layout : L R C LFE Ls Rs
Частота : 48,0 КГц
Частота кадров : 31,250 кадров/сек (1536 SPF)
Метод сжатия : С потерями
Размер потока : 292 Мбайт (8%)
Заголовок : DUB | Мосфильм-Мастер
Язык : Russian
Service kind : Complete Main
Default : Да
Forced : Нет
Аудио #2
Идентификатор : 3
Формат : AC-3
Формат/Информация : Audio Coding 3
Коммерческое название : Dolby Digital
Идентификатор кодека : A_AC3
Продолжительность : 1 ч. 31 м.
Вид битрейта : Постоянный
Битрейт : 448 Кбит/сек
Каналы : 6 каналов
Channel layout : L R C LFE Ls Rs
Частота : 48,0 КГц
Частота кадров : 31,250 кадров/сек (1536 SPF)
Метод сжатия : С потерями
Размер потока : 292 Мбайт (8%)
Заголовок : MVO | HDrezka Studio
Язык : Russian
Service kind : Complete Main
Default : Нет
Forced : Нет
Аудио #3
Идентификатор : 4
Формат : AC-3
Формат/Информация : Audio Coding 3
Коммерческое название : Dolby Digital
Идентификатор кодека : A_AC3
Продолжительность : 1 ч. 31 м.
Вид битрейта : Постоянный
Битрейт : 448 Кбит/сек
Каналы : 6 каналов
Channel layout : L R C LFE Ls Rs
Частота : 48,0 КГц
Частота кадров : 31,250 кадров/сек (1536 SPF)
Метод сжатия : С потерями
Размер потока : 292 Мбайт (8%)
Заголовок : MVO | HDrezka Studio 18+
Язык : Russian
Service kind : Complete Main
Default : Нет
Forced : Нет
Аудио #4
Идентификатор : 5
Формат : AC-3
Формат/Информация : Audio Coding 3
Коммерческое название : Dolby Digital
Идентификатор кодека : A_AC3
Продолжительность : 1 ч. 31 м.
Вид битрейта : Постоянный
Битрейт : 384 Кбит/сек
Каналы : 6 каналов
Channel layout : L R C LFE Ls Rs
Частота : 48,0 КГц
Частота кадров : 31,250 кадров/сек (1536 SPF)
Метод сжатия : С потерями
Размер потока : 251 Мбайт (7%)
Заголовок : DUB
Язык : Ukrainian
Service kind : Complete Main
Default : Нет
Forced : Нет
Аудио #5
Идентификатор : 6
Формат : AC-3
Формат/Информация : Audio Coding 3
Коммерческое название : Dolby Digital
Идентификатор кодека : A_AC3
Продолжительность : 1 ч. 31 м.
Вид битрейта : Постоянный
Битрейт : 640 Кбит/сек
Каналы : 6 каналов
Channel layout : L R C LFE Ls Rs
Частота : 48,0 КГц
Частота кадров : 31,250 кадров/сек (1536 SPF)
Метод сжатия : С потерями
Размер потока : 418 Мбайт (11%)
Язык : English
Service kind : Complete Main
Default : Нет
Forced : Нет
Текст #1
Идентификатор : 7
Формат : UTF-8
Идентификатор кодека : S_TEXT/UTF8
Идентификатор кодека/Информация : UTF-8 Plain Text
Продолжительность : 1 ч. 24 м.
Битрейт : 1 бит/сек
Count of elements : 26
Размер потока : 1,18 Кбайт (0%)
Заголовок : Forced
Язык : Russian
Default : Да
Forced : Нет
Текст #2
Идентификатор : 8
Формат : UTF-8
Идентификатор кодека : S_TEXT/UTF8
Идентификатор кодека/Информация : UTF-8 Plain Text
Продолжительность : 1 ч. 24 м.
Битрейт : 96 бит/сек
Count of elements : 1030
Размер потока : 59,8 Кбайт (0%)
Заголовок : Full
Язык : Russian
Default : Нет
Forced : Нет
Текст #3
Идентификатор : 9
Формат : UTF-8
Идентификатор кодека : S_TEXT/UTF8
Идентификатор кодека/Информация : UTF-8 Plain Text
Продолжительность : 1 ч. 24 м.
Битрейт : 61 бит/сек
Count of elements : 1332
Размер потока : 38,3 Кбайт (0%)
Заголовок : Full
Язык : English
Default : Нет
Forced : Нет
Текст #4
Идентификатор : 10
Формат : UTF-8
Идентификатор кодека : S_TEXT/UTF8
Идентификатор кодека/Информация : UTF-8 Plain Text
Продолжительность : 1 ч. 24 м.
Битрейт : 71 бит/сек
Count of elements : 1588
Размер потока : 44,0 Кбайт (0%)
Заголовок : SDH
Язык : English
Default : Нет
Forced : Нет
Меню
00:00:00.000 : :ger: 01
00:11:20.875 : :ger: 02
00:22:42.375 : :ger: 03
00:32:00.665 : :ger: 04
00:44:03.083 : :ger: 05
00:51:41.708 : :ger: 06
01:03:19.625 : :ger: 07
01:15:45.250 : :ger: 08
01:25:10.957 : :ger: 09

Скриншоты

 

Current time is: 07-Dec 18:02

All times are UTC + 3