Search found 500 matches

Author Message

admin

Post Today 08:24

[Quote]

Информация о фильме
Название: Проклятие
Оригинальное название: The Grudge
Год выхода: 2020
Жанр: Ужасы
Режиссер: Николас Пеш
В ролях: Андреа Райзборо, Демиан Бишир, Джон Чо, Бетти Гилпин, Лин Шэй, Джеки Уивер, Тара Вествуд, Джанко Бэйли, Дэвид Браун, Зои Фиш, Джон Хансен, Джоэль Марш Гарлэнд, Брэдли Савацки, Стефани Сай, Стив Ратцлафф, Марина Стивенсон Керр
О фильме:
2004 год. Вернувшаяся в Америку из Японии женщина жестоко убивает свою семью. Два года спустя о доме, где произошло то убийство, ходят страшные слухи, и местные опасаются к нему приближаться. Женщина-детектив, оставшаяся с маленьким сыном, переживает из-за недавней смерти мужа и с головой уходит в работу. Взявшись расследовать гибель женщины, несмотря на предостережение напарника, она заходит в тот самый дом, и теперь её начинают преследовать жуткие видения.

Страна: США, Канада, Япония
Студия: Ghost House Pictures, Good Universe, Screen Gems, Stage 6 Films
Продолжительность: 01:33:44
Перевод: Дублированный | iTunes
Файл
Кодек: x.264
Качество: BDRip 1080p | iTunes
Видео: MPEG-4 AVC, 9297 Kбит/с, 1920x800, 23.976 кадр/с
Аудио #1: Русский (АС3, 6 ch, 384 Кбит/с, 48.0 KHz) Профессиональный (дублированный) iTunes
Аудио #2: Английский (DTS, 6 ch, 1509 Кбит/с, 48.0 KHz)
Субтитры: Русские (Forced, Full, (К. Дафт), английские

MediaInfo

Источник: The.Grudge.2020.1080p.BluRay.REMUX.AVC.DTS-HD.MA.5.1-FGT
General
Unique ID : 221828792464999108044210471805876983318 (0xA6E2ABE072C8697E97F568EA80385616)
Complete name : The.Grudge.2020.BDRip.1080p.mkv
Format : Matroska
Format version : Version 4
File size : 7.31 GiB
Duration : 1 h 33 min
Overall bit rate : 11.2 Mb/s
Encoded date : UTC 2020-04-02 16:10:40
Writing application : mkvmerge v7.1.0 ('Good Love') 64bit built on Jul 27 2014 13:06:55
Writing library : libebml v1.3.0 + libmatroska v1.4.1
Video
ID : 1
Format : AVC
Format/Info : Advanced Video Codec
Format profile : High@L4.1
Format settings : CABAC / 5 Ref Frames
Format settings, CABAC : Yes
Format settings, Reference fra : 5 frames
Codec ID : V_MPEG4/ISO/AVC
Duration : 1 h 33 min
Bit rate : 9 297 kb/s
Width : 1 920 pixels
Height : 800 pixels
Display aspect ratio : 2.40:1
Frame rate mode : Constant
Frame rate : 23.976 FPS
Color space : YUV
Chroma subsampling : 4:2:0
Bit depth : 8 bits
Scan type : Progressive
Bits/(Pixel*Frame) : 0.252
Stream size : 6.07 GiB (83%)
Writing library : x264 core 148 r2638 7599210
Encoding settings : cabac=1 / ref=5 / deblock=1:-3:-3 / analyse=0x3:0x113 / me=umh / subme=11 / psy=1 / psy_rd=1.00:0.00 / mixed_ref=1 / me_range=48 / chroma_me=1 / trellis=2 / 8x8dct=1 / cqm=0 / deadzone=21,11 / fast_pskip=0 / chroma_qp_offset=-2 / threads=18 / lookahead_threads=3 / sliced_threads=0 / nr=0 / decimate=1 / interlaced=0 / bluray_compat=0 / constrained_intra=0 / bframes=9 / b_pyramid=2 / b_adapt=2 / b_bias=0 / direct=3 / weightb=1 / open_gop=0 / weightp=2 / keyint=250 / keyint_min=23 / scenecut=40 / intra_refresh=0 / rc_lookahead=40 / rc=2pass / mbtree=0 / bitrate=9297 / ratetol=1.0 / qcomp=0.60 / qpmin=0 / qpmax=69 / qpstep=4 / cplxblur=20.0 / qblur=0.5 / vbv_maxrate=14000 / vbv_bufsize=14000 / nal_hrd=none / filler=0 / ip_ratio=1.40 / pb_ratio=1.30 / aq=1:1.00
Language : English
Default : Yes
Forced : No
Audio #1
ID : 2
Format : AC-3
Format/Info : Audio Coding 3
Commercial name : Dolby Digital
Codec ID : A_AC3
Duration : 1 h 33 min
Bit rate mode : Constant
Bit rate : 384 kb/s
Channel(s) : 6 channels
Channel layout : L R C LFE Ls Rs
Sampling rate : 48.0 kHz
Frame rate : 31.250 FPS (1536 SPF)
Compression mode : Lossy
Stream size : 257 MiB (3%)
Title : iTunes
Language : Russian
Service kind : Complete Main
Default : Yes
Forced : No
Audio #2
ID : 3
Format : DTS
Format/Info : Digital Theater Systems
Codec ID : A_DTS
Duration : 1 h 33 min
Bit rate mode : Constant
Bit rate : 1 509 kb/s
Channel(s) : 6 channels
Channel layout : C L R Ls Rs LFE
Sampling rate : 48.0 kHz
Frame rate : 93.750 FPS (512 SPF)
Bit depth : 24 bits
Compression mode : Lossy
Stream size : 1 012 MiB (14%)
Language : English
Default : No
Forced : No
Text #1
ID : 4
Format : UTF-8
Codec ID : S_TEXT/UTF8
Codec ID/Info : UTF-8 Plain Text
Duration : 1 h 9 min
Bit rate : 0 b/s
Count of elements : 8
Stream size : 488 Bytes (0%)
Title : Forced
Language : Russian
Default : Yes
Forced : No
Text #2
ID : 5
Format : UTF-8
Codec ID : S_TEXT/UTF8
Codec ID/Info : UTF-8 Plain Text
Duration : 1 h 32 min
Bit rate : 42 b/s
Count of elements : 726
Stream size : 28.9 KiB (0%)
Language : Russian
Default : No
Forced : No
Text #3
ID : 6
Format : UTF-8
Codec ID : S_TEXT/UTF8
Codec ID/Info : UTF-8 Plain Text
Duration : 1 h 31 min
Bit rate : 30 b/s
Count of elements : 749
Stream size : 20.8 KiB (0%)
Title : English-SRT
Language : English
Default : No
Forced : No
Menu
00:00:00.000 : en:Chapter 01
00:03:23.536 : en:Chapter 02
00:09:48.004 : en:Chapter 03
00:15:35.351 : en:Chapter 04
00:20:08.207 : en:Chapter 05
00:27:51.461 : en:Chapter 06
00:32:21.898 : en:Chapter 07
00:40:53.451 : en:Chapter 08
00:46:06.138 : en:Chapter 09
00:54:23.760 : en:Chapter 10
00:57:20.979 : en:Chapter 11
01:02:53.519 : en:Chapter 12
01:09:04.890 : en:Chapter 13
01:13:50.050 : en:Chapter 14
01:20:38.458 : en:Chapter 15
01:25:53.022 : en:Chapter 16

Скриншоты

admin

Post Today 08:23

[Quote]

Информация о фильме
Название: Проклятие
Оригинальное название: The Grudge
Год выхода: 2020
Жанр: ужасы
Режиссер: Николас Песке
В ролях: Джон Чо, Лин Шэй, Демиан Бишир, Андреа Райзборо, Дэвид Браун, Джеки Уивер, Тара Вествуд, Бетти Гилпин, Джанко Бэйли, Зои Фиш
О фильме:
После того как молодая женщина убила собственную семью в своем доме, мать-одиночка и детектив пытается расследовать дело. Вскоре выясняется, что дом проклят мстительным призраком, обрекающим всех входящих в него на смерть. Она спешит спасти себя и своего ребенка от демонической силы дома по соседству.

Страна: США, Канада
Студия: Screen Gems, Stage 6 Films, Ghost House Pictures
Продолжительность: 01:34:26
Перевод: Дублированный (iTunes)
Файл
Качество: BDRip 720p | iTunes
Видео: AVC/H.264, 1280x536, ~6000 Кbps, 23,976 fps
Звук:
Аудио 1: AC3, 6 ch, 384 Kbps - Русский (DUB)
Аудио 2: AC3, 2 ch, 192 Kbps - Украинский (DUB)
Аудио 3: DTS, 6 ch, 1509 Kbps - Английский
Субтитры: Русский (Full, Forced), Украинский (Full), Английские (Full, SDH)

Mediainfo

Общее
Уникальный идентификатор : 263205454809174478786893532272946227390 (0xC60386D5701F3073A042A9C7F216A8BE)
Полное имя : The Grudge.2020.BDRip.720p.W.mkv
Формат : Matroska
Версия формата : Version 4
Размер файла : 5,30 Гбайт
Продолжительность : 1 ч. 33 м.
Общий поток : 8088 Кбит/сек
Название фильма : The Grudge.2020.BDRip.720p.W
Дата кодирования : UTC 2020-04-02 18:06:34
Программа кодирования : mkvmerge v23.0.0 ('The Bride Said No') 64-bit
Библиотека кодирования : libebml v1.3.6 + libmatroska v1.4.9
Видео
Идентификатор : 1
Формат : AVC
Формат/Информация : Advanced Video Codec
Профиль формата : High@L4.1
Настройки формата : CABAC / 12 Ref Frames
Параметр CABAC формата : Да
Параметр RefFrames формата : 12 кадров
Идентификатор кодека : V_MPEG4/ISO/AVC
Продолжительность : 1 ч. 33 м.
Битрейт : 6000 Кбит/сек
Ширина : 1280 пикселей
Высота : 536 пикселей
Соотношение сторон : 2,40:1
Режим частоты кадров : Постоянный
Частота кадров : 23,976 (24000/1001) кадра/сек
Цветовое пространство : YUV
Субдискретизация насыщенности : 4:2:0
Битовая глубина : 8 бит
Тип развёртки : Прогрессивная
Бит/(Пиксели*Кадры) : 0.365
Размер потока : 3,93 Гбайт (74%)
Заголовок : LoRD
Библиотека кодирования : x264 core 159 r2991+50 ~ LoRD
Настройки программы : cabac=1 / ref=12 / deblock=1:-3:-3 / analyse=0x3:0x133 / me=umh / subme=10 / psy=1 / fade_compensate=0.00 / psy_rd=1.00:0.00 / mixed_ref=1 / me_range=32 / chroma_me=1 / trellis=2 / 8x8dct=1 / cqm=0 / deadzone=21,11 / fast_pskip=0 / chroma_qp_offset=-2 / threads=12 / lookahead_threads=2 / sliced_threads=0 / nr=0 / decimate=0 / interlaced=0 / bluray_compat=0 / constrained_intra=0 / fgo=0 / bframes=8 / b_pyramid=2 / b_adapt=2 / b_bias=0 / direct=3 / weightb=1 / open_gop=0 / weightp=2 / keyint=250 / keyint_min=23 / scenecut=40 / intra_refresh=0 / rc_lookahead=60 / rc=2pass / mbtree=0 / bitrate=6000 / ratetol=1.0 / qcomp=0.60 / qpmin=0:0:0 / qpmax=69:69:69 / qpstep=4 / cplxblur=20.0 / qblur=0.5 / vbv_maxrate=50000 / vbv_bufsize=62500 / nal_hrd=none / filler=0 / ip_ratio=1.25 / pb_ratio=1.25 / aq=3:0.80 / aq-sensitivity=10.00 / aq-factor=1.00:1.00:1.00 / aq2=0 / aq3=0
Язык : English
Default : Да
Forced : Нет
Аудио #1
Идентификатор : 2
Формат : AC-3
Формат/Информация : Audio Coding 3
Коммерческое название : Dolby Digital
Идентификатор кодека : A_AC3
Продолжительность : 1 ч. 33 м.
Вид битрейта : Постоянный
Битрейт : 384 Кбит/сек
Каналы : 6 каналов
ChannelLayout : L R C LFE Ls Rs
Частота : 48,0 КГц
Частота кадров : 31,250 кадров/сек (1536 SPF)
Метод сжатия : С потерями
Размер потока : 257 Мбайт (5%)
Язык : Russian
ServiceKind : Complete Main
Default : Да
Forced : Нет
Аудио #2
Идентификатор : 3
Формат : AC-3
Формат/Информация : Audio Coding 3
Коммерческое название : Dolby Digital
Идентификатор кодека : A_AC3
Продолжительность : 1 ч. 33 м.
Вид битрейта : Постоянный
Битрейт : 192 Кбит/сек
Каналы : 2 канала
ChannelLayout : L R
Частота : 48,0 КГц
Частота кадров : 31,250 кадров/сек (1536 SPF)
Метод сжатия : С потерями
Размер потока : 129 Мбайт (2%)
Язык : Ukrainian
ServiceKind : Complete Main
Default : Нет
Forced : Нет
Аудио #3
Идентификатор : 4
Формат : DTS
Формат/Информация : Digital Theater Systems
Идентификатор кодека : A_DTS
Продолжительность : 1 ч. 33 м.
Вид битрейта : Постоянный
Битрейт : 1509 Кбит/сек
Каналы : 6 каналов
ChannelLayout : C L R Ls Rs LFE
Частота : 48,0 КГц
Частота кадров : 93,750 кадра/сек (512 SPF)
Битовая глубина : 16 бит
Метод сжатия : С потерями
Размер потока : 1012 Мбайт (19%)
Язык : English
Default : Нет
Forced : Нет
Текст #1
Идентификатор : 5
Формат : UTF-8
Идентификатор кодека : S_TEXT/UTF8
Идентификатор кодека/Информация : UTF-8 Plain Text
Продолжительность : 1 ч. 28 м.
Битрейт : 1 бит/сек
ElementCount : 19
Размер потока : 826 байт (0%)
Заголовок : Forced
Язык : Russian
Default : Да
Forced : Нет
Текст #2
Идентификатор : 6
Формат : UTF-8
Идентификатор кодека : S_TEXT/UTF8
Идентификатор кодека/Информация : UTF-8 Plain Text
Продолжительность : 1 ч. 32 м.
Битрейт : 41 бит/сек
ElementCount : 724
Размер потока : 28,3 Кбайт (0%)
Заголовок : Full
Язык : Russian
Default : Нет
Forced : Нет
Текст #3
Идентификатор : 7
Формат : UTF-8
Идентификатор кодека : S_TEXT/UTF8
Идентификатор кодека/Информация : UTF-8 Plain Text
Продолжительность : 1 ч. 32 м.
Битрейт : 42 бит/сек
ElementCount : 717
Размер потока : 29,1 Кбайт (0%)
Язык : Ukrainian
Default : Нет
Forced : Нет
Текст #4
Идентификатор : 8
Формат : UTF-8
Идентификатор кодека : S_TEXT/UTF8
Идентификатор кодека/Информация : UTF-8 Plain Text
Продолжительность : 1 ч. 26 м.
Битрейт : 30 бит/сек
ElementCount : 740
Размер потока : 19,4 Кбайт (0%)
Заголовок : Full
Язык : English
Default : Нет
Forced : Нет
Текст #5
Идентификатор : 9
Формат : UTF-8
Идентификатор кодека : S_TEXT/UTF8
Идентификатор кодека/Информация : UTF-8 Plain Text
Продолжительность : 1 ч. 32 м.
Битрейт : 33 бит/сек
ElementCount : 882
Размер потока : 23,0 Кбайт (0%)
Заголовок : SDH
Язык : English
Default : Нет
Forced : Нет
Меню
00:00:00.000 : :Chapter 01
00:03:23.870 : :Chapter 02
00:09:48.171 : :Chapter 03
00:15:35.685 : :Chapter 04
00:20:08.207 : :Chapter 05
00:27:51.461 : :Chapter 06
00:32:22.274 : :Chapter 07
00:40:53.451 : :Chapter 08
00:46:06.472 : :Chapter 09
00:54:23.385 : :Chapter 10
00:57:20.937 : :Chapter 11
01:02:53.520 : :Chapter 12
01:09:05.141 : :Chapter 13
01:13:50.426 : :Chapter 14
01:20:38.459 : :Chapter 15
01:25:53.106 : :Chapter 16

Скриншоты

admin

Post 31-Mar-2020 06:31

[Quote]

Информация о фильме
Название: Джентльмены
Оригинальное название: The Gentlemen
Год выхода: 2019
Жанр: Боевик, комедия, криминал
Режиссер: Гай Ричи
В ролях: Мэттью МакКонахи, Чарли Ханнэм, Мишель Докери, Джереми Стронг, Лайн Рени, Колин Фаррелл, Генри Голдинг, Том Ву, Эдди Марсан, Хью Грант, Джейсон Вонг

О фильме: Талантливый выпускник Оксфорда, применив свой уникальный ум и невиданную дерзость, придумал нелегальную схему обогащения с использованием поместья обедневшей английской аристократии. Однако когда он решает продать свой бизнес влиятельному клану миллиардеров из США, на его пути встают не менее обаятельные, но жесткие джентльмены. Намечается обмен любезностями, который точно не обойдется без перестрелок и парочки несчастных случаев.
Страна: США
Студия: Miramax Films, STX Films, Toff Guy Films
Продолжительность: 01:53:15
Перевод: Дублированный | iTunes
Качество: WEB-DL 1080p
Видео: MPEG-4 AVC, 1920x800, 9165 Kbit/s, 23.976 fps
Аудио #01: 48 kHz, AC3, 5.1, 384 Kbps | iTunes | RUS |
Аудио #02: 48 kHz, AC3, 2.0, 192 Kbps | iTunes | UKR |
Аудио #03: 48 kHz, E-AC3, 5.1, 640 Kbps | Оригинал | ENG |
Субтитры: Русские (Forced, Full), украинские (Full), английские

Скриншоты

MI

General
Unique ID : 128088209371430291678867316440727831735 (0x605CE44CAFA82B28EFB0DA856E2844B7)
Complete name : E:Video111BackupThe.Gentlemen.2020.AMZN.WEB-DL.1080p.seleZen.mkv
Format : Matroska
Format version : Version 4
File size : 8.22 GiB
Duration : 1 h 53 min
Overall bit rate : 10.4 Mb/s
Movie name : The Gentlemen 2020 from селезень
Encoded date : UTC 2020-03-30 19:34:23
Writing application : mkvmerge v40.0.0 ('Old Town Road + Pony') 64-bit
Writing library : libebml v1.3.9 + libmatroska v1.5.2
Video
ID : 1
Format : AVC
Format/Info : Advanced Video Codec
Format profile : High@L4
Format settings : CABAC / 4 Ref Frames
Format settings, CABAC : Yes
Format settings, Reference : 4 frames
Codec ID : V_MPEG4/ISO/AVC
Duration : 1 h 53 min
Bit rate mode : Constant
Bit rate : 9 165 kb/s
Nominal bit rate : 10 000 kb/s
Width : 1 920 pixels
Height : 800 pixels
Display aspect ratio : 2.40:1
Frame rate mode : Constant
Frame rate : 23.976 (24000/1001) FPS
Color space : YUV
Chroma subsampling : 4:2:0
Bit depth : 8 bits
Scan type : Progressive
Bits/(Pixel*Frame) : 0.249
Stream size : 7.25 GiB (88%)
Language : English
Default : Yes
Forced : No
Color range : Limited
Color primaries : BT.709
Transfer characteristics : BT.709
Matrix coefficients : BT.709
Audio #1
ID : 2
Format : AC-3
Format/Info : Audio Coding 3
Commercial name : Dolby Digital
Codec ID : A_AC3
Duration : 1 h 53 min
Bit rate mode : Constant
Bit rate : 384 kb/s
Channel(s) : 6 channels
Channel layout : L R C LFE Ls Rs
Sampling rate : 48.0 kHz
Frame rate : 31.250 FPS (1536 SPF)
Compression mode : Lossy
Stream size : 311 MiB (4%)
Title : iTunes
Language : Russian
Service kind : Complete Main
Default : Yes
Forced : Yes
Audio #2
ID : 3
Format : AC-3
Format/Info : Audio Coding 3
Commercial name : Dolby Digital
Codec ID : A_AC3
Duration : 1 h 53 min
Bit rate mode : Constant
Bit rate : 192 kb/s
Channel(s) : 2 channels
Channel layout : L R
Sampling rate : 48.0 kHz
Frame rate : 31.250 FPS (1536 SPF)
Compression mode : Lossy
Stream size : 156 MiB (2%)
Title : iTunes
Language : Ukrainian
Service kind : Complete Main
Default : No
Forced : No
Audio #3
ID : 4
Format : E-AC-3
Format/Info : Enhanced AC-3
Commercial name : Dolby Digital Plus
Codec ID : A_EAC3
Duration : 1 h 53 min
Bit rate mode : Constant
Bit rate : 640 kb/s
Channel(s) : 6 channels
Channel layout : L R C LFE Ls Rs
Sampling rate : 48.0 kHz
Frame rate : 31.250 FPS (1536 SPF)
Compression mode : Lossy
Stream size : 518 MiB (6%)
Title : Original
Language : English
Service kind : Complete Main
Default : No
Forced : No
Text #1
ID : 5
Format : UTF-8
Codec ID : S_TEXT/UTF8
Codec ID/Info : UTF-8 Plain Text
Duration : 1 h 45 min
Bit rate : 4 b/s
Count of elements : 46
Stream size : 3.37 KiB (0%)
Title : Forced
Language : Russian
Default : Yes
Forced : Yes
Text #2
ID : 6
Format : UTF-8
Codec ID : S_TEXT/UTF8
Codec ID/Info : UTF-8 Plain Text
Duration : 1 h 47 min
Bit rate : 127 b/s
Count of elements : 1711
Stream size : 101 KiB (0%)
Title : Full
Language : Russian
Default : No
Forced : No
Text #3
ID : 7
Format : UTF-8
Codec ID : S_TEXT/UTF8
Codec ID/Info : UTF-8 Plain Text
Duration : 1 h 47 min
Bit rate : 135 b/s
Count of elements : 1992
Stream size : 107 KiB (0%)
Title : Full
Language : Ukrainian
Default : No
Forced : No
Text #4
ID : 8
Format : UTF-8
Codec ID : S_TEXT/UTF8
Codec ID/Info : UTF-8 Plain Text
Duration : 1 h 47 min
Bit rate : 84 b/s
Count of elements : 1812
Stream size : 67.0 KiB (0%)
Title : Full
Language : English
Default : No
Forced : No
Text #5
ID : 9
Format : UTF-8
Codec ID : S_TEXT/UTF8
Codec ID/Info : UTF-8 Plain Text
Duration : 1 h 50 min
Bit rate : 94 b/s
Count of elements : 2088
Stream size : 76.8 KiB (0%)
Title : SDH
Language : English
Default : No
Forced : No
Menu
00:00:00.000 : en:Studio Logo
00:00:38.000 : en:Scene 2
00:01:00.000 : en:Opening Credits
00:01:19.000 : en:Scene 4
00:02:14.000 : en:Title Sequence
00:04:03.000 : en:Scene 6
00:13:19.000 : en:Scene 7
00:22:08.000 : en:Scene 8
00:28:52.000 : en:Scene 9
00:35:29.000 : en:Scene 10
00:39:20.000 : en:Scene 11
00:43:52.000 : en:Scene 12
00:55:51.000 : en:Scene 13
01:06:29.000 : en:Scene 14
01:11:48.000 : en:Scene 15
01:29:00.000 : en:Scene 16
01:38:51.000 : en:Scene 17
01:48:14.000 : en:End Credits

admin

Post 31-Mar-2020 06:31

[Quote]

Информация о фильме
Название: Джентльмены
Оригинальное название: The Gentlemen
Год выхода: 2019
Жанр: Боевик, комедия, криминал
Режиссер: Гай Ричи
В ролях: Мэттью МакКонахи, Чарли Ханнэм, Мишель Докери, Джереми Стронг, Лайн Рени, Колин Фаррелл, Генри Голдинг, Том Ву, Эдди Марсан, Хью Грант, Джейсон Вонг

О фильме: Талантливый выпускник Оксфорда, применив свой уникальный ум и невиданную дерзость, придумал нелегальную схему обогащения с использованием поместья обедневшей английской аристократии. Однако когда он решает продать свой бизнес влиятельному клану миллиардеров из США, на его пути встают не менее обаятельные, но жесткие джентльмены. Намечается обмен любезностями, который точно не обойдется без перестрелок и парочки несчастных случаев.
Страна: США
Студия: Miramax Films, STX Films, Toff Guy Films
Продолжительность: 01:53:15
Перевод: Дублированный | iTunes
Качество: WEB-DL 720p
Видео: MPEG-4 AVC, 1248x520, 3666 Кbit/s, 23.976 fps
Аудио #01: 48 kHz, AC3, 5.1, 384 Kbps | iTunes | RUS |
Аудио #02: 48 kHz, AC3, 2.0, 192 Kbps | iTunes | UKR |
Аудио #03: 48 kHz, E-AC3, 5.1, 640 Kbps | Оригинал | ENG |
Субтитры: Русские (Forced, Full), украинские (Full), английские

Скриншоты

MI

General
Unique ID : 338807797945918639590148672625373511272 (0xFEE40222EFD76973E600F2CC870E7E68)
Complete name : E:Video111BackupThe.Gentlemen.2020.AMZN.WEB-DL.720p.seleZen.mkv
Format : Matroska
Format version : Version 4
File size : 3.86 GiB
Duration : 1 h 53 min
Overall bit rate : 4 885 kb/s
Movie name : The Gentlemen 2020 from селезень
Encoded date : UTC 2020-03-30 19:32:31
Writing application : mkvmerge v40.0.0 ('Old Town Road + Pony') 64-bit
Writing library : libebml v1.3.9 + libmatroska v1.5.2
Video
ID : 1
Format : AVC
Format/Info : Advanced Video Codec
Format profile : High@L3.1
Format settings : CABAC / 4 Ref Frames
Format settings, CABAC : Yes
Format settings, Reference : 4 frames
Codec ID : V_MPEG4/ISO/AVC
Duration : 1 h 53 min
Bit rate mode : Constant
Bit rate : 3 666 kb/s
Nominal bit rate : 6 000 kb/s
Width : 1 248 pixels
Height : 520 pixels
Display aspect ratio : 2.40:1
Frame rate mode : Constant
Frame rate : 23.976 (24000/1001) FPS
Color space : YUV
Chroma subsampling : 4:2:0
Bit depth : 8 bits
Scan type : Progressive
Bits/(Pixel*Frame) : 0.236
Stream size : 2.90 GiB (75%)
Language : English
Default : Yes
Forced : No
Color range : Limited
Color primaries : BT.709
Transfer characteristics : BT.709
Matrix coefficients : BT.709
Audio #1
ID : 2
Format : AC-3
Format/Info : Audio Coding 3
Commercial name : Dolby Digital
Codec ID : A_AC3
Duration : 1 h 53 min
Bit rate mode : Constant
Bit rate : 384 kb/s
Channel(s) : 6 channels
Channel layout : L R C LFE Ls Rs
Sampling rate : 48.0 kHz
Frame rate : 31.250 FPS (1536 SPF)
Compression mode : Lossy
Stream size : 311 MiB (8%)
Title : iTunes
Language : Russian
Service kind : Complete Main
Default : Yes
Forced : Yes
Audio #2
ID : 3
Format : AC-3
Format/Info : Audio Coding 3
Commercial name : Dolby Digital
Codec ID : A_AC3
Duration : 1 h 53 min
Bit rate mode : Constant
Bit rate : 192 kb/s
Channel(s) : 2 channels
Channel layout : L R
Sampling rate : 48.0 kHz
Frame rate : 31.250 FPS (1536 SPF)
Compression mode : Lossy
Stream size : 156 MiB (4%)
Title : iTunes
Language : Ukrainian
Service kind : Complete Main
Default : No
Forced : No
Audio #3
ID : 4
Format : E-AC-3
Format/Info : Enhanced AC-3
Commercial name : Dolby Digital Plus
Codec ID : A_EAC3
Duration : 1 h 53 min
Bit rate mode : Constant
Bit rate : 640 kb/s
Channel(s) : 6 channels
Channel layout : L R C LFE Ls Rs
Sampling rate : 48.0 kHz
Frame rate : 31.250 FPS (1536 SPF)
Compression mode : Lossy
Stream size : 518 MiB (13%)
Title : Original
Language : English
Service kind : Complete Main
Default : No
Forced : No
Text #1
ID : 5
Format : UTF-8
Codec ID : S_TEXT/UTF8
Codec ID/Info : UTF-8 Plain Text
Duration : 1 h 45 min
Bit rate : 4 b/s
Count of elements : 46
Stream size : 3.37 KiB (0%)
Title : Forced
Language : Russian
Default : Yes
Forced : Yes
Text #2
ID : 6
Format : UTF-8
Codec ID : S_TEXT/UTF8
Codec ID/Info : UTF-8 Plain Text
Duration : 1 h 47 min
Bit rate : 127 b/s
Count of elements : 1711
Stream size : 101 KiB (0%)
Title : Full
Language : Russian
Default : No
Forced : No
Text #3
ID : 7
Format : UTF-8
Codec ID : S_TEXT/UTF8
Codec ID/Info : UTF-8 Plain Text
Duration : 1 h 47 min
Bit rate : 135 b/s
Count of elements : 1992
Stream size : 107 KiB (0%)
Title : Full
Language : Ukrainian
Default : No
Forced : No
Text #4
ID : 8
Format : UTF-8
Codec ID : S_TEXT/UTF8
Codec ID/Info : UTF-8 Plain Text
Duration : 1 h 47 min
Bit rate : 84 b/s
Count of elements : 1812
Stream size : 67.0 KiB (0%)
Title : Full
Language : English
Default : No
Forced : No
Text #5
ID : 9
Format : UTF-8
Codec ID : S_TEXT/UTF8
Codec ID/Info : UTF-8 Plain Text
Duration : 1 h 50 min
Bit rate : 94 b/s
Count of elements : 2088
Stream size : 76.8 KiB (0%)
Title : SDH
Language : English
Default : No
Forced : No
Menu
00:00:00.000 : en:Studio Logo
00:00:38.000 : en:Scene 2
00:01:00.000 : en:Opening Credits
00:01:19.000 : en:Scene 4
00:02:14.000 : en:Title Sequence
00:04:03.000 : en:Scene 6
00:13:19.000 : en:Scene 7
00:22:08.000 : en:Scene 8
00:28:52.000 : en:Scene 9
00:35:29.000 : en:Scene 10
00:39:20.000 : en:Scene 11
00:43:52.000 : en:Scene 12
00:55:51.000 : en:Scene 13
01:06:29.000 : en:Scene 14
01:11:48.000 : en:Scene 15
01:29:00.000 : en:Scene 16
01:38:51.000 : en:Scene 17
01:48:14.000 : en:End Credits

admin

Post 31-Mar-2020 06:24

[Quote]

Информация о фильме
Название: Зов предков
Оригинальное название: The Call of the Wild
Год выхода: 2020
Жанр: Драма, приключения, семейный
Режиссер: Крис Сандерс
В ролях: Карен Гиллан, Харрисон Форд, Кара Ги, Дэн Стивенс, Брэдли Уитфорд, Джин Луиса Келли, Уэс Браун, Терри Нотари, Омар Си, Колин Вуделл, Абрахам Бенруби
О фильме:
История Бэка, дружелюбного пса, чья размеренная домашняя жизнь перевернулась с ног на голову во времена золотой лихорадки в 1880-х, когда его вырвали из дома в Калифорнии и перевезли в дикую и холодную Аляску. Будучи новичком в упряжке почтовой службы, а впоследствии лидером, Бак попадает в невероятное приключение, находит свое место в мире и становится хозяином своей жизни.

Страна: США
Студия: 3 Arts Entertainment, Twentieth Century Fox Animation, Twentieth Century
Продолжительность: 01:40:24
Перевод: Профессиональный (многоголосый закадровый) - HDrezka Studio
Файл
Качество: WEB-DL 1080p | HDrezka Studio
Видео: AVC/H.264, 1920x800, ~6883 Кbps, 23,976 fps
Звук:
Аудио 1: AC3, 6 ch, 448 Kbps - Русский
Аудио 2: E-AC3, 6 ch, 640 Kbps - Английский
Субтитры: английские (Full, SDH)

Mediainfo

Общее
Уникальный идентификатор : 22296448957482832102005550239235725109 (0x10C623CE8667F6E0758FCA8A69E85735)
Полное имя : The Call of the Wild.2020.WEB-DL.1080p.W.mkv
Формат : Matroska
Версия формата : Version 4
Размер файла : 5,55 Гбайт
Продолжительность : 1 ч. 39 м.
Общий поток : 7974 Кбит/сек
Название фильма : The Call of the Wild.2020.WEB-DL.1080p.W
Дата кодирования : UTC 2020-03-30 15:54:08
Программа кодирования : mkvmerge v23.0.0 ('The Bride Said No') 64-bit
Библиотека кодирования : libebml v1.3.6 + libmatroska v1.4.9
Видео
Идентификатор : 1
Формат : AVC
Формат/Информация : Advanced Video Codec
Профиль формата : High@L4
Настройки формата : CABAC / 4 Ref Frames
Параметр CABAC формата : Да
Параметр RefFrames формата : 4 кадра
Идентификатор кодека : V_MPEG4/ISO/AVC
Продолжительность : 1 ч. 39 м.
Вид битрейта : Постоянный
Битрейт : 6883 Кбит/сек
Номинальный битрейт : 10000 Кбит/сек
Ширина : 1920 пикселей
Высота : 800 пикселей
Соотношение сторон : 2,40:1
Режим частоты кадров : Постоянный
Частота кадров : 23,976 (24000/1001) кадра/сек
Цветовое пространство : YUV
Субдискретизация насыщенности : 4:2:0
Битовая глубина : 8 бит
Тип развёртки : Прогрессивная
Бит/(Пиксели*Кадры) : 0.187
Размер потока : 4,79 Гбайт (86%)
Язык : English
Default : Да
Forced : Нет
Цветовой диапазон : Limited
Основные цвета : BT.709
Характеристики трансфера : BT.709
Коэффициенты матрицы : BT.709
Аудио #1
Идентификатор : 2
Формат : AC-3
Формат/Информация : Audio Coding 3
Коммерческое название : Dolby Digital
Идентификатор кодека : A_AC3
Продолжительность : 1 ч. 39 м.
Вид битрейта : Постоянный
Битрейт : 448 Кбит/сек
Каналы : 6 каналов
ChannelLayout : L R C LFE Ls Rs
Частота : 48,0 КГц
Частота кадров : 31,250 кадров/сек (1536 SPF)
Метод сжатия : С потерями
Размер потока : 319 Мбайт (6%)
Заголовок : MVO | HDrezka Studio
Язык : Russian
ServiceKind : Complete Main
Default : Да
Forced : Нет
Аудио #2
Идентификатор : 3
Формат : E-AC-3
Формат/Информация : Enhanced AC-3
Коммерческое название : Dolby Digital Plus
Идентификатор кодека : A_EAC3
Продолжительность : 1 ч. 39 м.
Вид битрейта : Постоянный
Битрейт : 640 Кбит/сек
Каналы : 6 каналов
ChannelLayout : L R C LFE Ls Rs
Частота : 48,0 КГц
Частота кадров : 31,250 кадров/сек (1536 SPF)
Метод сжатия : С потерями
Размер потока : 456 Мбайт (8%)
Язык : English
ServiceKind : Complete Main
Default : Нет
Forced : Нет
Текст #1
Идентификатор : 4
Формат : UTF-8
Идентификатор кодека : S_TEXT/UTF8
Идентификатор кодека/Информация : UTF-8 Plain Text
Продолжительность : 1 ч. 38 м.
Битрейт : 23 бит/сек
ElementCount : 805
Размер потока : 17,0 Кбайт (0%)
Язык : English
Default : Нет
Forced : Нет
Текст #2
Идентификатор : 5
Формат : UTF-8
Идентификатор кодека : S_TEXT/UTF8
Идентификатор кодека/Информация : UTF-8 Plain Text
Продолжительность : 1 ч. 39 м.
Битрейт : 32 бит/сек
ElementCount : 1196
Размер потока : 23,4 Кбайт (0%)
Заголовок : SDH
Язык : English
Default : Нет
Forced : Нет
Меню
00:00:00.000 : en:Studio Logo
00:00:48.000 : en:Buck is king
00:02:43.000 : en:Buck's behavior
00:04:12.000 : en:A turkey is ready
00:05:17.000 : en:Buck spends on the porch
00:07:14.000 : en:Locked in that box
00:09:55.000 : en:Skagway, Alaska
00:13:42.000 : en:Perrault finds Buck
00:14:52.000 : en:Buck joins the team
00:17:53.000 : en:Sleep in snow
00:20:31.000 : en:Doing the work of a sled dog
00:26:04.000 : en:Spitz is not pleased
00:32:21.000 : en:Who leads the team
00:36:23.000 : en:Buck finds a way
00:38:42.000 : en:What they carry
00:41:36.000 : en:John remembers Buck
00:43:27.000 : en:Buck loses his master
00:45:53.000 : en:New owner
00:48:59.000 : en:John heads to Buck
00:53:00.000 : en:John is at bar
00:57:41.000 : en:John talks about his son
01:02:07.000 : en:Adventure with Buck
01:05:09.000 : en:Hal comes to John's place
01:13:08.000 : en:Buck finds friends
01:17:12.000 : en:Buck still comes back to John
01:20:22.000 : en:John is leaving
01:23:36.000 : en:Buck comes back
01:29:15.000 : en:Buck becomes his own master
01:32:16.000 : en:End Credits

Скриншоты

admin

Post 31-Mar-2020 06:11

[Quote]

Информация о фильме
Название: Платформа
Оригинальное название: The Platform (El hoyo)
Год выпуска: 2019
Жанр: Ужасы, фантастика, триллер
Выпущено: Испания, Basque Films, Mr Miyagi Films, Plataforma La Película AIE
Режиссер: Гальдер Гастелу-Уррутия
В ролях: Иван Массаге, Сорион Эгилеор, Антония Сан Хуан, Эмилио Буале, Марио Пардо, Альгис Арлаускас
О фильме:
Несколько человек просыпаются в некой многоэтажной подземной тюрьме, в которую они попали добровольно. На каждом уровне находятся двое заключённых, а сколько всего уровней — неизвестно. Все этажи связывает между собой общий колодец, через который раз в день опускается платформа с едой. На ней — немыслимое количество блюд, но чем ниже живут заключённые, тем меньше шансов, что они что-то получат.
Файл
Качество: WEBRip (1080p)
Видео: MPEG-4 AVC, 12.7 Мбит/с, 1920x804
Аудио: Русский (AC3, 6 ch, 640 Кбит/с), испанский (E-AC3, 6 ch, 640 Кбит/с)
Размер: 9.47 ГБ
Продолжительность: 01:34:50
Перевод: Любительский многоголосый
Субтитры: Русские (надписи/полные), английские, испанские

Семпл

Mediainfo

Общее
Уникальный идентификатор : 260022273714124798830247509628115217295 (0xC39E77E38418C70FFC7960D9FF43EB8F)
Полное имя : E:\TorrentsSeeding\PlagueStudios\ФИЛЬМЫ\El.hoyo.2019.AVC.WEBRip.1080p_Mallorn.mkv
Формат : Matroska
Версия формата : Version 4
Размер файла : 9,48 Гбайт
Продолжительность : 1 ч. 34 м.
Режим общего битрейта : Переменный
Общий поток : 14,3 Мбит/сек
Программа кодирования : XviD4PSP 8.0.59
Библиотека кодирования : Lavf58.20.100
ErrorDetectionType : Per level 1
ENCODING_INFO : MATROSKA,WEBM > MKV 1080p
Видео
Идентификатор : 1
Формат : AVC
Формат/Информация : Advanced Video Codec
Профиль формата : Main@L4
Настройки формата : CABAC / 2 Ref Frames
Параметр CABAC формата : Да
Параметр RefFrames формата : 2 кадра
Идентификатор кодека : V_MPEG4/ISO/AVC
Продолжительность : 1 ч. 34 м.
Вид битрейта : Переменный
Битрейт : 12,7 Мбит/сек
Максимальный битрейт : 16,0 Мбит/сек
Ширина : 1920 пикселей
Высота : 804 пикселя
Соотношение сторон : 2,40:1
Режим частоты кадров : Постоянный
Частота кадров : 25,000 кадров/сек
Цветовое пространство : YUV
Субдискретизация насыщенности : 4:2:0
Битовая глубина : 8 бит
Тип развёртки : Прогрессивная
Бит/(Пиксели*Кадры) : 0.330
Размер потока : 8,44 Гбайт (89%)
Язык : English
Default : Да
Forced : Нет
ENCODING_INFO : H264 > H264 NVENC CRF 16.0 HQ
Аудио #1
Идентификатор : 2
Формат : AC-3
Формат/Информация : Audio Coding 3
Коммерческое название : Dolby Digital
Идентификатор кодека : A_AC3
Продолжительность : 1 ч. 34 м.
Вид битрейта : Постоянный
Битрейт : 640 Кбит/сек
Каналы : 6 каналов
Channel layout : L R C LFE Ls Rs
Частота : 48,0 КГц
Частота кадров : 31,250 кадров/сек (1536 SPF)
Битовая глубина : 16 бит
Метод сжатия : С потерями
Размер потока : 434 Мбайт (4%)
Язык : Russian
ServiceKind/String : Complete Main
Default : Да
Forced : Нет
ENCODING_INFO : AC3 > COPY Быстрое
Аудио #2
Идентификатор : 3
Формат : E-AC-3
Формат/Информация : Enhanced AC-3
Коммерческое название : Dolby Digital Plus
Идентификатор кодека : A_EAC3
Продолжительность : 1 ч. 34 м.
Вид битрейта : Постоянный
Битрейт : 640 Кбит/сек
Каналы : 6 каналов
Channel layout : L R C LFE Ls Rs
Частота : 48,0 КГц
Частота кадров : 31,250 кадров/сек (1536 SPF)
Битовая глубина : 32 бит
Метод сжатия : С потерями
Размер потока : 434 Мбайт (4%)
Язык : Spanish
ServiceKind/String : Complete Main
Default : Нет
Forced : Нет
ENCODING_INFO : EAC3 > COPY Быстрое
Текст #1
Идентификатор : 4
Формат : UTF-8
Идентификатор кодека : S_TEXT/UTF8
Идентификатор кодека/Информация : UTF-8 Plain Text
Язык : Russian
Default : Да
Forced : Нет
ENCODING_INFO : SUBRIP > COPY Быстрое
Текст #2
Идентификатор : 5
Формат : UTF-8
Идентификатор кодека : S_TEXT/UTF8
Идентификатор кодека/Информация : UTF-8 Plain Text
Язык : Russian
Default : Нет
Forced : Нет
ENCODING_INFO : SUBRIP > COPY Быстрое
Текст #3
Идентификатор : 6
Формат : UTF-8
Идентификатор кодека : S_TEXT/UTF8
Идентификатор кодека/Информация : UTF-8 Plain Text
Язык : English
Default : Нет
Forced : Нет
ENCODING_INFO : SUBRIP > COPY Быстрое
Текст #4
Идентификатор : 7
Формат : UTF-8
Идентификатор кодека : S_TEXT/UTF8
Идентификатор кодека/Информация : UTF-8 Plain Text
Заголовок : European
Язык : Spanish
Default : Нет
Forced : Нет
ENCODING_INFO : SUBRIP > COPY Быстрое

Скриншоты

РЕЛИЗ БЕЗ РЕКЛАМЫ!

admin

Post 31-Mar-2020 06:01

[Quote]

Информация о фильме
Название: Плохие парни навсегда
Оригинальное название: Bad Boys for Life
Год выхода: 2020
Жанр: Боевик, триллер, комедия, криминал
Режиссер: Адиль Эль Арби, Билал Фалла
В ролях: Уилл Смит, Мартин Лоуренс, Александр Людвиг, Ванесса Энн Хадженс, Майкл Бэй, Джо Пантолиано, Паола Нуньес, Чарльз Мелтон, Кейт дель Кастильо, Ники Джем, Джейкоб Скипио

О фильме: Детективы Майк Лоури и Маркус Бёрнетт снова в деле! Правда, их отстраняют от всех операций, но разве отчаянных друзей когда-нибудь что-либо останавливало? Ведь на этот раз на Майка открывает охоту некто из его прошлой жизни. Так что парням придется отжечь по полной!
Страна: США, Мексика
Студия: Columbia Pictures, 2.0 Entertainment, Columbia Pictures Mexico
Продолжительность: 02:03:56
Перевод: Дублированный | iTunes
Качество: WEB-DL 1080p
Видео: MPEG-4 AVC, 1920x790, 4500 Kbit/s, 23.976 fps
Аудио #01: 48 kHz, AC3, 5.1, 384 Kbps | iTunes | RUS |
Аудио #02: 48 kHz, AAC, 2.0, 126 Kbps | iTunes | UKR |
Аудио #03: 48 kHz, AC3, 5.1, 384 Kbps | Оригинал | ENG |
Субтитры: Русские (Forced, Full), украинские (Forced, Full), английские

Скриншоты

MI

General
Unique ID : 288379465308761339079429847206608652451 (0xD8F3DD60CF57CC712EB2F62F385648A3)
Complete name : E:Video111Bad Boys for Life.2020.WEB-DL.1080p.seleZen.mkv
Format : Matroska
Format version : Version 4
File size : 4.67 GiB
Duration : 2 h 3 min
Overall bit rate : 5 397 kb/s
Movie name : Bad Boys for Life 2020 from селезень
Encoded date : UTC 2020-03-30 19:12:21
Writing application : mkvmerge v40.0.0 ('Old Town Road + Pony') 64-bit
Writing library : libebml v1.3.9 + libmatroska v1.5.2
Video
ID : 1
Format : AVC
Format/Info : Advanced Video Codec
Format profile : High@L4
Format settings : CABAC / 5 Ref Frames
Format settings, CABAC : Yes
Format settings, Reference : 5 frames
Codec ID : V_MPEG4/ISO/AVC
Duration : 2 h 3 min
Bit rate : 4 500 kb/s
Width : 1 920 pixels
Height : 790 pixels
Display aspect ratio : 2.40:1
Frame rate mode : Constant
Frame rate : 23.976 (24000/1001) FPS
Color space : YUV
Chroma subsampling : 4:2:0
Bit depth : 8 bits
Scan type : Progressive
Bits/(Pixel*Frame) : 0.124
Stream size : 3.90 GiB (83%)
Language : English
Default : Yes
Forced : No
Color range : Limited
Color primaries : BT.709
Transfer characteristics : BT.709
Matrix coefficients : BT.709
Audio #1
ID : 2
Format : AC-3
Format/Info : Audio Coding 3
Commercial name : Dolby Digital
Codec ID : A_AC3
Duration : 2 h 3 min
Bit rate mode : Constant
Bit rate : 384 kb/s
Channel(s) : 6 channels
Channel layout : L R C LFE Ls Rs
Sampling rate : 48.0 kHz
Frame rate : 31.250 FPS (1536 SPF)
Compression mode : Lossy
Stream size : 340 MiB (7%)
Title : iTunes
Language : Russian
Service kind : Complete Main
Default : Yes
Forced : Yes
Audio #2
ID : 3
Format : AAC LC
Format/Info : Advanced Audio Codec Low Complexity
Codec ID : A_AAC-2
Duration : 2 h 3 min
Bit rate : 126 kb/s
Channel(s) : 2 channels
Channel layout : L R
Sampling rate : 44.1 kHz
Frame rate : 43.066 FPS (1024 SPF)
Compression mode : Lossy
Stream size : 111 MiB (2%)
Title : iTunes
Language : Ukrainian
Default : No
Forced : No
Audio #3
ID : 4
Format : AC-3
Format/Info : Audio Coding 3
Commercial name : Dolby Digital
Codec ID : A_AC3
Duration : 2 h 3 min
Bit rate mode : Constant
Bit rate : 384 kb/s
Channel(s) : 6 channels
Channel layout : L R C LFE Ls Rs
Sampling rate : 48.0 kHz
Frame rate : 31.250 FPS (1536 SPF)
Compression mode : Lossy
Stream size : 340 MiB (7%)
Title : Original
Language : English
Service kind : Complete Main
Default : No
Forced : No
Text #1
ID : 5
Format : UTF-8
Codec ID : S_TEXT/UTF8
Codec ID/Info : UTF-8 Plain Text
Duration : 2 h 0 min
Bit rate : 4 b/s
Count of elements : 91
Stream size : 4.27 KiB (0%)
Title : Forced
Language : Russian
Default : Yes
Forced : Yes
Text #2
ID : 6
Format : UTF-8
Codec ID : S_TEXT/UTF8
Codec ID/Info : UTF-8 Plain Text
Duration : 2 h 2 min
Bit rate : 91 b/s
Count of elements : 1794
Stream size : 82.6 KiB (0%)
Title : Full
Language : Russian
Default : No
Forced : No
Text #3
ID : 7
Format : UTF-8
Codec ID : S_TEXT/UTF8
Codec ID/Info : UTF-8 Plain Text
Duration : 1 h 58 min
Bit rate : 4 b/s
Count of elements : 79
Stream size : 3.65 KiB (0%)
Title : Forced
Language : Ukrainian
Default : No
Forced : No
Text #4
ID : 8
Format : UTF-8
Codec ID : S_TEXT/UTF8
Codec ID/Info : UTF-8 Plain Text
Duration : 2 h 2 min
Bit rate : 102 b/s
Count of elements : 1618
Stream size : 92.0 KiB (0%)
Title : Full
Language : Ukrainian
Default : No
Forced : No
Text #5
ID : 9
Format : UTF-8
Codec ID : S_TEXT/UTF8
Codec ID/Info : UTF-8 Plain Text
Duration : 2 h 1 min
Bit rate : 67 b/s
Count of elements : 2221
Stream size : 59.6 KiB (0%)
Title : SDH
Language : English
Default : No
Forced : No
Menu
00:00:00.000 : en:1
00:07:33.203 : en:2
00:14:56.646 : en:3
00:23:43.255 : en:4
00:31:05.613 : en:5
00:38:43.069 : en:6
00:45:26.347 : en:7
00:53:27.327 : en:8
01:00:22.033 : en:9
01:07:29.250 : en:10
01:12:55.159 : en:11
01:22:12.340 : en:12
01:29:49.087 : en:13
01:36:47.797 : en:14
01:42:08.576 : en:15
01:53:55.908 : en:16

admin

Post 31-Mar-2020 06:00

[Quote]

Информация о фильме
Название: Плохие парни навсегда
Оригинальное название: Bad Boys for Life
Год выхода: 2020
Жанр: Боевик, триллер, комедия, криминал
Режиссер: Адиль Эль Арби, Билал Фалла
В ролях: Уилл Смит, Мартин Лоуренс, Александр Людвиг, Ванесса Энн Хадженс, Майкл Бэй, Джо Пантолиано, Паола Нуньес, Чарльз Мелтон, Кейт дель Кастильо, Ники Джем, Джейкоб Скипио

О фильме: Детективы Майк Лоури и Маркус Бёрнетт снова в деле! Правда, их отстраняют от всех операций, но разве отчаянных друзей когда-нибудь что-либо останавливало? Ведь на этот раз на Майка открывает охоту некто из его прошлой жизни. Так что парням придется отжечь по полной!
Страна: США, Мексика
Студия: Columbia Pictures, 2.0 Entertainment, Columbia Pictures Mexico
Продолжительность: 02:03:56
Перевод: Дублированный | iTunes
Качество: WEB-DL 720p
Видео: MPEG-4 AVC, 1280x526, 4002 Kbit/s, 23.976 fps
Аудио #01: 48 kHz, AC3, 5.1, 384 Kbps | iTunes | RUS |
Аудио #02: 48 kHz, AAC, 2.0, 126 Kbps | iTunes | UKR |
Аудио #03: 48 kHz, AC3, 5.1, 384 Kbps | Оригинал | ENG |
Субтитры: Русские (Forced, Full), украинские (Forced, Full), английские

Скриншоты

MI

General
Unique ID : 279812999782025238162562975577306358272 (0xD2820604CF7BD5F516A08B7C1598E200)
Complete name : E:Video111Bad Boys for Life.2020.WEB-DL.720p.seleZen.mkv
Format : Matroska
Format version : Version 4
File size : 4.24 GiB
Duration : 2 h 3 min
Overall bit rate : 4 899 kb/s
Movie name : Bad Boys for Life 2020 from селезень
Encoded date : UTC 2020-03-30 19:17:46
Writing application : mkvmerge v40.0.0 ('Old Town Road + Pony') 64-bit
Writing library : libebml v1.3.9 + libmatroska v1.5.2
Video
ID : 1
Format : AVC
Format/Info : Advanced Video Codec
Format profile : Main@L3.1
Format settings : 2 Ref Frames
Format settings, CABAC : No
Format settings, Reference : 2 frames
Codec ID : V_MPEG4/ISO/AVC
Duration : 2 h 3 min
Bit rate : 4 002 kb/s
Width : 1 280 pixels
Height : 526 pixels
Display aspect ratio : 2.40:1
Frame rate mode : Constant
Frame rate : 23.976 (24000/1001) FPS
Color space : YUV
Chroma subsampling : 4:2:0
Bit depth : 8 bits
Scan type : Progressive
Bits/(Pixel*Frame) : 0.248
Stream size : 3.46 GiB (82%)
Language : English
Default : Yes
Forced : No
Color range : Limited
Color primaries : BT.709
Transfer characteristics : BT.709
Matrix coefficients : BT.709
Audio #1
ID : 2
Format : AC-3
Format/Info : Audio Coding 3
Commercial name : Dolby Digital
Codec ID : A_AC3
Duration : 2 h 3 min
Bit rate mode : Constant
Bit rate : 384 kb/s
Channel(s) : 6 channels
Channel layout : L R C LFE Ls Rs
Sampling rate : 48.0 kHz
Frame rate : 31.250 FPS (1536 SPF)
Compression mode : Lossy
Stream size : 340 MiB (8%)
Title : iTunes
Language : Russian
Service kind : Complete Main
Default : Yes
Forced : Yes
Audio #2
ID : 3
Format : AAC LC
Format/Info : Advanced Audio Codec Low Complexity
Codec ID : A_AAC-2
Duration : 2 h 3 min
Bit rate : 126 kb/s
Channel(s) : 2 channels
Channel layout : L R
Sampling rate : 44.1 kHz
Frame rate : 43.066 FPS (1024 SPF)
Compression mode : Lossy
Stream size : 111 MiB (3%)
Title : iTunes
Language : Ukrainian
Default : No
Forced : No
Audio #3
ID : 4
Format : AC-3
Format/Info : Audio Coding 3
Commercial name : Dolby Digital
Codec ID : A_AC3
Duration : 2 h 3 min
Bit rate mode : Constant
Bit rate : 384 kb/s
Channel(s) : 6 channels
Channel layout : L R C LFE Ls Rs
Sampling rate : 48.0 kHz
Frame rate : 31.250 FPS (1536 SPF)
Compression mode : Lossy
Stream size : 340 MiB (8%)
Title : Original
Language : English
Service kind : Complete Main
Default : No
Forced : No
Text #1
ID : 5
Format : UTF-8
Codec ID : S_TEXT/UTF8
Codec ID/Info : UTF-8 Plain Text
Duration : 2 h 0 min
Bit rate : 4 b/s
Count of elements : 91
Stream size : 4.27 KiB (0%)
Title : Forced
Language : Russian
Default : Yes
Forced : Yes
Text #2
ID : 6
Format : UTF-8
Codec ID : S_TEXT/UTF8
Codec ID/Info : UTF-8 Plain Text
Duration : 2 h 2 min
Bit rate : 91 b/s
Count of elements : 1794
Stream size : 82.6 KiB (0%)
Title : Full
Language : Russian
Default : No
Forced : No
Text #3
ID : 7
Format : UTF-8
Codec ID : S_TEXT/UTF8
Codec ID/Info : UTF-8 Plain Text
Duration : 1 h 58 min
Bit rate : 4 b/s
Count of elements : 79
Stream size : 3.65 KiB (0%)
Title : Forced
Language : Ukrainian
Default : No
Forced : No
Text #4
ID : 8
Format : UTF-8
Codec ID : S_TEXT/UTF8
Codec ID/Info : UTF-8 Plain Text
Duration : 2 h 2 min
Bit rate : 102 b/s
Count of elements : 1618
Stream size : 92.0 KiB (0%)
Title : Full
Language : Ukrainian
Default : No
Forced : No
Text #5
ID : 9
Format : UTF-8
Codec ID : S_TEXT/UTF8
Codec ID/Info : UTF-8 Plain Text
Duration : 2 h 1 min
Bit rate : 67 b/s
Count of elements : 2221
Stream size : 59.6 KiB (0%)
Title : SDH
Language : English
Default : No
Forced : No
Menu
00:00:00.000 : en:1
00:07:33.203 : en:2
00:14:56.646 : en:3
00:23:43.255 : en:4
00:31:05.613 : en:5
00:38:43.069 : en:6
00:45:26.347 : en:7
00:53:27.327 : en:8
01:00:22.033 : en:9
01:07:29.250 : en:10
01:12:55.159 : en:11
01:22:12.340 : en:12
01:29:49.087 : en:13
01:36:47.797 : en:14
01:42:08.576 : en:15
01:53:55.908 : en:16

admin

Post 30-Mar-2020 04:21

[Quote]

Информация о фильме
Название: Офицер и шпион
Оригинальное название: J'accuse / An Officer and a Spy
Год выхода: 2019
Жанр: Триллер, драма, история
Режиссер: Роман Полански
В ролях: Жан Дюжарден, Луи Гаррель, Эмманюэль Сенье, Грегори Гадебуа, Эрве Пьер, Владимир Иорданов, Дидье Сандр, Мельвиль Пупо, Эрик Руф, Матьё Амальрик

О фильме: Сотрудник французской спецслужбы капитан Дрейфус объявлен особо опасным преступником. Официальное обвинение - государственная измена и шпионаж в пользу Германии. Бывший наставник Дрейфуса Жорж Пикар ведет собственное расследование: ему необходимо найти таинственную «секретную папку», чтобы доказать невиновность своего подзащитного. Но охотится за ней не только он.
Страна: Франция, Италия
Студия: Legende Films, R.P. Productions, Gaumont
Продолжительность: 02:11:32
Перевод: Дублированный | iTunes
Качество: BDRip 1080p
Видео: MPEG-4 AVC, 1920x1038, 12.2 Mbit/s, 23.976 fps
Аудио #01: 48 kHz, AC3, 5.1, 384 Kbps | iTunes | RUS |
Аудио #02: 48 kHz, AC3, 5.1, 640 Kbps | Оригинал | FRE |
Субтитры: Русские (Forced), английские

Скриншоты

MI

General
Unique ID : 225994087475118301044136250945826087611 (0xAA04E0C6B936E031E1CC53155F9662BB)
Complete name : E:Video111An.Officer.and.a.Spy.2019.BDRip.1080p.seleZen.mkv
Format : Matroska
Format version : Version 4
File size : 12.1 GiB
Duration : 2 h 11 min
Overall bit rate : 13.2 Mb/s
Movie name : An Officer and a Spy 2019 from селезень
Encoded date : UTC 2020-03-29 18:30:20
Writing application : mkvmerge v40.0.0 ('Old Town Road + Pony') 64-bit
Writing library : libebml v1.3.9 + libmatroska v1.5.2
Video
ID : 1
Format : AVC
Format/Info : Advanced Video Codec
Format profile : High@L4.1
Format settings : CABAC / 4 Ref Frames
Format settings, CABAC : Yes
Format settings, Reference : 4 frames
Codec ID : V_MPEG4/ISO/AVC
Duration : 2 h 11 min
Bit rate : 12.2 Mb/s
Width : 1 920 pixels
Height : 1 038 pixels
Display aspect ratio : 1.85:1
Frame rate mode : Constant
Frame rate : 23.976 (24000/1001) FPS
Color space : YUV
Chroma subsampling : 4:2:0
Bit depth : 8 bits
Scan type : Progressive
Bits/(Pixel*Frame) : 0.255
Stream size : 11.2 GiB (92%)
Title : playHD
Writing library : x264 core 159 r2991 1771b55
Encoding settings : cabac=1 / ref=4 / deblock=1:-3:-3 / analyse=0x3:0x133 / me=umh / subme=10 / psy=1 / psy_rd=1.00:0.00 / mixed_ref=1 / me_range=48 / chroma_me=1 / trellis=2 / 8x8dct=1 / cqm=0 / deadzone=21,11 / fast_pskip=0 / chroma_qp_offset=-2 / threads=48 / lookahead_threads=8 / sliced_threads=0 / nr=0 / decimate=0 / interlaced=0 / bluray_compat=0 / constrained_intra=0 / bframes=8 / b_pyramid=2 / b_adapt=2 / b_bias=0 / direct=3 / weightb=1 / open_gop=0 / weightp=2 / keyint=250 / keyint_min=23 / scenecut=40 / intra_refresh=0 / rc_lookahead=60 / rc=crf / mbtree=0 / crf=16.3 / qcomp=0.65 / qpmin=0 / qpmax=69 / qpstep=4 / vbv_maxrate=62500 / vbv_bufsize=78125 / crf_max=0.0 / nal_hrd=none / filler=0 / ip_ratio=1.35 / pb_ratio=1.25 / aq=3:0.85 / zones=1,551,crf=14
Language : English
Default : Yes
Forced : No
Audio #1
ID : 2
Format : AC-3
Format/Info : Audio Coding 3
Commercial name : Dolby Digital
Codec ID : A_AC3
Duration : 2 h 11 min
Bit rate mode : Constant
Bit rate : 384 kb/s
Channel(s) : 6 channels
Channel layout : L R C LFE Ls Rs
Sampling rate : 48.0 kHz
Frame rate : 31.250 FPS (1536 SPF)
Compression mode : Lossy
Stream size : 361 MiB (3%)
Title : iTunes
Language : Russian
Service kind : Complete Main
Default : Yes
Forced : Yes
Audio #2
ID : 3
Format : AC-3
Format/Info : Audio Coding 3
Commercial name : Dolby Digital
Codec ID : A_AC3
Duration : 2 h 11 min
Bit rate mode : Constant
Bit rate : 640 kb/s
Channel(s) : 6 channels
Channel layout : L R C LFE Ls Rs
Sampling rate : 48.0 kHz
Frame rate : 31.250 FPS (1536 SPF)
Compression mode : Lossy
Stream size : 602 MiB (5%)
Title : Original
Language : French
Service kind : Complete Main
Default : No
Forced : No
Text #1
ID : 4
Format : UTF-8
Codec ID : S_TEXT/UTF8
Codec ID/Info : UTF-8 Plain Text
Duration : 3 s 587 ms
Bit rate : 37 b/s
Count of elements : 1
Stream size : 17.0 Bytes (0%)
Title : Forced
Language : Russian
Default : Yes
Forced : Yes
Text #2
ID : 5
Format : UTF-8
Codec ID : S_TEXT/UTF8
Codec ID/Info : UTF-8 Plain Text
Duration : 2 h 3 min
Bit rate : 50 b/s
Count of elements : 1213
Stream size : 46.0 KiB (0%)
Title : Full
Language : English
Default : No
Forced : No
Menu
00:00:00.000 : en:00:00:00.000
00:09:24.063 : en:00:09:24.063
00:19:04.643 : en:00:19:04.643
00:29:53.583 : en:00:29:53.583
00:38:10.246 : en:00:38:10.246
00:44:31.419 : en:00:44:31.419
00:54:50.496 : en:00:54:50.496
01:03:42.777 : en:01:03:42.777
01:11:14.770 : en:01:11:14.770
01:18:04.221 : en:01:18:04.221
01:28:07.199 : en:01:28:07.199
01:37:55.661 : en:01:37:55.661
01:46:52.740 : en:01:46:52.740
01:52:55.352 : en:01:52:55.352
01:59:55.688 : en:01:59:55.688
02:05:11.796 : en:02:05:11.796

admin

Post 30-Mar-2020 04:20

[Quote]

Информация о фильме
Название: Офицер и шпион
Оригинальное название: J'accuse / An Officer and a Spy
Год выхода: 2019
Жанр: Триллер, драма, история
Режиссер: Роман Полански
В ролях: Жан Дюжарден, Луи Гаррель, Эмманюэль Сенье, Грегори Гадебуа, Эрве Пьер, Владимир Иорданов, Дидье Сандр, Мельвиль Пупо, Эрик Руф, Матьё Амальрик

О фильме: Сотрудник французской спецслужбы капитан Дрейфус объявлен особо опасным преступником. Официальное обвинение - государственная измена и шпионаж в пользу Германии. Бывший наставник Дрейфуса Жорж Пикар ведет собственное расследование: ему необходимо найти таинственную «секретную папку», чтобы доказать невиновность своего подзащитного. Но охотится за ней не только он.
Страна: Франция, Италия
Студия: Legende Films, R.P. Productions, Gaumont
Продолжительность: 02:11:32
Перевод: Дублированный | iTunes
Качество: BDRip 720p
Видео: MPEG-4 AVC, 1280x694, 4217 Kbit/s, 23.976 fps
Аудио #01: 48 kHz, AC3, 5.1, 384 Kbps | iTunes | RUS |
Аудио #02: 48 kHz, AC3, 5.1, 640 Kbps | Оригинал | FRE |
Субтитры: Русские (Forced), английские

Скриншоты

MI

General
Unique ID : 157219828239203968782723731607268894922 (0x764770006022898F76B18C5B577428CA)
Complete name : E:Video111An.Officer.and.a.Spy.2019.BDRip.720p.seleZen.mkv
Format : Matroska
Format version : Version 4
File size : 4.82 GiB
Duration : 2 h 11 min
Overall bit rate : 5 243 kb/s
Movie name : An Officer and a Spy 2019 from селезень
Encoded date : UTC 2020-03-29 18:35:53
Writing application : mkvmerge v40.0.0 ('Old Town Road + Pony') 64-bit
Writing library : libebml v1.3.9 + libmatroska v1.5.2
Video
ID : 1
Format : AVC
Format/Info : Advanced Video Codec
Format profile : High@L4.1
Format settings : CABAC / 9 Ref Frames
Format settings, CABAC : Yes
Format settings, Reference : 9 frames
Codec ID : V_MPEG4/ISO/AVC
Duration : 2 h 11 min
Bit rate : 4 217 kb/s
Width : 1 280 pixels
Height : 694 pixels
Display aspect ratio : 1.85:1
Frame rate mode : Constant
Frame rate : 23.976 (24000/1001) FPS
Color space : YUV
Chroma subsampling : 4:2:0
Bit depth : 8 bits
Scan type : Progressive
Bits/(Pixel*Frame) : 0.198
Stream size : 3.87 GiB (80%)
Title : CRiSC
Writing library : x264 core 159 r2991+50 29469ee t_mod_New [all-bit@all X86_64]
Encoding settings : cabac=1 / ref=9 / deblock=1:-3:-3 / analyse=0x3:0x133 / me=umh / subme=10 / psy=1 / fade_compensate=0.00 / psy_rd=1.05:0.00 / mixed_ref=1 / me_range=32 / chroma_me=1 / trellis=2 / 8x8dct=1 / cqm=0 / deadzone=21,11 / fast_pskip=0 / chroma_qp_offset=-2 / threads=16 / lookahead_threads=2 / sliced_threads=0 / nr=0 / decimate=0 / interlaced=0 / bluray_compat=0 / constrained_intra=0 / fgo=0 / bframes=9 / b_pyramid=2 / b_adapt=2 / b_bias=0 / direct=3 / weightb=1 / open_gop=0 / weightp=2 / keyint=250 / keyint_min=23 / scenecut=40 / intra_refresh=0 / rc_lookahead=40 / rc=crf / mbtree=0 / crf=16.0000 / qcomp=0.65 / qpmin=0:0:0 / qpmax=69:69:69 / qpstep=4 / vbv_maxrate=50000 / vbv_bufsize=62500 / crf_max=0.0 / nal_hrd=none / filler=0 / ip_ratio=1.30 / pb_ratio=1.20 / aq=3:0.80 / aq-sensitivity=10.00 / aq-factor=1.00:1.00:1.00 / aq2=0 / aq3=0
Language : French
Default : Yes
Forced : No
Color range : Limited
Color primaries : BT.709
Transfer characteristics : BT.709
Matrix coefficients : BT.709
Audio #1
ID : 2
Format : AC-3
Format/Info : Audio Coding 3
Commercial name : Dolby Digital
Codec ID : A_AC3
Duration : 2 h 11 min
Bit rate mode : Constant
Bit rate : 384 kb/s
Channel(s) : 6 channels
Channel layout : L R C LFE Ls Rs
Sampling rate : 48.0 kHz
Frame rate : 31.250 FPS (1536 SPF)
Compression mode : Lossy
Stream size : 361 MiB (7%)
Title : iTunes
Language : Russian
Service kind : Complete Main
Default : Yes
Forced : Yes
Audio #2
ID : 3
Format : AC-3
Format/Info : Audio Coding 3
Commercial name : Dolby Digital
Codec ID : A_AC3
Duration : 2 h 11 min
Bit rate mode : Constant
Bit rate : 640 kb/s
Channel(s) : 6 channels
Channel layout : L R C LFE Ls Rs
Sampling rate : 48.0 kHz
Frame rate : 31.250 FPS (1536 SPF)
Compression mode : Lossy
Stream size : 602 MiB (12%)
Title : Original
Language : French
Service kind : Complete Main
Default : No
Forced : No
Text #1
ID : 4
Format : UTF-8
Codec ID : S_TEXT/UTF8
Codec ID/Info : UTF-8 Plain Text
Duration : 3 s 587 ms
Bit rate : 37 b/s
Count of elements : 1
Stream size : 17.0 Bytes (0%)
Title : Forced
Language : Russian
Default : Yes
Forced : Yes
Text #2
ID : 5
Format : UTF-8
Codec ID : S_TEXT/UTF8
Codec ID/Info : UTF-8 Plain Text
Duration : 2 h 3 min
Bit rate : 50 b/s
Count of elements : 1213
Stream size : 46.0 KiB (0%)
Title : Full
Language : English
Default : No
Forced : No
Menu
00:00:00.000 : en:00:00:00.000
00:09:24.063 : en:00:09:24.063
00:19:04.643 : en:00:19:04.643
00:29:53.583 : en:00:29:53.583
00:38:10.246 : en:00:38:10.246
00:44:31.419 : en:00:44:31.419
00:54:50.496 : en:00:54:50.496
01:03:42.777 : en:01:03:42.777
01:11:14.770 : en:01:11:14.770
01:18:04.221 : en:01:18:04.221
01:28:07.199 : en:01:28:07.199
01:37:55.661 : en:01:37:55.661
01:46:52.740 : en:01:46:52.740
01:52:55.352 : en:01:52:55.352
01:59:55.688 : en:01:59:55.688
02:05:11.796 : en:02:05:11.796

admin

Post 29-Mar-2020 08:34

[Quote]

Информация о фильме
Название: Западня для дьявола
Оригинальное название: In the Trap
Год выпуска: 2019
Жанр: Ужасы, триллер
Режиссер: Алессио Лигуори
В ролях: Джэми Пол, Дэвид Бэйли, Роберт Нэйрн, Соня Каллингфорд, Делена Кидд, Паола Бонтемпи, Мириам Галанти, Амелия Клэй, Джуд Форси, Лейла Гонтлетт
О фильме: Страхи могут быть бессмысленными. Они способны портить жизнь тому, кто их испытывает. Но побороть страх не так просто, как может показаться... Филип оказывается заперт в своей квартире. Он стал заложником собственного страха и боится покинуть помещение, в котором на протяжении последних двух лет зловещая сила подвергает его мучительным пыткам.

Страна: Италия
Студия: Dreamworldmovies, Mad Rocket Entertainment
Продолжительность: 01:33:27
Перевод: Дублированный | iTunes
Файл
Качество: WEB-DL 1080p
Контейнер: MKV
Видео: MPEG-4 AVC, 1920x804, 4651 Kbps, 24.000 fps
Аудио: Russian: AC3, 6 ch, 384 kbps, 48.0 KHz - DUB, iTunes
Субтитры: Нет

Скриншоты

MediaInfo

General
Unique ID : 162924997411281345661838507312727179759 (0x7A92368F0E5026D62C848B9F007FC1EF)
Complete name : I_T_TRAP_2019_WEB-DL_1080p-BLUEBIRD.mkv
Format : Matroska
Format version : Version 4 / Version 2
File size : 3.29 GiB
Duration : 1 h 33 min
Overall bit rate : 5 038 kb/s
Encoded date : UTC 2020-03-27 18:12:06
Writing application : mkvmerge v43.0.0 ('The Quartermaster') 64-bit
Writing library : libebml v1.3.10 + libmatroska v1.5.2
Cover : Yes
Attachments : cover.png
Video
ID : 1
Format : AVC
Format/Info : Advanced Video Codec
Format profile : High@L4
Format settings, CABAC : Yes
Format settings, RefFrames : 5 frames
Codec ID : V_MPEG4/ISO/AVC
Duration : 1 h 33 min
Bit rate : 4 651 kb/s
Width : 1 920 pixels
Height : 804 pixels
Display aspect ratio : 2.40:1
Frame rate mode : Constant
Frame rate : 24.000 FPS
Color space : YUV
Chroma subsampling : 4:2:0
Bit depth : 8 bits
Scan type : Progressive
Bits/(Pixel*Frame) : 0.126
Stream size : 3.04 GiB (92%)
Language : English
Default : Yes
Forced : No
Color range : Limited
Color primaries : BT.709
Transfer characteristics : BT.709
Matrix coefficients : BT.709
Audio
ID : 2
Format : AC-3
Format/Info : Audio Coding 3
Format settings, Endianness : Big
Codec ID : A_AC3
Duration : 1 h 33 min
Bit rate mode : Constant
Bit rate : 384 kb/s
Channel(s) : 6 channels
Channel positions : Front: L C R, Side: L R, LFE
Sampling rate : 48.0 kHz
Frame rate : 31.250 FPS (1536 SPF)
Bit depth : 16 bits
Compression mode : Lossy
Stream size : 257 MiB (8%)
Title : [DUB] DD 5.1 @ 384 kbps (iTunes)
Language : Russian
Service kind : Complete Main
Default : Yes
Forced : No
Menu
00:00:00.000 : en:Глава 1
00:08:09.208 : en:Глава 2
00:16:56.458 : en:Глава 3
00:24:59.874 : en:Глава 4
00:33:51.915 : en:Глава 5
00:42:15.081 : en:Глава 6
00:51:03.789 : en:Глава 7
00:59:40.955 : en:Глава 8
01:07:59.663 : en:Глава 9
01:16:48.663 : en:Глава 10
01:24:27.329 : en:Глава 11

admin

Post 29-Mar-2020 08:11

[Quote]

Информация о фильме
Название: Бладшот
Оригинальное название: Bloodshot
Год выхода: 2020
Жанр: Фантастика, боевик, драма
Режиссер: Дэйв Уилсон
В ролях: Вин Дизель, Сэм Хьюэн, Эйса Гонсалес, Гай Пирс, Талула Райли, Тоби Кеббелл, Ламорн Моррис, Йоуханнес Хёйкьюр Йоуханнессон, Сиддхартх Дхананджай, Тайрел Мейер, Алекс Эн-лос

О фильме: Корпорация RST возвращает к жизни недавно убитого солдата Рэя Гаррисона. Армия нанороботов в его крови превратила Рэя в бессмертного Бладшота, наделенного сверхчеловеческой силой и способностью мгновенно самоисцеляться. Контролируя тело Рэя, компания влияет на его разум и воспоминания. Но герой пойдет на все, чтобы выяснить правду.
Страна: США, Китай
Студия: Sony Pictures Entertainment (SPE), Bona Film Group, Columbia Pictures
Продолжительность: 01:49:20
Перевод: Дублированный | iTunes
Качество: WEB-DL 720p
Видео: MPEG-4 AVC, 1248x520, 4254 Kbit/s, 23.976 fps
Аудио #01: 48 kHz, AC3, 5.1, 384 Kbps | iTunes | RUS |
Аудио #02: 48 kHz, E-AC3, 5.1, 640 Kbps | Оригинал | ENG |
Субтитры: Русские (Forced, full), украинские (Full), английские

Скриншоты

MI

General
Unique ID : 225445434008577069621829333104415973991 (0xA99B36126631F5379066B44430E3A267)
Complete name : E:Video111Bloodshot.2020.AMZN.WEB-DL.720p.seleZen.mkv
Format : Matroska
Format version : Version 4
File size : 4.03 GiB
Duration : 1 h 49 min
Overall bit rate : 5 281 kb/s
Movie name : Bloodshot 2020 from селезень
Encoded date : UTC 2020-03-28 18:25:47
Writing application : mkvmerge v40.0.0 ('Old Town Road + Pony') 64-bit
Writing library : libebml v1.3.9 + libmatroska v1.5.2
Video
ID : 1
Format : AVC
Format/Info : Advanced Video Codec
Format profile : High@L3.1
Format settings : CABAC / 4 Ref Frames
Format settings, CABAC : Yes
Format settings, Reference : 4 frames
Codec ID : V_MPEG4/ISO/AVC
Duration : 1 h 49 min
Bit rate mode : Constant
Bit rate : 4 254 kb/s
Nominal bit rate : 6 000 kb/s
Width : 1 248 pixels
Height : 520 pixels
Display aspect ratio : 2.40:1
Frame rate mode : Constant
Frame rate : 23.976 (24000/1001) FPS
Color space : YUV
Chroma subsampling : 4:2:0
Bit depth : 8 bits
Scan type : Progressive
Bits/(Pixel*Frame) : 0.273
Stream size : 3.25 GiB (81%)
Language : English
Default : Yes
Forced : No
Color range : Limited
Color primaries : BT.709
Transfer characteristics : BT.709
Matrix coefficients : BT.709
Audio #1
ID : 2
Format : AC-3
Format/Info : Audio Coding 3
Commercial name : Dolby Digital
Codec ID : A_AC3
Duration : 1 h 49 min
Bit rate mode : Constant
Bit rate : 384 kb/s
Channel(s) : 6 channels
Channel layout : L R C LFE Ls Rs
Sampling rate : 48.0 kHz
Frame rate : 31.250 FPS (1536 SPF)
Compression mode : Lossy
Stream size : 300 MiB (7%)
Title : iTunes
Language : Russian
Service kind : Complete Main
Default : Yes
Forced : Yes
Audio #2
ID : 3
Format : E-AC-3
Format/Info : Enhanced AC-3
Commercial name : Dolby Digital Plus
Codec ID : A_EAC3
Duration : 1 h 49 min
Bit rate mode : Constant
Bit rate : 640 kb/s
Channel(s) : 6 channels
Channel layout : L R C LFE Ls Rs
Sampling rate : 48.0 kHz
Frame rate : 31.250 FPS (1536 SPF)
Compression mode : Lossy
Stream size : 500 MiB (12%)
Title : Original
Language : English
Service kind : Complete Main
Default : No
Forced : No
Text #1
ID : 4
Format : UTF-8
Codec ID : S_TEXT/UTF8
Codec ID/Info : UTF-8 Plain Text
Duration : 1 h 47 min
Bit rate : 0 b/s
Count of elements : 10
Stream size : 400 Bytes (0%)
Title : Forced
Language : Russian
Default : Yes
Forced : Yes
Text #2
ID : 5
Format : UTF-8
Codec ID : S_TEXT/UTF8
Codec ID/Info : UTF-8 Plain Text
Duration : 1 h 48 min
Bit rate : 72 b/s
Count of elements : 1072
Stream size : 57.8 KiB (0%)
Title : Full
Language : Russian
Default : No
Forced : No
Text #3
ID : 6
Format : UTF-8
Codec ID : S_TEXT/UTF8
Codec ID/Info : UTF-8 Plain Text
Duration : 1 h 48 min
Bit rate : 66 b/s
Count of elements : 1071
Stream size : 52.6 KiB (0%)
Title : Full
Language : Ukrainian
Default : No
Forced : No
Text #4
ID : 7
Format : UTF-8
Codec ID : S_TEXT/UTF8
Codec ID/Info : UTF-8 Plain Text
Duration : 1 h 41 min
Bit rate : 46 b/s
Count of elements : 1150
Stream size : 34.9 KiB (0%)
Title : Full
Language : English
Default : No
Forced : No
Text #5
ID : 8
Format : UTF-8
Codec ID : S_TEXT/UTF8
Codec ID/Info : UTF-8 Plain Text
Duration : 1 h 47 min
Bit rate : 51 b/s
Count of elements : 1493
Stream size : 40.6 KiB (0%)
Title : SDH
Language : English
Default : No
Forced : No
Menu
00:00:00.000 : en:Studio Logo
00:01:02.000 : en:Scene 2
00:04:10.000 : en:Scene 3
00:05:09.000 : en:Scene 4
00:07:01.000 : en:Scene 5
00:08:51.000 : en:Scene 6
00:13:04.000 : en:Scene 7
00:17:31.000 : en:Scene 8
00:20:39.000 : en:Scene 9
00:22:46.000 : en:Scene 10
00:25:07.000 : en:Scene 11
00:27:57.000 : en:Scene 12
00:29:27.000 : en:Scene 13
00:32:12.000 : en:Scene 14
00:32:43.000 : en:Scene 15
00:38:27.000 : en:Scene 16
00:41:42.000 : en:Scene 17
00:43:21.000 : en:Scene 18
00:50:55.000 : en:Scene 19
00:52:44.000 : en:Scene 20
00:54:16.000 : en:Scene 21
00:56:21.000 : en:Scene 22
01:02:31.000 : en:Scene 23
01:08:10.000 : en:Scene 24
01:09:01.000 : en:Scene 25
01:09:51.000 : en:Scene 26
01:12:44.000 : en:Scene 27
01:17:38.000 : en:Scene 28
01:19:16.000 : en:Scene 29
01:22:21.000 : en:Scene 30
01:27:32.000 : en:Scene 31
01:28:15.000 : en:Scene 32
01:31:09.000 : en:Scene 33
01:35:20.000 : en:Scene 34
01:38:33.000 : en:Scene 35
01:42:38.000 : en:End Credits

admin

Post 29-Mar-2020 08:09

[Quote]

Информация о фильме
Название: Бладшот
Оригинальное название: Bloodshot
Год выхода: 2020
Жанр: Фантастика, боевик, драма
Режиссер: Дэйв Уилсон
В ролях: Вин Дизель, Сэм Хьюэн, Эйса Гонсалес, Гай Пирс, Талула Райли, Тоби Кеббелл, Ламорн Моррис, Йоуханнес Хёйкьюр Йоуханнессон, Сиддхартх Дхананджай, Тайрел Мейер, Алекс Эн-лос

О фильме: Корпорация RST возвращает к жизни недавно убитого солдата Рэя Гаррисона. Армия нанороботов в его крови превратила Рэя в бессмертного Бладшота, наделенного сверхчеловеческой силой и способностью мгновенно самоисцеляться. Контролируя тело Рэя, компания влияет на его разум и воспоминания. Но герой пойдет на все, чтобы выяснить правду.
Страна: США, Китай
Студия: Sony Pictures Entertainment (SPE), Bona Film Group, Columbia Pictures
Продолжительность: 01:49:20
Перевод: Дублированный | iTunes
Качество: WEB-DL 1080p
Видео: MPEG-4 AVC, 1920x800, 8608 Kbit/s, 23.976 fps
Аудио #01: 48 kHz, AC3, 5.1, 384 Kbps | iTunes | RUS |
Аудио #02: 48 kHz, E-AC3, 5.1, 640 Kbps | Оригинал | ENG |
Субтитры: Русские (Forced, full), украинские (Full), английские

Скриншоты

MI

General
Unique ID : 268713220189392223048750568426350059074 (0xCA2848A1F9AE0FF5630130CCF0581E42)
Complete name : E:Video111Bloodshot.2020.AMZN.WEB-DL.1080p.seleZen.mkv
Format : Matroska
Format version : Version 4
File size : 7.36 GiB
Duration : 1 h 49 min
Overall bit rate : 9 635 kb/s
Movie name : Bloodshot 2020 from селезень
Encoded date : UTC 2020-03-28 18:21:02
Writing application : mkvmerge v40.0.0 ('Old Town Road + Pony') 64-bit
Writing library : libebml v1.3.9 + libmatroska v1.5.2
Video
ID : 1
Format : AVC
Format/Info : Advanced Video Codec
Format profile : High@L4
Format settings : CABAC / 4 Ref Frames
Format settings, CABAC : Yes
Format settings, Reference : 4 frames
Codec ID : V_MPEG4/ISO/AVC
Duration : 1 h 49 min
Bit rate mode : Constant
Bit rate : 8 608 kb/s
Nominal bit rate : 10 000 kb/s
Width : 1 920 pixels
Height : 800 pixels
Display aspect ratio : 2.40:1
Frame rate mode : Constant
Frame rate : 23.976 (24000/1001) FPS
Color space : YUV
Chroma subsampling : 4:2:0
Bit depth : 8 bits
Scan type : Progressive
Bits/(Pixel*Frame) : 0.234
Stream size : 6.57 GiB (89%)
Language : English
Default : Yes
Forced : No
Color range : Limited
Color primaries : BT.709
Transfer characteristics : BT.709
Matrix coefficients : BT.709
Audio #1
ID : 2
Format : AC-3
Format/Info : Audio Coding 3
Commercial name : Dolby Digital
Codec ID : A_AC3
Duration : 1 h 49 min
Bit rate mode : Constant
Bit rate : 384 kb/s
Channel(s) : 6 channels
Channel layout : L R C LFE Ls Rs
Sampling rate : 48.0 kHz
Frame rate : 31.250 FPS (1536 SPF)
Compression mode : Lossy
Stream size : 300 MiB (4%)
Title : iTunes
Language : Russian
Service kind : Complete Main
Default : Yes
Forced : Yes
Audio #2
ID : 3
Format : E-AC-3
Format/Info : Enhanced AC-3
Commercial name : Dolby Digital Plus
Codec ID : A_EAC3
Duration : 1 h 49 min
Bit rate mode : Constant
Bit rate : 640 kb/s
Channel(s) : 6 channels
Channel layout : L R C LFE Ls Rs
Sampling rate : 48.0 kHz
Frame rate : 31.250 FPS (1536 SPF)
Compression mode : Lossy
Stream size : 500 MiB (7%)
Title : Original
Language : English
Service kind : Complete Main
Default : No
Forced : No
Text #1
ID : 4
Format : UTF-8
Codec ID : S_TEXT/UTF8
Codec ID/Info : UTF-8 Plain Text
Duration : 1 h 47 min
Bit rate : 0 b/s
Count of elements : 10
Stream size : 400 Bytes (0%)
Title : Forced
Language : Russian
Default : Yes
Forced : Yes
Text #2
ID : 5
Format : UTF-8
Codec ID : S_TEXT/UTF8
Codec ID/Info : UTF-8 Plain Text
Duration : 1 h 48 min
Bit rate : 72 b/s
Count of elements : 1072
Stream size : 57.8 KiB (0%)
Title : Full
Language : Russian
Default : No
Forced : No
Text #3
ID : 6
Format : UTF-8
Codec ID : S_TEXT/UTF8
Codec ID/Info : UTF-8 Plain Text
Duration : 1 h 48 min
Bit rate : 66 b/s
Count of elements : 1071
Stream size : 52.6 KiB (0%)
Title : Full
Language : Ukrainian
Default : No
Forced : No
Text #4
ID : 7
Format : UTF-8
Codec ID : S_TEXT/UTF8
Codec ID/Info : UTF-8 Plain Text
Duration : 1 h 41 min
Bit rate : 46 b/s
Count of elements : 1150
Stream size : 34.9 KiB (0%)
Title : Full
Language : English
Default : No
Forced : No
Text #5
ID : 8
Format : UTF-8
Codec ID : S_TEXT/UTF8
Codec ID/Info : UTF-8 Plain Text
Duration : 1 h 47 min
Bit rate : 51 b/s
Count of elements : 1493
Stream size : 40.6 KiB (0%)
Title : SDH
Language : English
Default : No
Forced : No
Menu
00:00:00.000 : en:Studio Logo
00:01:02.000 : en:Scene 2
00:04:10.000 : en:Scene 3
00:05:09.000 : en:Scene 4
00:07:01.000 : en:Scene 5
00:08:51.000 : en:Scene 6
00:13:04.000 : en:Scene 7
00:17:31.000 : en:Scene 8
00:20:39.000 : en:Scene 9
00:22:46.000 : en:Scene 10
00:25:07.000 : en:Scene 11
00:27:57.000 : en:Scene 12
00:29:27.000 : en:Scene 13
00:32:12.000 : en:Scene 14
00:32:43.000 : en:Scene 15
00:38:27.000 : en:Scene 16
00:41:42.000 : en:Scene 17
00:43:21.000 : en:Scene 18
00:50:55.000 : en:Scene 19
00:52:44.000 : en:Scene 20
00:54:16.000 : en:Scene 21
00:56:21.000 : en:Scene 22
01:02:31.000 : en:Scene 23
01:08:10.000 : en:Scene 24
01:09:01.000 : en:Scene 25
01:09:51.000 : en:Scene 26
01:12:44.000 : en:Scene 27
01:17:38.000 : en:Scene 28
01:19:16.000 : en:Scene 29
01:22:21.000 : en:Scene 30
01:27:32.000 : en:Scene 31
01:28:15.000 : en:Scene 32
01:31:09.000 : en:Scene 33
01:35:20.000 : en:Scene 34
01:38:33.000 : en:Scene 35
01:42:38.000 : en:End Credits

admin

Post 28-Mar-2020 04:18

[Quote]

Информация о фильме
Название: Вивариум
Оригинальное название: Vivarium
Год выхода: 2019
Жанр: Фантастика, детектив
Режиссер: Лоркан Финнеган
В ролях: Имоджен Путс, Даниэль Райан, Молли Макканн, Джесси Айзенберг, Джонатан Арис, Сенан Дженнингс, Инна Хардвик, Ольга Верли, Джек Хадсон
О фильме:
В поисках идеального дома молодая пара знакомится со странным агентом по недвижимости. Он привозит их в новый поселок в пригороде, а затем исчезает. Том и Джемма с ужасом понимают, что они абсолютно одни в этом жутковато-стерильном лабиринте одинаковых домов и что из него нет выхода. Вскоре их одиночество будет прервано появлением у дверей коробки с младенцем, который похож на человека лишь внешне…

Страна: Ирландия, Дания, Бельгия
Студия: Lovely Productions, Fantastic Films, Frakas Productions
Продолжительность: 01:37:56
Перевод: одноголосый - А.Важенин (BadBajo)
БЕЗ КАКОЙ-ЛИБО РЕКЛАМЫ!
Файл
Кодек: H.264
Качество: WEB-DL 1080p
Видео: 1916x800, ~4 583 Kbps, 23.976 (24000/1001) FPS
Звук:
Русский: AC3, 6 ch, 384 Kbps (BadBajo)
Английский: AC3, 6 ch, 384 Kbps
Субтитры: Английские (отключаемые)
Семпл

Скриншоты

admin

Post 28-Mar-2020 04:16

[Quote]

Информация о фильме
Название: Вивариум
Оригинальное название: Vivarium
Год выхода: 2019
Жанр: Фантастика, детектив
Режиссер: Лоркан Финнеган
В ролях: Имоджен Путс, Даниэль Райан, Молли Макканн, Джесси Айзенберг, Джонатан Арис, Сенан Дженнингс, Инна Хардвик, Ольга Верли, Джек Хадсон, Майкл Макгьюн, Марк Куигли
О фильме:
В поисках идеального дома молодая пара знакомится со странным агентом по недвижимости. Он привозит их в новый поселок в пригороде, а затем исчезает. Том и Джемма с ужасом понимают, что они абсолютно одни в этом жутковато-стерильном лабиринте одинаковых домов и что из него нет выхода. Вскоре их одиночество будет прервано появлением у дверей коробки с младенцем, который похож на человека лишь внешне…

Страна: Ирландия, Дания, Бельгия
Студия: Lovely Productions, Fantastic Films, Frakas Productions
Продолжительность: 01:38:34
Перевод: одноголосый | BadBajo
Файл
Кодек: x.264
Качество: WEBRip 720p | Vivarium.2019.1080p.AMZN.WEB-DL.DDP5.1.H.264-NTG
Видео: MPEG-4 AVC, 4200 Kбит/с, 1280x534, 23.976 кадр/с
Аудио #1: Русский (АС3, 6 ch, 384 Кбит/с, 48.0 KHz) Aвторский (одноголосый, закадровый) А.Важенин (BadBajo)
Аудио #2: Английский (АС3, 6 ch, 640 Кбит/с, 48.0 KHz)
Субтитры: английские
► Без Рекламы!

MediaInfo

Источник: Vivarium.2019.1080p.AMZN.WEB-DL.DDP5.1.H.264-NTG
General
Unique ID : 202161782012811871050960465400896950946 (0x9816F165C1696026BEC3EAA20E6C12A2)
Complete name : Vivarium.2019.AMZN.WEBRip.720p.mkv
Format : Matroska
Format version : Version 4
File size : 3.60 GiB
Duration : 1 h 38 min
Overall bit rate : 5 224 kb/s
Encoded date : UTC 2020-03-27 20:13:57
Writing application : mkvmerge v7.1.0 ('Good Love') 64bit built on Jul 27 2014 13:06:55
Writing library : libebml v1.3.0 + libmatroska v1.4.1
Video
ID : 1
Format : AVC
Format/Info : Advanced Video Codec
Format profile : High@L4.1
Format settings : CABAC / 9 Ref Frames
Format settings, CABAC : Yes
Format settings, Reference fra : 9 frames
Codec ID : V_MPEG4/ISO/AVC
Duration : 1 h 38 min
Bit rate : 4 200 kb/s
Width : 1 280 pixels
Height : 534 pixels
Display aspect ratio : 2.40:1
Frame rate mode : Constant
Frame rate : 23.976 (24000/1001) FPS
Color space : YUV
Chroma subsampling : 4:2:0
Bit depth : 8 bits
Scan type : Progressive
Bits/(Pixel*Frame) : 0.256
Stream size : 2.89 GiB (80%)
Writing library : x264 core 157 r2958 57baac4
Encoding settings : cabac=1 / ref=9 / deblock=1:-3:-3 / analyse=0x3:0x133 / me=umh / subme=11 / psy=1 / psy_rd=1.00:0.00 / mixed_ref=1 / me_range=48 / chroma_me=1 / trellis=2 / 8x8dct=1 / cqm=0 / deadzone=21,11 / fast_pskip=1 / chroma_qp_offset=-2 / threads=17 / lookahead_threads=4 / sliced_threads=0 / nr=0 / decimate=1 / interlaced=0 / bluray_compat=0 / constrained_intra=0 / bframes=10 / b_pyramid=2 / b_adapt=2 / b_bias=0 / direct=3 / weightb=1 / open_gop=0 / weightp=2 / keyint=240 / keyint_min=24 / scenecut=40 / intra_refresh=0 / rc_lookahead=60 / rc=2pass / mbtree=1 / bitrate=4200 / ratetol=1.0 / qcomp=0.60 / qpmin=0 / qpmax=69 / qpstep=4 / cplxblur=20.0 / qblur=0.5 / ip_ratio=1.40 / aq=1:1.00
Language : English
Default : Yes
Forced : No
Color range : Limited
Color primaries : BT.709
Transfer characteristics : BT.709
Matrix coefficients : BT.709
Audio #1
ID : 2
Format : AC-3
Format/Info : Audio Coding 3
Commercial name : Dolby Digital
Codec ID : A_AC3
Duration : 1 h 38 min
Bit rate mode : Constant
Bit rate : 384 kb/s
Channel(s) : 6 channels
Channel layout : L R C LFE Ls Rs
Sampling rate : 48.0 kHz
Frame rate : 31.250 FPS (1536 SPF)
Compression mode : Lossy
Stream size : 271 MiB (7%)
Title : AVO | А.Важенин (BadBajo)
Language : Russian
Service kind : Complete Main
Default : Yes
Forced : No
Audio #2
ID : 3
Format : AC-3
Format/Info : Audio Coding 3
Commercial name : Dolby Digital
Codec ID : A_AC3
Duration : 1 h 38 min
Bit rate mode : Constant
Bit rate : 640 kb/s
Channel(s) : 6 channels
Channel layout : L R C LFE Ls Rs
Sampling rate : 48.0 kHz
Frame rate : 31.250 FPS (1536 SPF)
Compression mode : Lossy
Stream size : 451 MiB (12%)
Language : English
Service kind : Complete Main
Default : No
Forced : No
Text #1
ID : 4
Format : UTF-8
Codec ID : S_TEXT/UTF8
Codec ID/Info : UTF-8 Plain Text
Duration : 1 h 33 min
Bit rate : 24 b/s
Count of elements : 689
Stream size : 16.8 KiB (0%)
Language : English
Default : No
Forced : No
Text #2
ID : 5
Format : UTF-8
Codec ID : S_TEXT/UTF8
Codec ID/Info : UTF-8 Plain Text
Duration : 1 h 34 min
Bit rate : 31 b/s
Count of elements : 876
Stream size : 21.5 KiB (0%)
Title : SDH
Language : English
Default : No
Forced : No
Menu
00:00:00.000 : :Chapter 1
00:19:38.803 : :Chapter 2
00:44:14.487 : :Chapter 3
01:03:11.832 : :Chapter 4
01:31:43.250 : :Chapter 5

Скриншоты

 

Current time is: 03-Apr 19:57

All times are UTC + 3