Search found 500 matches

Author Message

admin

Post Today 04:36

[Quote]

Информация о фильме
Название: В тихом омуте
Оригинальное название: I See You
Год выхода: 2019
Жанр: Ужасы, триллер, драма, криминал, детектив
Режиссер: Адам Рэндолл
В ролях: Хелен Хант, Джон Тенни, Джуда Льюис, Оуэн Тиг, Либэ Барер, Грегори Алан Уильямс, Эллисон Кинг, Эрика Александр, Дженнифер Грэйс, Адам Керн

О фильме: В идиллически тихом и спокойном городке бесследно пропадает двенадцатилетний мальчик. За расследование берется детектив, который переживает раскол в семье, узнав о недавней измене своей жены. Тем временем смертельная угроза подбирается уже к его собственному дому…
Страна: США
Студия: Head Gear Films, Kreo Films FZ, Local Hero
Продолжительность: 01:38:13
Перевод: Дублированный | iTunes
Качество: WEB-DL 1080p | AMAZON Version
Видео: MPEG-4 AVC, 1920x872, 6241 Kbit/s, 23.976 fps
Аудио #01: 48 kHz, AC3, 5.1, 384 Kbps | iTunes | RUS |
Аудио #02: 48 kHz, E-AC3, 5.1, 640 Kbps | Оригинал | ENG |
Субтитры: Русские (Full), английские

Скриншоты

MI

General
Unique ID : 162132060139097876695620235671266416683 (0x79F97FBBA0774D925050CB2AC3D8582B)
Complete name : F:Video111I.See.You.2019.AMZN.WEB-DL.1080p.seleZen.mkv
Format : Matroska
Format version : Version 4
File size : 4.99 GiB
Duration : 1 h 38 min
Overall bit rate : 7 267 kb/s
Movie name : I See You 2019 from селезень
Encoded date : UTC 2019-12-06 13:27:59
Writing application : mkvmerge v40.0.0 ('Old Town Road + Pony') 64-bit
Writing library : libebml v1.3.9 + libmatroska v1.5.2
Video
ID : 1
Format : AVC
Format/Info : Advanced Video Codec
Format profile : High@L4
Format settings : CABAC / 4 Ref Frames
Format settings, CABAC : Yes
Format settings, Reference : 4 frames
Codec ID : V_MPEG4/ISO/AVC
Duration : 1 h 38 min
Bit rate mode : Constant
Bit rate : 6 241 kb/s
Nominal bit rate : 10 000 kb/s
Width : 1 920 pixels
Height : 872 pixels
Display aspect ratio : 2.2:1
Original display aspect rat : 2.2:1
Frame rate mode : Constant
Frame rate : 23.976 (24000/1001) FPS
Color space : YUV
Chroma subsampling : 4:2:0
Bit depth : 8 bits
Scan type : Progressive
Bits/(Pixel*Frame) : 0.155
Stream size : 4.28 GiB (86%)
Language : English
Default : Yes
Forced : No
Color range : Limited
Color primaries : BT.709
Transfer characteristics : BT.709
Matrix coefficients : BT.709
Audio #1
ID : 2
Format : AC-3
Format/Info : Audio Coding 3
Commercial name : Dolby Digital
Codec ID : A_AC3
Duration : 1 h 37 min
Bit rate mode : Constant
Bit rate : 384 kb/s
Channel(s) : 6 channels
Channel layout : L R C LFE Ls Rs
Sampling rate : 48.0 kHz
Frame rate : 31.250 FPS (1536 SPF)
Bit depth : 16 bits
Compression mode : Lossy
Stream size : 269 MiB (5%)
Title : iTunes
Language : Russian
Service kind : Complete Main
Default : Yes
Forced : Yes
Audio #2
ID : 3
Format : E-AC-3
Format/Info : Enhanced AC-3
Commercial name : Dolby Digital Plus
Codec ID : A_EAC3
Duration : 1 h 38 min
Bit rate mode : Constant
Bit rate : 640 kb/s
Channel(s) : 6 channels
Channel layout : L R C LFE Ls Rs
Sampling rate : 48.0 kHz
Frame rate : 31.250 FPS (1536 SPF)
Compression mode : Lossy
Stream size : 450 MiB (9%)
Title : Original
Language : English
Service kind : Complete Main
Default : No
Forced : No
Text #1
ID : 4
Format : UTF-8
Codec ID : S_TEXT/UTF8
Codec ID/Info : UTF-8 Plain Text
Duration : 1 h 30 min
Bit rate : 48 b/s
Count of elements : 670
Stream size : 32.0 KiB (0%)
Title : Full
Language : Russian
Default : No
Forced : No
Text #2
ID : 5
Format : UTF-8
Codec ID : S_TEXT/UTF8
Codec ID/Info : UTF-8 Plain Text
Duration : 1 h 25 min
Bit rate : 33 b/s
Count of elements : 780
Stream size : 20.8 KiB (0%)
Title : Full
Language : English
Default : No
Forced : No
Text #3
ID : 6
Format : UTF-8
Codec ID : S_TEXT/UTF8
Codec ID/Info : UTF-8 Plain Text
Duration : 1 h 30 min
Bit rate : 37 b/s
Count of elements : 935
Stream size : 25.0 KiB (0%)
Title : SDH
Language : English
Default : No
Forced : No

admin

Post Today 04:35

[Quote]

Информация о фильме
Название: В тихом омуте
Оригинальное название: I See You
Год выхода: 2019
Жанр: Ужасы, триллер, драма, криминал, детектив
Режиссер: Адам Рэндолл
В ролях: Хелен Хант, Джон Тенни, Джуда Льюис, Оуэн Тиг, Либэ Барер, Грегори Алан Уильямс, Эллисон Кинг, Эрика Александр, Дженнифер Грэйс, Адам Керн
О фильме:
В идиллически тихом и спокойном городке бесследно пропадает двенадцатилетний мальчик. За расследование берется детектив, который переживает раскол в семье, узнав о недавней измене своей жены. Тем временем смертельная угроза подбирается уже к его собственному дому…

Страна: США
Студия: Head Gear Films, Kreo Films FZ, Local Hero
Продолжительность: 01:38:13
Перевод: Дублированный | iTunes
Файл
Кодек: AVC
Качество: WEB-DL 720p | AMZN
Видео: MPEG-4 AVC, 2618 Kбит/с, 1280x576, 23.976 кадр/с
Аудио #1: Русский (АС3, 6 ch, 384 Кбит/с, 48.0 KHz) Профессиональный (дублированный) iTunes
Аудио #2: Английский (АС3, 6 ch, 640 Кбит/с, 48.0 KHz)
Субтитры: Русские (Full), английские

MediaInfo

Источник: I.See.You.2019.720p.AMZN.WEB-DL.DDP5.1.H.264-NTG
General
Unique ID : 226307944934053574444426727877636771531 (0xAA415324CA474ABCAE30C050AB7BCECB)
Complete name : I.See.You.2019.AMZN.WEB-DL.720p.mkv
Format : Matroska
Format version : Version 4
File size : 2.50 GiB
Duration : 1 h 38 min
Overall bit rate : 3 643 kb/s
Movie name : I See You 2019 from селезень
Encoded date : UTC 2019-12-06 15:23:41
Writing application : mkvmerge v7.1.0 ('Good Love') 64bit built on Jul 27 2014 13:06:55
Writing library : libebml v1.3.0 + libmatroska v1.4.1
Video
ID : 1
Format : AVC
Format/Info : Advanced Video Codec
Format profile : High@L3.1
Format settings : CABAC / 4 Ref Frames
Format settings, CABAC : Yes
Format settings, Reference fra : 4 frames
Codec ID : V_MPEG4/ISO/AVC
Duration : 1 h 38 min
Bit rate mode : Constant
Bit rate : 2 618 kb/s
Nominal bit rate : 6 000 kb/s
Width : 1 280 pixels
Height : 576 pixels
Display aspect ratio : 2.2:1
Original display aspect ratio : 2.2:1
Frame rate mode : Constant
Frame rate : 23.976 (24000/1001) FPS
Color space : YUV
Chroma subsampling : 4:2:0
Bit depth : 8 bits
Scan type : Progressive
Bits/(Pixel*Frame) : 0.148
Stream size : 1.80 GiB (72%)
Default : Yes
Forced : No
Color range : Limited
Color primaries : BT.709
Transfer characteristics : BT.709
Matrix coefficients : BT.709
Audio #1
ID : 2
Format : AC-3
Format/Info : Audio Coding 3
Commercial name : Dolby Digital
Codec ID : A_AC3
Duration : 1 h 37 min
Bit rate mode : Constant
Bit rate : 384 kb/s
Channel(s) : 6 channels
Channel layout : L R C LFE Ls Rs
Sampling rate : 48.0 kHz
Frame rate : 31.250 FPS (1536 SPF)
Compression mode : Lossy
Stream size : 269 MiB (11%)
Title : iTunes
Language : Russian
Service kind : Complete Main
Default : Yes
Forced : No
Audio #2
ID : 3
Format : AC-3
Format/Info : Audio Coding 3
Commercial name : Dolby Digital
Codec ID : A_AC3
Duration : 1 h 38 min
Bit rate mode : Constant
Bit rate : 640 kb/s
Channel(s) : 6 channels
Channel layout : L R C LFE Ls Rs
Sampling rate : 48.0 kHz
Frame rate : 31.250 FPS (1536 SPF)
Compression mode : Lossy
Stream size : 450 MiB (18%)
Language : English
Service kind : Complete Main
Default : No
Forced : No
Text #1
ID : 4
Format : UTF-8
Codec ID : S_TEXT/UTF8
Codec ID/Info : UTF-8 Plain Text
Duration : 1 h 30 min
Bit rate : 48 b/s
Count of elements : 670
Stream size : 32.0 KiB (0%)
Language : Russian
Default : No
Forced : No
Text #2
ID : 5
Format : UTF-8
Codec ID : S_TEXT/UTF8
Codec ID/Info : UTF-8 Plain Text
Duration : 1 h 25 min
Bit rate : 33 b/s
Count of elements : 780
Stream size : 20.8 KiB (0%)
Language : English
Default : No
Forced : No
Text #3
ID : 6
Format : UTF-8
Codec ID : S_TEXT/UTF8
Codec ID/Info : UTF-8 Plain Text
Duration : 1 h 30 min
Bit rate : 37 b/s
Count of elements : 935
Stream size : 25.0 KiB (0%)
Title : SDH
Language : English
Default : No
Forced : No

Скриншоты

admin

Post Yesterday 06:21

[Quote]

Информация о фильме
Название: К звёздам
Оригинальное название: Ad Astra
Год выхода: 2019
Жанр: Фантастика, триллер, драма, детектив, приключения
Режиссер: Джеймс Грэй
В ролях: Брэд Питт, Томми Ли Джонс, Рут Негга, Дональд Сазерленд, Кимберли Элиз, Лорен Дин, Донни Кешаварц, Шон Блейкмор, Бобби Ниш, Лиза Гэй Хэмилтон

О фильме: Недалёкое будущее. Несколько лет назад человечество запустило программу поиска внеземной жизни «Проект «Лима»», во главе которой стоял капитан Клиффорд Макбрайд. Последний сигнал экспедиции был зафиксирован в районе Нептуна, и с тех пор о её судьбе ничего не было известно. Сам капитан Макбрайд стал героем и самым известным космонавтом, вдохновившим многих на исследование космоса. Через 16 лет после исчезновения «Проекта «Лима»» на Земле начинают происходить странные вспышки энергии, выводящие из строя электросистемы и сеящие хаос и разрушения. По данным американского космического агентства сигнал идёт с Нептуна, и теперь сыну знаменитого космонавта, майору Рою Макбрайду, поручается ответственная миссия. Он должен добраться до марсианской базы и оттуда попытаться связаться с предположительно живым отцом.
Страна: США, Китай, Бразилия
Студия: New Regency Pictures, Bona Film Group, Keep Your Head
Продолжительность: 02:03:03
Перевод: Дублированный | iTunes
Качество: WEB-DL 1080p
Видео: MPEG-4 AVC, 1920x800, 8415 Kbit/s, 23.976 fps
Аудио #01: 48 kHz, AC3, 5.1, 384 Kbps | iTunes | RUS |
Аудио #02: 44.1 kHz, AAC, 2.0, 123 Kbps | iTunes | UKR |
Аудио #03: 48 kHz, E-AC3, 5.1, 640 Kbps | Оригинал | ENG |
Субтитры: Русские (Forced, full), украинские (Forced, full), английские

Скриншоты

MI

General
Unique ID : 14471261330488640052757008934742768929 (0xAE3104501788919686CB05F4F73BD21)
Complete name : F:Video111Ad.Astra.2019.AMZN.WEB-DL.1080p.seleZen.mkv
Format : Matroska
Format version : Version 4
File size : 8.22 GiB
Duration : 2 h 3 min
Overall bit rate : 9 562 kb/s
Movie name : Ad Astra 2019 from селезень
Encoded date : UTC 2019-12-05 19:53:33
Writing application : mkvmerge v40.0.0 ('Old Town Road + Pony') 64-bit
Writing library : libebml v1.3.9 + libmatroska v1.5.2
Video
ID : 1
Format : AVC
Format/Info : Advanced Video Codec
Format profile : High@L4
Format settings : CABAC / 4 Ref Frames
Format settings, CABAC : Yes
Format settings, Reference : 4 frames
Codec ID : V_MPEG4/ISO/AVC
Duration : 2 h 3 min
Bit rate mode : Constant
Bit rate : 8 415 kb/s
Nominal bit rate : 10 000 kb/s
Width : 1 920 pixels
Height : 800 pixels
Display aspect ratio : 2.40:1
Frame rate mode : Constant
Frame rate : 23.976 (24000/1001) FPS
Color space : YUV
Chroma subsampling : 4:2:0
Bit depth : 8 bits
Scan type : Progressive
Bits/(Pixel*Frame) : 0.228
Stream size : 7.23 GiB (88%)
Language : English
Default : Yes
Forced : No
Color range : Limited
Color primaries : BT.709
Transfer characteristics : BT.709
Matrix coefficients : BT.709
Audio #1
ID : 2
Format : AC-3
Format/Info : Audio Coding 3
Commercial name : Dolby Digital
Codec ID : A_AC3
Duration : 2 h 3 min
Bit rate mode : Constant
Bit rate : 384 kb/s
Channel(s) : 6 channels
Channel layout : L R C LFE Ls Rs
Sampling rate : 48.0 kHz
Frame rate : 31.250 FPS (1536 SPF)
Bit depth : 16 bits
Compression mode : Lossy
Stream size : 338 MiB (4%)
Title : iTunes
Language : Russian
Service kind : Complete Main
Default : Yes
Forced : Yes
Audio #2
ID : 3
Format : AAC LC
Format/Info : Advanced Audio Codec Low Complexity
Codec ID : A_AAC-2
Duration : 2 h 3 min
Bit rate : 123 kb/s
Channel(s) : 2 channels
Channel layout : L R
Sampling rate : 44.1 kHz
Frame rate : 43.066 FPS (1024 SPF)
Compression mode : Lossy
Stream size : 108 MiB (1%)
Title : iTunes
Language : Ukrainian
Default : No
Forced : No
Audio #3
ID : 4
Format : E-AC-3
Format/Info : Enhanced AC-3
Commercial name : Dolby Digital Plus
Codec ID : A_EAC3
Duration : 2 h 3 min
Bit rate mode : Constant
Bit rate : 640 kb/s
Channel(s) : 6 channels
Channel layout : L R C LFE Ls Rs
Sampling rate : 48.0 kHz
Frame rate : 31.250 FPS (1536 SPF)
Compression mode : Lossy
Stream size : 563 MiB (7%)
Title : Original
Language : English
Service kind : Complete Main
Default : No
Forced : No
Text #1
ID : 5
Format : UTF-8
Codec ID : S_TEXT/UTF8
Codec ID/Info : UTF-8 Plain Text
Duration : 2 h 2 min
Bit rate : 1 b/s
Count of elements : 22
Stream size : 941 Bytes (0%)
Title : Forced
Language : Russian
Default : Yes
Forced : Yes
Text #2
ID : 6
Format : UTF-8
Codec ID : S_TEXT/UTF8
Codec ID/Info : UTF-8 Plain Text
Duration : 2 h 2 min
Bit rate : 68 b/s
Count of elements : 1074
Stream size : 61.6 KiB (0%)
Title : Full
Language : Russian
Default : No
Forced : No
Text #3
ID : 7
Format : UTF-8
Codec ID : S_TEXT/UTF8
Codec ID/Info : UTF-8 Plain Text
Duration : 2 h 2 min
Bit rate : 1 b/s
Count of elements : 27
Stream size : 1.17 KiB (0%)
Title : Forced
Language : Ukrainian
Default : No
Forced : No
Text #4
ID : 8
Format : UTF-8
Codec ID : S_TEXT/UTF8
Codec ID/Info : UTF-8 Plain Text
Duration : 2 h 2 min
Bit rate : 68 b/s
Count of elements : 1082
Stream size : 61.3 KiB (0%)
Title : Full
Language : Ukrainian
Default : No
Forced : No
Text #5
ID : 9
Format : UTF-8
Codec ID : S_TEXT/UTF8
Codec ID/Info : UTF-8 Plain Text
Duration : 2 h 0 min
Bit rate : 43 b/s
Count of elements : 1261
Stream size : 38.7 KiB (0%)
Title : Full
Language : English
Default : No
Forced : No
Text #6
ID : 10
Format : UTF-8
Codec ID : S_TEXT/UTF8
Codec ID/Info : UTF-8 Plain Text
Duration : 2 h 0 min
Bit rate : 46 b/s
Count of elements : 1396
Stream size : 41.3 KiB (0%)
Title : SDH
Language : English
Default : No
Forced : No

admin

Post Yesterday 06:20

[Quote]

Информация о фильме
Название: К звёздам
Оригинальное название: Ad Astra
Год выхода: 2019
Жанр: Фантастика, триллер, драма, детектив, приключения
Режиссер: Джеймс Грэй
В ролях: Брэд Питт, Томми Ли Джонс, Рут Негга, Дональд Сазерленд, Кимберли Элиз, Лорен Дин, Донни Кешаварц, Шон Блейкмор, Бобби Ниш, Лиза Гэй Хэмилтон

О фильме: Недалёкое будущее. Несколько лет назад человечество запустило программу поиска внеземной жизни «Проект «Лима»», во главе которой стоял капитан Клиффорд Макбрайд. Последний сигнал экспедиции был зафиксирован в районе Нептуна, и с тех пор о её судьбе ничего не было известно. Сам капитан Макбрайд стал героем и самым известным космонавтом, вдохновившим многих на исследование космоса. Через 16 лет после исчезновения «Проекта «Лима»» на Земле начинают происходить странные вспышки энергии, выводящие из строя электросистемы и сеящие хаос и разрушения. По данным американского космического агентства сигнал идёт с Нептуна, и теперь сыну знаменитого космонавта, майору Рою Макбрайду, поручается ответственная миссия. Он должен добраться до марсианской базы и оттуда попытаться связаться с предположительно живым отцом.
Страна: США, Китай, Бразилия
Студия: New Regency Pictures, Bona Film Group, Keep Your Head
Продолжительность: 02:03:03
Перевод: Дублированный | iTunes
Качество: WEB-DL 720p
Видео: MPEG-4 AVC, 1248x520, 4210 Kbit/s, 23.976 fps
Аудио #01: 48 kHz, AC3, 5.1, 384 Kbps | iTunes | RUS |
Аудио #02: 44.1 kHz, AAC, 2.0, 123 Kbps | iTunes | UKR |
Аудио #03: 48 kHz, E-AC3, 5.1, 640 Kbps | Оригинал | ENG |
Субтитры: Русские (Forced, full), украинские (Forced, full), английские

Скриншоты

MI

General
Unique ID : 326700702205521052375886851883133326070 (0xF5C8443AD9DB2F0096ED4EE8238852F6)
Complete name : F:Video111Ad.Astra.2019.AMZN.WEB-DL.720p.seleZen.mkv
Format : Matroska
Format version : Version 4
File size : 4.61 GiB
Duration : 2 h 3 min
Overall bit rate : 5 358 kb/s
Movie name : Ad Astra 2019 from селезень
Encoded date : UTC 2019-12-05 20:31:21
Writing application : mkvmerge v40.0.0 ('Old Town Road + Pony') 64-bit
Writing library : libebml v1.3.9 + libmatroska v1.5.2
Video
ID : 1
Format : AVC
Format/Info : Advanced Video Codec
Format profile : High@L3.1
Format settings : CABAC / 4 Ref Frames
Format settings, CABAC : Yes
Format settings, Reference : 4 frames
Codec ID : V_MPEG4/ISO/AVC
Duration : 2 h 3 min
Bit rate mode : Constant
Bit rate : 4 210 kb/s
Nominal bit rate : 6 000 kb/s
Width : 1 248 pixels
Height : 520 pixels
Display aspect ratio : 2.40:1
Frame rate mode : Constant
Frame rate : 23.976 (24000/1001) FPS
Color space : YUV
Chroma subsampling : 4:2:0
Bit depth : 8 bits
Scan type : Progressive
Bits/(Pixel*Frame) : 0.271
Stream size : 3.62 GiB (79%)
Language : English
Default : Yes
Forced : No
Color range : Limited
Color primaries : BT.709
Transfer characteristics : BT.709
Matrix coefficients : BT.709
Audio #1
ID : 2
Format : AC-3
Format/Info : Audio Coding 3
Commercial name : Dolby Digital
Codec ID : A_AC3
Duration : 2 h 3 min
Bit rate mode : Constant
Bit rate : 384 kb/s
Channel(s) : 6 channels
Channel layout : L R C LFE Ls Rs
Sampling rate : 48.0 kHz
Frame rate : 31.250 FPS (1536 SPF)
Bit depth : 16 bits
Compression mode : Lossy
Stream size : 338 MiB (7%)
Title : iTunes
Language : Russian
Service kind : Complete Main
Default : Yes
Forced : Yes
Audio #2
ID : 3
Format : AAC LC
Format/Info : Advanced Audio Codec Low Complexity
Codec ID : A_AAC-2
Duration : 2 h 3 min
Bit rate : 123 kb/s
Channel(s) : 2 channels
Channel layout : L R
Sampling rate : 44.1 kHz
Frame rate : 43.066 FPS (1024 SPF)
Compression mode : Lossy
Stream size : 108 MiB (2%)
Title : iTunes
Language : Ukrainian
Default : No
Forced : No
Audio #3
ID : 4
Format : E-AC-3
Format/Info : Enhanced AC-3
Commercial name : Dolby Digital Plus
Codec ID : A_EAC3
Duration : 2 h 3 min
Bit rate mode : Constant
Bit rate : 640 kb/s
Channel(s) : 6 channels
Channel layout : L R C LFE Ls Rs
Sampling rate : 48.0 kHz
Frame rate : 31.250 FPS (1536 SPF)
Compression mode : Lossy
Stream size : 563 MiB (12%)
Title : Original
Language : English
Service kind : Complete Main
Default : No
Forced : No
Text #1
ID : 5
Format : UTF-8
Codec ID : S_TEXT/UTF8
Codec ID/Info : UTF-8 Plain Text
Duration : 2 h 2 min
Bit rate : 1 b/s
Count of elements : 22
Stream size : 941 Bytes (0%)
Title : Forced
Language : Russian
Default : Yes
Forced : Yes
Text #2
ID : 6
Format : UTF-8
Codec ID : S_TEXT/UTF8
Codec ID/Info : UTF-8 Plain Text
Duration : 2 h 2 min
Bit rate : 68 b/s
Count of elements : 1074
Stream size : 61.6 KiB (0%)
Title : Full
Language : Russian
Default : No
Forced : No
Text #3
ID : 7
Format : UTF-8
Codec ID : S_TEXT/UTF8
Codec ID/Info : UTF-8 Plain Text
Duration : 2 h 2 min
Bit rate : 1 b/s
Count of elements : 27
Stream size : 1.17 KiB (0%)
Title : Forced
Language : Ukrainian
Default : No
Forced : No
Text #4
ID : 8
Format : UTF-8
Codec ID : S_TEXT/UTF8
Codec ID/Info : UTF-8 Plain Text
Duration : 2 h 2 min
Bit rate : 68 b/s
Count of elements : 1082
Stream size : 61.3 KiB (0%)
Title : Full
Language : Ukrainian
Default : No
Forced : No
Text #5
ID : 9
Format : UTF-8
Codec ID : S_TEXT/UTF8
Codec ID/Info : UTF-8 Plain Text
Duration : 2 h 0 min
Bit rate : 43 b/s
Count of elements : 1261
Stream size : 38.7 KiB (0%)
Title : Full
Language : English
Default : No
Forced : No
Text #6
ID : 10
Format : UTF-8
Codec ID : S_TEXT/UTF8
Codec ID/Info : UTF-8 Plain Text
Duration : 2 h 0 min
Bit rate : 46 b/s
Count of elements : 1396
Stream size : 41.3 KiB (0%)
Title : SDH
Language : English
Default : No
Forced : No

admin

Post 05-Dec-2019 04:30

[Quote]

Информация о фильме
Название: Арестант no name
Оригинальное название: Imprisoned
Год выхода: 2018
Жанр: Триллер
Режиссер: Пол Кампф
В ролях: Джон Хёрд, Лоренс Фишбёрн, Эсай Моралес, Эдвард Джеймс Олмос, Джон Уэртас, Хуан Пабло Раба, Фернанда Уррехола, Хуана Акоста, Ана Изабелль, Luis de La Rosa
О фильме:
Дилан Берк совершил много ошибок в прошлом, но теперь он живет мирной жизнью, зарабатывает на жизнь рыболовством, а его любимая, Мария, управляет кофейней в морском порту. Однако идиллия не может продолжаться вечно: тюремный надзиратель Даниэль Кальвин, чья жена погибла по вине Дилана 25 лет назад, жаждет мести.

Страна: США
Студия: Equitas Entertainment Partners, Pimienta
Продолжительность: 01:44:16
Перевод: Профессиональный (многоголосый, закадровый) | iTunes
Файл
Формат: MKV
Качество: WEB-DL 720p
Видео: AVC/H.264, 1280x532, ~4015 Kbps
Аудио: AC-3, 6 ch, 384 Kbps
Субтитры: Русские форсированные (хардсаб)

M/I

Общее
Формат : Matroska
Версия формата : Version 4
Размер файла : 3,21 Гбайт
Продолжительность : 1 ч. 44 м.
Общий поток : 4400 Кбит/сек
Дата кодирования : UTC 2019-12-02 19:31:59
Программа кодирования : mkvmerge v8.5.1 ('Where you lead I will follow') 64bit
Библиотека кодирования : libebml v1.3.3 + libmatroska v1.4.4
Видео
Идентификатор : 1
Формат : AVC
Формат/Информация : Advanced Video Codec
Профиль формата : Main@L3.1
Настройки формата : 2 Ref Frames
Параметр CABAC формата : Нет
Параметр RefFrames формата : 2 кадра
Идентификатор кодека : V_MPEG4/ISO/AVC
Продолжительность : 1 ч. 44 м.
Битрейт : 4015 Кбит/сек
Ширина : 1280 пикселей
Высота : 532 пикселя
Соотношение сторон : 2,40:1
Режим частоты кадров : Постоянный
Частота кадров : 24,000 кадра/сек
Цветовое пространство : YUV
Субдискретизация насыщенности : 4:2:0
Битовая глубина : 8 бит
Тип развёртки : Прогрессивная
Бит/(Пиксели*Кадры) : 0.246
Размер потока : 2,92 Гбайт (91%)
Заголовок : Main Program
Язык : English
Default : Да
Forced : Нет
Цветовой диапазон : Limited
Основные цвета : BT.709
Характеристики трансфера : BT.709
Коэффициенты матрицы : BT.709
Аудио
Идентификатор : 2
Формат : AC-3
Формат/Информация : Audio Coding 3
Коммерческое название : Dolby Digital
Идентификатор кодека : A_AC3
Продолжительность : 1 ч. 44 м.
Вид битрейта : Постоянный
Битрейт : 384 Кбит/сек
Каналы : 6 каналов
ChannelLayout : L R C LFE Ls Rs
Частота : 48,0 КГц
Частота кадров : 31,250 кадров/сек (1536 SPF)
Битовая глубина : 16 бит
Метод сжатия : С потерями
Размер потока : 286 Мбайт (9%)
Заголовок : Russian MVO from iTunes Russia DD 5.1
Язык : Russian
ServiceKind : Complete Main
Default : Да
Forced : Нет
Меню
00:00:00.000 : en:Глава 1
00:08:31.791 : en:Глава 2
00:16:39.124 : en:Глава 3
00:24:48.499 : en:Глава 4
00:32:50.124 : en:Глава 5
00:41:23.582 : en:Глава 6
00:49:32.582 : en:Глава 7
00:57:45.623 : en:Глава 8
01:06:06.164 : en:Глава 9
01:14:42.247 : en:Глава 10
01:22:58.580 : en:Глава 11
01:31:17.455 : en:Глава 12

Скриншоты

admin

Post 05-Dec-2019 04:22

[Quote]

Информация о фильме
Название: Иные
Оригинальное название: Freaks
Год выхода: 2018
Жанр: Фантастика, триллер, драма
Режиссер: Зак Липовски, Адам Б. Стейн
В ролях: Эмиль Хирш, Брюс Дерн, Грэйс Пак, Аманда Крю, Лекси Колкер, Ава Телек, Мишель Харрисон, Мэтти Финочио, Алекс Паунович, АрДжей Фезерстонхо

О фильме: В доме тихого одноэтажного района живёт отец-одиночка с семилетней дочерью Хлои. Папа трясётся над девочкой: запрещает ей выходить из дома, общаться с незнакомыми, а о том, чтобы поиграть с другими детьми, речи вообще не идёт — ведь мир полон опасных людей, которые только и ждут, чтобы напасть и убить. Поэтому маленькая Хлои придумывает себе развлечения сама и даже иногда видит в чулане призрака. Однажды, не сумев противостоять соблазну, девочка всё-таки выходит на улицу, чтобы купить мороженое. Подружившись со старым мороженщиком, Хлои с удивлением обнаруживает, что мир не так опасен, как пугал её отец.
Страна: Канада, США
Студия: Amazing, Bloomgarden Films, My Way Entertainment
Продолжительность: 01:44:56
Перевод: Дублированный | iTunes
Качество: BDRip 1080p
Видео: MPEG-4 AVC, 1920x818, 8870 Kbit/s, 23.976 fps
Аудио #01: 48 kHz, AC3, 5.1, 384 Kbps | iTunes | RUS |
Аудио #02: 48 kHz, AC3, 5.1, 640 Kbps | Оригинал | ENG |
Субтитры: Английские

Скриншоты

MI

General
Unique ID : 223265818723103879779721861318184843900 (0xA7F76EBDCE1A4D6B8F01D28A9B2CBA7C)
Complete name : F:Video111Freaks.2018.BDRip.1080p.seleZen.mkv
Format : Matroska
Format version : Version 4
File size : 7.25 GiB
Duration : 1 h 44 min
Overall bit rate : 9 894 kb/s
Movie name : Freaks 2018 from селезень
Encoded date : UTC 2019-12-04 14:43:51
Writing application : mkvmerge v40.0.0 ('Old Town Road + Pony') 64-bit
Writing library : libebml v1.3.9 + libmatroska v1.5.2
Video
ID : 1
Format : AVC
Format/Info : Advanced Video Codec
Format profile : High@L4.1
Format settings : CABAC / 5 Ref Frames
Format settings, CABAC : Yes
Format settings, Reference : 5 frames
Codec ID : V_MPEG4/ISO/AVC
Duration : 1 h 44 min
Bit rate : 8 870 kb/s
Width : 1 920 pixels
Height : 818 pixels
Display aspect ratio : 2.35:1
Frame rate mode : Constant
Frame rate : 23.976 (24000/1001) FPS
Color space : YUV
Chroma subsampling : 4:2:0
Bit depth : 8 bits
Scan type : Progressive
Bits/(Pixel*Frame) : 0.236
Stream size : 6.50 GiB (90%)
Title : Encoded by seleZen
Writing library : x264 core 148 r2705kMod 3f5ed56
Encoding settings : cabac=1 / ref=5 / deblock=1:-2:-2 / analyse=0x3:0x113 / me=umh / subme=11 / psy=1 / fade_compensate=0.00 / psy_rd=1.03:0.03 / mixed_ref=1 / me_range=32 / chroma_me=1 / trellis=2 / 8x8dct=1 / cqm=0 / deadzone=21,11 / fast_pskip=0 / chroma_qp_offset=-3 / threads=24 / lookahead_threads=6 / sliced_threads=0 / nr=0 / decimate=0 / interlaced=0 / bluray_compat=0 / constrained_intra=0 / fgo=0 / bframes=10 / b_pyramid=2 / b_adapt=2 / b_bias=0 / direct=3 / weightb=1 / open_gop=0 / weightp=2 / keyint=240 / keyint_min=23 / scenecut=40 / intra_refresh=0 / rc_lookahead=50 / rc=2pass / mbtree=0 / bitrate=8870 / ratetol=1.0 / qcomp=0.60 / qpmin=0 / qpmax=51 / qpstep=4 / cplxblur=20.0 / qblur=0.5 / vbv_maxrate=50000 / vbv_bufsize=62500 / nal_hrd=none / filler=0 / ip_ratio=1.40 / pb_ratio=1.30 / aq=3:0.80
Language : English
Default : Yes
Forced : No
Audio #1
ID : 2
Format : AC-3
Format/Info : Audio Coding 3
Commercial name : Dolby Digital
Codec ID : A_AC3
Duration : 1 h 44 min
Bit rate mode : Constant
Bit rate : 384 kb/s
Channel(s) : 6 channels
Channel layout : L R C LFE Ls Rs
Sampling rate : 48.0 kHz
Frame rate : 31.250 FPS (1536 SPF)
Bit depth : 16 bits
Compression mode : Lossy
Stream size : 288 MiB (4%)
Title : iTunes
Language : Russian
Service kind : Complete Main
Default : Yes
Forced : Yes
Audio #2
ID : 3
Format : AC-3
Format/Info : Audio Coding 3
Commercial name : Dolby Digital
Codec ID : A_AC3
Duration : 1 h 44 min
Bit rate mode : Constant
Bit rate : 640 kb/s
Channel(s) : 6 channels
Channel layout : L R C LFE Ls Rs
Sampling rate : 48.0 kHz
Frame rate : 31.250 FPS (1536 SPF)
Bit depth : 16 bits
Compression mode : Lossy
Stream size : 480 MiB (6%)
Title : Original
Language : English
Service kind : Complete Main
Default : No
Forced : No
Text
ID : 4
Format : UTF-8
Codec ID : S_TEXT/UTF8
Codec ID/Info : UTF-8 Plain Text
Duration : 1 h 39 min
Bit rate : 47 b/s
Count of elements : 1470
Stream size : 34.5 KiB (0%)
Title : Full
Language : English
Default : No
Forced : No
Menu
00:00:00.000 : :Chapter 01
00:08:33.763 : :Chapter 02
00:19:04.643 : :Chapter 03
00:26:30.756 : :Chapter 04
00:34:19.599 : :Chapter 05
00:40:53.534 : :Chapter 06
00:47:31.474 : :Chapter 07
00:57:44.586 : :Chapter 08
01:06:11.301 : :Chapter 09
01:14:00.186 : :Chapter 10
01:24:38.824 : :Chapter 11
01:33:46.621 : :Chapter 12
01:41:14.151 : :Chapter 13

admin

Post 05-Dec-2019 04:21

[Quote]

Информация о фильме
Название: Иные
Оригинальное название: Freaks
Год выхода: 2018
Жанр: Фантастика, триллер, драма
Режиссер: Зак Липовски, Адам Б. Стейн
В ролях: Эмиль Хирш, Брюс Дерн, Грэйс Пак, Аманда Крю, Лекси Колкер, Ава Телек, Мишель Харрисон, Мэтти Финочио, Алекс Паунович, АрДжей Фезерстонхо

О фильме: В доме тихого одноэтажного района живёт отец-одиночка с семилетней дочерью Хлои. Папа трясётся над девочкой: запрещает ей выходить из дома, общаться с незнакомыми, а о том, чтобы поиграть с другими детьми, речи вообще не идёт — ведь мир полон опасных людей, которые только и ждут, чтобы напасть и убить. Поэтому маленькая Хлои придумывает себе развлечения сама и даже иногда видит в чулане призрака. Однажды, не сумев противостоять соблазну, девочка всё-таки выходит на улицу, чтобы купить мороженое. Подружившись со старым мороженщиком, Хлои с удивлением обнаруживает, что мир не так опасен, как пугал её отец.
Страна: Канада, США
Студия: Amazing, Bloomgarden Films, My Way Entertainment
Продолжительность: 01:44:56
Перевод: Дублированный | iTunes
Качество: BDRip 720p
Видео: MPEG-4 AVC, 1280x546, 4659 Kbit/s, 23.976 fps
Аудио #01: 48 kHz, AC3, 5.1, 384 Kbps | iTunes | RUS |
Аудио #02: 48 kHz, AC3, 5.1, 640 Kbps | Оригинал | ENG |
Субтитры: Английские

Скриншоты

MI

General
Unique ID : 246772412320902660914998591630848430951 (0xB9A6A349129893ACDB52A74805EE1367)
Complete name : F:Video111Freaks.2018.BDRip.720p.seleZen.mkv
Format : Matroska
Format version : Version 4
File size : 4.17 GiB
Duration : 1 h 44 min
Overall bit rate : 5 683 kb/s
Movie name : Freaks 2018 from селезень
Encoded date : UTC 2019-12-04 17:22:27
Writing application : mkvmerge v40.0.0 ('Old Town Road + Pony') 64-bit
Writing library : libebml v1.3.9 + libmatroska v1.5.2
Video
ID : 1
Format : AVC
Format/Info : Advanced Video Codec
Format profile : High@L4.1
Format settings : CABAC / 12 Ref Frames
Format settings, CABAC : Yes
Format settings, Reference : 12 frames
Codec ID : V_MPEG4/ISO/AVC
Duration : 1 h 44 min
Bit rate : 4 659 kb/s
Width : 1 280 pixels
Height : 546 pixels
Display aspect ratio : 2.35:1
Frame rate mode : Constant
Frame rate : 23.976 (24000/1001) FPS
Color space : YUV
Chroma subsampling : 4:2:0
Bit depth : 8 bits
Scan type : Progressive
Bits/(Pixel*Frame) : 0.278
Stream size : 3.41 GiB (82%)
Title : Encoded by seleZen
Writing library : x264 core 148 r2705kMod 3f5ed56
Encoding settings : cabac=1 / ref=12 / deblock=1:-2:-2 / analyse=0x3:0x113 / me=umh / subme=11 / psy=1 / fade_compensate=0.00 / psy_rd=1.03:0.03 / mixed_ref=1 / me_range=32 / chroma_me=1 / trellis=2 / 8x8dct=1 / cqm=0 / deadzone=21,11 / fast_pskip=0 / chroma_qp_offset=-3 / threads=17 / lookahead_threads=4 / sliced_threads=0 / nr=0 / decimate=0 / interlaced=0 / bluray_compat=0 / constrained_intra=0 / fgo=0 / bframes=10 / b_pyramid=2 / b_adapt=2 / b_bias=0 / direct=3 / weightb=1 / open_gop=0 / weightp=2 / keyint=240 / keyint_min=23 / scenecut=40 / intra_refresh=0 / rc_lookahead=50 / rc=2pass / mbtree=0 / bitrate=4659 / ratetol=1.0 / qcomp=0.60 / qpmin=0 / qpmax=51 / qpstep=4 / cplxblur=20.0 / qblur=0.5 / vbv_maxrate=50000 / vbv_bufsize=62500 / nal_hrd=none / filler=0 / ip_ratio=1.40 / pb_ratio=1.30 / aq=3:0.80
Language : English
Default : Yes
Forced : No
Audio #1
ID : 2
Format : AC-3
Format/Info : Audio Coding 3
Commercial name : Dolby Digital
Codec ID : A_AC3
Duration : 1 h 44 min
Bit rate mode : Constant
Bit rate : 384 kb/s
Channel(s) : 6 channels
Channel layout : L R C LFE Ls Rs
Sampling rate : 48.0 kHz
Frame rate : 31.250 FPS (1536 SPF)
Bit depth : 16 bits
Compression mode : Lossy
Stream size : 288 MiB (7%)
Title : iTunes
Language : Russian
Service kind : Complete Main
Default : Yes
Forced : Yes
Audio #2
ID : 3
Format : AC-3
Format/Info : Audio Coding 3
Commercial name : Dolby Digital
Codec ID : A_AC3
Duration : 1 h 44 min
Bit rate mode : Constant
Bit rate : 640 kb/s
Channel(s) : 6 channels
Channel layout : L R C LFE Ls Rs
Sampling rate : 48.0 kHz
Frame rate : 31.250 FPS (1536 SPF)
Bit depth : 16 bits
Compression mode : Lossy
Stream size : 480 MiB (11%)
Title : Original
Language : English
Service kind : Complete Main
Default : No
Forced : No
Text
ID : 4
Format : UTF-8
Codec ID : S_TEXT/UTF8
Codec ID/Info : UTF-8 Plain Text
Duration : 1 h 39 min
Bit rate : 47 b/s
Count of elements : 1470
Stream size : 34.5 KiB (0%)
Title : Full
Language : English
Default : No
Forced : No
Menu
00:00:00.000 : :Chapter 01
00:08:33.763 : :Chapter 02
00:19:04.643 : :Chapter 03
00:26:30.756 : :Chapter 04
00:34:19.599 : :Chapter 05
00:40:53.534 : :Chapter 06
00:47:31.474 : :Chapter 07
00:57:44.586 : :Chapter 08
01:06:11.301 : :Chapter 09
01:14:00.186 : :Chapter 10
01:24:38.824 : :Chapter 11
01:33:46.621 : :Chapter 12
01:41:14.151 : :Chapter 13

admin

Post 05-Dec-2019 04:17

[Quote]

Информация о фильме
Название: Арахисовый сокол
Оригинальное название: The Peanut Butter Falcon
Год выхода: 2019
Жанр: Приключения, драма, комедия, спорт
Режиссер: Тайлер Нилсон, Майк Шварц
В ролях: Шайа ЛаБаф, Дакота Джонсон, Зак Готтзаген, Джон Хоукс, Томас Хейден Чёрч, Брюс Дерн, Джон Бернтал, Джэйк Робертс, Мик Фоли

О фильме: Большое путешествие начинается с шага, а легендарное - с полета. Вылетев в окно, герой очутился в мире, где чего-то не хватало. Его новому другу - крупной суммы денег. Паре головорезов - головы друга. Молодой медсестре - любви. А ему - путешествий на плоту, погонь, пылающих костров и немного арахисового масла.
Страна: США
Студия: Armory Films, 1993, Lucky Treehouse
Продолжительность: 01:36:56
Перевод: Дублированный | iTunes
Качество: BDRip 720p
Видео: MPEG-4 AVC, 1280x536, 6000 Kbit/s, 23.976 fps
Аудио #01: 48 kHz, AC3, 5.1, 384 Kbps | iTunes | RUS |
Аудио #02: 48 kHz, AC3, 5.1, 640 Kbps | Оригинал | ENG |
Субтитры: Русские (Full), английские

Скриншоты

MI

General
Unique ID : 282711597045020520256271797749019968291 (0xD4B045E5C858CD7BDAF3BD230E160323)
Complete name : F:Video111The.Peanut.Butter.Falcon.2019.BDRip.720p.seleZen.mkv
Format : Matroska
Format version : Version 4
File size : 4.75 GiB
Duration : 1 h 36 min
Overall bit rate : 7 013 kb/s
Movie name : The Peanut Butter Falcon 2019 from селезень
Encoded date : UTC 2019-12-04 19:32:32
Writing application : mkvmerge v40.0.0 ('Old Town Road + Pony') 64-bit
Writing library : libebml v1.3.9 + libmatroska v1.5.2
Video
ID : 1
Format : AVC
Format/Info : Advanced Video Codec
Format profile : High@L4.1
Format settings : CABAC / 12 Ref Frames
Format settings, CABAC : Yes
Format settings, Reference : 12 frames
Codec ID : V_MPEG4/ISO/AVC
Duration : 1 h 36 min
Bit rate : 6 000 kb/s
Width : 1 280 pixels
Height : 536 pixels
Display aspect ratio : 2.40:1
Frame rate mode : Constant
Frame rate : 23.976 (24000/1001) FPS
Color space : YUV
Chroma subsampling : 4:2:0
Bit depth : 8 bits
Scan type : Progressive
Bits/(Pixel*Frame) : 0.365
Stream size : 4.05 GiB (85%)
Writing library : x264 core 158 r2988+50 ~ LoRD
Encoding settings : cabac=1 / ref=12 / deblock=1:-3:-3 / analyse=0x3:0x133 / me=umh / subme=10 / psy=1 / fade_compensate=0.00 / psy_rd=1.00:0.00 / mixed_ref=1 / me_range=32 / chroma_me=1 / trellis=2 / 8x8dct=1 / cqm=0 / deadzone=21,11 / fast_pskip=0 / chroma_qp_offset=-2 / threads=12 / lookahead_threads=2 / sliced_threads=0 / nr=0 / decimate=0 / interlaced=0 / bluray_compat=0 / constrained_intra=0 / fgo=0 / bframes=8 / b_pyramid=2 / b_adapt=2 / b_bias=0 / direct=3 / weightb=1 / open_gop=0 / weightp=2 / keyint=250 / keyint_min=23 / scenecut=40 / intra_refresh=0 / rc_lookahead=60 / rc=2pass / mbtree=0 / bitrate=6000 / ratetol=1.0 / qcomp=0.70 / qpmin=0:0:0 / qpmax=69:69:69 / qpstep=4 / cplxblur=20.0 / qblur=0.5 / vbv_maxrate=50000 / vbv_bufsize=62500 / nal_hrd=none / filler=0 / ip_ratio=1.25 / pb_ratio=1.25 / aq=3:0.90 / aq-sensitivity=10.00 / aq-factor=1.00:1.00:1.00 / aq2=0 / aq3=0
Language : English
Default : Yes
Forced : No
Audio #1
ID : 2
Format : AC-3
Format/Info : Audio Coding 3
Commercial name : Dolby Digital
Codec ID : A_AC3
Duration : 1 h 36 min
Bit rate mode : Constant
Bit rate : 384 kb/s
Channel(s) : 6 channels
Channel layout : L R C LFE Ls Rs
Sampling rate : 48.0 kHz
Frame rate : 31.250 FPS (1536 SPF)
Bit depth : 16 bits
Compression mode : Lossy
Stream size : 266 MiB (5%)
Title : iTunes
Language : Russian
Service kind : Complete Main
Default : Yes
Forced : Yes
Audio #2
ID : 3
Format : AC-3
Format/Info : Audio Coding 3
Commercial name : Dolby Digital
Codec ID : A_AC3
Duration : 1 h 36 min
Bit rate mode : Constant
Bit rate : 640 kb/s
Channel(s) : 6 channels
Channel layout : L R C LFE Ls Rs
Sampling rate : 48.0 kHz
Frame rate : 31.250 FPS (1536 SPF)
Bit depth : 16 bits
Compression mode : Lossy
Stream size : 444 MiB (9%)
Title : Original
Language : English
Service kind : Complete Main
Default : No
Forced : No
Text #1
ID : 4
Format : UTF-8
Codec ID : S_TEXT/UTF8
Codec ID/Info : UTF-8 Plain Text
Duration : 1 h 30 min
Bit rate : 91 b/s
Count of elements : 1418
Stream size : 60.5 KiB (0%)
Title : Full [MENINSUB]
Language : Russian
Default : No
Forced : No
Text #2
ID : 5
Format : UTF-8
Codec ID : S_TEXT/UTF8
Codec ID/Info : UTF-8 Plain Text
Duration : 1 h 35 min
Bit rate : 67 b/s
Count of elements : 1551
Stream size : 47.1 KiB (0%)
Title : Full
Language : English
Default : No
Forced : No
Text #3
ID : 6
Format : UTF-8
Codec ID : S_TEXT/UTF8
Codec ID/Info : UTF-8 Plain Text
Duration : 1 h 35 min
Bit rate : 74 b/s
Count of elements : 1710
Stream size : 52.5 KiB (0%)
Title : SDH
Language : English
Default : No
Forced : No
Menu
00:00:00.000 : en:Chapter 01
00:08:14.243 : en:Chapter 02
00:17:54.073 : en:Chapter 03
00:25:26.191 : en:Chapter 04
00:32:30.949 : en:Chapter 05
00:42:37.555 : en:Chapter 06
00:50:34.906 : en:Chapter 07
00:58:02.270 : en:Chapter 08
01:04:19.856 : en:Chapter 09
01:13:20.396 : en:Chapter 10
01:21:12.617 : en:Chapter 11
01:31:09.464 : en:Chapter 12

admin

Post 05-Dec-2019 04:17

[Quote]

Информация о фильме
Название: Арахисовый сокол
Оригинальное название: The Peanut Butter Falcon
Год выхода: 2019
Жанр: Приключения, драма, комедия, спорт
Режиссер: Тайлер Нилсон, Майк Шварц
В ролях: Шайа ЛаБаф, Дакота Джонсон, Зак Готтзаген, Джон Хоукс, Томас Хейден Чёрч, Брюс Дерн, Джон Бернтал, Джэйк Робертс, Мик Фоли

О фильме: Большое путешествие начинается с шага, а легендарное - с полета. Вылетев в окно, герой очутился в мире, где чего-то не хватало. Его новому другу - крупной суммы денег. Паре головорезов - головы друга. Молодой медсестре - любви. А ему - путешествий на плоту, погонь, пылающих костров и немного арахисового масла.
Страна: США
Студия: Armory Films, 1993, Lucky Treehouse
Продолжительность: 01:36:56
Перевод: Дублированный | iTunes
Качество: BDRip 1080p
Видео: MPEG-4 AVC, 1920x804, 13.0 Mbit/s, 23.976 fps
Аудио #01: 48 kHz, AC3, 5.1, 384 Kbps | iTunes | RUS |
Аудио #02: 48 kHz, AC3, 5.1, 640 Kbps | Оригинал | ENG |
Субтитры: Русские (Full), английские

Скриншоты

MI

General
Unique ID : 144969288267868101232632597034175317974 (0x6D1011BF8E479596BE99E02507BC47D6)
Complete name : F:Video111The.Peanut.Butter.Falcon.2019.BDRip.1080p.seleZen.mkv
Format : Matroska
Format version : Version 4
File size : 9.49 GiB
Duration : 1 h 36 min
Overall bit rate : 14.0 Mb/s
Movie name : The Peanut Butter Falcon 2019 from селезень
Encoded date : UTC 2019-12-04 19:23:37
Writing application : mkvmerge v40.0.0 ('Old Town Road + Pony') 64-bit
Writing library : libebml v1.3.9 + libmatroska v1.5.2
Video
ID : 1
Format : AVC
Format/Info : Advanced Video Codec
Format profile : High@L4.1
Format settings : CABAC / 5 Ref Frames
Format settings, CABAC : Yes
Format settings, Reference : 5 frames
Codec ID : V_MPEG4/ISO/AVC
Duration : 1 h 36 min
Bit rate : 13.0 Mb/s
Width : 1 920 pixels
Height : 804 pixels
Display aspect ratio : 2.40:1
Frame rate mode : Constant
Frame rate : 23.976 (24000/1001) FPS
Color space : YUV
Chroma subsampling : 4:2:0
Bit depth : 8 bits
Scan type : Progressive
Bits/(Pixel*Frame) : 0.351
Stream size : 8.80 GiB (93%)
Title : LoRD
Writing library : x264 core 158 r2984 3759fcb
Encoding settings : cabac=1 / ref=5 / deblock=1:-3:-3 / analyse=0x3:0x133 / me=umh / subme=10 / psy=1 / psy_rd=1.00:0.00 / mixed_ref=1 / me_range=32 / chroma_me=1 / trellis=2 / 8x8dct=1 / cqm=0 / deadzone=21,11 / fast_pskip=0 / chroma_qp_offset=-2 / threads=12 / lookahead_threads=2 / sliced_threads=0 / nr=0 / decimate=0 / interlaced=0 / bluray_compat=0 / constrained_intra=0 / bframes=8 / b_pyramid=2 / b_adapt=2 / b_bias=0 / direct=3 / weightb=1 / open_gop=0 / weightp=2 / keyint=250 / keyint_min=23 / scenecut=40 / intra_refresh=0 / rc_lookahead=60 / rc=2pass / mbtree=0 / bitrate=13000 / ratetol=1.0 / qcomp=0.60 / qpmin=0 / qpmax=69 / qpstep=4 / cplxblur=20.0 / qblur=0.5 / vbv_maxrate=62500 / vbv_bufsize=78125 / nal_hrd=none / filler=0 / ip_ratio=1.30 / pb_ratio=1.25 / aq=3:0.75
Language : English
Default : Yes
Forced : No
Audio #1
ID : 2
Format : AC-3
Format/Info : Audio Coding 3
Commercial name : Dolby Digital
Codec ID : A_AC3
Duration : 1 h 36 min
Bit rate mode : Constant
Bit rate : 384 kb/s
Channel(s) : 6 channels
Channel layout : L R C LFE Ls Rs
Sampling rate : 48.0 kHz
Frame rate : 31.250 FPS (1536 SPF)
Bit depth : 16 bits
Compression mode : Lossy
Stream size : 266 MiB (3%)
Title : iTunes
Language : Russian
Service kind : Complete Main
Default : Yes
Forced : Yes
Audio #2
ID : 3
Format : AC-3
Format/Info : Audio Coding 3
Commercial name : Dolby Digital
Codec ID : A_AC3
Duration : 1 h 36 min
Bit rate mode : Constant
Bit rate : 640 kb/s
Channel(s) : 6 channels
Channel layout : L R C LFE Ls Rs
Sampling rate : 48.0 kHz
Frame rate : 31.250 FPS (1536 SPF)
Bit depth : 16 bits
Compression mode : Lossy
Stream size : 444 MiB (5%)
Title : Original
Language : English
Service kind : Complete Main
Default : No
Forced : No
Text #1
ID : 4
Format : UTF-8
Codec ID : S_TEXT/UTF8
Codec ID/Info : UTF-8 Plain Text
Duration : 1 h 30 min
Bit rate : 91 b/s
Count of elements : 1418
Stream size : 60.5 KiB (0%)
Title : Full [MENINSUB]
Language : Russian
Default : No
Forced : No
Text #2
ID : 5
Format : UTF-8
Codec ID : S_TEXT/UTF8
Codec ID/Info : UTF-8 Plain Text
Duration : 1 h 35 min
Bit rate : 67 b/s
Count of elements : 1551
Stream size : 47.1 KiB (0%)
Title : Full
Language : English
Default : No
Forced : No
Text #3
ID : 6
Format : UTF-8
Codec ID : S_TEXT/UTF8
Codec ID/Info : UTF-8 Plain Text
Duration : 1 h 35 min
Bit rate : 74 b/s
Count of elements : 1710
Stream size : 52.5 KiB (0%)
Title : SDH
Language : English
Default : No
Forced : No
Menu
00:00:00.000 : en:Chapter 01
00:08:14.243 : en:Chapter 02
00:17:54.073 : en:Chapter 03
00:25:26.191 : en:Chapter 04
00:32:30.949 : en:Chapter 05
00:42:37.555 : en:Chapter 06
00:50:34.906 : en:Chapter 07
00:58:02.270 : en:Chapter 08
01:04:19.856 : en:Chapter 09
01:13:20.396 : en:Chapter 10
01:21:12.617 : en:Chapter 11
01:31:09.464 : en:Chapter 12

admin

Post 04-Dec-2019 04:03

[Quote]

SuperЗять / Le gendre de ma vie
Страна: Франция
Производство: Canal+ [fr], Pathe, uFund, uMedia Family, C8 Films, Liaisons Films, Nac Films, TF1, TMC
Год выпуска: 2018
Жанр: комедия
Продолжительность: 01:40:50
Режиссер: Франсуа Дезанья
Авторы сценария: Франсуа Дезанья, Джефф Моррис
В ролях: Кад Мерад, Полин Этьен, Жюли Гайе, Франсуа Деблок, Забу Брайтман, Гийом Лаббе, Хлоя Жуанне, Луиз Колдефи, Жереми Лопез
Описание: Если папа — псих, который в каждом твоём случайном знакомом видит своего будущего зятя — это большая проблема! Твоя старшая сестра доведена папиными выходками до отчаяния и решает скрыть свою свадьбу. А младшая уже вовсю борется за права женщин. И вы решаете его проучить…

Перевод: Профессиональный (полное дублирование) | iTunes
Субтитры: французские (SDH)-Качество: BDRip 1080p
Формат: МКV
Видео кодек: AVC
Аудио кодек: АС3
Видео: 1920x800 (2.40:1), 23.976 fps, MPEG-4 AVC ~9 352 kbps avg
Аудио №1: 48.0 kHz, AC3 Dolby Digital, 3/2 (L,C,R,l,r) + LFE ch, ~384 kbps | RUS
Аудио №2: 48.0 kHz, AC3 Dolby Digital, 3/2 (L,C,R,l,r) + LFE ch, ~384 kbps | FRE
Формат субтитров: PGS
Дата премьеры (мир): 19 декабря 2018
Дата премьеры (РФ): 16 мая 2019, «Маурис Филм»

Media Info

General
Unique ID : 243896096604389889817230638024634291393 (0xB77CADF8C15FA464A942B75C0ECA54C1)
Complete name : SuperZyat.2018.1080p.BluRay.ELEKTRI4KA.UNIONGANG.mkv
Format : Matroska
Format version : Version 4
File size : 7.14 GiB
Duration : 1 h 40 min
Overall bit rate : 10.1 Mb/s
Encoded date : UTC 2019-12-01 17:26:05
Writing application : mkvmerge v8.3.0 ('Over the Horizon') 64bit
Writing library : libebml v1.3.1 + libmatroska v1.4.2
Video
ID : 1
Format : AVC
Format/Info : Advanced Video Codec
Format profile : High@L4.1
Format settings : CABAC / 4 Ref Frames
Format settings, CABAC : Yes
Format settings, Reference frames : 4 frames
Codec ID : V_MPEG4/ISO/AVC
Duration : 1 h 40 min
Bit rate : 9 352 kb/s
Width : 1 920 pixels
Height : 800 pixels
Display aspect ratio : 2.40:1
Frame rate mode : Constant
Frame rate : 23.976 (24000/1001) FPS
Color space : YUV
Chroma subsampling : 4:2:0
Bit depth : 8 bits
Scan type : Progressive
Bits/(Pixel*Frame) : 0.254
Stream size : 6.59 GiB (92%)
Writing library : x264 core 152 r2851 ba24899
Encoding settings : cabac=1 / ref=3 / deblock=1:0:0 / analyse=0x3:0x113 / me=hex / subme=7 / psy=1 / psy_rd=1.00:0.00 / mixed_ref=1 / me_range=16 / chroma_me=1 / trellis=1 / 8x8dct=1 / cqm=0 / deadzone=21,11 / fast_pskip=1 / chroma_qp_offset=-2 / threads=12 / lookahead_threads=2 / sliced_threads=0 / nr=0 / decimate=1 / interlaced=0 / bluray_compat=0 / constrained_intra=0 / bframes=3 / b_pyramid=2 / b_adapt=1 / b_bias=0 / direct=1 / weightb=1 / open_gop=0 / weightp=2 / keyint=240 / keyint_min=23 / scenecut=40 / intra_refresh=0 / rc_lookahead=40 / rc=2pass / mbtree=1 / bitrate=9352 / ratetol=1.0 / qcomp=0.60 / qpmin=0 / qpmax=69 / qpstep=4 / cplxblur=20.0 / qblur=0.5 / vbv_maxrate=62500 / vbv_bufsize=78125 / nal_hrd=none / filler=0 / ip_ratio=1.40 / aq=1:1.00
Language : French
Default : Yes
Forced : No
Audio #1
ID : 2
Format : AC-3
Format/Info : Audio Coding 3
Commercial name : Dolby Digital
Codec ID : A_AC3
Duration : 1 h 40 min
Bit rate mode : Constant
Bit rate : 384 kb/s
Channel(s) : 6 channels
Channel layout : L R C LFE Ls Rs
Sampling rate : 48.0 kHz
Frame rate : 31.250 FPS (1536 SPF)
Bit depth : 16 bits
Compression mode : Lossy
Stream size : 277 MiB (4%)
Title : iTunes
Language : Russian
Service kind : Complete Main
Default : Yes
Forced : No
Audio #2
ID : 3
Format : AC-3
Format/Info : Audio Coding 3
Commercial name : Dolby Digital
Codec ID : A_AC3
Duration : 1 h 40 min
Bit rate mode : Constant
Bit rate : 384 kb/s
Channel(s) : 6 channels
Channel layout : L R C LFE Ls Rs
Sampling rate : 48.0 kHz
Frame rate : 31.250 FPS (1536 SPF)
Bit depth : 16 bits
Compression mode : Lossy
Stream size : 277 MiB (4%)
Language : French
Service kind : Complete Main
Default : No
Forced : No
Text
ID : 4
Format : PGS
Muxing mode : zlib
Codec ID : S_HDMV/PGS
Codec ID/Info : Picture based subtitle format used on BDs/HD-DVDs
Duration : 1 h 40 min
Bit rate : 12.3 kb/s
Count of elements : 3814
Stream size : 8.81 MiB (0%)
Title : SDH
Language : French
Default : No
Forced : No
Menu
00:00:00.000 : en:
00:06:56.457 : en:
00:17:41.435 : en:
00:24:04.276 : en:
00:32:06.382 : en:
00:39:22.568 : en:
00:50:35.282 : en:
00:58:30.465 : en:
01:09:10.521 : en:
01:18:42.634 : en:
01:29:35.620 : en:
01:35:32.226 : en:

Скриншоты

admin

Post 04-Dec-2019 04:02

[Quote]

SuperЗять / Le gendre de ma vie
Страна: Франция
Производство: Canal+ [fr], Pathe, uFund, uMedia Family, C8 Films, Liaisons Films, Nac Films, TF1, TMC
Год выпуска: 2018
Жанр: комедия
Продолжительность: 01:40:50
Режиссер: Франсуа Дезанья
Авторы сценария: Франсуа Дезанья, Джефф Моррис
В ролях: Кад Мерад, Полин Этьен, Жюли Гайе, Франсуа Деблок, Забу Брайтман, Гийом Лаббе, Хлоя Жуанне, Луиз Колдефи, Жереми Лопез
Описание: Если папа — псих, который в каждом твоём случайном знакомом видит своего будущего зятя — это большая проблема! Твоя старшая сестра доведена папиными выходками до отчаяния и решает скрыть свою свадьбу. А младшая уже вовсю борется за права женщин. И вы решаете его проучить…

Перевод: Профессиональный (полное дублирование) | iTunes
Субтитры: французские (SDH)-Качество: BDRip 720p
Формат: МКV
Видео кодек: AVC
Аудио кодек: АС3
Видео: 1280x536 (2.40:1), 23.976 fps, MPEG-4 AVC ~4 695 kbps avg
Аудио №1: 48.0 kHz, AC3 Dolby Digital, 3/2 (L,C,R,l,r) + LFE ch, ~384 kbps | RUS
Аудио №2: 48.0 kHz, AC3 Dolby Digital, 3/2 (L,C,R,l,r) + LFE ch, ~384 kbps | FRE
Формат субтитров: PGS
Дата премьеры (мир): 19 декабря 2018
Дата премьеры (РФ): 16 мая 2019, «Маурис Филм»

Media Info

General
Unique ID : 252726091216817267526891850647021077835 (0xBE21465171BB4130BEB1AA14A1BCC54B)
Complete name : SuperZyat.2018.720p.BluRay.ELEKTRI4KA.UNIONGANG.mkv
Format : Matroska
Format version : Version 4
File size : 3.86 GiB
Duration : 1 h 40 min
Overall bit rate : 5 474 kb/s
Encoded date : UTC 2019-12-01 17:43:04
Writing application : mkvmerge v8.3.0 ('Over the Horizon') 64bit
Writing library : libebml v1.3.1 + libmatroska v1.4.2
Video
ID : 1
Format : AVC
Format/Info : Advanced Video Codec
Format profile : High@L4.1
Format settings : CABAC / 4 Ref Frames
Format settings, CABAC : Yes
Format settings, Reference frames : 4 frames
Codec ID : V_MPEG4/ISO/AVC
Duration : 1 h 40 min
Bit rate : 4 695 kb/s
Width : 1 280 pixels
Height : 536 pixels
Display aspect ratio : 2.40:1
Frame rate mode : Constant
Frame rate : 23.976 (24000/1001) FPS
Color space : YUV
Chroma subsampling : 4:2:0
Bit depth : 8 bits
Scan type : Progressive
Bits/(Pixel*Frame) : 0.285
Stream size : 3.30 GiB (86%)
Writing library : x264 core 152 r2851 ba24899
Encoding settings : cabac=1 / ref=3 / deblock=1:0:0 / analyse=0x3:0x113 / me=hex / subme=7 / psy=1 / psy_rd=1.00:0.00 / mixed_ref=1 / me_range=16 / chroma_me=1 / trellis=1 / 8x8dct=1 / cqm=0 / deadzone=21,11 / fast_pskip=1 / chroma_qp_offset=-2 / threads=17 / lookahead_threads=2 / sliced_threads=0 / nr=0 / decimate=1 / interlaced=0 / bluray_compat=0 / constrained_intra=0 / bframes=3 / b_pyramid=2 / b_adapt=1 / b_bias=0 / direct=1 / weightb=1 / open_gop=0 / weightp=2 / keyint=240 / keyint_min=23 / scenecut=40 / intra_refresh=0 / rc_lookahead=40 / rc=2pass / mbtree=1 / bitrate=4695 / ratetol=1.0 / qcomp=0.60 / qpmin=0 / qpmax=69 / qpstep=4 / cplxblur=20.0 / qblur=0.5 / vbv_maxrate=62500 / vbv_bufsize=78125 / nal_hrd=none / filler=0 / ip_ratio=1.40 / aq=1:1.00
Language : French
Default : Yes
Forced : No
Audio #1
ID : 2
Format : AC-3
Format/Info : Audio Coding 3
Commercial name : Dolby Digital
Codec ID : A_AC3
Duration : 1 h 40 min
Bit rate mode : Constant
Bit rate : 384 kb/s
Channel(s) : 6 channels
Channel layout : L R C LFE Ls Rs
Sampling rate : 48.0 kHz
Frame rate : 31.250 FPS (1536 SPF)
Bit depth : 16 bits
Compression mode : Lossy
Stream size : 277 MiB (7%)
Title : iTunes
Language : Russian
Service kind : Complete Main
Default : Yes
Forced : No
Audio #2
ID : 3
Format : AC-3
Format/Info : Audio Coding 3
Commercial name : Dolby Digital
Codec ID : A_AC3
Duration : 1 h 40 min
Bit rate mode : Constant
Bit rate : 384 kb/s
Channel(s) : 6 channels
Channel layout : L R C LFE Ls Rs
Sampling rate : 48.0 kHz
Frame rate : 31.250 FPS (1536 SPF)
Bit depth : 16 bits
Compression mode : Lossy
Stream size : 277 MiB (7%)
Language : French
Service kind : Complete Main
Default : No
Forced : No
Text
ID : 4
Format : PGS
Muxing mode : zlib
Codec ID : S_HDMV/PGS
Codec ID/Info : Picture based subtitle format used on BDs/HD-DVDs
Duration : 1 h 40 min
Bit rate : 12.3 kb/s
Count of elements : 3814
Stream size : 8.81 MiB (0%)
Language : French
Default : Yes
Forced : No
Menu
00:00:00.000 : en:
00:06:56.457 : en:
00:17:41.435 : en:
00:24:04.276 : en:
00:32:06.382 : en:
00:39:22.568 : en:
00:50:35.282 : en:
00:58:30.465 : en:
01:09:10.521 : en:
01:18:42.634 : en:
01:29:35.620 : en:
01:35:32.226 : en:

Скриншоты

admin

Post 02-Dec-2019 21:27

[Quote]

Информация о фильме
Название: Они ползут за тобой
Оригинальное название: Them That Follow
Год выхода: 2019
Жанр: Триллер
Режиссер: Бриттани Поултон, Дэн Мэдисон Сэвидж
В ролях: Кейтлин Девер, Уолтон Гоггинс, Оливия Колман, Томас Манн, Джим Гэффиган, Льюис Пуллман, Элис Энглерт, Доминик Кансельер, Брэдли Галло, Энни Тедеско

О фильме: В глубине Аппалачей запрещенные отношения заставляют дочь пастора противостоять смертельной традиции ее общины.
Страна: США
Студия: Amasia Entertainment, G-BASE
Продолжительность: 01:38:00
Перевод: Профессиональный многоголосый | iTunes
Качество: WEB-DL 1080p
Видео: MPEG-4 AVC, 1920x816, 8866 Кbit/s, 23.976 fps
Аудио #01: 48 kHz, AC3, 5.1, 384 Kbps | iTunes | RUS |
Аудио #02: 48 kHz, E-AC3, 5.1, 640 Kbps | Оригинал | ENG |
Субтитры: Русские (Full), украинские (Full), английские

Скриншоты

MI

General
Unique ID : 336006535154070923810138008697166166634 (0xFCC88137B584D05D7D31346C6DC8FA6A)
Complete name : F:Video111Them.That.Follow.2019.AMZN.WEB-DL.1080p.seleZen.mkv
Format : Matroska
Format version : Version 4
File size : 6.77 GiB
Duration : 1 h 38 min
Overall bit rate : 9 890 kb/s
Movie name : Them That Follow 2019 from селезень
Encoded date : UTC 2019-12-01 20:08:01
Writing application : mkvmerge v40.0.0 ('Old Town Road + Pony') 64-bit
Writing library : libebml v1.3.9 + libmatroska v1.5.2
Video
ID : 1
Format : AVC
Format/Info : Advanced Video Codec
Format profile : High@L4
Format settings : CABAC / 4 Ref Frames
Format settings, CABAC : Yes
Format settings, Reference : 4 frames
Codec ID : V_MPEG4/ISO/AVC
Duration : 1 h 37 min
Bit rate mode : Constant
Bit rate : 8 866 kb/s
Nominal bit rate : 10 000 kb/s
Width : 1 920 pixels
Height : 816 pixels
Display aspect ratio : 2.35:1
Frame rate mode : Constant
Frame rate : 23.976 (24000/1001) FPS
Color space : YUV
Chroma subsampling : 4:2:0
Bit depth : 8 bits
Scan type : Progressive
Bits/(Pixel*Frame) : 0.236
Stream size : 6.07 GiB (90%)
Language : English
Default : Yes
Forced : No
Color range : Limited
Color primaries : BT.709
Transfer characteristics : BT.709
Matrix coefficients : BT.709
Audio #1
ID : 2
Format : AC-3
Format/Info : Audio Coding 3
Commercial name : Dolby Digital
Codec ID : A_AC3
Duration : 1 h 37 min
Bit rate mode : Constant
Bit rate : 384 kb/s
Channel(s) : 6 channels
Channel layout : L R C LFE Ls Rs
Sampling rate : 48.0 kHz
Frame rate : 31.250 FPS (1536 SPF)
Bit depth : 16 bits
Compression mode : Lossy
Stream size : 269 MiB (4%)
Title : iTunes
Language : Russian
Service kind : Complete Main
Default : Yes
Forced : Yes
Audio #2
ID : 3
Format : E-AC-3
Format/Info : Enhanced AC-3
Commercial name : Dolby Digital Plus
Codec ID : A_EAC3
Duration : 1 h 37 min
Bit rate mode : Constant
Bit rate : 640 kb/s
Channel(s) : 6 channels
Channel layout : L R C LFE Ls Rs
Sampling rate : 48.0 kHz
Frame rate : 31.250 FPS (1536 SPF)
Compression mode : Lossy
Stream size : 449 MiB (6%)
Title : Original
Language : English
Service kind : Complete Main
Default : No
Forced : No
Text #1
ID : 4
Format : UTF-8
Codec ID : S_TEXT/UTF8
Codec ID/Info : UTF-8 Plain Text
Duration : 1 h 32 min
Bit rate : 49 b/s
Count of elements : 766
Stream size : 33.9 KiB (0%)
Title : Full
Language : Russian
Default : No
Forced : No
Text #2
ID : 5
Format : UTF-8
Codec ID : S_TEXT/UTF8
Codec ID/Info : UTF-8 Plain Text
Duration : 1 h 36 min
Bit rate : 46 b/s
Count of elements : 765
Stream size : 32.8 KiB (0%)
Title : Full
Language : Ukrainian
Default : No
Forced : No
Text #3
ID : 6
Format : UTF-8
Codec ID : S_TEXT/UTF8
Codec ID/Info : UTF-8 Plain Text
Duration : 1 h 30 min
Bit rate : 33 b/s
Count of elements : 753
Stream size : 21.8 KiB (0%)
Title : Full
Language : English
Default : No
Forced : No
Text #4
ID : 7
Format : UTF-8
Codec ID : S_TEXT/UTF8
Codec ID/Info : UTF-8 Plain Text
Duration : 1 h 32 min
Bit rate : 37 b/s
Count of elements : 959
Stream size : 25.2 KiB (0%)
Title : SDH
Language : English
Default : No
Forced : No

admin

Post 02-Dec-2019 21:25

[Quote]

Информация о фильме
Название: Они ползут за тобой
Оригинальное название: Them That Follow
Год выхода: 2019
Жанр: Триллер
Режиссер: Бриттани Поултон, Дэн Мэдисон Сэвидж
В ролях: Кейтлин Девер, Уолтон Гоггинс, Оливия Колман, Томас Манн, Джим Гэффиган, Льюис Пуллман, Элис Энглерт, Доминик Кансельер, Брэдли Галло, Энни Тедеско, Брукс Роузберри, Катрин Л. Альберс, Крис Брин, Логан Фрай, Кристин М. Прэтт
О фильме:
Герои фильма живут в отдалении от шумных и опасных мегаполисов. Далеко в горах их семья чувствует себя ближе к Богу и подальше от прегрешений современного мира. Лемуэль считает себя главным и проповедует свои жуткие правила. К примеру, полное подчинение женщин мужчинам. Тех, кто отказывается подчиняться правилам и случайно оступился, ждет жуткое наказание гремучими змеями. Проповедник считает, что только настоящие последователи религиозного культа смогут выжить и не быть укушенными змеей. Героиня Мара была прилежной и тихой девчонкой, однако тот факт, что её пообещали жалкому набожнику Гаррету совсем не обрадовало молодую девушку. Тем более, проблема в том что Мара влюблена в парня Оджи, от которого уже носит ребенка. Вскоре их ждет жестокое испытание, которое решит дальнейшую судьбу персонажей...

Страна: США
Студия: Amasia Entertainment, G-BASE
Продолжительность: 01:38:00
Перевод: Профессиональный многоголосый | iTunes
Файл
Кодек: AVC
Качество: WEB-DL 720p | AMZN
Видео: MPEG-4 AVC, 3773 Kбит/с, 1280x544, 23.976 кадр/с
Аудио #1: Русский (АС3, 6 ch, 384 Кбит/с, 48.0 KHz) Профессиональный (многоголосый, закадровый) iTunes
Аудио #2: Английский (АС3, 6 ch, 640 Кбит/с, 48.0 KHz)
Субтитры: Русские (full), английские (full, SDH)

MediaInfo

Источник: Them.That.Follow.2019.720p.AMZN.WEB-DL.DDP5.1.H.264-NTG
General
Unique ID : 242561151902991018934153955533929161533 (0xB67B941DC94C1B03968816CDDC25A33D)
Complete name : Them.That.Follow.2019.AMZN.WEB-DL.720p.mkv
Format : Matroska
Format version : Version 4
File size : 3.29 GiB
Duration : 1 h 37 min
Overall bit rate : 4 800 kb/s
Encoded date : UTC 2019-12-02 09:55:49
Writing application : mkvmerge v7.1.0 ('Good Love') 64bit built on Jul 27 2014 13:06:55
Writing library : libebml v1.3.0 + libmatroska v1.4.1
Video
ID : 1
Format : AVC
Format/Info : Advanced Video Codec
Format profile : High@L3.1
Format settings : CABAC / 4 Ref Frames
Format settings, CABAC : Yes
Format settings, Reference fra : 4 frames
Codec ID : V_MPEG4/ISO/AVC
Duration : 1 h 37 min
Bit rate mode : Constant
Bit rate : 3 773 kb/s
Nominal bit rate : 6 000 kb/s
Width : 1 280 pixels
Height : 544 pixels
Display aspect ratio : 2.35:1
Original display aspect ratio : 2.35:1
Frame rate mode : Constant
Frame rate : 23.976 (24000/1001) FPS
Color space : YUV
Chroma subsampling : 4:2:0
Bit depth : 8 bits
Scan type : Progressive
Bits/(Pixel*Frame) : 0.226
Stream size : 2.58 GiB (79%)
Language : English
Default : Yes
Forced : No
Color range : Limited
Color primaries : BT.709
Transfer characteristics : BT.709
Matrix coefficients : BT.709
Audio #1
ID : 2
Format : AC-3
Format/Info : Audio Coding 3
Commercial name : Dolby Digital
Codec ID : A_AC3
Duration : 1 h 37 min
Bit rate mode : Constant
Bit rate : 384 kb/s
Channel(s) : 6 channels
Channel layout : L R C LFE Ls Rs
Sampling rate : 48.0 kHz
Frame rate : 31.250 FPS (1536 SPF)
Compression mode : Lossy
Stream size : 269 MiB (8%)
Title : iTunes
Language : Russian
Service kind : Complete Main
Default : Yes
Forced : No
Audio #2
ID : 3
Format : AC-3
Format/Info : Audio Coding 3
Commercial name : Dolby Digital
Codec ID : A_AC3
Duration : 1 h 37 min
Bit rate mode : Constant
Bit rate : 640 kb/s
Channel(s) : 6 channels
Channel layout : L R C LFE Ls Rs
Sampling rate : 48.0 kHz
Frame rate : 31.250 FPS (1536 SPF)
Compression mode : Lossy
Stream size : 449 MiB (13%)
Language : English
Service kind : Complete Main
Default : No
Forced : No
Text #1
ID : 4
Format : UTF-8
Codec ID : S_TEXT/UTF8
Codec ID/Info : UTF-8 Plain Text
Duration : 1 h 32 min
Bit rate : 49 b/s
Count of elements : 766
Stream size : 33.9 KiB (0%)
Language : Russian
Default : No
Forced : No
Text #2
ID : 5
Format : UTF-8
Codec ID : S_TEXT/UTF8
Codec ID/Info : UTF-8 Plain Text
Duration : 1 h 30 min
Bit rate : 33 b/s
Count of elements : 753
Stream size : 21.8 KiB (0%)
Language : English
Default : No
Forced : No
Text #3
ID : 6
Format : UTF-8
Codec ID : S_TEXT/UTF8
Codec ID/Info : UTF-8 Plain Text
Duration : 1 h 32 min
Bit rate : 37 b/s
Count of elements : 959
Stream size : 25.2 KiB (0%)
Title : SDH
Language : English
Default : No
Forced : No

Скриншоты

admin

Post 02-Dec-2019 21:21

[Quote]

Информация о фильме
Название: Бобот и энергия Вселенной
Год выпуска: 2018
Жанр: Фантастика, приключения, семейный
Режиссёр: Максим Ксенда
В ролях: Тарас Шевченко, Виктор Григорьев, Владимир Ращук, Арсен Шавлюк, Иванна Бородай, Игор Мирошниченко
Описание:
Из-за мощного взрыва на Солнце на всей Земле может исчезнуть электроэнергия. Электромагнитное поле Земли — щит, построенный людьми, — формируется специальными энергетическими Станциями, одна из которых была отключена Мусорщиками — неизвестными существами. 12-летний Вадик попадает в круговорот событий, и на его плечи ложится миссия спасения мира. Ему на помощь приходит Бобот — трансформаторная будка, носитель Энергии Вселенной. Вместе они пытаются предотвратить катастрофу.

Страна: Украина
Студия: Mental Drive Studio
Продолжительность: 01:35:59
Перевод: Не требуется
Файл
Формат: MKV
Качество: WEB-DL 1080p
Видео: 1916x800 (2,40:1), 25 fps, MPEG-4 AVC ~ 4541 Кbps avg, 0.118 bit/pixel
Аудио: AC3, 48 kHz, 6 ch, ~384.00 kbps avg | русский | iTunes
Субтитры: Отсутствуют

Инфо-файл

Общее
Уникальный идентификатор : 205559519746722592302490251148580313526 (0x9AA552CD2FE82EA143ED428EA5D359B6)
Полное имя : G:BOBOT (2018) WEB-DL 1080p.mkv
Формат : Matroska
Версия формата : Version 4
Размер файла : 3,30 Гбайт
Продолжительность : 1 ч. 35 м.
Общий поток : 4926 Кбит/сек
Название фильма : BOBOT (2018) WEB-DL 1080p
Дата кодирования : UTC 2019-12-02 03:47:20
Программа кодирования : mkvmerge v38.0.0 ('The Silent Type') 64-bit
Библиотека кодирования : libebml v1.3.9 + libmatroska v1.5.2
Обложка : Yes
Attachments : cover.jpg
Видео
Идентификатор : 1
Формат : AVC
Формат/Информация : Advanced Video Codec
Профиль формата : High@L4
Настройки формата : CABAC / 5 Ref Frames
Параметр CABAC формата : Да
Параметр RefFrames формата : 5 кадров
Идентификатор кодека : V_MPEG4/ISO/AVC
Продолжительность : 1 ч. 35 м.
Битрейт : 4541 Кбит/сек
Ширина : 1916 пикселей
Высота : 800 пикселей
Соотношение сторон : 2,40:1
Режим частоты кадров : Постоянный
Частота кадров : 25,000 кадров/сек
Цветовое пространство : YUV
Субдискретизация насыщенности : 4:2:0
Битовая глубина : 8 бит
Тип развёртки : Прогрессивная
Бит/(Пиксели*Кадры) : 0.118
Размер потока : 3,04 Гбайт (92%)
Заголовок : #stillet
Язык : English
Default : Да
Forced : Нет
Цветовой диапазон : Limited
Основные цвета : BT.709
Характеристики трансфера : BT.709
Коэффициенты матрицы : BT.709
Аудио
Идентификатор : 2
Формат : AC-3
Формат/Информация : Audio Coding 3
Коммерческое название : Dolby Digital
Идентификатор кодека : A_AC3
Продолжительность : 1 ч. 35 м.
Вид битрейта : Постоянный
Битрейт : 384 Кбит/сек
Каналы : 6 каналов
ChannelLayout : L R C LFE Ls Rs
Частота : 48,0 КГц
Частота кадров : 31,250 кадров/сек (1536 SPF)
Метод сжатия : С потерями
Задержка видео : -40 мс.
Размер потока : 264 Мбайт (8%)
Заголовок : iTunes | BOBOT (2018) WEB-DL 1080p
Язык : Russian
Default : Да
Forced : Да
Меню
00:00:00.000 : en:1
00:25:54.000 : en:2
00:51:55.000 : en:3
01:10:33.000 : en:4
01:30:37.000 : en:5

Скриншоты

admin

Post 30-Nov-2019 21:30

[Quote]

Информация о фильме
Название: Стриптизёрши
Оригинальное название: Hustlers
Год выхода: 2019
Жанр: Комедия, криминал, драма
Режиссер: Лорин Скафария
В ролях: Констанс Ву, Дженнифер Лопес, Джулия Стайлз, Кеке Палмер, Лили Рейнхарт, Карди Би, Лиззо, Мерседес Рул, Мадлен Брюэр, Метте Таули, Трейс Лисетт, Ашер, Вэй Чинг Хо, Эмма Батис, Ванесса Аспильяга, Биг Джей Оакерсон, Фрэнк Уэйли, Девин Рэтрей, Стивен Бойер, Пол А Нилсен, Майк Келлер, Джон Глейсер

О фильме: Они - яркие, сексуальные и очень амбициозные. Они - танцовщицы элитного стриптиз-клуба, клиенты которого - известные финансисты с Уолл-Стрит. Но когда банковский кризис в одночасье превращает накопления девушек в пыль, подруги по несчастью жаждут отомстить. Они разрабатывают дерзкий план как вернуть потерянные деньги, чтобы снова вести роскошную гламурную жизнь, и отплатить биржевым гениям, оставив их без гроша.
Страна: США
Студия: Annapurna Pictures, Gloria Sanchez Productions, Nuyorican Productions, STX Films
Продолжительность: 01:50:06
Перевод: Дублированный | iTunes
Качество: BDRip 720p
Видео: MPEG-4 AVC, 1280x536, 6000 Kbit/s, 23.976 fps
Аудио #01: 48 kHz, AC3, 5.1, 384 Kbps | iTunes | RUS |
Аудио #02: 48 kHz, AC3, 5.1, 448 Kbps | Оригинал | ENG |
Субтитры: Английские

Скриншоты

MI

General
Unique ID : 109275367545445981917192280256321011124 (0x5235AB95C39F3F60B85449BF10A9BDB4)
Complete name : F:Video111Hustlers.2019.BDRip.720p.seleZen.mkv
Format : Matroska
Format version : Version 4
File size : 5.25 GiB
Duration : 1 h 50 min
Overall bit rate : 6 831 kb/s
Movie name : Hustlers 2019 from селезень
Encoded date : UTC 2019-11-30 12:34:42
Writing application : mkvmerge v40.0.0 ('Old Town Road + Pony') 64-bit
Writing library : libebml v1.3.9 + libmatroska v1.5.2
Video
ID : 1
Format : AVC
Format/Info : Advanced Video Codec
Format profile : High@L4.1
Format settings : CABAC / 12 Ref Frames
Format settings, CABAC : Yes
Format settings, Reference : 12 frames
Codec ID : V_MPEG4/ISO/AVC
Duration : 1 h 50 min
Bit rate : 6 000 kb/s
Width : 1 280 pixels
Height : 536 pixels
Display aspect ratio : 2.40:1
Frame rate mode : Constant
Frame rate : 23.976 (24000/1001) FPS
Color space : YUV
Chroma subsampling : 4:2:0
Bit depth : 8 bits
Scan type : Progressive
Bits/(Pixel*Frame) : 0.365
Stream size : 4.61 GiB (88%)
Title : Encoded by seleZen
Writing library : x264 core 148 r2705kMod 3f5ed56
Encoding settings : cabac=1 / ref=12 / deblock=1:-2:-2 / analyse=0x3:0x113 / me=umh / subme=11 / psy=1 / fade_compensate=0.00 / psy_rd=1.00:0.00 / mixed_ref=1 / me_range=32 / chroma_me=1 / trellis=2 / 8x8dct=1 / cqm=0 / deadzone=21,11 / fast_pskip=0 / chroma_qp_offset=-2 / threads=17 / lookahead_threads=4 / sliced_threads=0 / nr=0 / decimate=0 / interlaced=0 / bluray_compat=0 / constrained_intra=0 / fgo=0 / bframes=10 / b_pyramid=2 / b_adapt=2 / b_bias=0 / direct=3 / weightb=1 / open_gop=0 / weightp=2 / keyint=240 / keyint_min=23 / scenecut=40 / intra_refresh=0 / rc_lookahead=50 / rc=2pass / mbtree=0 / bitrate=6000 / ratetol=1.0 / qcomp=0.60 / qpmin=0 / qpmax=51 / qpstep=4 / cplxblur=20.0 / qblur=0.5 / vbv_maxrate=50000 / vbv_bufsize=62500 / nal_hrd=none / filler=0 / ip_ratio=1.40 / pb_ratio=1.30 / aq=3:0.80
Language : English
Default : Yes
Forced : No
Audio #1
ID : 2
Format : AC-3
Format/Info : Audio Coding 3
Commercial name : Dolby Digital
Codec ID : A_AC3
Duration : 1 h 49 min
Bit rate mode : Constant
Bit rate : 384 kb/s
Channel(s) : 6 channels
Channel layout : L R C LFE Ls Rs
Sampling rate : 48.0 kHz
Frame rate : 31.250 FPS (1536 SPF)
Bit depth : 16 bits
Compression mode : Lossy
Stream size : 301 MiB (6%)
Title : iTunes
Language : Russian
Service kind : Complete Main
Default : Yes
Forced : Yes
Audio #2
ID : 3
Format : AC-3
Format/Info : Audio Coding 3
Commercial name : Dolby Digital
Codec ID : A_AC3
Duration : 1 h 50 min
Bit rate mode : Constant
Bit rate : 448 kb/s
Channel(s) : 6 channels
Channel layout : L R C LFE Ls Rs
Sampling rate : 48.0 kHz
Frame rate : 31.250 FPS (1536 SPF)
Bit depth : 16 bits
Compression mode : Lossy
Stream size : 353 MiB (7%)
Title : Original
Language : English
Service kind : Complete Main
Default : No
Forced : No
Text
ID : 4
Format : UTF-8
Codec ID : S_TEXT/UTF8
Codec ID/Info : UTF-8 Plain Text
Duration : 1 h 49 min
Bit rate : 82 b/s
Count of elements : 2021
Stream size : 65.6 KiB (0%)
Title : SDH
Language : English
Default : No
Forced : No
Menu
00:00:00.000 : en:Chapter 1
00:05:09.017 : en:Chapter 2
00:11:19.345 : en:Chapter 3
00:15:04.821 : en:Chapter 4
00:21:22.823 : en:Chapter 5
00:24:47.736 : en:Chapter 6
00:30:46.178 : en:Chapter 7
00:35:16.698 : en:Chapter 8
00:40:44.067 : en:Chapter 9
00:45:31.979 : en:Chapter 10
00:52:58.550 : en:Chapter 11
01:00:36.758 : en:Chapter 12
01:04:27.030 : en:Chapter 13
01:10:08.287 : en:Chapter 14
01:15:02.581 : en:Chapter 15
01:20:53.724 : en:Chapter 16
01:27:47.762 : en:Chapter 17
01:32:23.329 : en:Chapter 18
01:37:27.091 : en:Chapter 19
01:42:29.977 : en:Chapter 20
 

Current time is: 07-Dec 12:13

All times are UTC + 3