Search found 500 matches

Author Message

admin

Post Today 21:25

[Quote]

Информация о фильме
Название: Терминатор: Темные судьбы
Оригинальное название: Terminator: Dark Fate
Год выхода: 2019
Жанр: Фантастика, боевик, приключения
Режиссер: Тим Миллер
В ролях: Арнольд Шварценеггер, Маккензи Дэвис, Линда Хэмилтон, Эдвард Ферлонг, Гэбриел Луна, Наталия Рейес, Том Хоппер, Диего Бонета, Алисия Боррачеро, Энрике Арсе, Стивен Кри, Ферран Фернандес, Тристан Ульоа, Том Хоппер, Мануэль Пасифик, Фрайзер Джеймс, Карен Ганьон
О фильме:
Сара Коннор превратилась в настоящую охотницу за терминаторами и теперь занимается уничтожением роботов-убийц из будущего. Она считала, что главное — это не дать им добраться до Джона, но теперь появилась Дани Рамос, от выживания которой также зависит судьба человечества. Вместе с ней в бой вступает и загадочная девушка Грейс, смесь человека и машины.

Страна: США, Китай
Студия: Paramount Pictures, Twentieth Century Fox, Skydance Media
Продолжительность: 02:08:06
Перевод: Авторский (одноголосый закадровый)
Файл
Кодек: h264
Качество: BDRemux 1080p
Видео: AVC, 1920х1080 , VBR, 27800 kbps
Звук:
Аудио #01: 48 kHz, DTS-HD MA, 7.1, 4974 Kbps | Авторский Д.Есарев
Аудио #02: 48 kHz, DTS-HD MA, 7.1, 4061 Kbps | Английский
Субтитры: английские
ЦитатаКто-то писал:Перевод Д.Есарева доступен благодаря Переулку Переводмана, а также
igrok2012, Литти, saint sinner, kidman 644, podorov92, garik123, Pr0peLLer, nikolas, van156, stimco, ZeDOK, AleXXX, CATFISH-2, Avatar-Lion, Loki1982, zhora867

INFO

Complete name : Terminator_Dark_Fate.2019.AVC.BDRemux_1080p.mkv
Format : Matroska
Format version : Version 4
File size : 33.0 GiB
Duration : 2 h 8 min
Overall bit rate mode : Variable
Overall bit rate : 36.9 Mb/s
Writing application : mkvmerge v42.0.0 ('Overtime') 64-bit
Writing library : libebml v1.3.10 + libmatroska v1.5.2
Cover : Yes
Attachments : cover_1.png
Video
ID : 1
Format : AVC
Format/Info : Advanced Video Codec
Format profile : High@L4.1
Format settings : CABAC / 4 Ref Frames
Format settings, CABAC : Yes
Format settings, Reference fra : 4 frames
Codec ID : V_MPEG4/ISO/AVC
Duration : 2 h 8 min
Bit rate mode : Variable
Bit rate : 27.8 Mb/s
Maximum bit rate : 33.0 Mb/s
Width : 1 920 pixels
Height : 1 080 pixels
Display aspect ratio : 16:9
Frame rate mode : Constant
Frame rate : 23.976 (24000/1001) FPS
Color space : YUV
Chroma subsampling : 4:2:0
Bit depth : 8 bits
Scan type : Progressive
Bits/(Pixel*Frame) : 0.560
Stream size : 24.9 GiB (75%)
Language : English
Default : Yes
Forced : No
Color range : Limited
Color primaries : BT.709
Transfer characteristics : BT.709
Matrix coefficients : BT.709
Audio #1
ID : 2
Format : DTS XLL
Format/Info : Digital Theater Systems
Commercial name : DTS-HD Master Audio
Codec ID : A_DTS
Duration : 2 h 8 min
Bit rate mode : Variable
Bit rate : 4 974 kb/s
Channel(s) : 8 channels
Channel layout : C L R LFE Lb Rb Lss Rss
Sampling rate : 48.0 kHz
Frame rate : 93.750 FPS (512 SPF)
Bit depth : 24 bits
Compression mode : Lossless
Stream size : 4.45 GiB (13%)
Title : AVO D.Esarev
Language : Russian
Default : Yes
Forced : No
Audio #2
ID : 3
Format : DTS XLL
Format/Info : Digital Theater Systems
Commercial name : DTS-HD Master Audio
Codec ID : A_DTS
Duration : 2 h 8 min
Bit rate mode : Variable
Bit rate : 4 061 kb/s
Channel(s) : 8 channels
Channel layout : C L R LFE Lb Rb Lss Rss
Sampling rate : 48.0 kHz
Frame rate : 93.750 FPS (512 SPF)
Bit depth : 24 bits
Compression mode : Lossless
Stream size : 3.63 GiB (11%)
Title : Original
Language : English
Default : No
Forced : No
Text
ID : 4
Format : UTF-8
Codec ID : S_TEXT/UTF8
Codec ID/Info : UTF-8 Plain Text
Duration : 1 h 57 min
Bit rate : 39 b/s
Count of elements : 1388
Stream size : 34.5 KiB (0%)
Language : English
Default : Yes
Forced : No
Menu
00:00:00.000 : en:Chapter 01
00:04:19.843 : en:Chapter 02
00:07:48.927 : en:Chapter 03
00:11:47.916 : en:Chapter 04
00:16:56.349 : en:Chapter 05
00:22:10.663 : en:Chapter 06
00:29:00.614 : en:Chapter 07
00:33:25.754 : en:Chapter 08
00:41:35.493 : en:Chapter 09
00:47:02.695 : en:Chapter 10
00:53:08.936 : en:Chapter 11
00:57:56.807 : en:Chapter 12
01:05:02.690 : en:Chapter 13
01:13:07.967 : en:Chapter 14
01:20:45.591 : en:Chapter 15
01:27:29.744 : en:Chapter 16
01:32:48.688 : en:Chapter 17
01:41:45.850 : en:Chapter 18
01:49:35.319 : en:Chapter 19
01:57:58.613 : en:Chapter 20

Скриншоты

admin

Post 16-Jan-2020 16:48

[Quote]

Информация о фильме
Название: Портрет девушки в огне
Оригинальное название: Portrait de la jeune fille en feu
Год выпуска: 2019
Жанр: Драма
Режиссер: Селин Сьямма
В ролях: Ноэми Мерлан, Адель Энель, Луана Байрами, Валерия Голино, Кристель Барас, Арман Буланжер, Ги Деламарш, Клеман Буассу, Мишель Клеман, Сесиль Морел
О фильме: Бретань, 1770. Марианна, художница, приезжает в имение на побережье, чтобы написать портрет дочери его владелицы - Элоизы. Картина нужна, чтобы отправить жениху Элоизы в Милан. В знак протеста против замужества девушка отказывается позировать, и гостью представляют как компаньонку для прогулок. Проводя все больше времени вместе, девушки начинают чувствовать взаимное притяжение.

Страна: Франция
Студия: Lilies Films, Arte France Cinéma, Hold Up Films
Продолжительность: 02:01:18
Перевод: Дублированный | iTunes
Файл
Качество: WEB-DL 1080p
Контейнер: MKV
Видео: MPEG-4 AVC, 1912x1032, 4711 Kbps, 23.976 fps
Аудио: Russian: AC3, 6 ch, 48 kHz, 384 kbps - DUB, iTunes
Субтитры: Русские (Full)

Скриншоты

MediaInfo

General
Unique ID : 192130427296036395114517482908628625068 (0x908AF96CC18A557EB58868E9618D26AC)
Complete name : LGBT_PORTRAIT_2019_WEB-DL_1080p-BLUEBIRD.mkv
Format : Matroska
Format version : Version 4 / Version 2
File size : 4.40 GiB
Duration : 2 h 1 min
Overall bit rate : 5 199 kb/s
Encoded date : UTC 2020-01-15 19:21:08
Writing application : mkvmerge v6.9.1 ('Blue Panther') 32bit built on Apr 18 2014 18:15:44
Writing library : libebml v1.3.0 + libmatroska v1.4.1
Cover : Yes
Attachments : cover.png
Video
ID : 1
Format : AVC
Format/Info : Advanced Video Codec
Format profile : High@L4
Format settings, CABAC : Yes
Format settings, RefFrames : 4 frames
Codec ID : V_MPEG4/ISO/AVC
Duration : 2 h 1 min
Bit rate : 4 711 kb/s
Width : 1 912 pixels
Height : 1 032 pixels
Display aspect ratio : 1.85:1
Frame rate mode : Constant
Frame rate : 23.976 (24000/1001) FPS
Color space : YUV
Chroma subsampling : 4:2:0
Bit depth : 8 bits
Scan type : Progressive
Bits/(Pixel*Frame) : 0.100
Stream size : 3.99 GiB (91%)
Language : English
Default : Yes
Forced : No
Color range : Limited
Color primaries : BT.709
Transfer characteristics : BT.709
Matrix coefficients : BT.709
Audio
ID : 2
Format : AC-3
Format/Info : Audio Coding 3
Format settings, Endianness : Big
Codec ID : A_AC3
Duration : 2 h 1 min
Bit rate mode : Constant
Bit rate : 384 kb/s
Channel(s) : 6 channels
Channel positions : Front: L C R, Side: L R, LFE
Sampling rate : 48.0 kHz
Frame rate : 31.250 FPS (1536 SPF)
Bit depth : 16 bits
Compression mode : Lossy
Stream size : 333 MiB (7%)
Title : [DUB] DD 5.1 @ 384 kbps (iTunes)
Language : Russian
Service kind : Complete Main
Default : Yes
Forced : No
Text
ID : 3
Format : UTF-8
Codec ID : S_TEXT/UTF8
Codec ID/Info : UTF-8 Plain Text
Title : Full-length
Language : Russian
Default : No
Forced : No
Menu
00:00:00.000 : en:1
00:08:42.000 : en:2
00:18:41.000 : en:3
00:28:19.000 : en:4
00:40:19.000 : en:5
00:52:58.000 : en:6
01:03:39.000 : en:7
01:14:32.000 : en:8
01:22:20.000 : en:9
01:34:53.000 : en:10
01:44:23.000 : en:11
01:52:22.000 : en:12
01:58:28.000 : en:13

admin

Post 16-Jan-2020 16:44

[Quote]

Информация о фильме
Название: Изгоняющий дьявола: Абаддон
Оригинальное название: The Assent
Год выхода: 2019
Жанр: Ужасы, триллер
Режиссер: Пирри Реджинальд Тео
В ролях: Роберт Казински, Питер Джейсон, Флоренс Ванида Фэйвр, Кэйден Драгомер, Ханна Уорд, Дуглас Спэйн, Эйлин Дитц, Маргарита Рейес, Лука Блю Дарнелл, Уилльям Доберт, Меган Генри, Брайан Джеймс, Остин МакМейнс, Татум О’Нил, Лаис Педросо
О фильме:
Над семьёй Джоэла нависло проклятие. Недавно скончалась его жена, а маленького сына мучают кошмары. Призванный в дом священник убеждён, что их род захватил древний демон разрушения Абаддон, принимающий разные обличия. Если демона не остановить, его власть распространится и на другие семьи...

Страна: США
Студия: Boom Done Productions
Продолжительность: 01:27:46
Перевод: Дублированный | Онлайн кинотеатр
Файл
Кодек: AVC
Качество: WEB-DL 1080p | AMZN
Видео: MPEG-4 AVC, 5995 Kбит/с, 1920x816, 23.976 кадр/с
Аудио #1: Русский (АС3, 2 ch, 192 Кбит/с, 48.0 KHz) Профессиональный (дублированный) Онлайн кинотеатр
Аудио #2: Английский (E-АС3, 6 ch, 640 Кбит/с, 48.0 KHz)
Субтитры: английские
► Без Рекламы!

MediaInfo

Источник: The.Assent.2019.1080p.AMZN.WEB-DL.DDP5.1.H.264-NTG
General
Unique ID : 227413755524276412031773820224134039512 (0xAB164BD0AE73719DBA19F4A19E21C7D8)
Complete name : The.Assent.2019.AMZN.WEB-DL.1080p.mkv
Format : Matroska
Format version : Version 4
File size : 4.19 GiB
Duration : 1 h 27 min
Overall bit rate : 6 829 kb/s
Encoded date : UTC 2020-01-15 15:28:06
Writing application : mkvmerge v7.1.0 ('Good Love') 64bit built on Jul 27 2014 13:06:55
Writing library : libebml v1.3.0 + libmatroska v1.4.1
Video
ID : 1
Format : AVC
Format/Info : Advanced Video Codec
Format profile : High@L4
Format settings : CABAC / 4 Ref Frames
Format settings, CABAC : Yes
Format settings, Reference fra : 4 frames
Codec ID : V_MPEG4/ISO/AVC
Duration : 1 h 27 min
Bit rate mode : Constant
Bit rate : 5 995 kb/s
Nominal bit rate : 10 000 kb/s
Width : 1 920 pixels
Height : 816 pixels
Display aspect ratio : 2.35:1
Frame rate mode : Constant
Frame rate : 23.976 (24000/1001) FPS
Color space : YUV
Chroma subsampling : 4:2:0
Bit depth : 8 bits
Scan type : Progressive
Bits/(Pixel*Frame) : 0.160
Stream size : 3.68 GiB (88%)
Language : English
Default : Yes
Forced : No
Color range : Limited
Color primaries : BT.709
Transfer characteristics : BT.709
Matrix coefficients : BT.709
Audio #1
ID : 2
Format : AC-3
Format/Info : Audio Coding 3
Commercial name : Dolby Digital
Codec ID : A_AC3
Duration : 1 h 27 min
Bit rate mode : Constant
Bit rate : 192 kb/s
Channel(s) : 2 channels
Channel layout : L R
Sampling rate : 48.0 kHz
Frame rate : 31.250 FPS (1536 SPF)
Compression mode : Lossy
Stream size : 121 MiB (3%)
Language : Russian
Service kind : Complete Main
Default : Yes
Forced : No
Audio #2
ID : 3
Format : E-AC-3
Format/Info : Enhanced AC-3
Commercial name : Dolby Digital Plus
Codec ID : A_EAC3
Duration : 1 h 27 min
Bit rate mode : Constant
Bit rate : 640 kb/s
Channel(s) : 6 channels
Channel layout : L R C LFE Ls Rs
Sampling rate : 48.0 kHz
Frame rate : 31.250 FPS (1536 SPF)
Compression mode : Lossy
Stream size : 402 MiB (9%)
Language : English
Service kind : Complete Main
Default : No
Forced : No
Text #1
ID : 4
Format : UTF-8
Codec ID : S_TEXT/UTF8
Codec ID/Info : UTF-8 Plain Text
Duration : 1 h 20 min
Bit rate : 52 b/s
Count of elements : 920
Stream size : 31.0 KiB (0%)
Language : English
Default : No
Forced : No
Text #2
ID : 5
Format : UTF-8
Codec ID : S_TEXT/UTF8
Codec ID/Info : UTF-8 Plain Text
Duration : 1 h 27 min
Bit rate : 50 b/s
Count of elements : 979
Stream size : 32.4 KiB (0%)
Title : SDH
Language : English
Default : No
Forced : No

Скриншоты

admin

Post 16-Jan-2020 16:38

[Quote]

Название: Терминатор: Темные судьбы
Оригинальное название: Terminator: Dark Fate
Год выпуска: 2019
Жанр: Фантастика, боевик, приключения
Выпущено: США, Китай, Paramount Pictures, Twentieth Century Fox, Skydance Media
Режиссер: Тим Миллер
В ролях: Арнольд Шварценеггер, Маккензи Дэвис, Линда Хэмилтон, Эдвард Ферлонг, Гэбриел Луна, Наталия Рейес, Том Хоппер, Диего Бонета, Алисия Боррачеро, Энрике Арсе, Стивен Кри, Ферран Фернандес
О фильме: Сара Коннор превратилась в настоящую охотницу за терминаторами и теперь занимается уничтожением роботов-убийц из будущего. Она считала, что главное — это не дать им добраться до Джона, но теперь появилась Дани Рамос, от выживания которой также зависит судьба человечества. Вместе с ней в бой вступает и загадочная девушка Грейс, смесь человека и машины.

Техданные
Качество: WEBRip (720p) (исх. Terminator.Dark.Fate.2019.1080p.WEBRip.DD5.1.x264-CM)
Видео: MPEG-4 AVC, ~ 3 500 kb/s, 1280x536, 23.976 FPS
Аудио: AC3, 2 ch, 320 Кбит/с
Продолжительность: 02:08:39
Перевод: Любительский двухголосый закадровый (LakeFilms)
Присутствует реклама!

Скриншоты

MI

General
Unique ID : 219739718531586582683784241279187696069 (0xA550549461A3AD295293EE46C9BA39C5)
Complete name : E:Terminator.Dark.Fate.2019.720p.LakeFilms.mkv
Format : Matroska
Format version : Version 4 / Version 2
File size : 3.42 GiB
Duration : 2 h 8 min
Overall bit rate : 3 803 kb/s
Writing application : XviD4PSP 8.0.96
Writing library : Lavf58.29.100
ErrorDetectionType : Per level 1
ENCODING_INFO : MATROSKA,WEBM > MKV Пользовательский
Video
ID : 1
Format : AVC
Format/Info : Advanced Video Codec
Format profile : High@L3.1
Format settings : CABAC / 4 Ref Frames
Format settings, CABAC : Yes
Format settings, RefFrames : 4 frames
Codec ID : V_MPEG4/ISO/AVC
Duration : 2 h 8 min
Bit rate : 3 500 kb/s
Width : 1 280 pixels
Height : 536 pixels
Display aspect ratio : 2.40:1
Frame rate mode : Constant
Frame rate : 23.976 (24000/1001) FPS
Color space : YUV
Chroma subsampling : 4:2:0
Bit depth : 8 bits
Scan type : Progressive
Bits/(Pixel*Frame) : 0.213
Stream size : 3.06 GiB (90%)
Writing library : x264 core 157 r2958 57baac4
Encoding settings : cabac=1 / ref=1 / deblock=1:-1:-1 / analyse=0x3:0x3 / me=hex / subme=1 / psy=1 / psy_rd=1.00:0.00 / mixed_ref=0 / me_range=16 / chroma_me=1 / trellis=0 / 8x8dct=1 / cqm=0 / deadzone=21,11 / fast_pskip=1 / chroma_qp_offset=0 / threads=5 / lookahead_threads=1 / sliced_threads=0 / nr=0 / decimate=1 / interlaced=0 / bluray_compat=0 / constrained_intra=0 / bframes=3 / b_pyramid=2 / b_adapt=1 / b_bias=0 / direct=1 / weightb=1 / open_gop=0 / weightp=1 / keyint=240 / keyint_min=24 / scenecut=40 / intra_refresh=0 / rc=abr / mbtree=0 / bitrate=3500 / ratetol=1.0 / qcomp=0.60 / qpmin=0 / qpmax=69 / qpstep=4 / ip_ratio=1.40 / pb_ratio=1.30 / aq=1:1.00
Default : Yes
Forced : No
ENCODING_INFO : H264 > X264 ABR 3500kbps Super Fast
Audio
ID : 2
Format : AC-3
Format/Info : Audio Coding 3
Codec ID : A_AC3
Duration : 2 h 8 min
Bit rate mode : Constant
Bit rate : 320 kb/s
Channel(s) : 2 channels
Channel positions : Front: L R
Sampling rate : 48.0 kHz
Frame rate : 31.250 FPS (1536 SPF)
Bit depth : 16 bits
Compression mode : Lossy
Stream size : 294 MiB (8%)
Service kind : Complete Main
Default : Yes
Forced : No
ENCODING_INFO : AC3 > AC3 CBR 320kbps

admin

Post 16-Jan-2020 16:33

[Quote]

Название: Терминатор: Темные судьбы
Оригинальное название: Terminator: Dark Fate
Год выпуска: 2019
Жанр: Фантастика, боевик, приключения
Выпущено: США, Китай, Paramount Pictures, Twentieth Century Fox, Skydance Media
Режиссер: Тим Миллер
В ролях: Арнольд Шварценеггер, Маккензи Дэвис, Линда Хэмилтон, Эдвард Ферлонг, Гэбриел Луна, Наталия Рейес, Том Хоппер, Диего Бонета, Алисия Боррачеро, Энрике Арсе, Стивен Кри, Ферран Фернандес
О фильме: Сара Коннор превратилась в настоящую охотницу за терминаторами и теперь занимается уничтожением роботов-убийц из будущего. Она считала, что главное — это не дать им добраться до Джона, но теперь появилась Дани Рамос, от выживания которой также зависит судьба человечества. Вместе с ней в бой вступает и загадочная девушка Грейс, смесь человека и машины.

Техданные
Качество: WEBRip (1080p)
Видео: MPEG-4 AVC, ~ 5 000 kb/s, 1920x804, 23.976 FPS
Аудио: AC3, 2 ch, 320 Кбит/с
Продолжительность: 02:08:39
Перевод: Любительский двухголосый закадровый (LakeFilms)
Присутствует реклама!

Скриншоты

MI

General
Unique ID : 96962130408818849818931112521681454139 (0x48F23A1F769D53F2A038D4129CE5C43B)
Complete name : E:Terminator.Dark.Fate.2019.1080p.LakeFilms.mkv
Format : Matroska
Format version : Version 4 / Version 2
File size : 4.76 GiB
Duration : 2 h 8 min
Overall bit rate : 5 294 kb/s
Writing application : XviD4PSP 8.0.96
Writing library : Lavf58.29.100
ErrorDetectionType : Per level 1
ENCODING_INFO : MATROSKA,WEBM > MKV Пользовательский
Video
ID : 1
Format : AVC
Format/Info : Advanced Video Codec
Format profile : High@L4
Format settings : CABAC / 4 Ref Frames
Format settings, CABAC : Yes
Format settings, RefFrames : 4 frames
Codec ID : V_MPEG4/ISO/AVC
Duration : 2 h 8 min
Bit rate : 5 000 kb/s
Width : 1 920 pixels
Height : 804 pixels
Display aspect ratio : 2.40:1
Frame rate mode : Constant
Frame rate : 23.976 (24000/1001) FPS
Color space : YUV
Chroma subsampling : 4:2:0
Bit depth : 8 bits
Scan type : Progressive
Bits/(Pixel*Frame) : 0.135
Stream size : 4.38 GiB (92%)
Writing library : x264 core 157 r2958 57baac4
Encoding settings : cabac=1 / ref=1 / deblock=1:-2:-2 / analyse=0x3:0x3 / me=hex / subme=1 / psy=1 / psy_rd=1.00:0.00 / mixed_ref=0 / me_range=16 / chroma_me=1 / trellis=0 / 8x8dct=1 / cqm=0 / deadzone=21,11 / fast_pskip=1 / chroma_qp_offset=0 / threads=5 / lookahead_threads=1 / sliced_threads=0 / nr=0 / decimate=1 / interlaced=0 / bluray_compat=0 / constrained_intra=0 / bframes=3 / b_pyramid=2 / b_adapt=1 / b_bias=0 / direct=1 / weightb=1 / open_gop=0 / weightp=1 / keyint=240 / keyint_min=24 / scenecut=40 / intra_refresh=0 / rc=abr / mbtree=0 / bitrate=5000 / ratetol=1.0 / qcomp=0.60 / qpmin=0 / qpmax=69 / qpstep=4 / ip_ratio=1.40 / pb_ratio=1.30 / aq=1:1.00
Default : Yes
Forced : No
ENCODING_INFO : H264 > X264 ABR 5000kbps Super Fast
Audio
ID : 2
Format : AC-3
Format/Info : Audio Coding 3
Codec ID : A_AC3
Duration : 2 h 8 min
Bit rate mode : Constant
Bit rate : 320 kb/s
Channel(s) : 2 channels
Channel positions : Front: L R
Sampling rate : 48.0 kHz
Frame rate : 31.250 FPS (1536 SPF)
Bit depth : 16 bits
Compression mode : Lossy
Stream size : 294 MiB (6%)
Service kind : Complete Main
Default : Yes
Forced : No
ENCODING_INFO : AAC-LC > AC3 CBR 320kbps

admin

Post 10-Jan-2020 22:16

[Quote]

Информация о фильме
Название: Ночь в осаде
Оригинальное название: Trauma Center
«The enemy is closer than you think»
Год выхода: 2019
Жанр: Боевик, триллер
Режиссер: Мэтт Эскандари
В ролях: Брюс Уиллис, Никки Уилан, Стив Гуттенберг, Лорин Кент, Хезер Йохансен, Линн Гилмартин, Тексас Бэттл, Тито Ортис, Катрин Дэвис, Тайлер Джон Олсон
О фильме:
Избитая неизвестными испуганная женщина оказывается ночью одна в больничном изоляторе травматологического центра. Она раненая и обессилена, и теперь ей придётся найти в себе силы сбежать от двух киллеров, которые пришли за важной уликой, указывающей на их причастие к громким криминальным делам. К счастью, ветеран полиции получает задание защищать женщину.

Страна: США
Студия: BondIt, Buffalo 8 Productions, Emmett/Furla Films, Pimienta
Продолжительность: 01:38:00
Перевод: Профессиональный (полное дублирование) | iTunes
• Расширенная версия длиннее театральной на ~11 минут. Полный дублированный перевод.
Файл
Качество: WEB-DL 1080p
Формат: MKV
Кодек: MPEG-4 AVC
Видео: 1920x804 (2.40:1), 24 fps, MPEG-4 AVC ~ 4466 Кbps avg, 0.121 bit/pixel
Аудио: AC3, 48 kHz, 6 ch, ~384.00 kbps avg | русский | iTunes
Аудио: AC3, 48 kHz, 6 ch, ~384.00 kbps avg | английский | Оригинал
Субтитры: Русские (Full-length)

Инфо-файл

Общее
Уникальный идентификатор : 246388822145711034725103971519660027726 (0xB95CC2D463243E8ABF406DC7868BEF4E)
Полное имя : TRAUMA_CNTR_EC_2019_WEB-DL_2019-BLUEBIRD.mkv
Формат : Matroska
Версия формата : Version 4
Размер файла : 3,66 Гбайт
Продолжительность : 1 ч. 38 м.
Общий поток : 5340 Кбит/сек
Название фильма : TRAUMA_CNTR_EC_2019_WEB-DL_2019-BLUEBIRD
Дата кодирования : UTC 2020-01-09 19:21:19
Программа кодирования : mkvmerge v6.9.1 ('Blue Panther') 32bit built on Apr 18 2014 18:15:44
Библиотека кодирования : libebml v1.3.0 + libmatroska v1.4.1
Обложка : Yes
Attachments : cover.png
Видео
Идентификатор : 1
Формат : AVC
Формат/Информация : Advanced Video Codec
Профиль формата : High@L4
Настройки формата : CABAC / 5 Ref Frames
Параметр CABAC формата : Да
Параметр RefFrames формата : 5 кадров
Идентификатор кодека : V_MPEG4/ISO/AVC
Продолжительность : 1 ч. 38 м.
Битрейт : 4466 Кбит/сек
Ширина : 1920 пикселей
Высота : 804 пикселя
Соотношение сторон : 2,40:1
Режим частоты кадров : Постоянный
Частота кадров : 24,000 кадра/сек
Цветовое пространство : YUV
Субдискретизация насыщенности : 4:2:0
Битовая глубина : 8 бит
Тип развёртки : Прогрессивная
Бит/(Пиксели*Кадры) : 0.121
Размер потока : 3,06 Гбайт (84%)
Заголовок : TRAUMA_CNTR_EC_2019_WEB-DL_2019-BLUEBIRD
Язык : English
Default : Да
Forced : Нет
Цветовой диапазон : Limited
Основные цвета : BT.709
Характеристики трансфера : BT.709
Коэффициенты матрицы : BT.709
Аудио #1
Идентификатор : 2
Формат : AC-3
Формат/Информация : Audio Coding 3
Коммерческое название : Dolby Digital
Идентификатор кодека : A_AC3
Продолжительность : 1 ч. 38 м.
Вид битрейта : Постоянный
Битрейт : 384 Кбит/сек
Каналы : 6 каналов
ChannelLayout : L R C LFE Ls Rs
Частота : 48,0 КГц
Частота кадров : 31,250 кадров/сек (1536 SPF)
Метод сжатия : С потерями
Размер потока : 269 Мбайт (7%)
Заголовок : [DUB] DD 5.1 @ 384 kbps (iTunes)
Язык : Russian
Default : Да
Forced : Нет
Аудио #2
Идентификатор : 3
Формат : AC-3
Формат/Информация : Audio Coding 3
Коммерческое название : Dolby Digital
Идентификатор кодека : A_AC3
Продолжительность : 1 ч. 38 м.
Вид битрейта : Постоянный
Битрейт : 384 Кбит/сек
Каналы : 6 каналов
ChannelLayout : L R C LFE Ls Rs
Частота : 48,0 КГц
Частота кадров : 31,250 кадров/сек (1536 SPF)
Метод сжатия : С потерями
Размер потока : 269 Мбайт (7%)
Заголовок : [ORIGINAL] DD 5.1 @ 384 kbps (iTunes)
Язык : English
Default : Нет
Forced : Нет
Текст
Идентификатор : 4
Формат : UTF-8
Идентификатор кодека : S_TEXT/UTF8
Идентификатор кодека/Информация : UTF-8 Plain Text
Заголовок : Full-length
Язык : Russian
Default : Нет
Forced : Нет
Меню
00:00:00.000 : en:Глава 1
00:02:50.333 : en:Глава 2
00:07:52.124 : en:Глава 3
00:14:23.374 : en:Глава 4
00:18:44.249 : en:Глава 5
00:24:05.290 : en:Глава 6
00:29:59.081 : en:Глава 7
00:39:46.872 : en:Глава 8
00:48:42.705 : en:Глава 9
00:57:17.871 : en:Глава 10
01:05:15.912 : en:Глава 11
01:15:35.453 : en:Глава 12
01:22:00.411 : en:Глава 13
01:27:53.911 : en:Глава 14

Скриншоты

admin

Post 10-Jan-2020 13:18

[Quote]

Информация о фильме
Название: Окончательный счёт
Оригинальное название: Final Score
Год выхода: 2018
Жанр: Боевик
Режиссер: Скотт Манн
В ролях: Дэйв Батиста, Пирс Броснан, Рэй Стивенсон, Мартин Форд, Ральф Браун, Виктория Брум, Люси Гаскелл, Крэйг Конуэй, Стелла Париж, Аарон МакКаскер

О фильме: Во время террористической атаки племянница Майка затерялась где-то на футбольном стадионе, где они смотрели текущий матч. Ему придётся вспомнить все свои старые навыки, чтобы спасти девочку и предотвратить катастрофу.
Страна: Великобритания
Студия: Signature Films,Drybake Final Score,Highland Film Group
Продолжительность: 01:44:44
Перевод(ы):
#1: Дублированный | iTunes

#2: Профессиональный многоголосый | HDRezka Studio
Качество: BDRip 720p
Видео: MPEG-4 AVC, 1280x536, 4215 Kbit/s, 23.976 fps
Аудио #01: 48 kHz, AC3, 5.1, 384 Kbps | iTunes | RUS |
Аудио #02: 48 kHz, AC3, 2.0, 192 Kbps | HDRezka Studio | RUS |
Аудио #03: 48 kHz, DTS, 5.1, 1510 Kbps | Оригинал | ENG |
Субтитры: Английские

Скриншоты

MI

General
Unique ID : 67293013128267336032499467306128919964 (0x32A029B405CB1BACBAB123D9A83C4D9C)
Complete name : E:Video111Final.Score.2018.D.MVO.BDRip.720p.seleZen.mkv
Format : Matroska
Format version : Version 4
File size : 4.61 GiB
Duration : 1 h 44 min
Overall bit rate : 6 301 kb/s
Movie name : Final Score 2018 from селезень
Encoded date : UTC 2020-01-09 22:41:39
Writing application : mkvmerge v40.0.0 ('Old Town Road + Pony') 64-bit
Writing library : libebml v1.3.9 + libmatroska v1.5.2
Video
ID : 1
Format : AVC
Format/Info : Advanced Video Codec
Format profile : High@L4.1
Format settings : CABAC / 12 Ref Frames
Format settings, CABAC : Yes
Format settings, Reference : 12 frames
Codec ID : V_MPEG4/ISO/AVC
Duration : 1 h 44 min
Bit rate : 4 215 kb/s
Width : 1 280 pixels
Height : 536 pixels
Display aspect ratio : 2.40:1
Frame rate mode : Constant
Frame rate : 23.976 (24000/1001) FPS
Color space : YUV
Chroma subsampling : 4:2:0
Bit depth : 8 bits
Scan type : Progressive
Bits/(Pixel*Frame) : 0.256
Stream size : 3.08 GiB (67%)
Title : vincelwq@HDSky
Writing library : x264 core 148 r2705+45 bdacf7a 7mod [8-bit@all X86_64]
Encoding settings : cabac=1 / ref=12 / deblock=1:-3:-3 / analyse=0x3:0x113 / me=umh / subme=11 / psy=1 / fade_compensate=0.00 / psy_rd=1.00:0.05 / mixed_ref=1 / me_range=32 / chroma_me=1 / trellis=2 / 8x8dct=1 / cqm=0 / deadzone=21,11 / fast_pskip=0 / chroma_qp_offset=-2 / threads=20 / lookahead_threads=3 / sliced_threads=0 / nr=0 / decimate=1 / interlaced=0 / bluray_compat=0 / constrained_intra=0 / fgo=0 / bframes=8 / b_pyramid=2 / b_adapt=2 / b_bias=0 / direct=3 / weightb=1 / open_gop=0 / weightp=2 / keyint=250 / keyint_min=23 / scenecut=40 / intra_refresh=0 / rc=crf / mbtree=0 / crf=17.2000 / qcomp=0.60 / qpmin=0:0:0 / qpmax=69:69:69 / qpstep=4 / ip_ratio=1.40 / pb_ratio=1.30 / aq=4:0.90 / aq-sensitivity=10.00 / aq-factor=1.00:1.00:1.00 / aq2=0 / aq3=0
Language : English
Default : Yes
Forced : No
Audio #1
ID : 2
Format : AC-3
Format/Info : Audio Coding 3
Commercial name : Dolby Digital
Codec ID : A_AC3
Duration : 1 h 44 min
Bit rate mode : Constant
Bit rate : 384 kb/s
Channel(s) : 6 channels
Channel layout : L R C LFE Ls Rs
Sampling rate : 48.0 kHz
Frame rate : 31.250 FPS (1536 SPF)
Compression mode : Lossy
Stream size : 288 MiB (6%)
Title : iTunes
Language : Russian
Service kind : Complete Main
Default : Yes
Forced : Yes
Audio #2
ID : 3
Format : AC-3
Format/Info : Audio Coding 3
Commercial name : Dolby Digital
Codec ID : A_AC3
Duration : 1 h 43 min
Bit rate mode : Constant
Bit rate : 192 kb/s
Channel(s) : 2 channels
Channel layout : L R
Sampling rate : 48.0 kHz
Frame rate : 31.250 FPS (1536 SPF)
Compression mode : Lossy
Stream size : 142 MiB (3%)
Title : MVO [HDRezka Studio]
Language : Russian
Service kind : Complete Main
Default : No
Forced : No
Audio #3
ID : 4
Format : DTS
Format/Info : Digital Theater Systems
Codec ID : A_DTS
Duration : 1 h 44 min
Bit rate mode : Constant
Bit rate : 1 509 kb/s
Channel(s) : 6 channels
Channel layout : C L R Ls Rs LFE
Sampling rate : 48.0 kHz
Frame rate : 93.750 FPS (512 SPF)
Bit depth : 24 bits
Compression mode : Lossy
Stream size : 1.10 GiB (24%)
Title : Original
Language : English
Default : No
Forced : No
Text
ID : 5
Format : UTF-8
Codec ID : S_TEXT/UTF8
Codec ID/Info : UTF-8 Plain Text
Duration : 1 h 40 min
Bit rate : 66 b/s
Count of elements : 1781
Stream size : 48.6 KiB (0%)
Title : SDH
Language : English
Default : No
Forced : No
Menu
00:00:00.000 : :00:00:00.000
00:04:55.212 : :00:04:55.212
00:12:20.490 : :00:12:20.490
00:19:22.328 : :00:19:22.328
00:26:07.316 : :00:26:07.316
00:32:03.547 : :00:32:03.547
00:37:42.260 : :00:37:42.260
00:44:52.148 : :00:44:52.148
00:50:28.651 : :00:50:28.651
00:55:18.232 : :00:55:18.232
01:04:28.239 : :01:04:28.239
01:09:22.325 : :01:09:22.325
01:15:25.229 : :01:15:25.229
01:20:17.813 : :01:20:17.813
01:27:18.775 : :01:27:18.775
01:34:14.107 : :01:34:14.107

admin

Post 10-Jan-2020 13:17

[Quote]

Информация о фильме
Название: Окончательный счёт
Оригинальное название: Final Score
Год выхода: 2018
Жанр: Боевик
Режиссер: Скотт Манн
В ролях: Дэйв Батиста, Пирс Броснан, Рэй Стивенсон, Мартин Форд, Ральф Браун, Виктория Брум, Люси Гаскелл, Крэйг Конуэй, Стелла Париж, Аарон МакКаскер

О фильме: Во время террористической атаки племянница Майка затерялась где-то на футбольном стадионе, где они смотрели текущий матч. Ему придётся вспомнить все свои старые навыки, чтобы спасти девочку и предотвратить катастрофу.
Страна: Великобритания
Студия: Signature Films,Drybake Final Score,Highland Film Group
Продолжительность: 01:44:44
Перевод(ы):
#1: Дублированный | iTunes

#2: Профессиональный многоголосый | HDRezka Studio
Качество: BDRip 1080p
Видео: MPEG-4 AVC, 1920x806, 11.0 Mbit/s, 23.976 fps
Аудио #01: 48 kHz, AC3, 5.1, 384 Kbps | iTunes | RUS |
Аудио #02: 48 kHz, AC3, 2.0, 192 Kbps | HDRezka Studio | RUS |
Аудио #03: 48 kHz, DTS, 5.1, 1510 Kbps | Оригинал | ENG |
Субтитры: Английские

Скриншоты

MI

General
Unique ID : 233069724089130319597237631844624709697 (0xAF579898649BF7C8D3C8A70485C13841)
Complete name : E:Video111Final.Score.2018.D.MVO.BDRip.1080p.seleZen.mkv
Format : Matroska
Format version : Version 4
File size : 9.56 GiB
Duration : 1 h 44 min
Overall bit rate : 13.1 Mb/s
Movie name : Final Score 2018 from селезень
Encoded date : UTC 2020-01-09 22:26:53
Writing application : mkvmerge v40.0.0 ('Old Town Road + Pony') 64-bit
Writing library : libebml v1.3.9 + libmatroska v1.5.2
Video
ID : 1
Format : AVC
Format/Info : Advanced Video Codec
Format profile : High@L4.1
Format settings : CABAC / 5 Ref Frames
Format settings, CABAC : Yes
Format settings, Reference : 5 frames
Codec ID : V_MPEG4/ISO/AVC
Duration : 1 h 44 min
Bit rate : 11.0 Mb/s
Width : 1 920 pixels
Height : 806 pixels
Display aspect ratio : 2.40:1
Frame rate mode : Constant
Frame rate : 23.976 (24000/1001) FPS
Color space : YUV
Chroma subsampling : 4:2:0
Bit depth : 8 bits
Scan type : Progressive
Bits/(Pixel*Frame) : 0.296
Stream size : 8.04 GiB (84%)
Title : Encoded by seleZen
Writing library : x264 core 148 r2705kMod 3f5ed56
Encoding settings : cabac=1 / ref=5 / deblock=1:-2:-2 / analyse=0x3:0x133 / me=umh / subme=10 / psy=1 / fade_compensate=0.00 / psy_rd=1.05:0.04 / mixed_ref=1 / me_range=32 / chroma_me=1 / trellis=2 / 8x8dct=1 / cqm=0 / deadzone=21,11 / fast_pskip=0 / chroma_qp_offset=-3 / threads=12 / lookahead_threads=2 / sliced_threads=0 / nr=0 / decimate=0 / interlaced=0 / bluray_compat=0 / constrained_intra=0 / fgo=0 / bframes=8 / b_pyramid=2 / b_adapt=2 / b_bias=0 / direct=3 / weightb=1 / open_gop=0 / weightp=2 / keyint=240 / keyint_min=23 / scenecut=40 / intra_refresh=0 / rc_lookahead=50 / rc=2pass / mbtree=0 / bitrate=11000 / ratetol=1.0 / qcomp=0.60 / qpmin=0 / qpmax=51 / qpstep=4 / cplxblur=20.0 / qblur=0.5 / vbv_maxrate=50000 / vbv_bufsize=62500 / nal_hrd=none / filler=0 / ip_ratio=1.40 / pb_ratio=1.30 / aq=3:0.80
Language : English
Default : Yes
Forced : No
Audio #1
ID : 2
Format : AC-3
Format/Info : Audio Coding 3
Commercial name : Dolby Digital
Codec ID : A_AC3
Duration : 1 h 44 min
Bit rate mode : Constant
Bit rate : 384 kb/s
Channel(s) : 6 channels
Channel layout : L R C LFE Ls Rs
Sampling rate : 48.0 kHz
Frame rate : 31.250 FPS (1536 SPF)
Compression mode : Lossy
Stream size : 288 MiB (3%)
Title : iTunes
Language : Russian
Service kind : Complete Main
Default : Yes
Forced : Yes
Audio #2
ID : 3
Format : AC-3
Format/Info : Audio Coding 3
Commercial name : Dolby Digital
Codec ID : A_AC3
Duration : 1 h 43 min
Bit rate mode : Constant
Bit rate : 192 kb/s
Channel(s) : 2 channels
Channel layout : L R
Sampling rate : 48.0 kHz
Frame rate : 31.250 FPS (1536 SPF)
Compression mode : Lossy
Stream size : 142 MiB (1%)
Title : MVO [HDRezka Studio]
Language : Russian
Service kind : Complete Main
Default : No
Forced : No
Audio #3
ID : 4
Format : DTS
Format/Info : Digital Theater Systems
Codec ID : A_DTS
Duration : 1 h 44 min
Bit rate mode : Constant
Bit rate : 1 509 kb/s
Channel(s) : 6 channels
Channel layout : C L R Ls Rs LFE
Sampling rate : 48.0 kHz
Frame rate : 93.750 FPS (512 SPF)
Bit depth : 24 bits
Compression mode : Lossy
Stream size : 1.10 GiB (12%)
Title : Original
Language : English
Default : No
Forced : No
Text
ID : 5
Format : UTF-8
Codec ID : S_TEXT/UTF8
Codec ID/Info : UTF-8 Plain Text
Duration : 1 h 40 min
Bit rate : 66 b/s
Count of elements : 1781
Stream size : 48.6 KiB (0%)
Title : SDH
Language : English
Default : No
Forced : No
Menu
00:00:00.000 : :00:00:00.000
00:04:55.212 : :00:04:55.212
00:12:20.490 : :00:12:20.490
00:19:22.328 : :00:19:22.328
00:26:07.316 : :00:26:07.316
00:32:03.547 : :00:32:03.547
00:37:42.260 : :00:37:42.260
00:44:52.148 : :00:44:52.148
00:50:28.651 : :00:50:28.651
00:55:18.232 : :00:55:18.232
01:04:28.239 : :01:04:28.239
01:09:22.325 : :01:09:22.325
01:15:25.229 : :01:15:25.229
01:20:17.813 : :01:20:17.813
01:27:18.775 : :01:27:18.775
01:34:14.107 : :01:34:14.107

admin

Post 09-Jan-2020 13:58

[Quote]

Информация о фильме
Название: Красавчик со стажем
Оригинальное название: Just a Gigolo
Год выхода: 2019
Жанр: Комедия
Режиссер: Оливье Барру
В ролях: Кад Мерад, Анн Шаррье, Леопольд Моати, Паскаль Элбе, Тьерри Лермитт, Анни Дюпере, Лионель Абелански, Ги Леклюиз, Альбан Мазель, Ариель Семенофф, Андреа Ферреоль, Мила Юблен, Реми Жобер, Янн Лера, Лассана Лестен, Матильда Муано, Людивин Колле
О фильме:
Встречайте мужчину мечты! Он знает секреты обольщения и вовсю этим пользуется, чтобы жить в свое удовольствие. Возможно, опытный мачо уже немного растерял обаяние, но отказываться от роскошной жизни не входит в его планы. Применяя весь свой арсенал, он вновь готов вернуться в игру.

Страна: Франция
Студия: Eskwad, Chapter 2, TF1 Studio
Продолжительность: 01:33:54
Перевод: Дублированный | iTunes
Файл
Кодек: x.264
Качество: BDRip 1080p | Just.A.Gigolo.2019.FRENCH.1080p.BluRay.DTS.x264-EXTREME
Видео: MPEG-4 AVC, 10.1 Mбит/с, 1920x800, 24.000 кадр/с
Аудио #1: Русский (АС3, 6 ch, 384 Кбит/с, 48.0 KHz) Профессиональный (дублированный) iTunes
Аудио #2: Французский (DTS, 6 ch, 1509 Кбит/с, 48.0 KHz)
Субтитры: Русские (Full)
► Без Рекламы!

MediaInfo

Источник: Just.A.Gigolo.2019.FRENCH.1080p.BluRay.DTS.x264-EXTREME
General
Unique ID : 184847740565325484048167408710685826650 (0x8B10613F34ED1377A28CFFEE92FC1E5A)
Complete name : Just.A.Gigolo.2019.FRENCH.BDRip1080p.mkv
Format : Matroska
Format version : Version 4
File size : 7.90 GiB
Duration : 1 h 33 min
Overall bit rate : 12.0 Mb/s
Encoded date : UTC 2020-01-08 17:05:29
Writing application : mkvmerge v7.1.0 ('Good Love') 64bit built on Jul 27 2014 13:06:55
Writing library : libebml v1.3.0 + libmatroska v1.4.1
Video
ID : 1
Format : AVC
Format/Info : Advanced Video Codec
Format profile : High@L4.1
Format settings : CABAC / 4 Ref Frames
Format settings, CABAC : Yes
Format settings, Reference fra : 4 frames
Codec ID : V_MPEG4/ISO/AVC
Duration : 1 h 33 min
Bit rate : 10.1 Mb/s
Width : 1 920 pixels
Height : 800 pixels
Display aspect ratio : 2.40:1
Frame rate mode : Constant
Frame rate : 24.000 FPS
Color space : YUV
Chroma subsampling : 4:2:0
Bit depth : 8 bits
Scan type : Progressive
Bits/(Pixel*Frame) : 0.275
Stream size : 6.65 GiB (84%)
Writing library : x264 core 157 r2935 545de2f
Encoding settings : cabac=1 / ref=3 / deblock=1:0:0 / analyse=0x3:0x113 / me=hex / subme=7 / psy=1 / psy_rd=1.00:0.00 / mixed_ref=1 / me_range=16 / chroma_me=1 / trellis=1 / 8x8dct=1 / cqm=0 / deadzone=21,11 / fast_pskip=1 / chroma_qp_offset=-2 / threads=25 / lookahead_threads=4 / sliced_threads=0 / nr=0 / decimate=1 / interlaced=0 / bluray_compat=0 / constrained_intra=0 / bframes=3 / b_pyramid=2 / b_adapt=1 / b_bias=0 / direct=1 / weightb=1 / open_gop=0 / weightp=2 / keyint=240 / keyint_min=24 / scenecut=40 / intra_refresh=0 / rc_lookahead=40 / rc=2pass / mbtree=1 / bitrate=10149 / ratetol=1.0 / qcomp=0.60 / qpmin=0 / qpmax=69 / qpstep=4 / cplxblur=20.0 / qblur=0.5 / vbv_maxrate=62500 / vbv_bufsize=78125 / nal_hrd=none / filler=0 / ip_ratio=1.40 / aq=1:1.00
Language : French
Default : Yes
Forced : No
Audio #1
ID : 2
Format : AC-3
Format/Info : Audio Coding 3
Commercial name : Dolby Digital
Codec ID : A_AC3
Duration : 1 h 33 min
Bit rate mode : Constant
Bit rate : 384 kb/s
Channel(s) : 6 channels
Channel layout : L R C LFE Ls Rs
Sampling rate : 48.0 kHz
Frame rate : 31.250 FPS (1536 SPF)
Compression mode : Lossy
Stream size : 258 MiB (3%)
Title : DUB | iTunes
Language : Russian
Service kind : Complete Main
Default : Yes
Forced : No
Audio #2
ID : 3
Format : DTS
Format/Info : Digital Theater Systems
Codec ID : A_DTS
Duration : 1 h 33 min
Bit rate mode : Constant
Bit rate : 1 509 kb/s
Channel(s) : 6 channels
Channel layout : C L R Ls Rs LFE
Sampling rate : 48.0 kHz
Frame rate : 93.750 FPS (512 SPF)
Bit depth : 16 bits
Compression mode : Lossy
Stream size : 1 014 MiB (13%)
Language : French
Default : No
Forced : No
Text
ID : 4
Format : UTF-8
Codec ID : S_TEXT/UTF8
Codec ID/Info : UTF-8 Plain Text
Duration : 1 h 27 min
Bit rate : 107 b/s
Count of elements : 1394
Stream size : 68.6 KiB (0%)
Language : Russian
Default : No
Forced : No
Menu
00:00:00.000 : :Chapitre 01
00:13:20.458 : :Chapitre 02
00:22:09.708 : :Chapitre 03
00:33:35.167 : :Chapitre 04
00:46:18.958 : :Chapitre 05
00:58:40.375 : :Chapitre 06
01:09:41.167 : :Chapitre 07
01:20:57.417 : :Chapitre 08
01:29:27.167 : :Chapitre 09

Скриншоты

admin

Post 09-Jan-2020 13:51

[Quote]

Информация о фильме
Название: Окей, Лекси!
Оригинальное название: Jexi
Год выхода: 2019
Жанр: Комедия
Режиссер: Джон Лукас, Скотт Мур
В ролях: Адам Дивайн, Александра Шипп, Роуз Бирн, Рон Фанчес, Шарлин Йи, Майкл Пенья, Ванда Сайкс, Скотт Мескади, Джастин Хартли, Гэвин Рут

О фильме: Лекси знает о вас все. Она видела все ваши неприличные фотки, знает, о чем вы шепчетесь во время секса, что едите по ночам и как называете своего начальника в секретных чатах. Она - виртуальный помощник из вашего мобильника, и сегодня у нее очень плохое настроение.
Страна: США
Студия: CBS Films, Entertainment One
Продолжительность: 01:24:24
Перевод: Дублированный | iTunes
Качество: BDRip 720p
Видео: MPEG-4 AVC, 1280x536, 5977 Kbit/s, 23.976 fps
Аудио #01: 48 kHz, AC3, 5.1, 384 Kbps | Дублированный | RUS |
Аудио #02: 48 kHz, AC3, 5.1, 640 Kbps | Оригинал | ENG |
Субтитры: Английские

Скриншоты

MI

General
Unique ID : 70338814497432603430372872583423966145 (0x34EAC34E06A015993532E023BE4FBBC1)
Complete name : E:VidJexi.2019.BDRip.720p.seleZen.mkv
Format : Matroska
Format version : Version 4
File size : 4.13 GiB
Duration : 1 h 24 min
Overall bit rate : 7 003 kb/s
Movie name : Jexi 2019 from селезень
Encoded date : UTC 2020-01-08 14:22:21
Writing application : mkvmerge v41.0.0 ('Smarra') 64-bit
Writing library : libebml v1.3.9 + libmatroska v1.5.2
Video
ID : 1
Format : AVC
Format/Info : Advanced Video Codec
Format profile : High@L4.1
Format settings : CABAC / 12 Ref Frames
Format settings, CABAC : Yes
Format settings, Reference : 12 frames
Codec ID : V_MPEG4/ISO/AVC
Duration : 1 h 24 min
Bit rate : 5 977 kb/s
Width : 1 280 pixels
Height : 536 pixels
Display aspect ratio : 2.40:1
Frame rate mode : Constant
Frame rate : 23.976 (24000/1001) FPS
Color space : YUV
Chroma subsampling : 4:2:0
Bit depth : 8 bits
Scan type : Progressive
Bits/(Pixel*Frame) : 0.363
Stream size : 3.52 GiB (85%)
Writing library : x264 core 158 r2984+49 6932f4a t_mod_New [0-bit@all X86_64]
Encoding settings : cabac=1 / ref=12 / deblock=1:-3:-3 / analyse=0x3:0x133 / me=umh / subme=10 / psy=1 / fade_compensate=0.00 / psy_rd=1.00:0.00 / mixed_ref=1 / me_range=32 / chroma_me=1 / trellis=2 / 8x8dct=1 / cqm=0 / deadzone=21,11 / fast_pskip=0 / chroma_qp_offset=-2 / threads=16 / lookahead_threads=4 / sliced_threads=0 / nr=0 / decimate=0 / interlaced=0 / bluray_compat=0 / constrained_intra=0 / fgo=0 / bframes=12 / b_pyramid=2 / b_adapt=2 / b_bias=0 / direct=3 / weightb=1 / open_gop=0 / weightp=2 / keyint=480 / keyint_min=24 / scenecut=40 / intra_refresh=0 / rc_lookahead=80 / rc=crf / mbtree=0 / crf=15.5000 / qcomp=0.60 / qpmin=0:0:0 / qpmax=69:69:69 / qpstep=4 / vbv_maxrate=62500 / vbv_bufsize=78125 / crf_max=0.0 / nal_hrd=none / filler=0 / ip_ratio=1.30 / pb_ratio=1.20 / aq=3:0.80 / aq-sensitivity=10.00 / aq-factor=1.00:1.00:1.00 / aq2=0 / aq3=0
Language : English
Default : Yes
Forced : No
Color range : Limited
Color primaries : BT.709
Transfer characteristics : BT.709
Matrix coefficients : BT.709
Audio #1
ID : 2
Format : AC-3
Format/Info : Audio Coding 3
Commercial name : Dolby Digital
Codec ID : A_AC3
Duration : 1 h 24 min
Bit rate mode : Constant
Bit rate : 384 kb/s
Channel(s) : 6 channels
Channel layout : L R C LFE Ls Rs
Sampling rate : 48.0 kHz
Frame rate : 31.250 FPS (1536 SPF)
Compression mode : Lossy
Stream size : 232 MiB (5%)
Title : Dub. iTunes
Language : Russian
Service kind : Complete Main
Default : Yes
Forced : Yes
Audio #2
ID : 3
Format : AC-3
Format/Info : Audio Coding 3
Commercial name : Dolby Digital
Codec ID : A_AC3
Duration : 1 h 24 min
Bit rate mode : Constant
Bit rate : 640 kb/s
Channel(s) : 6 channels
Channel layout : L R C LFE Ls Rs
Sampling rate : 48.0 kHz
Frame rate : 31.250 FPS (1536 SPF)
Compression mode : Lossy
Stream size : 386 MiB (9%)
Title : Orig.
Language : English
Service kind : Complete Main
Default : No
Forced : No
Text
ID : 4
Format : UTF-8
Codec ID : S_TEXT/UTF8
Codec ID/Info : UTF-8 Plain Text
Duration : 1 h 19 min
Bit rate : 94 b/s
Count of elements : 1800
Stream size : 55.0 KiB (0%)
Title : Full
Language : English
Default : No
Forced : No
Menu
00:00:00.000 : en:Chapter 1
00:05:59.401 : en:Chapter 2
00:08:49.988 : en:Chapter 3
00:15:44.986 : en:Chapter 4
00:19:08.272 : en:Chapter 5
00:25:11.427 : en:Chapter 6
00:29:39.528 : en:Chapter 7
00:36:41.324 : en:Chapter 8
00:40:59.499 : en:Chapter 9
00:45:43.282 : en:Chapter 10
00:49:47.401 : en:Chapter 11
00:57:13.763 : en:Chapter 12
01:01:16.172 : en:Chapter 13
01:05:10.573 : en:Chapter 14
01:10:05.826 : en:Chapter 15
01:15:38.117 : en:Chapter 16

admin

Post 09-Jan-2020 13:45

[Quote]

Информация о фильме
Название: Окей, Лекси!
Оригинальное название: Jexi
Год выхода: 2019
Жанр: Комедия
Режиссер: Джон Лукас, Скотт Мур
В ролях: Адам Дивайн, Александра Шипп, Роуз Бирн, Рон Фанчес, Шарлин Йи, Майкл Пенья, Ванда Сайкс, Скотт Мескади, Джастин Хартли, Гэвин Рут

О фильме: Лекси знает о вас все. Она видела все ваши неприличные фотки, знает, о чем вы шепчетесь во время секса, что едите по ночам и как называете своего начальника в секретных чатах. Она - виртуальный помощник из вашего мобильника, и сегодня у нее очень плохое настроение.
Страна: США
Студия: CBS Films, Entertainment One
Продолжительность: 01:24:24
Перевод: Дублированный | iTunes
Качество: BDRip 1080p
Видео: MPEG-4 AVC, 1920x804, 14.4 Mbit/s, 23.976 fps
Аудио #01: 48 kHz, AC3, 5.1, 384 Kbps | Дублированный | RUS |
Аудио #02: 48 kHz, AC3, 5.1, 640 Kbps | Оригинал | ENG |
Субтитры: Английские

Скриншоты

MI

General
Unique ID : 201904844025897488680088135789709857244 (0x97E575606DAD651CEC33FF2C714791DC)
Complete name : E:VidJexi.2019.BDRip.1080p.seleZen.mkv
Format : Matroska
Format version : Version 4
File size : 9.08 GiB
Duration : 1 h 24 min
Overall bit rate : 15.4 Mb/s
Movie name : Jexi 2019 from селезень
Encoded date : UTC 2020-01-08 14:19:47
Writing application : mkvmerge v41.0.0 ('Smarra') 64-bit
Writing library : libebml v1.3.9 + libmatroska v1.5.2
Video
ID : 1
Format : AVC
Format/Info : Advanced Video Codec
Format profile : High@L4.1
Format settings : CABAC / 5 Ref Frames
Format settings, CABAC : Yes
Format settings, Reference : 5 frames
Codec ID : V_MPEG4/ISO/AVC
Duration : 1 h 24 min
Bit rate : 14.4 Mb/s
Width : 1 920 pixels
Height : 804 pixels
Display aspect ratio : 2.40:1
Frame rate mode : Constant
Frame rate : 23.976 (24000/1001) FPS
Color space : YUV
Chroma subsampling : 4:2:0
Bit depth : 8 bits
Scan type : Progressive
Bits/(Pixel*Frame) : 0.388
Stream size : 8.48 GiB (93%)
Writing library : x264 core 158 r2984+49 6932f4a t_mod_New [0-bit@all X86_64]
Encoding settings : cabac=1 / ref=5 / deblock=1:-3:-3 / analyse=0x3:0x133 / me=umh / subme=10 / psy=1 / fade_compensate=0.00 / psy_rd=1.00:0.00 / mixed_ref=1 / me_range=32 / chroma_me=1 / trellis=2 / 8x8dct=1 / cqm=0 / deadzone=21,11 / fast_pskip=0 / chroma_qp_offset=-2 / threads=16 / lookahead_threads=4 / sliced_threads=0 / nr=0 / decimate=0 / interlaced=0 / bluray_compat=0 / constrained_intra=0 / fgo=0 / bframes=12 / b_pyramid=2 / b_adapt=2 / b_bias=0 / direct=3 / weightb=1 / open_gop=0 / weightp=2 / keyint=480 / keyint_min=24 / scenecut=40 / intra_refresh=0 / rc_lookahead=80 / rc=crf / mbtree=0 / crf=16.5000 / qcomp=0.60 / qpmin=0:0:0 / qpmax=69:69:69 / qpstep=4 / vbv_maxrate=62500 / vbv_bufsize=78125 / crf_max=0.0 / nal_hrd=none / filler=0 / ip_ratio=1.30 / pb_ratio=1.20 / aq=3:0.80 / aq-sensitivity=10.00 / aq-factor=1.00:1.00:1.00 / aq2=0 / aq3=0
Language : English
Default : Yes
Forced : No
Color range : Limited
Color primaries : BT.709
Transfer characteristics : BT.709
Matrix coefficients : BT.709
Audio #1
ID : 2
Format : AC-3
Format/Info : Audio Coding 3
Commercial name : Dolby Digital
Codec ID : A_AC3
Duration : 1 h 24 min
Bit rate mode : Constant
Bit rate : 384 kb/s
Channel(s) : 6 channels
Channel layout : L R C LFE Ls Rs
Sampling rate : 48.0 kHz
Frame rate : 31.250 FPS (1536 SPF)
Compression mode : Lossy
Stream size : 232 MiB (2%)
Title : Dub. iTunes
Language : Russian
Service kind : Complete Main
Default : Yes
Forced : Yes
Audio #2
ID : 3
Format : AC-3
Format/Info : Audio Coding 3
Commercial name : Dolby Digital
Codec ID : A_AC3
Duration : 1 h 24 min
Bit rate mode : Constant
Bit rate : 640 kb/s
Channel(s) : 6 channels
Channel layout : L R C LFE Ls Rs
Sampling rate : 48.0 kHz
Frame rate : 31.250 FPS (1536 SPF)
Compression mode : Lossy
Stream size : 386 MiB (4%)
Title : Orig.
Language : English
Service kind : Complete Main
Default : No
Forced : No
Text
ID : 4
Format : UTF-8
Codec ID : S_TEXT/UTF8
Codec ID/Info : UTF-8 Plain Text
Duration : 1 h 19 min
Bit rate : 94 b/s
Count of elements : 1800
Stream size : 55.0 KiB (0%)
Title : Full
Language : English
Default : No
Forced : No
Menu
00:00:00.000 : en:Chapter 1
00:05:59.401 : en:Chapter 2
00:08:49.988 : en:Chapter 3
00:15:44.986 : en:Chapter 4
00:19:08.272 : en:Chapter 5
00:25:11.427 : en:Chapter 6
00:29:39.528 : en:Chapter 7
00:36:41.324 : en:Chapter 8
00:40:59.499 : en:Chapter 9
00:45:43.282 : en:Chapter 10
00:49:47.401 : en:Chapter 11
00:57:13.763 : en:Chapter 12
01:01:16.172 : en:Chapter 13
01:05:10.573 : en:Chapter 14
01:10:05.826 : en:Chapter 15
01:15:38.117 : en:Chapter 16

admin

Post 09-Jan-2020 13:28

[Quote]

Информация о фильме
Название: Исцеляющая
Оригинальное название: Harmony
Год выхода: 2018
Жанр: Фэнтези, триллер, мелодрама
Режиссер: Кори Пирсон
В ролях: Жаклин Маккензи, Имон Фэррен, Джессика Фалькхолт, Льюис Фиц-Джералд, Тесса Джеймс, Джером Мейер, Сальваторе Коко, Акос Армонт, Тириел Мора, Антониетте Йесуэ

О фильме: Хармони — девушка, обладающая невероятным даром. С самого рождения у нее проявилась способность забирать через прикосновение боль и страх у людей. Но все эти людские страдания концентрируются в ней, принося невыносимые мучения. И, чтобы уравновесить накопленный страх и противостоять постоянно растущему шторму отрицательной энергии, девушке нужно ощутить настоящую любовь — самое главное чувство во Вселенной…
Страна: Австралия
Студия: FILM GRIT, Rhythmic Films, Cowlick Entertainment Group
Продолжительность: 01:30:09
Перевод: Дублированный | iTunes
Качество: BDRip 1080p
Видео: MPEG-4 AVC, 1920x806, 11.5 Mbit/s, 23.976 fps
Аудио #01: 48 kHz, AC3, 5.1, 384 Kbps | iTunes | RUS |
Аудио #02: 48 kHz, AC3, 5.1, 640 Kbps | Оригинал | ENG |
Субтитры: Английские

Скриншоты

MI

General
Unique ID : 173666803267724180626641185386603454743 (0x82A7027A1F323C69EF6BD0522AB3A117)
Complete name : E:Video111Harmony.2018.BDRip.1080p.seleZen.mkv
Format : Matroska
Format version : Version 4
File size : 7.88 GiB
Duration : 1 h 30 min
Overall bit rate : 12.5 Mb/s
Movie name : Harmony 2018 from селезень
Encoded date : UTC 2020-01-09 00:08:23
Writing application : mkvmerge v40.0.0 ('Old Town Road + Pony') 64-bit
Writing library : libebml v1.3.9 + libmatroska v1.5.2
Video
ID : 1
Format : AVC
Format/Info : Advanced Video Codec
Format profile : High@L4.1
Format settings : CABAC / 5 Ref Frames
Format settings, CABAC : Yes
Format settings, Reference : 5 frames
Codec ID : V_MPEG4/ISO/AVC
Duration : 1 h 30 min
Bit rate : 11.5 Mb/s
Width : 1 920 pixels
Height : 806 pixels
Display aspect ratio : 2.40:1
Frame rate mode : Constant
Frame rate : 23.976 (24000/1001) FPS
Color space : YUV
Chroma subsampling : 4:2:0
Bit depth : 8 bits
Scan type : Progressive
Bits/(Pixel*Frame) : 0.310
Stream size : 7.23 GiB (92%)
Title : Encoded by seleZen
Writing library : x264 core 142 r2431+42 c69a006 tMod [8-bit@all X86_64]
Encoding settings : cabac=1 / ref=5 / deblock=1:-2:-2 / analyse=0x3:0x133 / me=umh / subme=11 / psy=1 / fade_compensate=0.00 / psy_rd=0.02:0.03 / mixed_ref=1 / me_range=32 / chroma_me=1 / trellis=2 / 8x8dct=1 / cqm=0 / deadzone=21,11 / fast_pskip=0 / chroma_qp_offset=-2 / threads=24 / lookahead_threads=6 / sliced_threads=0 / nr=0 / decimate=0 / interlaced=0 / bluray_compat=0 / constrained_intra=0 / fgo=0 / bframes=10 / b_pyramid=2 / b_adapt=2 / b_bias=0 / direct=3 / weightb=1 / open_gop=0 / weightp=2 / keyint=240 / keyint_min=23 / scenecut=40 / intra_refresh=0 / rc_lookahead=50 / rc=2pass / mbtree=0 / bitrate=11500 / ratetol=1.0 / qcomp=0.60 / qpmin=0:0:0 / qpmax=51:51:51 / qpstep=4 / cplxblur=20.0 / qblur=0.5 / vbv_maxrate=50000 / vbv_bufsize=62500 / nal_hrd=none / filler=0 / ip_ratio=1.40 / pb_ratio=1.30 / aq=3:0.80 / aq-sensitivity=10.00 / aq-factor=1.00:1.00:1.00 / aq2=0 / aq3=0
Language : English
Default : Yes
Forced : No
Audio #1
ID : 2
Format : AC-3
Format/Info : Audio Coding 3
Commercial name : Dolby Digital
Codec ID : A_AC3
Duration : 1 h 30 min
Bit rate mode : Constant
Bit rate : 384 kb/s
Channel(s) : 6 channels
Channel layout : L R C LFE Ls Rs
Sampling rate : 48.0 kHz
Frame rate : 31.250 FPS (1536 SPF)
Compression mode : Lossy
Stream size : 248 MiB (3%)
Title : iTunes
Language : Russian
Service kind : Complete Main
Default : Yes
Forced : Yes
Audio #2
ID : 3
Format : AC-3
Format/Info : Audio Coding 3
Commercial name : Dolby Digital
Codec ID : A_AC3
Duration : 1 h 30 min
Bit rate mode : Constant
Bit rate : 640 kb/s
Channel(s) : 6 channels
Channel layout : L R C LFE Ls Rs
Sampling rate : 48.0 kHz
Frame rate : 31.250 FPS (1536 SPF)
Compression mode : Lossy
Stream size : 413 MiB (5%)
Title : Original
Language : English
Service kind : Complete Main
Default : No
Forced : No
Text
ID : 4
Format : UTF-8
Codec ID : S_TEXT/UTF8
Codec ID/Info : UTF-8 Plain Text
Duration : 1 h 28 min
Bit rate : 38 b/s
Count of elements : 1001
Stream size : 24.7 KiB (0%)
Title : Full
Language : English
Default : No
Forced : No
Menu
00:00:00.000 : en:Chapter 01
00:09:46.336 : en:Chapter 02
00:19:59.198 : en:Chapter 03
00:30:10.392 : en:Chapter 04
00:41:53.886 : en:Chapter 05
00:50:18.933 : en:Chapter 06
00:59:26.438 : en:Chapter 07
01:10:15.753 : en:Chapter 08
01:19:44.029 : en:Chapter 09
01:27:26.825 : en:Chapter 10

admin

Post 07-Jan-2020 22:23

[Quote]

Информация о фильме
Название: Рождество на двоих
Оригинальное название: Last Christmas
Год выхода: 2019
Страна: США, Великобритания
Жанр: драма, мелодрама, комедия
Продолжительность: 01:37:29
Перевод: Профессиональный (полное дублирование) Звук с онлайн-кинотеатра
Субтитры: Корейские (hardsub)
Режиссер:
Пол Фиг / Paul Feig
В ролях:
Эмилия Кларк, Генри Голдинг, Мишель Йео, Эмма Томпсон, Ребекка Рут, Лидия Леонард, Пэтти ЛюПон, Мэдисон Инголдсби, Борис Исакович, Люси Миллер
О фильме:
Кейт работает в магазине рождественских товаров, злоупотребляет выпивкой и давно бросила переживать из-за собственной жизни. Но всё меняется после знакомства с милым и очаровательным Томом.

Сэмпл | Рекламы нет
Файл
Качество: WEBRip
Формат: AVI
Видео кодек: XviD
Аудио кодек: AC3
Видео: 704x352 (2.00:1), 23.976 fps, XviD build 67 ~1935 kbps avg, 0.33 bit/pixel
Аудио: 48 kHz, AC3 Dolby Digital, 2/0 (L,R) ch, ~192 kbps avg

Скриншоты

admin

Post 07-Jan-2020 22:12

[Quote]

Информация о фильме
Название: Эспен в поисках Золотого замка
Оригинальное название: Askeladden - I Soria Moria slott
Год выхода: 2019
Жанр: Фэнтези, приключения
Режиссер: Миккель Бренне Сандемусе
В ролях: Вебьёрн Энгер, Элли Харбоа, Мадс Сьёгард Петтерсен, Элиас Хольмен Сёренсен, Гэбриел Эндрюс, Гискен Арманд, Петронелла Баркер, Фроде Биркеланд, Гард Б. Эйдсвольд, Александра Гйерпен
О фильме:
Король и королева отравлены. Единственный шанс на спасение — живая вода, спрятанная на краю света в стенах таинственного Золотого замка. Эспен с принцессой Кристин отправляются в путешествие, полное опасностей и приключений.

Страна: Норвегия
Студия: Maipo Film, uMedia Family
Продолжительность: 01:41:03
Перевод: Профессиональный (полное дублирование) | iTunes
Файл
Качество: BDRip 720p
Формат: MKV
Кодек: MPEG-4 AVC
Видео: 1280x536 (2,40:1), 24 fps, MPEG-4 AVC ~ 4677 Kbps avg, 0.284 bit/pixel
Аудио: AC3, 48 kHz, 6 ch, ~384.00 kbps avg | русский | iTunes
Аудио: DTS, 48 kHz, 6 ch, ~1509.00 kbps avg | норвежский | Оригинал
Субтитры: Норвежские (полные)

Инфо-файл

Общее
Уникальный идентификатор : 87133516195420775113094812775900503711 (0x418D4E07604B5070C0FF5A15593BDE9F)
Полное имя : Askeladden.I.Soria.Moria.Slott.2019.720p.Blu.Ray.x264.mkv
Формат : Matroska
Версия формата : Version 4
Размер файла : 4,64 Гбайт
Продолжительность : 1 ч. 41 м.
Общий поток : 6572 Кбит/сек
Название фильма : Эспен в поисках Золотого замка (2019)
Дата кодирования : UTC 2020-01-07 05:34:25
Программа кодирования : mkvmerge v41.0.0 ('Smarra') 64-bit
Библиотека кодирования : libebml v1.3.9 + libmatroska v1.5.2
Обложка : Yes
Attachments : cover.jpg
Видео
Идентификатор : 1
Формат : AVC
Формат/Информация : Advanced Video Codec
Профиль формата : High@L4.1
Настройки формата : CABAC / 5 Ref Frames
Параметр CABAC формата : Да
Параметр RefFrames формата : 5 кадров
Идентификатор кодека : V_MPEG4/ISO/AVC
Продолжительность : 1 ч. 41 м.
Битрейт : 4677 Кбит/сек
Ширина : 1280 пикселей
Высота : 536 пикселей
Соотношение сторон : 2,40:1
Режим частоты кадров : Постоянный
Частота кадров : 24,000 кадра/сек
Цветовое пространство : YUV
Субдискретизация насыщенности : 4:2:0
Битовая глубина : 8 бит
Тип развёртки : Прогрессивная
Бит/(Пиксели*Кадры) : 0.284
Размер потока : 3,30 Гбайт (71%)
Заголовок : GRUNDiG
Библиотека кодирования : x264 core 159 r2991 1771b55
Настройки программы : cabac=1 / ref=5 / deblock=1:0:0 / analyse=0x3:0x113 / me=umh / subme=9 / psy=1 / psy_rd=1.00:0.00 / mixed_ref=1 / me_range=16 / chroma_me=1 / trellis=1 / 8x8dct=1 / cqm=0 / deadzone=21,11 / fast_pskip=1 / chroma_qp_offset=-2 / threads=17 / lookahead_threads=1 / sliced_threads=0 / nr=0 / decimate=1 / interlaced=0 / bluray_compat=0 / constrained_intra=0 / bframes=3 / b_pyramid=2 / b_adapt=1 / b_bias=0 / direct=3 / weightb=1 / open_gop=0 / weightp=2 / keyint=240 / keyint_min=24 / scenecut=40 / intra_refresh=0 / rc_lookahead=50 / rc=2pass / mbtree=1 / bitrate=4677 / ratetol=1.0 / qcomp=0.60 / qpmin=0 / qpmax=69 / qpstep=4 / cplxblur=20.0 / qblur=0.5 / ip_ratio=1.40 / aq=1:1.00
Язык : Norwegian
Default : Да
Forced : Нет
Аудио #1
Идентификатор : 2
Формат : AC-3
Формат/Информация : Audio Coding 3
Коммерческое название : Dolby Digital
Идентификатор кодека : A_AC3
Продолжительность : 1 ч. 41 м.
Вид битрейта : Постоянный
Битрейт : 384 Кбит/сек
Каналы : 6 каналов
ChannelLayout : L R C LFE Ls Rs
Частота : 48,0 КГц
Частота кадров : 31,250 кадров/сек (1536 SPF)
Метод сжатия : С потерями
Задержка видео : 31 мс.
Размер потока : 278 Мбайт (6%)
Заголовок : iTunes
Язык : Russian
Default : Да
Forced : Нет
Аудио #2
Идентификатор : 3
Формат : DTS
Формат/Информация : Digital Theater Systems
Идентификатор кодека : A_DTS
Продолжительность : 1 ч. 41 м.
Вид битрейта : Постоянный
Битрейт : 1509 Кбит/сек
Каналы : 6 каналов
ChannelLayout : C L R Ls Rs LFE
Частота : 48,0 КГц
Частота кадров : 93,750 кадра/сек (512 SPF)
Битовая глубина : 24 бит
Метод сжатия : С потерями
Размер потока : 1,07 Гбайт (23%)
Заголовок : Original
Язык : Norwegian
Default : Нет
Forced : Нет
Текст
Идентификатор : 4
Формат : UTF-8
Идентификатор кодека : S_TEXT/UTF8
Идентификатор кодека/Информация : UTF-8 Plain Text
Продолжительность : 1 ч. 40 м.
Битрейт : 33 бит/сек
ElementCount : 664
Размер потока : 24,5 Кбайт (0%)
Заголовок : Full
Язык : Norwegian
Default : Нет
Forced : Нет
Меню
00:00:00.000 : en:Chapter 01
00:09:59.708 : en:Chapter 02
00:19:59.583 : en:Chapter 03
00:29:59.833 : en:Chapter 04
00:40:00.000 : en:Chapter 05
00:49:59.583 : en:Chapter 06
00:59:59.583 : en:Chapter 07
01:09:59.958 : en:Chapter 08
01:19:59.708 : en:Chapter 09
01:29:59.666 : en:Chapter 10

Скриншоты

admin

Post 07-Jan-2020 22:09

[Quote]

Информация о фильме
Название: Эспен в поисках Золотого замка
Оригинальное название: Askeladden - I Soria Moria slott
Год выхода: 2019
Жанр: Фэнтези, приключения
Режиссер: Миккель Бренне Сандемусе
В ролях: Вебьёрн Энгер, Элли Харбоа, Мадс Сьёгард Петтерсен, Элиас Хольмен Сёренсен, Гэбриел Эндрюс, Гискен Арманд, Петронелла Баркер, Фроде Биркеланд, Гард Б. Эйдсвольд, Александра Гйерпен
О фильме:
Король и королева отравлены. Единственный шанс на спасение — живая вода, спрятанная на краю света в стенах таинственного Золотого замка. Эспен с принцессой Кристин отправляются в путешествие, полное опасностей и приключений.

Страна: Норвегия
Студия: Maipo Film, uMedia Family
Продолжительность: 01:41:03
Перевод: Профессиональный (полное дублирование) | iTunes
Файл
Качество: BDRip 1080p
Формат: MKV
Кодек: MPEG-4 AVC
Видео: 1920x800 (2,40:1), 24 fps, MPEG-4 AVC ~ 10,9 Мbps avg, 0.295 bit/pixe
Аудио: AC3, 48 kHz, 6 ch, ~384.00 kbps avg | русский | iTunes
Аудио: DTS, 48 kHz, 6 ch, ~1509.00 kbps avg | норвежский | Оригинал
Субтитры: Норвежские (полные)

Инфо-файл

Общее
Уникальный идентификатор : 80809519358727628717521016700722178688 (0x3CCB58E97804116C87ED0E02232B6A80)
Полное имя : Askeladden.I.Soria.Moria.Slott.2019.1080p.Blu.Ray.x264.mkv
Формат : Matroska
Версия формата : Version 4
Размер файла : 9,00 Гбайт
Продолжительность : 1 ч. 41 м.
Общий поток : 12,8 Мбит/сек
Название фильма : Эспен в поисках Золотого замка (2019)
Дата кодирования : UTC 2020-01-07 05:37:16
Программа кодирования : mkvmerge v41.0.0 ('Smarra') 64-bit
Библиотека кодирования : libebml v1.3.9 + libmatroska v1.5.2
Обложка : Yes
Attachments : cover.jpg
Видео
Идентификатор : 1
Формат : AVC
Формат/Информация : Advanced Video Codec
Профиль формата : High@L4.1
Настройки формата : CABAC / 5 Ref Frames
Параметр CABAC формата : Да
Параметр RefFrames формата : 5 кадров
Идентификатор кодека : V_MPEG4/ISO/AVC
Продолжительность : 1 ч. 41 м.
Битрейт : 10,9 Мбит/сек
Ширина : 1920 пикселей
Высота : 800 пикселей
Соотношение сторон : 2,40:1
Режим частоты кадров : Постоянный
Частота кадров : 24,000 кадра/сек
Цветовое пространство : YUV
Субдискретизация насыщенности : 4:2:0
Битовая глубина : 8 бит
Тип развёртки : Прогрессивная
Бит/(Пиксели*Кадры) : 0.295
Размер потока : 7,67 Гбайт (85%)
Заголовок : GRUNDiG
Библиотека кодирования : x264 core 159 r2991 1771b55
Настройки программы : cabac=1 / ref=5 / deblock=1:0:0 / analyse=0x3:0x113 / me=umh / subme=9 / psy=1 / psy_rd=1.00:0.00 / mixed_ref=1 / me_range=16 / chroma_me=1 / trellis=1 / 8x8dct=1 / cqm=0 / deadzone=21,11 / fast_pskip=1 / chroma_qp_offset=-2 / threads=25 / lookahead_threads=2 / sliced_threads=0 / nr=0 / decimate=1 / interlaced=0 / bluray_compat=0 / constrained_intra=0 / bframes=3 / b_pyramid=2 / b_adapt=1 / b_bias=0 / direct=3 / weightb=1 / open_gop=0 / weightp=2 / keyint=240 / keyint_min=24 / scenecut=40 / intra_refresh=0 / rc_lookahead=50 / rc=2pass / mbtree=1 / bitrate=10863 / ratetol=1.0 / qcomp=0.60 / qpmin=0 / qpmax=69 / qpstep=4 / cplxblur=20.0 / qblur=0.5 / ip_ratio=1.40 / aq=1:1.00
Язык : Norwegian
Default : Да
Forced : Нет
Аудио #1
Идентификатор : 2
Формат : AC-3
Формат/Информация : Audio Coding 3
Коммерческое название : Dolby Digital
Идентификатор кодека : A_AC3
Продолжительность : 1 ч. 41 м.
Вид битрейта : Постоянный
Битрейт : 384 Кбит/сек
Каналы : 6 каналов
ChannelLayout : L R C LFE Ls Rs
Частота : 48,0 КГц
Частота кадров : 31,250 кадров/сек (1536 SPF)
Метод сжатия : С потерями
Задержка видео : 31 мс.
Размер потока : 278 Мбайт (3%)
Заголовок : iTunes
Язык : Russian
Default : Да
Forced : Нет
Аудио #2
Идентификатор : 3
Формат : DTS
Формат/Информация : Digital Theater Systems
Идентификатор кодека : A_DTS
Продолжительность : 1 ч. 41 м.
Вид битрейта : Постоянный
Битрейт : 1509 Кбит/сек
Каналы : 6 каналов
ChannelLayout : C L R Ls Rs LFE
Частота : 48,0 КГц
Частота кадров : 93,750 кадра/сек (512 SPF)
Битовая глубина : 24 бит
Метод сжатия : С потерями
Размер потока : 1,07 Гбайт (12%)
Заголовок : Original
Язык : Norwegian
Default : Нет
Forced : Нет
Текст
Идентификатор : 4
Формат : UTF-8
Идентификатор кодека : S_TEXT/UTF8
Идентификатор кодека/Информация : UTF-8 Plain Text
Продолжительность : 1 ч. 40 м.
Битрейт : 33 бит/сек
ElementCount : 664
Размер потока : 24,5 Кбайт (0%)
Заголовок : Full
Язык : Norwegian
Default : Нет
Forced : Нет
Меню
00:00:00.000 : en:Chapter 01
00:09:59.708 : en:Chapter 02
00:19:59.583 : en:Chapter 03
00:29:59.833 : en:Chapter 04
00:40:00.000 : en:Chapter 05
00:49:59.583 : en:Chapter 06
00:59:59.583 : en:Chapter 07
01:09:59.958 : en:Chapter 08
01:19:59.708 : en:Chapter 09
01:29:59.666 : en:Chapter 10

Скриншоты

 

Current time is: 19-Jan 21:55

All times are UTC + 3