Search found 500 matches

Author Message

admin

Post 16-May-2022 21:20

[Quote]

Информация о фильме
Название: Скачок во времени / Стазис
Оригинальное название: Stasis
Год выхода: 2017
Жанр: фантастика
Режиссер: Николь Джонс-Дион
В ролях: Анна Харр, Марк Гроссман, Филлис Спилман, Калеб Томас, Мэддисон Баллок, Уильям Найт, Ван Уайт, Уильям «Билл» Коннор, Грегори Шелби
О фильме:
Очнувшись в полном одиночестве после вечеринки Эва отправляется домой, но к своему удивлению обнаруживает, что в ее постели уже спит незнакомка, которая как две капли воды похожа нее. Только эта девушка не Эва. Путешествующая во времени беглянка украла у Эвы все: тело, личность, жизнь. Более того, это не единственный подобный случай. В прошлом среди людей тайно обитают тысячи таких беглецов из будущего. Теперь Эва не более чем привидение, никто не видит и не слышит ее. И только она может остановить происходящее и вернуть временной континуум в норму.

Выпущено: США / PraxiScope Productions, Vangard Productions
Продолжительность: 01:24:34
Озвучивание: Дублированное | iTunes
Файл
Формат: MKV
Качество: WEB-DL 1080p
Видео: MPEG-4 AVC, 5120 Kb/s, 1920x1080
Аудио: Russian: AC3, 384 Kb/s (6 ch), English: AC3, 640 Kb/s (6 ch)
Субтитры: Нет
Дополнительно: Нет

Инфо-файл:

Complete name : Skachok.vo.vremeni.2017.WEB-DL.1080p.ELEKTRI4KA.UNIONGANG.mkv
Format : Matroska
Format version : Version 4
File size : 3.62 GiB
Duration : 1 h 24 min
Overall bit rate : 6 133 kb/s
Movie name : Skachok.vo.vremeni.2017.WEB-DL.1080p.ELEKTRI4KA.UNIONGANG.
Encoded date : UTC 2022-05-15 14:05:55
Writing application : mkvmerge v8.3.0 ('Over the Horizon') 32bit
Writing library : libebml v1.3.1 + libmatroska v1.4.2
Video
ID : 1
Format : AVC
Format/Info : Advanced Video Codec
Format profile : High@L4
Format settings : CABAC / 4 Ref Frames
Format settings, CABAC : Yes
Format settings, Reference frames : 4 frames
Codec ID : V_MPEG4/ISO/AVC
Duration : 1 h 24 min
Bit rate : 5 120 kb/s
Width : 1 920 pixels
Height : 1 080 pixels
Display aspect ratio : 16:9
Frame rate mode : Constant
Frame rate : 24.000 FPS
Color space : YUV
Chroma subsampling : 4:2:0
Bit depth : 8 bits
Scan type : Progressive
Bits/(Pixel*Frame) : 0.103
Stream size : 3.02 GiB (83%)
Writing library : x264 core 152 r2854 e9a5903
Encoding settings : cabac=1 / ref=3 / deblock=1:0:0 / analyse=0x3:0x113 / me=hex / subme=7 / psy=1 / psy_rd=1.00:0.00 / mixed_ref=1 / me_range=16 / chroma_me=1 / trellis=1 / 8x8dct=1 / cqm=0 / deadzone=21,11 / fast_pskip=1 / chroma_qp_offset=-2 / threads=34 / lookahead_threads=5 / sliced_threads=0 / nr=0 / decimate=1 / interlaced=0 / bluray_compat=0 / constrained_intra=0 / bframes=6 / b_pyramid=2 / b_adapt=1 / b_bias=0 / direct=1 / weightb=1 / open_gop=0 / weightp=2 / keyint=48 / keyint_min=25 / scenecut=0 / intra_refresh=0 / rc_lookahead=40 / rc=2pass / mbtree=1 / bitrate=5120 / ratetol=1.0 / qcomp=0.60 / qpmin=0 / qpmax=69 / qpstep=4 / cplxblur=20.0 / qblur=0.5 / vbv_maxrate=7680 / vbv_bufsize=20480 / nal_hrd=none / filler=0 / ip_ratio=1.40 / aq=1:1.00
Default : Yes
Forced : No
Audio #1
ID : 2
Format : AC-3
Format/Info : Audio Coding 3
Commercial name : Dolby Digital
Codec ID : A_AC3
Duration : 1 h 24 min
Bit rate mode : Constant
Bit rate : 384 kb/s
Channel(s) : 6 channels
Channel layout : L R C LFE Ls Rs
Sampling rate : 48.0 kHz
Frame rate : 31.250 FPS (1536 SPF)
Compression mode : Lossy
Stream size : 232 MiB (6%)
Title : DUB (iTunes)
Language : Russian
Service kind : Complete Main
Default : Yes
Forced : Yes
Audio #2
ID : 3
Format : AC-3
Format/Info : Audio Coding 3
Commercial name : Dolby Digital
Codec ID : A_AC3
Duration : 1 h 24 min
Bit rate mode : Constant
Bit rate : 640 kb/s
Channel(s) : 6 channels
Channel layout : L R C LFE Ls Rs
Sampling rate : 48.0 kHz
Frame rate : 31.250 FPS (1536 SPF)
Compression mode : Lossy
Stream size : 387 MiB (10%)
Title : Original
Language : English
Service kind : Complete Main
Default : No
Forced : No

Скриншоты

admin

Post 16-May-2022 21:07

[Quote]

Выпускной год / Выпускной класс / Senior Year
Год выпуска: 2022
Выпущено: США / Paramount Pictures, Broken Road Productions, Paramount Players, CBS Films
Жанр: драма, комедия
Режиссер: Алекс Хардкасл / Alex Hardcastle
В ролях: Ребел Уилсон, Джастин Хартли, Алисия Сильверстоун, Энгаури Райс, Брэндон Скотт Джонс, Сэм Ричардсон, Зои Чао, Мэри Холлэнд, Крис Парнелл, Майкл Чимино, Джереми Рэй Тейлор, Joshua Colley, Avantika, Молли Браун, Тайлер Барнхардт-О фильме: 37-летняя женщина приходит в себя после двадцати лет, проведенных в коме, и возвращается в старшую школу, где когда-то была популярной чирлидершей.

Продолжительность: 01:53:30
Перевод: Любительский, двухголосый закадровый (Pazl Voice)
Субтитры: Русские, английские
Формат: MKV
Качество: WEB-DL 1080p
Видео: MPEG-4 AVC, 4294 Кбит/с, 1920x1080
Аудио #1: AC3, 6 ch, 448 Кбит/с | RUS |
Аудио #2: E-AC3 JOC, 6 ch, 768 Кбит/с | ENG |

Скриншоты

-

MediaInfo

General
Unique ID : 214620145242638039203913481601453224585 (0xA1765620E0591A06DDCDD758B0257289)
Complete name : E:TorrentsSenior.Year.2022.1080p_от New-Team_JNS82.mkv
Format : Matroska
Format version : Version 4
File size : 4.37 GiB
Duration : 1 h 53 min
Overall bit rate mode : Variable
Overall bit rate : 5 512 kb/s
Movie name : Senior.Year.2022.1080p_от New-Team_JNS82
Encoded date : UTC 2022-05-15 09:19:31
Writing application : mkvmerge v59.0.0 ('Shining Star') 64-bit
Writing library : libebml v1.4.2 + libmatroska v1.6.4
Video
ID : 1
Format : AVC
Format/Info : Advanced Video Codec
Format profile : Main@L4
Format settings : CABAC / 3 Ref Frames
Format settings, CABAC : Yes
Format settings, Reference : 3 frames
Codec ID : V_MPEG4/ISO/AVC
Duration : 1 h 53 min
Bit rate mode : Variable
Bit rate : 4 294 kb/s
Nominal bit rate : 4 571 kb/s
Maximum bit rate : 8 700 kb/s
Width : 1 920 pixels
Height : 1 080 pixels
Display aspect ratio : 16:9
Frame rate mode : Constant
Frame rate : 24.000 FPS
Color space : YUV
Chroma subsampling : 4:2:0
Bit depth : 8 bits
Scan type : Progressive
Bits/(Pixel*Frame) : 0.086
Stream size : 3.40 GiB (78%)
Writing library : x264 core 148 r2727 7d026e8
Encoding settings : cabac=1 / ref=3 / deblock=1:0:0 / analyse=0x1:0x111 / me=umh / subme=10 / psy=1 / psy_rd=1.00:0.00 / mixed_ref=1 / me_range=24 / chroma_me=1 / trellis=2 / 8x8dct=0 / cqm=0 / deadzone=21,11 / fast_pskip=1 / chroma_qp_offset=-2 / threads=8 / lookahead_threads=1 / sliced_threads=0 / nr=0 / decimate=1 / interlaced=0 / bluray_compat=0 / stitchable=1 / constrained_intra=0 / bframes=2 / b_pyramid=0 / b_adapt=2 / b_bias=0 / direct=3 / weightb=1 / open_gop=0 / weightp=2 / keyint=250 / keyint_min=24 / scenecut=0 / intra_refresh=0 / rc_lookahead=48 / rc=2pass / mbtree=1 / bitrate=4571 / ratetol=1.0 / qcomp=0.50 / qpmin=6 / qpmax=51 / qpstep=4 / cplxblur=20.0 / qblur=0.5 / vbv_maxrate=8700 / vbv_bufsize=11600 / nal_hrd=vbr / filler=0 / ip_ratio=1.40 / aq=1:1.00
Default : Yes
Forced : No
Audio #1
ID : 2
Format : AC-3
Format/Info : Audio Coding 3
Commercial name : Dolby Digital
Codec ID : A_AC3
Duration : 1 h 53 min
Bit rate mode : Constant
Bit rate : 448 kb/s
Channel(s) : 6 channels
Channel layout : L R C LFE Ls Rs
Sampling rate : 48.0 kHz
Frame rate : 31.250 FPS (1536 SPF)
Compression mode : Lossy
Stream size : 364 MiB (8%)
Title : Pazl Voice - MVO
Language : Russian
Service kind : Complete Main
Default : Yes
Forced : No
Audio #2
ID : 3
Format : E-AC-3 JOC
Format/Info : Enhanced AC-3 with Joint Object Coding
Commercial name : Dolby Digital Plus with Dolby Atmos
Codec ID : A_EAC3
Duration : 1 h 53 min
Bit rate mode : Constant
Bit rate : 768 kb/s
Channel(s) : 6 channels
Channel layout : L R C LFE Ls Rs
Sampling rate : 48.0 kHz
Frame rate : 31.250 FPS (1536 SPF)
Compression mode : Lossy
Stream size : 624 MiB (14%)
Language : English
Service kind : Complete Main
Default : No
Forced : No
Complexity index : 16
Number of dynamic objects : 15
Bed channel count : 1 channel
Bed channel configuration : LFE
Text #1
ID : 4
Format : UTF-8
Codec ID : S_TEXT/UTF8
Codec ID/Info : UTF-8 Plain Text
Duration : 1 h 51 min
Bit rate : 120 b/s
Count of elements : 1758
Stream size : 97.8 KiB (0%)
Language : Russian
Default : No
Forced : No
Text #2
ID : 5
Format : UTF-8
Codec ID : S_TEXT/UTF8
Codec ID/Info : UTF-8 Plain Text
Duration : 1 h 48 min
Bit rate : 80 b/s
Count of elements : 1760
Stream size : 64.0 KiB (0%)
Language : English
Default : No
Forced : No
Text #3
ID : 6
Format : UTF-8
Codec ID : S_TEXT/UTF8
Codec ID/Info : UTF-8 Plain Text
Duration : 1 h 51 min
Bit rate : 107 b/s
Count of elements : 2299
Stream size : 87.3 KiB (0%)
Title : SDH
Language : English
Default : No
Forced : No
Menu
01:48:58.000 : Credits

admin

Post 16-May-2022 20:59

[Quote]

Информация о фильме
Название: 9 жизней
Оригинальное название: Nine Bullets
Год выхода: 2022
Жанр: триллер
Режиссер: Джиджи Гастон
В ролях: Лина Хиди, Дин Скотт Васкес, Сэм Уортингтон, Кэм Жиганде, Барбара Хёрши, Мартин Сенсмейер, Марк Менчака, Ла Ла Энтони, Стефани Арсила, Марлин Форте
О фильме:
Бывшая танцовщица решает изменить свою судьбу и во что бы то ни стало спасти мальчика по соседству, жизни которого угрожает мафия в лице ее бывшего возлюбленного.

Выпущено: США / Foresight Entertainment, Pop Films.Screen Media Films
Продолжительность: 01:36:33
Озвучивание: Дублированное [Велес]
Файл
Формат: MKV (x264)
Качество: WEB-DL 1080p
Видео: 6633 Кb/s, 1916x800
Аудио: Russian / English: AC3, 384 Kb/s (6 ch)
Субтитры: English
Дополнительно: Нет

Инфо-файл:

Complete name : 9.zhizney.2022.WEB-DL.1080p.ELEKTRI4KA.UNIONGANG.mkv
Format : Matroska
Format version : Version 4
File size : 4.99 GiB
Duration : 1 h 36 min
Overall bit rate : 7 403 kb/s
Movie name : 9 zhizney.2022.WEB-DL.1080p.ELEKTRI4KA.UNIONGANG.
Encoded date : UTC 2022-05-15 16:54:34
Writing application : mkvmerge v8.3.0 ('Over the Horizon') 32bit
Writing library : libebml v1.3.1 + libmatroska v1.4.2
Video
ID : 1
Format : AVC
Format/Info : Advanced Video Codec
Format profile : High@L4
Format settings : CABAC / 5 Ref Frames
Format settings, CABAC : Yes
Format settings, Reference frames : 5 frames
Codec ID : V_MPEG4/ISO/AVC
Duration : 1 h 36 min
Bit rate : 6 633 kb/s
Width : 1 916 pixels
Height : 800 pixels
Display aspect ratio : 2.40:1
Frame rate mode : Constant
Frame rate : 23.976 (23976/1000) FPS
Color space : YUV
Chroma subsampling : 4:2:0
Bit depth : 8 bits
Scan type : Progressive
Bits/(Pixel*Frame) : 0.180
Stream size : 4.47 GiB (90%)
Language : English
Default : Yes
Forced : No
Color range : Limited
Color primaries : BT.709
Transfer characteristics : BT.709
Matrix coefficients : BT.709
Audio #1
ID : 2
Format : AC-3
Format/Info : Audio Coding 3
Commercial name : Dolby Digital
Codec ID : A_AC3
Duration : 1 h 36 min
Bit rate mode : Constant
Bit rate : 384 kb/s
Channel(s) : 6 channels
Channel layout : L R C LFE Ls Rs
Sampling rate : 48.0 kHz
Frame rate : 31.250 FPS (1536 SPF)
Compression mode : Lossy
Stream size : 265 MiB (5%)
Title : DUB (VELES)
Language : Russian
Service kind : Complete Main
Default : Yes
Forced : Yes
Audio #2
ID : 3
Format : AC-3
Format/Info : Audio Coding 3
Commercial name : Dolby Digital
Codec ID : A_AC3
Duration : 1 h 36 min
Bit rate mode : Constant
Bit rate : 384 kb/s
Channel(s) : 6 channels
Channel layout : L R C LFE Ls Rs
Sampling rate : 48.0 kHz
Frame rate : 31.250 FPS (1536 SPF)
Compression mode : Lossy
Stream size : 265 MiB (5%)
Title : Original
Language : English
Service kind : Complete Main
Default : No
Forced : No
Text #1
ID : 4
Format : UTF-8
Codec ID : S_TEXT/UTF8
Codec ID/Info : UTF-8 Plain Text
Duration : 1 h 36 min
Bit rate : 71 b/s
Count of elements : 1789
Stream size : 50.7 KiB (0%)
Title : SDH
Language : English
Default : No
Forced : No
Text #2
ID : 5
Format : UTF-8
Codec ID : S_TEXT/UTF8
Codec ID/Info : UTF-8 Plain Text
Duration : 1 h 36 min
Bit rate : 65 b/s
Count of elements : 1520
Stream size : 46.2 KiB (0%)
Language : English
Default : No
Forced : No

Скриншоты

admin

Post 15-May-2022 15:49

[Quote]

Информация о фильме
Название: Челюсти. Столкновение
Оригинальное название: Shark Bait
Год выхода: 2022
Жанр: Триллер
Режиссер: Джеймс Нанн
В ролях: Холли Эрл, Джек Трумен, Катрин Ханней, Малачи Пуллар-Латчмен, Томас Флинн, Мануэль Коши, Джошуа Такакс, Максим Дюран, Майло Макдауэлл, Людовика Лода
Слоган: «Террор уходит глубоко»
О фильме: Компания молодых людей подвергается нападению большой белой акулы, когда украденные ими гидроциклы выходят из строя посреди океана.

Выпущено: Великобритания / Checkluck Films, Freebie Films, Ingenious Media, Picaro Films, Small Island Films, Vitality Visual Effects
Продолжительность: 01:24:58
Перевод: Любительский (двухголосый закадровый) [datynet & Мия]
Файл
Качество: WEBRip 720p
Формат: MKV
Видео: MPEG-4 AVC/x264@L4.1, 4000 Кбит/сек, 1280x532 (2.406) at 23.976 fps
Аудио: Русский: AC3, 2 ch, 192 Кбит/сек
Субтитры: английские, украинские [вшитые отключаемые]

MediaInfo:

Общее
Уникальный идентификатор : 242844974759638046100948426050390359038 (0xB6B23DA9E04DF190EF92B455BF0E7BFE)
Полное имя : F:1.ФИЛЬМЫ1. ФИЛЬМЫСтолкновение Shark Bait 2022Chelyusti. Stolknoveniye Shark Bait (2022) WEBRip 720p.mkv
Формат : Matroska
Версия формата : Version 4
Размер файла : 2,48 Гбайт
Продолжительность : 1 ч. 24 м.
Общий поток : 4 181 Кбит/сек
Дата кодирования : UTC 2022-05-14 07:35:41
Программа кодирования : mkvmerge v66.0.0 ('Josie') 64-bit
Библиотека кодирования : libebml v1.4.2 + libmatroska v1.6.4
Авторское право : *=Z=*
Attachments : poster.png
Язык : und
Видео
Идентификатор : 1
Формат : AVC
Формат/Информация : Advanced Video Codec
Профиль формата : High@L4.1
Настройки формата : CABAC / 12 Ref Frames
Параметр CABAC формата : Да
Параметр RefFrames формата : 12 кадров
Идентификатор кодека : V_MPEG4/ISO/AVC
Продолжительность : 1 ч. 24 м.
Битрейт : 4 000 Кбит/сек
Ширина : 1 280 пикселей
Высота : 532 пикселя
Соотношение сторон : 2,40:1
Режим частоты кадров : Постоянный
Частота кадров : 23,976 (24000/1001) кадра/сек
Цветовое пространство : YUV
Субдискретизация насыщенности : 4:2:0
Битовая глубина : 8 бит
Тип развёртки : Прогрессивная
Бит/(Пиксели*Кадры) : 0.245
Размер потока : 2,37 Гбайт (95%)
Заголовок : UK / Checkluck Films, Freebie Films, Ingenious Media, Picaro Films, Small Island Films, Vitality Visual Effects
Библиотека кодирования : x264 core 159 r2991 1771b55
Настройки программы : cabac=1 / ref=12 / deblock=1:-3:-3 / analyse=0x3:0x133 / me=umh / subme=11 / psy=1 / psy_rd=1.00:0.00 / mixed_ref=1 / me_range=32 / chroma_me=1 / trellis=2 / 8x8dct=1 / cqm=0 / deadzone=21,18 / fast_pskip=0 / chroma_qp_offset=-2 / threads=19 / lookahead_threads=4 / sliced_threads=0 / nr=60 / decimate=0 / interlaced=0 / bluray_compat=0 / constrained_intra=0 / bframes=16 / b_pyramid=2 / b_adapt=2 / b_bias=10 / direct=3 / weightb=1 / open_gop=0 / weightp=2 / keyint=240 / keyint_min=24 / scenecut=40 / intra_refresh=0 / rc_lookahead=60 / rc=2pass / mbtree=0 / bitrate=4000 / ratetol=1.0 / qcomp=0.70 / qpmin=3 / qpmax=69 / qpstep=4 / cplxblur=20.0 / qblur=0.5 / vbv_maxrate=5000 / vbv_bufsize=4000 / nal_hrd=none / filler=0 / ip_ratio=1.40 / pb_ratio=1.30 / aq=1:0.60
Язык : English
Default : Да
Forced : Нет
Цветовой диапазон : Limited
Основные цвета : BT.709
Характеристики трансфера : BT.709
Коэффициенты матрицы : BT.709
Аудио
Идентификатор : 2
Формат : AC-3
Формат/Информация : Audio Coding 3
Коммерческое название : Dolby Digital
Идентификатор кодека : A_AC3
Продолжительность : 1 ч. 24 м.
Вид битрейта : Постоянный
Битрейт : 192 Кбит/сек
Каналы : 2 канала
Channel layout : L R
Частота : 48,0 КГц
Частота кадров : 31,250 кадров/сек (1536 SPF)
Битовая глубина : 32 бит
Метод сжатия : С потерями
Размер потока : 117 Мбайт (5%)
Заголовок : MVO (datenet & mia)
Язык : Russian
Service kind : Complete Main
Default : Да
Forced : Нет
Текст #1
Идентификатор : 3
Формат : UTF-8
Идентификатор кодека : S_TEXT/UTF8
Идентификатор кодека/Информация : UTF-8 Plain Text
Продолжительность : 1 ч. 18 м.
Битрейт : 37 бит/сек
Count of elements : 961
Размер потока : 21,7 Кбайт (0%)
Язык : English
Default : Да
Forced : Нет
Текст #2
Идентификатор : 4
Формат : UTF-8
Идентификатор кодека : S_TEXT/UTF8
Идентификатор кодека/Информация : UTF-8 Plain Text
Продолжительность : 1 ч. 18 м.
Битрейт : 65 бит/сек
Count of elements : 961
Размер потока : 38,0 Кбайт (0%)
Язык : Ukrainian
Default : Да
Forced : Нет
ТРЕЙЛЕР
СЭМПЛ

admin

Post 15-May-2022 15:46

[Quote]

Информация о фильме
Название: Челюсти: Столкновение
Оригинальное название: Jetski / Shark Bait
Год выхода: 2022
Жанр: триллер
Режиссер: Джеймс Нанн
В ролях: Холли Эрл, Джек Трумен, Катрин Ханней, Малачи Пуллар-Латчмен, Томас Флинн, Мануэль Коши, Джошуа Такакс, Максим Дюран, Майло Макдауэлл, Людовика Лода
О фильме:
Компания молодых людей подвергается нападению большой белой акулы, когда украденные ими гидроциклы выходят из строя посреди океана.

Страна: Великобритания
Студия: Checkluck Films, Freebie Films, Ingenious Media, Picaro Films, Small Island Films, Vitality Visual Effects
Продолжительность: 01:24:58
Перевод: Любительский двухголосый - (Мия & datynet)
Субтитры: Английские
Файл
Качество: WEB-DL 1080p
Формат: MKV
Видео: 1912x796, 23.976 fps, MPEG-4 AVC, ~9997 Kbps
Аудио 1: AC3, 2ch, ~192 kbps - | Русский |
Аудио 2: AC3, 6 ch, ~384 kbps - | Английский |
Формат субтитров: softsub (SRT)
► Без Рекламы!
***Релиз от: -=DoMiNo=-

M/I

General
Unique ID : 294350339858092543234380007625213925037 (0xDD71D038D750DDFB389E489C5B98D6AD)
Complete name : D:Shark.Bait.2022.WEB-DL.1080p.mkv
Format : Matroska
Format version : Version 4
File size : 6.28 GiB
Duration : 1 h 24 min
Overall bit rate : 10.6 Mb/s
Movie name : -=DoMiNo=-
Encoded date : UTC 2022-05-14 08:52:38
Writing application : mkvmerge v63.0.0 ('Everything') 64-bit
Writing library : libebml v1.4.2 + libmatroska v1.6.4
Cover : Yes
Attachments : cover.jpg / cover 2.jpg
Video
ID : 1
Format : AVC
Format/Info : Advanced Video Codec
Format profile : High@L4
Format settings : CABAC / 5 Ref Frames
Format settings, CABAC : Yes
Format settings, Reference : 5 frames
Codec ID : V_MPEG4/ISO/AVC
Duration : 1 h 24 min
Bit rate : 9 997 kb/s
Width : 1 912 pixels
Height : 796 pixels
Display aspect ratio : 2.40:1
Frame rate mode : Constant
Frame rate : 23.976 (24000/1001) FPS
Color space : YUV
Chroma subsampling : 4:2:0
Bit depth : 8 bits
Scan type : Progressive
Bits/(Pixel*Frame) : 0.274
Stream size : 5.93 GiB (95%)
Language : English
Default : Yes
Forced : No
Color range : Limited
Color primaries : BT.709
Transfer characteristics : BT.709
Matrix coefficients : BT.709
Audio #1
ID : 2
Format : AC-3
Format/Info : Audio Coding 3
Commercial name : Dolby Digital
Codec ID : A_AC3
Duration : 1 h 24 min
Bit rate mode : Constant
Bit rate : 192 kb/s
Channel(s) : 2 channels
Channel layout : L R
Sampling rate : 48.0 kHz
Frame rate : 31.250 FPS (1536 SPF)
Compression mode : Lossy
Stream size : 117 MiB (2%)
Title : DVO_Мия & datynet
Language : Russian
Service kind : Complete Main
Default : Yes
Forced : No
Audio #2
ID : 3
Format : AC-3
Format/Info : Audio Coding 3
Commercial name : Dolby Digital
Codec ID : A_AC3
Duration : 1 h 24 min
Bit rate mode : Constant
Bit rate : 384 kb/s
Channel(s) : 6 channels
Channel layout : L R C LFE Ls Rs
Sampling rate : 48.0 kHz
Frame rate : 31.250 FPS (1536 SPF)
Compression mode : Lossy
Stream size : 233 MiB (4%)
Language : English
Service kind : Complete Main
Default : No
Forced : No
Text
ID : 4
Format : UTF-8
Codec ID : S_TEXT/UTF8
Codec ID/Info : UTF-8 Plain Text
Duration : 1 h 18 min
Bit rate : 27 b/s
Count of elements : 687
Stream size : 15.9 KiB (0%)
Language : English
Default : No
Forced : No
Menu
00:00:00.000 : :Глава 01
00:07:30.000 : :Глава 02
00:15:00.000 : :Глава 03
00:22:30.000 : :Глава 04
00:30:00.000 : :Глава 05
00:37:30.000 : :Глава 06
00:45:00.000 : :Глава 07
00:52:30.000 : :Глава 08
01:00:00.000 : :Глава 09
01:07:30.000 : :Глава 10
01:15:00.000 : :Глава 11
01:22:30.000 : :Глава 12

Скриншоты

admin

Post 15-May-2022 15:29

[Quote]

-Название: Фантастические твари: Тайны Дамблдора
Оригинальное название: Fantastic Beasts: The Secrets of Dumbledore
Год выхода: 2022
Жанр: Фэнтези, приключения, семейный
Режиссер: Дэвид Йейтс
В ролях: Эдди Редмэйн, Джуд Лоу, Эзра Миллер, Дэн Фоглер, Элисон Судол, Каллум Тернер, Джессика Уильямс, Кэтрин Уотерстон, Мадс Миккельсен, Оливер Мазуччи и другие.
Страна: Великобритания, США
Студия: Heyday Films, Warner Bros.
Продолжительность: 02:22:34
Перевод 1: Русский, Профессиональный многоголосый закадровый HDRezka Studio
Перевод 2: Русский, Профессиональный многоголосый закадровый NewComers
Перевод 3: Украинский, Профессиональный многоголосый закадровый HDRezka Studio
Файл
Качество: WEBRip 1080p
Контейнер: MKV
Видео: MPEG-4 AVC, 6783 Kбит/с, 1920x800
Аудио 1: Русский, AC-3, 48 kHz, 2 ch, 192 kbps - HDRezka Studio
Аудио 2: Русский, AAC, 48 kHz, 2 ch, 196 kbps - NewComers
Аудио 3: Українська, AC-3, 48 kHz, 6 ch, 384 kbps - HDRezka Studio
Аудио 4: English, AAC, 48 kHz, 2 ch, 320 kbps - Original
Субтитры: Русские (Forced) - HDRezka Studio, украинские (Forced) - HDRezka Studio, корейские (HardSub)
Реклама: Отсутствует- - -Описание:
Профессор Альбус Дамблдор узнает, что могущественный темный волшебник Геллерт Грин-де-Вальд планирует захватить власть над миром. Понимая, что не сможет остановить его в одиночку, Дамблдор просит магозоолога Ньюта Саламандера возглавить команду из выдающихся волшебников и одного отважного магла-пекаря. Им предстоят невероятно опасные приключения, встреча со старыми и укрощение новых магических существ и борьба со сторонниками Грин-де-Вальда, которых становится все больше. Но какая роль в этой миссии уготована самому Дамблдору?

Скриншоты



admin

Post 15-May-2022 14:59

[Quote]

Информация о фильме
Название: Морбиус
Оригинальное название: Morbius
Год выхода: 2022
Жанр: Ужасы, фантастика, боевик, триллер, фэнтези
Режиссер: Даниэль Эспиноса
В ролях: Джаред Лето, Майкл Китон, Адриа Архона, Джаред Харрис, Мэтт Смит, Тайриз Гибсон, Кори Джонсон, Арчи Рено, Чарли Шотуэлл, Аль Мадригал и другие.
О фильме:
Майкл Морбиус с детства страдает от редкого заболевания крови и всю свою сознательную жизнь посвятил поискам лекарства. В какой-то момент Майкл видит возможное спасение в крови летучих мышей и решается на рискованный эксперимент. Опыт вызывает неожиданную реакцию: вступив в связь с больными клетками, он меняет тело Морбиуса, превращая его в кровожадного монстра.

Страна: США
Студия: Columbia Pictures, Marvel Entertainment
Продолжительность: 01:43:26
Перевод: Профессиональный (многоголосый, закадровый) NewComers
Файл
Кодек: MPEG-4 AVC
Качество: WEB-DLRip 1080p
Видео: 1920x800, ~ 6 983 Кбит/сек, 29.970 кадр/с
Аудио: 1 Русский / AAC / 2.0 / 192 kbs
Аудио: 2 Английский / AAC / 2.0 / 192 kbs
Субтитры: нет
Внимание! Релиз БЕЗ рекламы!

Скриншоты

admin

Post 13-May-2022 20:54

[Quote]

Информация о фильме
Название: Варяг
Оригинальное название: The Northman
Год выхода: 2022
Жанр: Фэнтези, боевик, триллер, драма, приключения, история
Режиссер: Роберт Эггерс
В ролях: Александр Скарсгард, Николь Кидман, Клас Банг, Итэн Хоук, Аня Тейлор-Джой, Густав Линд, Эллиотт Роуз, Уиллем Дефо, Фил Мартин, Эльдар Скар и другие.
О фильме:
Фильм основан на саге о Амлете из древнескандинавской хроники, записанной Саксоном Грамматиком. Сюжет рассказывает о том, как викинг Фьолнир убивает своего брата, конунга Хорвендила, и берёт в жёны его супругу Гудрун. Амлет, сын Хорвендила, скрывается и клянётся отомстить убийце отца. Когда Амлет становится старше, он объединяется со славянской ведьмой Ольгой, похищенной викингами, и стремится вернуться домой, чтобы убить Фьолнира.

Страна: США
Студия: Focus Features, Perfect World (Beijing) Pictures Co., Regency Television, Square Peg, Universal Pictures
Продолжительность: 02:17:18
Перевод: Профессиональный (многоголосый, закадровый) NewComers
Файл
Кодек: MPEG-4 AVC
Качество: WEB-DL 1080p
Видео: 1920x960, ~8582 Кбит/сек, 23.976 кадр/с
Аудио: 1 Русский / AC3 / 5.1 / 384 kbs
Аудио: 2 Английский / E-AC3 / 5.1 / 640 kbs
Субтитры: русские (на надписи)
Внимание! Релиз БЕЗ рекламы!

Скриншоты

admin

Post 11-May-2022 00:40

[Quote]

Информация о фильме
Название: Тихая ночь
Оригинальное название: Silent Night
Год выхода: 2021
Жанр: Драма, комедия, фантастика
Режиссер: Камилль Гриффин
В ролях: Роман Гриффин Дэвис, Аннабелль Уоллис, Кира Найтли, Мэттью Гуд, Лили-Роуз Депп, Люси Панч, Кирби Хауэлл-Баптисте, Руфус Джонс, Сопе Дирису, Давида МакКензи

О фильме: Нелл, Саймон и их сын Арт готовятся встречать гостей и родственников на Рождественский ужин в своем доме. Вечер пройдет как нельзя лучше — не считая того, что все умрут.
Страна: Великобритания
Студия: Marv Films, Maven Screen Media
Продолжительность: 01:30:40
Перевод: Дублированный | Мосфильм-Мастер
Качество: BDRip 1080p
Видео: MPEG-4 AVC, 1920x802, 10.9 Mbit/s, 23.976 fps
Аудио #01: 48 kHz, AC3, 5.1, 448 Kbps | Дублированный | Мосфильм-Мастер | RUS |
Аудио #02: 48 kHz, E-AC3, 5.1, 448 Kbps | Дублированный | Мосфильм-Мастер | RUS |
Аудио #03: 48 kHz, AC3, 5.1, 640 Kbps | Оригинал | ENG |
Субтитры: Русские (Full), английские

Скриншоты

MI

General
Unique ID : 98858116157187262485217480617419348265 (0x4A5F617000D485A8750EC90DFE041929)
Complete name : D:Video1Silent.Night.2021.BDRip.1080p.seleZen.mkv
Format : Matroska
Format version : Version 4
File size : 7.88 GiB
Duration : 1 h 30 min
Overall bit rate : 12.4 Mb/s
Movie name : Silent Night 2021 from seleZen
Encoded date : UTC 2022-05-10 06:42:56
Writing application : mkvmerge v59.0.0 ('Shining Star') 64-bit
Writing library : libebml v1.4.2 + libmatroska v1.6.4
Video
ID : 1
Format : AVC
Format/Info : Advanced Video Codec
Format profile : High@L4.1
Format settings : CABAC / 5 Ref Frames
Format settings, CABAC : Yes
Format settings, Reference : 5 frames
Codec ID : V_MPEG4/ISO/AVC
Duration : 1 h 30 min
Bit rate : 10.9 Mb/s
Width : 1 920 pixels
Height : 802 pixels
Display aspect ratio : 2.40:1
Frame rate mode : Constant
Frame rate : 23.976 (24000/1001) FPS
Color space : YUV
Chroma subsampling : 4:2:0
Bit depth : 8 bits
Scan type : Progressive
Bits/(Pixel*Frame) : 0.295
Stream size : 6.91 GiB (88%)
Title : -EA
Writing library : x264 core 164 r3075+55M 97d28bb t_mod_New [(8 & 10)-bit@all X86_64]
Encoding settings : cabac=1 / ref=5 / deblock=1:-3:-3 / analyse=0x3:0x133 / me=umh / subme=10 / psy=1 / fade_compensate=0.00 / psy_rd=0.97:0.00 / mixed_ref=1 / me_range=32 / chroma_me=1 / trellis=2 / 8x8dct=1 / cqm=0 / deadzone=21,11 / fast_pskip=0 / chroma_qp_offset=-2 / threads=18 / lookahead_threads=4 / sliced_threads=0 / nr=0 / decimate=0 / interlaced=0 / bluray_compat=0 / constrained_intra=0 / fgo=0 / bframes=10 / b_pyramid=2 / b_adapt=2 / b_bias=0 / direct=3 / weightb=1 / open_gop=0 / weightp=2 / keyint=240 / keyint_min=23 / scenecut=40 / intra_refresh=0 / rc_lookahead=60 / rc=crf / mbtree=0 / crf=16.2000 / qcomp=0.65 / qpmin=0:0:0 / qpmax=69:69:69 / qpstep=4 / vbv_maxrate=62500 / vbv_bufsize=78125 / crf_max=0.0 / nal_hrd=none / filler=0 / ip_ratio=1.35 / pb_ratio=1.25 / aq=3:0.85 / aq-sensitivity=10.00 / aq-factor=1.00:1.00:1.00 / aq2=0 / aq3=0
Language : English
Default : Yes
Forced : No
Color range : Limited
Color primaries : BT.709
Transfer characteristics : BT.709
Matrix coefficients : BT.709
Audio #1
ID : 2
Format : AC-3
Format/Info : Audio Coding 3
Commercial name : Dolby Digital
Codec ID : A_AC3
Duration : 1 h 30 min
Bit rate mode : Constant
Bit rate : 448 kb/s
Channel(s) : 6 channels
Channel layout : L R C LFE Ls Rs
Sampling rate : 48.0 kHz
Frame rate : 31.250 FPS (1536 SPF)
Compression mode : Lossy
Stream size : 289 MiB (4%)
Title : Dub
Language : Russian
Service kind : Complete Main
Default : Yes
Forced : Yes
Audio #2
ID : 3
Format : E-AC-3
Format/Info : Enhanced AC-3
Commercial name : Dolby Digital Plus
Codec ID : A_EAC3
Duration : 1 h 30 min
Bit rate mode : Constant
Bit rate : 448 kb/s
Channel(s) : 6 channels
Channel layout : L R C LFE Ls Rs
Sampling rate : 48.0 kHz
Frame rate : 31.250 FPS (1536 SPF)
Compression mode : Lossy
Stream size : 289 MiB (4%)
Title : Dub
Language : Russian
Service kind : Complete Main
Default : No
Forced : No
Audio #3
ID : 4
Format : AC-3
Format/Info : Audio Coding 3
Commercial name : Dolby Digital
Codec ID : A_AC3
Duration : 1 h 30 min
Bit rate mode : Constant
Bit rate : 640 kb/s
Channel(s) : 6 channels
Channel layout : L R C LFE Ls Rs
Sampling rate : 48.0 kHz
Frame rate : 31.250 FPS (1536 SPF)
Compression mode : Lossy
Stream size : 414 MiB (5%)
Title : Original
Language : English
Service kind : Complete Main
Default : No
Forced : No
Text #1
ID : 5
Format : UTF-8
Codec ID : S_TEXT/UTF8
Codec ID/Info : UTF-8 Plain Text
Duration : 1 h 20 min
Bit rate : 94 b/s
Count of elements : 1281
Stream size : 56.0 KiB (0%)
Title : Full
Language : Russian
Default : No
Forced : No
Text #2
ID : 6
Format : UTF-8
Codec ID : S_TEXT/UTF8
Codec ID/Info : UTF-8 Plain Text
Duration : 1 h 20 min
Bit rate : 58 b/s
Count of elements : 1308
Stream size : 34.7 KiB (0%)
Title : Full
Language : English
Default : No
Forced : No
Menu
00:00:00.000 : :Chapter 01
00:07:18.021 : :Chapter 02
00:14:45.760 : :Chapter 03
00:23:51.347 : :Chapter 04
00:29:02.908 : :Chapter 05
00:43:00.036 : :Chapter 06
00:48:57.226 : :Chapter 07
00:53:57.276 : :Chapter 08
01:03:24.718 : :Chapter 09
01:07:46.437 : :Chapter 10
01:15:11.632 : :Chapter 11
01:24:23.016 : :Chapter 12
01:30:17.412 : :Chapter 13

admin

Post 11-May-2022 00:24

[Quote]

Информация о фильме
Название: Тюрьма суперзлодеев
Оригинальное название: Corrective Measures
Год выхода: 2022
Жанр: фантастика, боевик, триллер
Режиссер: Шон Патрик О’Рейли
В ролях: Майкл Рукер, Брюс Уиллис, Томас Кавана, Кевин Зегерс, Дэн Пэйн, Бреннан Мейя, Селия Алома, Хейли Сэйлс, Катрина Мёльман, Мэтт Андерсон
О фильме: Они — худшие из худших. Их девиз: с великой силой приходит великая безответственность. Они суперзлодеи, обладающие нечеловеческими сверхспособностями. И на свете есть лишь одно место, способное их сдержать. Именно здесь, в тюрьме будущего, пересекаются пути преступного гения-телепата, жестокого мстителя, коррумпированного надзирателя и многих других. Кто-то из них затеял опасную игру, и каждому — будь то заключенный или охранник — в ней отведена особая роль...

Выпущено: США / Arcana Productions, Arcana Studio, The Exchange
Продолжительность: 01:46:57
Озвучивание: Дублированное [iTunes]
Файл
Формат: MKV
Качество: WEB-DL 720p
Видео: 1674 Кb/s, 1280x720
Аудио: Russian: AC3, 384 Kb/s (6 ch), English: AAC, 126 Kb/s (2 ch)
Субтитры: English
Дополнительно: Нет

Инфо-файл:

Complete name : Tyurma.superzlodeev.2022.WEB-DL.720p.ELEKTRI4KA.UNIONGANG.mkv
Format : Matroska
Format version : Version 4
File size : 1.63 GiB
Duration : 1 h 46 min
Overall bit rate : 2 186 kb/s
Movie name : Tyurma.superzlodeev.2022.WEB-DL.720p.ELEKTRI4KA.UNIONGANG.
Encoded date : UTC 2022-05-10 12:47:09
Writing application : mkvmerge v8.3.0 ('Over the Horizon') 32bit
Writing library : libebml v1.3.1 + libmatroska v1.4.2
Video
ID : 1
Format : AVC
Format/Info : Advanced Video Codec
Format profile : High@L4
Format settings : CABAC / 4 Ref Frames
Format settings, CABAC : Yes
Format settings, Reference frames : 4 frames
Codec ID : V_MPEG4/ISO/AVC
Duration : 1 h 46 min
Bit rate : 1 674 kb/s
Width : 1 280 pixels
Height : 720 pixels
Display aspect ratio : 16:9
Frame rate mode : Constant
Frame rate : 23.976 (24000/1001) FPS
Color space : YUV
Chroma subsampling : 4:2:0
Bit depth : 8 bits
Scan type : Progressive
Bits/(Pixel*Frame) : 0.076
Stream size : 1.25 GiB (77%)
Writing library : x264 core 157
Encoding settings : cabac=1 / ref=4 / deblock=1:0:0 / analyse=0x3:0x113 / me=umh / subme=8 / psy=1 / psy_rd=1.00:0.00 / mixed_ref=1 / me_range=16 / chroma_me=1 / trellis=0 / 8x8dct=1 / cqm=0 / deadzone=21,11 / fast_pskip=1 / chroma_qp_offset=-2 / threads=10 / lookahead_threads=2 / sliced_threads=0 / nr=0 / decimate=1 / interlaced=0 / bluray_compat=0 / constrained_intra=0 / bframes=4 / b_pyramid=2 / b_adapt=2 / b_bias=0 / direct=3 / weightb=1 / open_gop=0 / weightp=2 / keyint=96 / keyint_min=48 / scenecut=0 / intra_refresh=0 / rc_lookahead=40 / rc=crf / mbtree=1 / crf=1.0 / qcomp=0.60 / qpmin=0 / qpmax=69 / qpstep=4 / vbv_maxrate=2400 / vbv_bufsize=1920 / crf_max=0.0 / nal_hrd=none / filler=0 / ip_ratio=1.41 / aq=1:1.00
Language : English
Default : Yes
Forced : No
Audio #1
ID : 2
Format : AC-3
Format/Info : Audio Coding 3
Commercial name : Dolby Digital
Codec ID : A_AC3
Duration : 1 h 46 min
Bit rate mode : Constant
Bit rate : 384 kb/s
Channel(s) : 6 channels
Channel layout : L R C LFE Ls Rs
Sampling rate : 48.0 kHz
Frame rate : 31.250 FPS (1536 SPF)
Compression mode : Lossy
Delay relative to video : -83 ms
Stream size : 294 MiB (18%)
Title : DUB (iTunes)
Language : Russian
Service kind : Complete Main
Default : Yes
Forced : Yes
Audio #2
ID : 3
Format : AAC LC
Format/Info : Advanced Audio Codec Low Complexity
Codec ID : A_AAC-2
Duration : 1 h 46 min
Bit rate : 126 kb/s
Channel(s) : 2 channels
Channel layout : L R
Sampling rate : 44.1 kHz
Frame rate : 43.066 FPS (1024 SPF)
Compression mode : Lossy
Delay relative to video : -83 ms
Stream size : 96.1 MiB (6%)
Title : Original
Language : English
Default : No
Forced : No
Text
ID : 4
Format : UTF-8
Codec ID : S_TEXT/UTF8
Codec ID/Info : UTF-8 Plain Text
Duration : 1 h 43 min
Bit rate : 71 b/s
Count of elements : 2036
Stream size : 53.9 KiB (0%)
Language : English
Default : No
Forced : No

Скриншоты

admin

Post 11-May-2022 00:00

[Quote]

Информация о фильме
Название: Затерянный город
Оригинальное название: The Lost City
Год выхода: 2022
Жанр: комедия, приключения, мелодрама, боевик
Режиссер: Аарон Ни, Адам Ни
В ролях: Сандра Буллок, Ченнинг Татум, Дэниэл Рэдклифф, Да’Вин Джой Рэндольф, Оскар Нуньес, Патти Харрисон, Брэд Питт, Боуэн Янг, Стивен Лэнг, Джоан Прингл
О фильме:
Лоретта Сейдж пишет популярные любовно-приключенческие романы. События в них непременно разворачиваются в экзотических местах, а главный герой — красавчик и мечта героинь Дэш, которого в жизни воплощает модель Алан. Во время промотура нового бестселлера Лоретту похищает эксцентричный миллиардер, уверенный, что она сможет привести его к сокровищам древнего затерянного города из ее последней книги. Алан решает доказать, что может быть героем в реальной жизни, а не только на страницах книг, и отправляется Лоретте на выручку.

Страна: США
Студия: 3dot productions, Exhibit A, Fortis Films, Paramount Pictures
Продолжительность: 01:51:45
Перевод: Любительский (многоголосый, закадровый) | GostFilm
Файл
Кодек: x.264
Качество: WEB-DL 1080p
Видео: AVC, 1920x800 (2,40:1), 23.976 fps, 6 248 kb/s
Аудио 1: AC3, 48.0 kHz, 2 ch, 192 kb/s | RUS
Аудио 2: E-AC3 JOC, 48.0 kHz, 6 ch, 768 kb/s | ENG
Субтитры: английские
Без рекламы
Сэмпл

MI

Общее
Уникальный идентификатор : 170408091753715301481758480347135628517 (0x8033679848FEC461AAB01CBB842654E5)
Полное имя : The.Lost.City.2022.AMZN.WEB-DL.1080p.mkv
Формат : Matroska
Версия формата : Version 4 / Version 2
Размер файла : 5,63 Гбайт
Продолжительность : 1 ч. 51 м.
Общий поток : 7 210 Кбит/сек
Дата кодирования : UTC 2022-05-10 13:09:10
Программа кодирования : mkvmerge v8.3.0 ('Over the Horizon') 64bit
Библиотека кодирования : libebml v1.3.1 + libmatroska v1.4.2
Видео
Идентификатор : 1
Формат : AVC
Формат/Информация : Advanced Video Codec
Профиль формата : High@L4
Настройки формата : CABAC / 4 Ref Frames
Параметр CABAC формата : Да
Параметр RefFrames формата : 4 кадра
Идентификатор кодека : V_MPEG4/ISO/AVC
Продолжительность : 1 ч. 51 м.
Вид битрейта : Постоянный
Битрейт : 6 248 Кбит/сек
Номинальный битрейт : 10 000 Кбит/сек
Ширина : 1 920 пикселей
Высота : 800 пикселей
Соотношение сторон : 2,40:1
Режим частоты кадров : Постоянный
Частота кадров : 23,976 (24000/1001) кадра/сек
Цветовое пространство : YUV
Субдискретизация насыщенности : 4:2:0
Битовая глубина : 8 бит
Тип развёртки : Прогрессивная
Бит/(Пиксели*Кадры) : 0.170
Размер потока : 4,88 Гбайт (87%)
Default : Да
Forced : Нет
Цветовой диапазон : Limited
Основные цвета : BT.709
Характеристики трансфера : BT.709
Коэффициенты матрицы : BT.709
Аудио #1
Идентификатор : 2
Формат : AC-3
Формат/Информация : Audio Coding 3
Коммерческое название : Dolby Digital
Идентификатор кодека : A_AC3
Продолжительность : 1 ч. 51 м.
Вид битрейта : Постоянный
Битрейт : 192 Кбит/сек
Каналы : 2 канала
Channel layout : L R
Частота : 48,0 КГц
Частота кадров : 31,250 кадров/сек (1536 SPF)
Метод сжатия : С потерями
Размер потока : 153 Мбайт (3%)
Заголовок : MVO (GostFilm)
Язык : Russian
Service kind : Complete Main
Default : Да
Forced : Нет
Аудио #2
Идентификатор : 3
Формат : E-AC-3 JOC
Формат/Информация : Enhanced AC-3 with Joint Object Coding
Коммерческое название : Dolby Digital Plus with Dolby Atmos
Идентификатор кодека : A_EAC3
Продолжительность : 1 ч. 51 м.
Вид битрейта : Постоянный
Битрейт : 768 Кбит/сек
Каналы : 6 каналов
Channel layout : L R C LFE Ls Rs
Частота : 48,0 КГц
Частота кадров : 31,250 кадров/сек (1536 SPF)
Метод сжатия : С потерями
Размер потока : 614 Мбайт (11%)
Заголовок : Original
Язык : English
Service kind : Complete Main
Default : Нет
Forced : Нет
Complexity index : 16
Number of dynamic objects : 15
Bed channel count : 1 канал
Bed channel configuration : LFE
Текст #1
Идентификатор : 4
Формат : UTF-8
Идентификатор кодека : S_TEXT/UTF8
Идентификатор кодека/Информация : UTF-8 Plain Text
Продолжительность : 1 ч. 45 м.
Битрейт : 78 бит/сек
Count of elements : 1720
Размер потока : 60,2 Кбайт (0%)
Заголовок : Full
Язык : English
Default : Нет
Forced : Нет
Текст #2
Идентификатор : 5
Формат : UTF-8
Идентификатор кодека : S_TEXT/UTF8
Идентификатор кодека/Информация : UTF-8 Plain Text
Продолжительность : 1 ч. 45 м.
Битрейт : 87 бит/сек
Count of elements : 1908
Размер потока : 67,7 Кбайт (0%)
Заголовок : SDH
Язык : English
Default : Нет
Forced : Нет
Меню
00:00:00.000 : en:Chapter 1
00:11:26.000 : en:Chapter 2
00:19:31.000 : en:Chapter 3
00:26:55.000 : en:Chapter 4
00:33:43.000 : en:Chapter 5
00:41:29.000 : en:Chapter 6
00:50:29.000 : en:Chapter 7
01:02:19.000 : en:Chapter 8
01:13:31.000 : en:Chapter 9
01:23:19.000 : en:Chapter 10
01:34:35.000 : en:Chapter 11
01:44:52.000 : en:Chapter 12

Скриншоты

admin

Post 10-May-2022 23:49

[Quote]

Информация о фильме
Название: 2050
Оригинальное название: 2050
Год выхода: 2018
Жанр: Фантастика, драма, мелодрама
Режиссер: Принстон Холт
В ролях: Дин Кэйн, Сторми Майя, Стефани Блум, Девин Фуллер, Дэвид Вон, Ирина Абрахам, Хоуп Блэксток, Джонатан Эрколино, Джейс Николь, Шенноне Холт
О фильме:
Майкл Грин несчастен в браке, несмотря на двоих прекрасных детей, его отношения с женой Брук давно зашли в тупик из массы неразрешимых противоречий. Несмотря на то, что он успешный дизайнер видеоигр, в одном их взгляды с супругой совпадают: набирающие популярность адроиды-партнеры ни за что не заменят живых людей. А вот младший брат Брук Дрю не разделяет их уверенности. Его возлюбленная ушла от него к такому вот услужливому и сексуальному андроиду, и потому Дрю и сам подумывает завести себе новомодную игрушку, которая не устраивает скандалов и просто создана для удовольствия. Майкл и Дрю открывают для себя отношения с новыми партнершами, созданными по их индивидуальным предпочтениям. Но пройдя через этот новый опыт, они приходят к противоположным выводам.

Страна: США, Китай
Студия: Be Your Own Hollywood, Butterfly Chasers
Продолжительность: 01:42:12
Перевод: Профессиональный многоголосый (OKKO)
Файл
Кодек: MPEG-4 AVC
Качество: BDRip 1080p
Видео: MPEG-4 AVC, 9865 Кбит/с, 1920x818
Звук: Русский (AC3, 2 ch, 192 Кбит/с), английский (AC3, 2 ch, 384 Кбит/с)
Субтитры: Английские
Реклама, любого вида, отсутствует.

MediaInfo

General
Complete name : 2050.2018.BDRip.1080p.ExKinoRay.mkv
Format : Matroska
Format version : Version 2
File size : 7.45 GiB
Duration : 1 h 42 min
Overall bit rate : 10.4 Mb/s
Encoded date : UTC 2022-05-08 22:50:31
Writing application : mkvmerge v5.8.0 ('No Sleep / Pillow') built on Sep 2 2012 15:37:04
Writing library : libebml v1.2.3 + libmatroska v1.3.0
Video
ID : 1
Format : AVC
Format/Info : Advanced Video Codec
Format profile : High@L4.1
Format settings : CABAC / 5 Ref Frames
Format settings, CABAC : Yes
Format settings, Reference : 5 frames
Codec ID : V_MPEG4/ISO/AVC
Duration : 1 h 42 min
Bit rate : 9 865 kb/s
Width : 1 920 pixels
Height : 818 pixels
Display aspect ratio : 2.35:1
Frame rate mode : Constant
Frame rate : 25.000 FPS
Color space : YUV
Chroma subsampling : 4:2:0
Bit depth : 8 bits
Scan type : Progressive
Bits/(Pixel*Frame) : 0.251
Stream size : 6.89 GiB (92%)
Writing library : x264 core 157 r2935 545de2f
Encoding settings : cabac=1 / ref=5 / deblock=1:-3:-3 / analyse=0x3:0x133 / me=umh / subme=10 / psy=1 / psy_rd=1.00:0.00 / mixed_ref=1 / me_range=32 / chroma_me=1 / trellis=2 / 8x8dct=1 / cqm=0 / deadzone=21,11 / fast_pskip=0 / chroma_qp_offset=-2 / threads=6 / lookahead_threads=1 / sliced_threads=0 / nr=0 / decimate=1 / interlaced=0 / bluray_compat=0 / constrained_intra=0 / bframes=16 / b_pyramid=2 / b_adapt=2 / b_bias=0 / direct=3 / weightb=1 / open_gop=0 / weightp=2 / keyint=250 / keyint_min=25 / scenecut=40 / intra_refresh=0 / rc_lookahead=250 / rc=2pass / mbtree=0 / bitrate=9865 / ratetol=1.0 / qcomp=0.60 / qpmin=0 / qpmax=69 / qpstep=4 / cplxblur=20.0 / qblur=0.5 / vbv_maxrate=62500 / vbv_bufsize=78125 / nal_hrd=none / filler=0 / ip_ratio=1.40 / pb_ratio=1.30 / aq=3:0.80
Language : English
Default : Yes
Forced : No
Color range : Limited
Color primaries : BT.709
Matrix coefficients : BT.709
Audio #1
ID : 2
Format : AC-3
Format/Info : Audio Coding 3
Commercial name : Dolby Digital
Codec ID : A_AC3
Duration : 1 h 42 min
Bit rate mode : Constant
Bit rate : 192 kb/s
Channel(s) : 2 channels
Channel layout : L R
Sampling rate : 48.0 kHz
Frame rate : 31.250 FPS (1536 SPF)
Compression mode : Lossy
Stream size : 140 MiB (2%)
Language : Russian
Service kind : Complete Main
Default : Yes
Forced : No
Audio #2
ID : 3
Format : AC-3
Format/Info : Audio Coding 3
Commercial name : Dolby Digital
Codec ID : A_AC3
Duration : 1 h 42 min
Bit rate mode : Constant
Bit rate : 384 kb/s
Channel(s) : 2 channels
Channel layout : L R
Sampling rate : 48.0 kHz
Frame rate : 31.250 FPS (1536 SPF)
Compression mode : Lossy
Stream size : 281 MiB (4%)
Language : English
Service kind : Complete Main
Default : No
Forced : No
Text
ID : 4
Format : UTF-8
Codec ID : S_TEXT/UTF8
Codec ID/Info : UTF-8 Plain Text
Language : English
Default : No
Forced : No
Menu
00:00:00.000 : en:Chapter 01
00:03:19.760 : en:Chapter 02
00:16:11.920 : en:Chapter 03
00:26:45.800 : en:Chapter 04
00:43:12.360 : en:Chapter 05
00:59:29.320 : en:Chapter 06
01:11:35.040 : en:Chapter 07
01:24:24.720 : en:Chapter 08
01:40:24.640 : en:Chapter 09

Скриншоты

admin

Post 10-May-2022 01:39

[Quote]

Информация о фильме
Название: Подводная лодка Якамоз S-245
Оригинальное название: Yakamoz S-245
Год выхода: 2022
Жанр: Фантастика, боевик, триллер, драма, детектив, приключения
Режиссер: Умут Арал, Толга Карачелик
В ролях: Кыванч Татлытуг, Озге Озпиринчджи, Йеремия Ачеампонг, Эджем Узун, Алпер Салдиран, Онур Юнсаль, Эртан Сабан, Эдже Чешмиоглу, Мерич Арал, Эрсин Арыджы
О фильме:
Морской биолог Арман отправляется в исследовательскую миссию на борту подводной лодки, когда на Землю обрушивается аномальная катастрофа. Внезапное изменение полярности солнца сделало его лучи смертельными для всего живого. Почти все человечество погибло, но экипажу подводной лодки удалось спастись. Находясь на борту, Арман вместе со своей научной командой пытается выяснить, что происходит на суше, а также узнать истинную цель экипажа подводной лодки.
Спин-офф бельгийского апокалиптического научно-фантастического сериала «В ночь», премьера которого состоялась 1 мая 2020 года на стриминговом сервисе Netflix.

Страна: Турция
Продолжительность: ~00:46:00 серия
Перевод: Профессиональный (дублированный) Пифагор по заказу Netflix
Файл
Кодек: MKV
Качество: WEB-DL 720p
Видео: AVC, 1280x720 (16:9), 1 918 kbps (0.087 b/px), 24.000 fps
Звук:
Аудио #1: E-AC3, 640 kbps (CBR), 48.0 KHz, 6 ch, Russian
Аудио #2: E-AC3, 640 kbps (CBR), 48.0 KHz, 6 ch, Turkish
Аудио #3: E-AC3, 640 kbps (CBR), 48.0 KHz, 6 ch, English
Субтитры:
Russian (Forced, Full), Turkish, English
РЕКЛАМЫ НЕТ

MediaInfo

Общее
Уникальный идентификатор : 306071117612298661605822280163211849235 (0xE643272E6D22FBF167D9051B5E8BAE13)
Полное имя : D:Yakamoz.S-245.S01E01.1.Bolum.720p.mkv
Формат : Matroska
Версия формата : Version 4
Размер файла : 1,23 Гбайт
Продолжительность : 45 м. 58 с.
Режим общего битрейта : Переменный
Общий поток : 3 841 Кбит/сек
Дата кодирования : UTC 2022-05-08 09:11:27
Программа кодирования : mkvmerge v35.0.0 ('All The Love In The World') 64-bit
Библиотека кодирования : libebml v1.3.9 + libmatroska v1.5.2
Видео
Идентификатор : 1
Формат : AVC
Формат/Информация : Advanced Video Codec
Профиль формата : Main@L3.1
Настройки формата : CABAC / 3 Ref Frames
Параметр CABAC формата : Да
Параметр RefFrames формата : 3 кадра
Идентификатор кодека : V_MPEG4/ISO/AVC
Продолжительность : 45 м. 58 с.
Вид битрейта : Переменный
Битрейт : 1 918 Кбит/сек
Номинальный битрейт : 2 740 Кбит/сек
Максимальный битрейт : 4 110 Кбит/сек
Ширина : 1 280 пикселей
Высота : 720 пикселей
Соотношение сторон : 16:9
Режим частоты кадров : Постоянный
Частота кадров : 24,000 кадра/сек
Цветовое пространство : YUV
Субдискретизация насыщенности : 4:2:0
Битовая глубина : 8 бит
Тип развёртки : Прогрессивная
Бит/(Пиксели*Кадры) : 0.087
Размер потока : 631 Мбайт (50%)
Библиотека кодирования : x264 core 148 r2727 7d026e8
Настройки программы : cabac=1 / ref=3 / deblock=1:0:0 / analyse=0x1:0x111 / me=umh / subme=10 / psy=1 / psy_rd=1.00:0.00 / mixed_ref=1 / me_range=24 / chroma_me=1 / trellis=2 / 8x8dct=0 / cqm=0 / deadzone=21,11 / fast_pskip=1 / chroma_qp_offset=-2 / threads=8 / lookahead_threads=1 / sliced_threads=0 / nr=0 / decimate=1 / interlaced=0 / bluray_compat=0 / stitchable=1 / constrained_intra=0 / bframes=2 / b_pyramid=0 / b_adapt=2 / b_bias=0 / direct=3 / weightb=1 / open_gop=0 / weightp=2 / keyint=250 / keyint_min=24 / scenecut=0 / intra_refresh=0 / rc_lookahead=48 / rc=2pass / mbtree=1 / bitrate=2740 / ratetol=1.0 / qcomp=0.50 / qpmin=6 / qpmax=51 / qpstep=4 / cplxblur=20.0 / qblur=0.5 / vbv_maxrate=4110 / vbv_bufsize=5480 / nal_hrd=vbr / filler=0 / ip_ratio=1.40 / aq=1:1.00
Default : Да
Forced : Нет
Аудио #1
Идентификатор : 2
Формат : E-AC-3
Формат/Информация : Enhanced AC-3
Коммерческое название : Dolby Digital Plus
Идентификатор кодека : A_EAC3
Продолжительность : 45 м. 58 с.
Вид битрейта : Постоянный
Битрейт : 640 Кбит/сек
Каналы : 6 каналов
Channel layout : L R C LFE Ls Rs
Частота : 48,0 КГц
Частота кадров : 31,250 кадров/сек (1536 SPF)
Метод сжатия : С потерями
Размер потока : 210 Мбайт (17%)
Язык : Russian
Service kind : Complete Main
Default : Да
Forced : Нет
Аудио #2
Идентификатор : 3
Формат : E-AC-3
Формат/Информация : Enhanced AC-3
Коммерческое название : Dolby Digital Plus
Идентификатор кодека : A_EAC3
Продолжительность : 45 м. 58 с.
Вид битрейта : Постоянный
Битрейт : 640 Кбит/сек
Каналы : 6 каналов
Channel layout : L R C LFE Ls Rs
Частота : 48,0 КГц
Частота кадров : 31,250 кадров/сек (1536 SPF)
Метод сжатия : С потерями
Размер потока : 210 Мбайт (17%)
Язык : Turkish
Service kind : Complete Main
Default : Нет
Forced : Нет
Аудио #3
Идентификатор : 4
Формат : E-AC-3
Формат/Информация : Enhanced AC-3
Коммерческое название : Dolby Digital Plus
Идентификатор кодека : A_EAC3
Продолжительность : 45 м. 58 с.
Вид битрейта : Постоянный
Битрейт : 640 Кбит/сек
Каналы : 6 каналов
Channel layout : L R C LFE Ls Rs
Частота : 48,0 КГц
Частота кадров : 31,250 кадров/сек (1536 SPF)
Метод сжатия : С потерями
Размер потока : 210 Мбайт (17%)
Язык : English
Service kind : Complete Main
Default : Нет
Forced : Нет
Текст #1
Идентификатор : 5
Формат : UTF-8
Идентификатор кодека : S_TEXT/UTF8
Идентификатор кодека/Информация : UTF-8 Plain Text
Продолжительность : 44 м. 27 с.
Битрейт : 11 бит/сек
Count of elements : 100
Размер потока : 3,89 Кбайт (0%)
Заголовок : fors
Язык : Russian
Default : Да
Forced : Нет
Текст #2
Идентификатор : 6
Формат : UTF-8
Идентификатор кодека : S_TEXT/UTF8
Идентификатор кодека/Информация : UTF-8 Plain Text
Продолжительность : 44 м. 27 с.
Битрейт : 87 бит/сек
Count of elements : 584
Размер потока : 28,6 Кбайт (0%)
Язык : Russian
Default : Нет
Forced : Нет
Текст #3
Идентификатор : 7
Формат : UTF-8
Идентификатор кодека : S_TEXT/UTF8
Идентификатор кодека/Информация : UTF-8 Plain Text
Продолжительность : 34 м. 39 с.
Битрейт : 7 бит/сек
Count of elements : 77
Размер потока : 1,90 Кбайт (0%)
Заголовок : Forced
Язык : Turkish
Default : Нет
Forced : Нет
Текст #4
Идентификатор : 8
Формат : UTF-8
Идентификатор кодека : S_TEXT/UTF8
Идентификатор кодека/Информация : UTF-8 Plain Text
Продолжительность : 41 м. 59 с.
Битрейт : 79 бит/сек
Count of elements : 665
Размер потока : 24,5 Кбайт (0%)
Заголовок : SDH
Язык : Turkish
Default : Нет
Forced : Нет
Текст #5
Идентификатор : 9
Формат : UTF-8
Идентификатор кодека : S_TEXT/UTF8
Идентификатор кодека/Информация : UTF-8 Plain Text
Продолжительность : 36 м. 52 с.
Битрейт : 0 бит/сек
Count of elements : 9
Размер потока : 158 байт (0%)
Заголовок : Forced
Язык : English
Default : Нет
Forced : Нет
Текст #6
Идентификатор : 10
Формат : UTF-8
Идентификатор кодека : S_TEXT/UTF8
Идентификатор кодека/Информация : UTF-8 Plain Text
Продолжительность : 44 м. 27 с.
Битрейт : 52 бит/сек
Count of elements : 520
Размер потока : 17,1 Кбайт (0%)
Язык : English
Default : Нет
Forced : Нет
Текст #7
Идентификатор : 11
Формат : UTF-8
Идентификатор кодека : S_TEXT/UTF8
Идентификатор кодека/Информация : UTF-8 Plain Text
Продолжительность : 41 м. 59 с.
Битрейт : 82 бит/сек
Count of elements : 655
Размер потока : 25,3 Кбайт (0%)
Заголовок : SDH
Язык : English
Default : Нет
Forced : Нет

Скриншоты

admin

Post 07-May-2022 01:52

[Quote]

Информация о фильме
Название: Соник 2 в кино
Оригинальное название: Sonic the Hedgehog 2
Год выхода: 2022
Жанр: мультфильм, фантастика, фэнтези, боевик, комедия, приключения, семейный
Режиссер: Джефф Фаулер
В ролях: Джеймс Марсден, Джим Керри, Бен Шварц, Тика Самптер, Идрис Эльба, Наташа Ротуэлл, Адам Палли, Шемар Мур, Ли Мадждуб, Коллин О’Шонесси
О фильме:
Поселившись в Грин Хилз, Соник стремится доказать, что у него есть все задатки настоящего героя. И геройское испытание не заставляет себя долго ждать: злодейский доктор Роботник вновь строит козни. На этот раз — с загадочным напарником Наклзом. Вместе они разыскивают бесценный изумруд, в котором заключены силы, способные уничтожать целые цивилизации. Соник объединяется с лисенком Тейлзом, чтобы отправиться в кругосветное путешествие и найти изумруд до того, как он попадет в плохие руки.

Страна: США, Япония
Студия: Paramount Pictures
Продолжительность: 02:02:17
Перевод: Профессиональный (многоголосый, закадровый) | TVShows
Файл
Кодек: x.264
Качество: WEB-DL 1080p
Видео: AVC, 1920x1080 (16:9), 23.976 fps, 8000 kb/s
Аудио 1: AC3, 48.0 kHz, 2 ch, 192 kb/s | RUS
Аудио 2: E-AC3, 48.0 kHz, 6 ch, 256 kb/s | ENG
Субтитры: Русские (FOCS), английские
Без рекламы

MI

Общее
Уникальный идентификатор : 114811583260097995983008944546036533419 (0x565FE81801B6CC664A7BAD17D30B48AB)
Полное имя : Sonic.the.Hedgehog.2.2022.mkv
Формат : Matroska
Версия формата : Version 4 / Version 2
Размер файла : 7,22 Гбайт
Продолжительность : 2 ч. 2 м.
Общий поток : 8 449 Кбит/сек
Дата кодирования : UTC 2022-05-06 16:46:14
Программа кодирования : mkvmerge v33.1.0 ('Primrose') 64-bit
Библиотека кодирования : libebml v1.3.7 + libmatroska v1.5.0
Видео
Идентификатор : 1
Формат : AVC
Формат/Информация : Advanced Video Codec
Профиль формата : Main@L4
Настройки формата : CABAC / 2 Ref Frames
Параметр CABAC формата : Да
Параметр RefFrames формата : 2 кадра
Параметр GOP формата : M=1, N=30
Идентификатор кодека : V_MPEG4/ISO/AVC
Продолжительность : 2 ч. 2 м.
Вид битрейта : Постоянный
Битрейт : 8 000 Кбит/сек
Ширина : 1 920 пикселей
Высота : 1 080 пикселей
Соотношение сторон : 16:9
Режим частоты кадров : Постоянный
Частота кадров : 23,976 (24000/1001) кадра/сек
Цветовое пространство : YUV
Субдискретизация насыщенности : 4:2:0
Битовая глубина : 8 бит
Тип развёртки : Прогрессивная
Бит/(Пиксели*Кадры) : 0.161
Размер потока : 6,83 Гбайт (95%)
Язык : English
Default : Да
Forced : Нет
Аудио #1
Идентификатор : 2
Формат : AC-3
Формат/Информация : Audio Coding 3
Коммерческое название : Dolby Digital
Идентификатор кодека : A_AC3
Продолжительность : 2 ч. 2 м.
Вид битрейта : Постоянный
Битрейт : 192 Кбит/сек
Каналы : 2 канала
Channel layout : L R
Частота : 48,0 КГц
Частота кадров : 31,250 кадров/сек (1536 SPF)
Метод сжатия : С потерями
Размер потока : 168 Мбайт (2%)
Заголовок : MVO TVShows
Язык : Russian
Service kind : Complete Main
Default : Да
Forced : Нет
Аудио #2
Идентификатор : 3
Формат : E-AC-3
Формат/Информация : Enhanced AC-3
Коммерческое название : Dolby Digital Plus
Идентификатор кодека : A_EAC3
Продолжительность : 2 ч. 2 м.
Вид битрейта : Постоянный
Битрейт : 256 Кбит/сек
Каналы : 6 каналов
Channel layout : L R C LFE Ls Rs
Частота : 48,0 КГц
Частота кадров : 31,250 кадров/сек (1536 SPF)
Метод сжатия : С потерями
Размер потока : 224 Мбайт (3%)
Язык : English
Service kind : Complete Main
Default : Нет
Forced : Нет
Текст #1
Идентификатор : 4
Формат : UTF-8
Идентификатор кодека : S_TEXT/UTF8
Идентификатор кодека/Информация : UTF-8 Plain Text
Продолжительность : 1 ч. 53 м.
Битрейт : 91 бит/сек
Count of elements : 1714
Размер потока : 75,5 Кбайт (0%)
Язык : Russian
Default : Нет
Forced : Нет
Текст #2
Идентификатор : 5
Формат : UTF-8
Идентификатор кодека : S_TEXT/UTF8
Идентификатор кодека/Информация : UTF-8 Plain Text
Продолжительность : 1 ч. 52 м.
Битрейт : 54 бит/сек
Count of elements : 1375
Размер потока : 44,5 Кбайт (0%)
Язык : English
Default : Нет
Forced : Нет

Скриншоты

admin

Post 07-May-2022 01:49

[Quote]

Информация о фильме
Название: Закат
Оригинальное название: Sundown
Год выхода: 2021
Жанр: Драма
Режиссер: Мишель Франко
В ролях: Тим Рот, Шарлотта Генсбур, Генри Гудман, Сэмюэл Боттомли, Иазуа Лариос, Моника Дель Кармен, Джеймс Тарпи, Альбертина Коттинг МакМиллан

О фильме: Казалось бы, что может быть спокойнее жизни в элегантных гостиничных люксах и на размеренных пляжах Акапулько? Однако случай может нарушить тихий порядок состоятельной пары, и нарастающая напряженность начнет раскрывать тайны каждого.
Страна: Франция, Мексика, Швеция
Студия: Common Ground Pictures, Film i Väst, Luxbox, Teorema
Продолжительность: 01:22:34
Перевод: Дублированный | Мосфильм-Мастер
Качество: WEB-DL 1080p
Видео: MPEG-4 AVC, 1916x796, 6622 Kbit/s, 23.976 fps
Аудио #01: 48 kHz, AC3, 5.1, 384 Kbps | Дублированный | Мосфильм-Мастер | RUS |
Аудио #02: 48 kHz, AC3, 5.1, 384 Kbps | Оригинал | ENG |
Субтитры: Русские (Forced), английские

Скриншоты

MI

General
Unique ID : 259663235909318107411117014268693419377 (0xC35951F5500B158DD685AD8DCF8B9571)
Complete name : D:Video1Sundown.2021.WEB-DL.1080p.seleZen.mkv
Format : Matroska
Format version : Version 4
File size : 4.26 GiB
Duration : 1 h 22 min
Overall bit rate : 7 392 kb/s
Movie name : Sundown 2021 from seleZen
Encoded date : UTC 2022-05-06 01:48:38
Writing application : mkvmerge v59.0.0 ('Shining Star') 64-bit
Writing library : libebml v1.4.2 + libmatroska v1.6.4
Video
ID : 1
Format : AVC
Format/Info : Advanced Video Codec
Format profile : High@L4
Format settings : CABAC / 5 Ref Frames
Format settings, CABAC : Yes
Format settings, Reference : 5 frames
Codec ID : V_MPEG4/ISO/AVC
Duration : 1 h 22 min
Bit rate : 6 622 kb/s
Width : 1 916 pixels
Height : 796 pixels
Display aspect ratio : 2.40:1
Frame rate mode : Constant
Frame rate : 23.976 (24000/1001) FPS
Color space : YUV
Chroma subsampling : 4:2:0
Bit depth : 8 bits
Scan type : Progressive
Bits/(Pixel*Frame) : 0.181
Stream size : 3.82 GiB (90%)
Language : English
Default : Yes
Forced : No
Color range : Limited
Color primaries : BT.709
Transfer characteristics : BT.709
Matrix coefficients : BT.709
Audio #1
ID : 2
Format : AC-3
Format/Info : Audio Coding 3
Commercial name : Dolby Digital
Codec ID : A_AC3
Duration : 1 h 22 min
Bit rate mode : Constant
Bit rate : 384 kb/s
Channel(s) : 6 channels
Channel layout : L R C LFE Ls Rs
Sampling rate : 48.0 kHz
Frame rate : 31.250 FPS (1536 SPF)
Compression mode : Lossy
Stream size : 227 MiB (5%)
Title : Dub
Language : Russian
Service kind : Complete Main
Default : Yes
Forced : Yes
Audio #2
ID : 3
Format : AC-3
Format/Info : Audio Coding 3
Commercial name : Dolby Digital
Codec ID : A_AC3
Duration : 1 h 22 min
Bit rate mode : Constant
Bit rate : 384 kb/s
Channel(s) : 6 channels
Channel layout : L R C LFE Ls Rs
Sampling rate : 48.0 kHz
Frame rate : 31.250 FPS (1536 SPF)
Compression mode : Lossy
Stream size : 227 MiB (5%)
Title : Original
Language : English
Service kind : Complete Main
Default : No
Forced : No
Text #1
ID : 4
Format : UTF-8
Codec ID : S_TEXT/UTF8
Codec ID/Info : UTF-8 Plain Text
Duration : 1 h 7 min
Bit rate : 5 b/s
Count of elements : 78
Stream size : 2.57 KiB (0%)
Title : Forced
Language : Russian
Default : Yes
Forced : Yes
Text #2
ID : 5
Format : UTF-8
Codec ID : S_TEXT/UTF8
Codec ID/Info : UTF-8 Plain Text
Duration : 1 h 11 min
Bit rate : 22 b/s
Count of elements : 480
Stream size : 11.9 KiB (0%)
Title : Full
Language : English
Default : No
Forced : No
 

Current time is: 19-May 18:19

All times are UTC + 3