Search found 500 matches

Author Message

admin

Post 03-May-2021 21:19

[Quote]

Информация о фильме
Название: В ринге только девушки / Женская драка
Оригинальное название: Chick Fight
Год выхода: 2020
Жанр: Боевик, драма, комедия, спорт
Режиссер: Пол Лейден
В ролях: Малин Акерман, Белла Торн, Алек Болдуин, Дульсе Слоун, Кевин Коннолли, Кевин Нэш, Алек Мапа, Доминик Джексон, Фортун Феймстер, Алексия Бальер
О фильме: В жизни Анны все резко пошло наперекосяк. Любимая мама умерла, а доброжелательный отец объявил, что он гей. Вдобавок она случайно сожгла собственную кофейню. Пытаясь помочь, лучшая подруга Анны Шарлин приводит девушку в подпольный женский бойцовский клуб.

Страна: США
Студия: Yale Productions, Media Finance Capital, Idiot Savant Pictures
Продолжительность: 01:37:20
Перевод: Дублированный | iTunes
Файл
Формат: MKV
Качество: BDRip 720p
Видео: 7601 Кb/s, 1280x536
Аудио 1: 48 kHz, AC3 Dolby Digital, 3/2 (L, C, R, l, r) + LFE ch, ~384 kbps | русский
Аудио 2: 48 kHz, AC3 Dolby Digital, 3/2 (L, C, R, l, r) + LFE ch, ~384kbps | украинский
Аудио 3: 48 kHz, AC3 Dolby Digital, 3/2 (L, C, R, l, r) + LFE ch, ~640 kbps | английский
Субтитры: Английские

MediaInfo:

Complete name : Chick.Fight.2020.BDRip.720p.ELEKTRI4KA.UNIONGANG.mkv
Format : Matroska
Format version : Version 4
File size : 6.13 GiB
Duration : 1 h 37 min
Overall bit rate : 9 011 kb/s
Movie name : Chick.Fight.2020.BDRip.720p.ELEKTRI4KA.UNIONGANG.
Encoded date : UTC 2021-05-02 20:47:03
Writing application : mkvmerge v8.3.0 ('Over the Horizon') 32bit
Writing library : libebml v1.3.1 + libmatroska v1.4.2
Video
ID : 1
Format : AVC
Format/Info : Advanced Video Codec
Format profile : High@L4.1
Format settings : CABAC / 12 Ref Frames
Format settings, CABAC : Yes
Format settings, Reference frames : 12 frames
Codec ID : V_MPEG4/ISO/AVC
Duration : 1 h 37 min
Bit rate : 7 601 kb/s
Width : 1 280 pixels
Height : 536 pixels
Display aspect ratio : 2.40:1
Frame rate mode : Constant
Frame rate : 23.976 (24000/1001) FPS
Color space : YUV
Chroma subsampling : 4:2:0
Bit depth : 8 bits
Scan type : Progressive
Bits/(Pixel*Frame) : 0.462
Stream size : 5.17 GiB (84%)
Writing library : x264 core 161 r3018+53 ~ Encoded by Mocunaman in Portugal
Encoding settings : cabac=1 / ref=12 / deblock=1:-3:-3 / analyse=0x3:0x113 / me=umh / subme=11 / psy=1 / fade_compensate=0.00 / psy_rd=1.00:0.00 / mixed_ref=1 / me_range=32 / chroma_me=1 / trellis=2 / 8x8dct=1 / cqm=0 / deadzone=21,11 / fast_pskip=0 / chroma_qp_offset=-2 / threads=17 / lookahead_threads=2 / sliced_threads=0 / nr=0 / decimate=0 / interlaced=0 / bluray_compat=0 / constrained_intra=0 / fgo=0 / bframes=8 / b_pyramid=2 / b_adapt=2 / b_bias=0 / direct=3 / weightb=1 / open_gop=0 / weightp=2 / keyint=250 / keyint_min=23 / scenecut=40 / intra_refresh=0 / rc_lookahead=60 / rc=crf / mbtree=0 / crf=15.7000 / qcomp=0.65 / qpmin=0:0:0 / qpmax=69:69:69 / qpstep=4 / vbv_maxrate=62500 / vbv_bufsize=78125 / crf_max=0.0 / nal_hrd=none / filler=0 / ip_ratio=1.30 / pb_ratio=1.20 / aq=3:0.85 / aq-sensitivity=10.00 / aq-factor=1.00:1.00:1.00 / aq2=0 / aq3=0 / zones=0,960,crf=14.7/8218,17547,crf=13.7/13061,40650,crf=14.7/53010,62881,crf=14.7/79951,83008,crf=13.7/85072,85917,crf=14.7/88149,93789,crf=14.7/104685,120804,crf=14.7/127946,133418,crf=14.7
Language : English
Default : Yes
Forced : No
Color range : Limited
Color primaries : BT.709
Transfer characteristics : BT.709
Matrix coefficients : BT.709
Audio #1
ID : 2
Format : AC-3
Format/Info : Audio Coding 3
Commercial name : Dolby Digital
Codec ID : A_AC3
Duration : 1 h 37 min
Bit rate mode : Constant
Bit rate : 384 kb/s
Channel(s) : 6 channels
Channel layout : L R C LFE Ls Rs
Sampling rate : 48.0 kHz
Frame rate : 31.250 FPS (1536 SPF)
Compression mode : Lossy
Stream size : 267 MiB (4%)
Title : DUB (iTunes)
Language : Russian
Service kind : Complete Main
Default : Yes
Forced : Yes
Audio #2
ID : 3
Format : AC-3
Format/Info : Audio Coding 3
Commercial name : Dolby Digital
Codec ID : A_AC3
Duration : 1 h 37 min
Bit rate mode : Constant
Bit rate : 384 kb/s
Channel(s) : 6 channels
Channel layout : L R C LFE Ls Rs
Sampling rate : 48.0 kHz
Frame rate : 31.250 FPS (1536 SPF)
Compression mode : Lossy
Stream size : 267 MiB (4%)
Title : DUB (iTunes)
Language : Ukrainian
Service kind : Complete Main
Default : No
Forced : No
Audio #3
ID : 4
Format : AC-3
Format/Info : Audio Coding 3
Commercial name : Dolby Digital
Codec ID : A_AC3
Duration : 1 h 37 min
Bit rate mode : Constant
Bit rate : 640 kb/s
Channel(s) : 6 channels
Channel layout : L R C LFE Ls Rs
Sampling rate : 48.0 kHz
Frame rate : 31.250 FPS (1536 SPF)
Compression mode : Lossy
Stream size : 445 MiB (7%)
Title : Original
Language : English
Service kind : Complete Main
Default : No
Forced : No
Text
ID : 5
Format : UTF-8
Codec ID : S_TEXT/UTF8
Codec ID/Info : UTF-8 Plain Text
Duration : 1 h 37 min
Bit rate : 86 b/s
Count of elements : 2140
Stream size : 61.5 KiB (0%)
Language : English
Default : No
Forced : No
Menu
00:00:00.000 : :00:00:00.000
00:07:05.342 : :00:07:05.342
00:14:28.201 : :00:14:28.201
00:20:13.838 : :00:20:13.838
00:29:27.099 : :00:29:27.099
00:39:02.590 : :00:39:02.590
00:50:56.804 : :00:50:56.804
00:59:52.756 : :00:59:52.756
01:08:53.129 : :01:08:53.129
01:16:19.950 : :01:16:19.950
01:25:27.706 : :01:25:27.706
01:35:23.259 : :01:35:23.259

Скриншоты


admin

Post 03-May-2021 21:10

[Quote]

Информация о фильме
Название: В ринге только девушки / Женская драка
Оригинальное название: Chick Fight
Год выхода: 2020
Жанр: Боевик, драма, комедия, спорт
Режиссер: Пол Лейден
В ролях: Малин Акерман, Белла Торн, Алек Болдуин, Дульсе Слоун, Кевин Коннолли, Кевин Нэш, Алек Мапа, Доминик Джексон, Фортун Феймстер, Алексия Бальер
О фильме: В жизни Анны все резко пошло наперекосяк. Любимая мама умерла, а доброжелательный отец объявил, что он гей. Вдобавок она случайно сожгла собственную кофейню. Пытаясь помочь, лучшая подруга Анны Шарлин приводит девушку в подпольный женский бойцовский клуб.

Страна: США
Студия: Yale Productions, Media Finance Capital, Idiot Savant Pictures
Продолжительность: 01:37:20
Перевод: Дублированный | iTunes
Файл
Формат: MKV
Качество: BDRip 1080p
Видео: 1920x804 (2.40:1), 23.976 fps, MPEG-4 AVC ~15.4 mbps avg, 0.415 bit/pixel
Аудио 1: 48 kHz, AC3 Dolby Digital, 3/2 (L, C, R, l, r) + LFE ch, ~384 kbps | русский
Аудио 2: 48 kHz, AC3 Dolby Digital, 3/2 (L, C, R, l, r) + LFE ch, ~384kbps | украинский
Аудио 3: 48 kHz, AC3 Dolby Digital, 3/2 (L, C, R, l, r) + LFE ch, ~640 kbps | английский
Субтитры: Английские

MediaInfo:

Chick.Fight.2020.BDRip.1080p.ELEKTRI4KA.UNIONGANG.mkv
Format : Matroska
Format version : Version 4
File size : 11.4 GiB
Duration : 1 h 37 min
Overall bit rate : 16.8 Mb/s
Movie name : Chick.Fight.2020.BDRip.1080p.ELEKTRI4KA.UNIONGANG.
Encoded date : UTC 2021-05-02 20:40:01
Writing application : mkvmerge v8.3.0 ('Over the Horizon') 32bit
Writing library : libebml v1.3.1 + libmatroska v1.4.2
Video
ID : 1
Format : AVC
Format/Info : Advanced Video Codec
Format profile : High@L4.1
Format settings : CABAC / 5 Ref Frames
Format settings, CABAC : Yes
Format settings, Reference frames : 5 frames
Codec ID : V_MPEG4/ISO/AVC
Duration : 1 h 37 min
Bit rate : 15.4 Mb/s
Width : 1 920 pixels
Height : 804 pixels
Display aspect ratio : 2.40:1
Frame rate mode : Constant
Frame rate : 23.976 (24000/1001) FPS
Color space : YUV
Chroma subsampling : 4:2:0
Bit depth : 8 bits
Scan type : Progressive
Bits/(Pixel*Frame) : 0.415
Stream size : 10.5 GiB (92%)
Writing library : x264 core 161 r3018+53 ~ Encoded by Mocunaman in Portugal
Encoding settings : cabac=1 / ref=5 / deblock=1:-3:-3 / analyse=0x3:0x113 / me=umh / subme=11 / psy=1 / fade_compensate=0.00 / psy_rd=1.00:0.00 / mixed_ref=1 / me_range=32 / chroma_me=1 / trellis=2 / 8x8dct=1 / cqm=0 / deadzone=21, 11 / fast_pskip=0 / chroma_qp_offset=-2 / threads=25 / lookahead_threads=4 / sliced_threads=0 / nr=0 / decimate=0 / interlaced=0 / bluray_compat=0 / constrained_intra=0 / fgo=0 / bframes=8 / b_pyramid=2 / b_adapt=2 / b_bias=0 / direct=3 / weightb=1 / open_gop=0 / weightp=2 / keyint=250 / keyint_min=23 / scenecut=40 / intra_refresh=0 / rc_lookahead=60 / rc=crf / mbtree=0 / crf=16.9000 / qcomp=0.65 / qpmin=0:0:0 / qpmax=69:69:69 / qpstep=4 / vbv_maxrate=62500 / vbv_bufsize=78125 / crf_max=0.0 / nal_hrd=none / filler=0 / ip_ratio=1.30 / pb_ratio=1.20 / aq=3:0.85 / aq-sensitivity=10.00 / aq-factor=1.00:1.00:1.00 / aq2=0 / aq3=0 / zones=0, 960, crf=15.9/8218, 17547, crf=14.9/13061, 40650, crf=15.9/53010, 62881, crf=15.9/79951, 83008, crf=14.9/85072, 85917, crf=15.9/88149, 93789, crf=15.9/104685, 120804, crf=15.9/127946, 133418, crf=15.9
Default : Yes
Forced : No
Color range : Limited
Color primaries : BT.709
Transfer characteristics : BT.709
Matrix coefficients : BT.709
Audio #1
ID : 2
Format : AC-3
Format/Info : Audio Coding 3
Commercial name : Dolby Digital
Codec ID : A_AC3
Duration : 1 h 37 min
Bit rate mode : Constant
Bit rate : 384 kb/s
Channel(s) : 6 channels
Channel layout : L R C LFE Ls Rs
Sampling rate : 48.0 kHz
Frame rate : 31.250 FPS (1536 SPF)
Compression mode : Lossy
Stream size : 267 MiB (2%)
Title : DUB (iTunes)
Language : Russian
Service kind : Complete Main
Default : Yes
Forced : Yes
Audio #2
ID : 3
Format : AC-3
Format/Info : Audio Coding 3
Commercial name : Dolby Digital
Codec ID : A_AC3
Duration : 1 h 37 min
Bit rate mode : Constant
Bit rate : 384 kb/s
Channel(s) : 6 channels
Channel layout : L R C LFE Ls Rs
Sampling rate : 48.0 kHz
Frame rate : 31.250 FPS (1536 SPF)
Compression mode : Lossy
Stream size : 267 MiB (2%)
Title : DUB (iTunes)
Language : Ukrainian
Service kind : Complete Main
Default : No
Forced : No
Audio #3
ID : 4
Format : AC-3
Format/Info : Audio Coding 3
Commercial name : Dolby Digital
Codec ID : A_AC3
Duration : 1 h 37 min
Bit rate mode : Constant
Bit rate : 640 kb/s
Channel(s) : 6 channels
Channel layout : L R C LFE Ls Rs
Sampling rate : 48.0 kHz
Frame rate : 31.250 FPS (1536 SPF)
Compression mode : Lossy
Stream size : 445 MiB (4%)
Title : Original
Language : English
Service kind : Complete Main
Default : No
Forced : No
Text
ID : 5
Format : UTF-8
Codec ID : S_TEXT/UTF8
Codec ID/Info : UTF-8 Plain Text
Duration : 1 h 37 min
Bit rate : 86 b/s
Count of elements : 2140
Stream size : 61.5 KiB (0%)
Language : English
Default : No
Forced : No
Menu
00:00:00.000 : :00:00:00.000
00:07:05.342 : :00:07:05.342
00:14:28.201 : :00:14:28.201
00:20:13.838 : :00:20:13.838
00:29:27.099 : :00:29:27.099
00:39:02.590 : :00:39:02.590
00:50:56.804 : :00:50:56.804
00:59:52.756 : :00:59:52.756
01:08:53.129 : :01:08:53.129
01:16:19.950 : :01:16:19.950
01:25:27.706 : :01:25:27.706
01:35:23.259 : :01:35:23.259

Скриншоты


admin

Post 02-May-2021 15:24

[Quote]

Информация о фильме
Название: Ученик экзорциста
Оригинальное название: The Seventh Day
Год выхода: 2021
Жанр: Ужасы
Режиссер: Джастин П. Ланж
В ролях: Гай Пирс, Кит Дэвид, Стивен Лэнг, Робин Бартлетт, Вадир Дербес, Хит Фриман, Крис Галуст, Брэйди Дженнесс, Бен Хикс, Акорье Уайт, Тристан Риггс
О фильме: Молодой священник в первый же день практики в школе экзорцистов сталкивается с очень сложным случаем одержимости. Под руководством бывалого экзорциста- наставника ему придется погрузиться в ад на земле, столкнуться с собственными демонами и разобраться, почему одержимость распространяется как эпидемия, хотя школа готовит всё больше новых экзорцистов.

Выпущено: США / Russell FX
Продолжительность: 01:27:10
Озвучивание: Дублированное | iTunes
Файл
Формат: MKV
Качество: WEB-DL 1080p
Видео: MPEG-4 AVC, 4456 Kb/s, 1916x796
Аудио #1: Russian: 48 kHz, AC3 Dolby Digital, 3/2 (L, C, R, l, r) + LFE ch, ~384 Kbps | DUB | iTunes
Аудио #2: English: 48 kHz, AC3 Dolby Digital, 3/2 (L, C, R, l, r) + LFE ch, ~384 Kbps | Original
Субтитры: Нет
Дополнительно: Сохранены оригинальные чаптеры.

MediaInfo:

Complete name: Uchenik.ekzortsista.2021.1080p.WEB-DL.ELEKTRI4KA.UNIONGANG.mkv
Format: Matroska
Format version: Version 4
File size: 3.18 GiB
Duration: 1 h 27 min
Overall bit rate: 5 226 kb/s
Movie name: Uchenik.ekzortsista.2021.1080p.WEB-DL.ELEKTRI4KA.UNIONGANG.
Encoded date: UTC 2021-05-01 10:47:50
Writing application: mkvmerge v8.3.0 ('Over the Horizon') 32bit
Writing library: libebml v1.3.1 + libmatroska v1.4.2
Video
ID: 1
Format: AVC
Format/Info: Advanced Video Codec
Format profile: High@L4
Format settings: CABAC / 5 Ref Frames
Format settings, CABAC: Yes
Format settings, Reference frames: 5 frames
Codec ID: V_MPEG4/ISO/AVC
Duration: 1 h 27 min
Bit rate: 4 456 kb/s
Width: 1 916 pixels
Height: 796 pixels
Display aspect ratio: 2.40:1
Frame rate mode: Constant
Frame rate: 23.976 FPS
Color space: YUV
Chroma subsampling: 4:2:0
Bit depth: 8 bits
Scan type: Progressive
Bits/(Pixel*Frame): 0.122
Stream size: 2.71 GiB (85%)
Language: English
Default: Yes
Forced: No
Color range: Limited
Color primaries: BT.709
Transfer characteristics: BT.709
Matrix coefficients: BT.709
Audio #1
ID: 2
Format: AC-3
Format/Info: Audio Coding 3
Commercial name: Dolby Digital
Codec ID: A_AC3
Duration: 1 h 27 min
Bit rate mode: Constant
Bit rate: 384 kb/s
Channel(s): 6 channels
Channel layout: L R C LFE Ls Rs
Sampling rate: 48.0 kHz
Frame rate: 31.250 FPS (1536 SPF)
Compression mode: Lossy
Delay relative to video: -42 ms
Stream size: 239 MiB (7%)
Title: DUB (iTunes)
Language: Russian
Service kind: Complete Main
Default: Yes
Forced: Yes
Audio #2
ID: 3
Format: AC-3
Format/Info: Audio Coding 3
Commercial name: Dolby Digital
Codec ID: A_AC3
Duration: 1 h 27 min
Bit rate mode: Constant
Bit rate: 384 kb/s
Channel(s): 6 channels
Channel layout: L R C LFE Ls Rs
Sampling rate: 48.0 kHz
Frame rate: 31.250 FPS (1536 SPF)
Compression mode: Lossy
Delay relative to video: -42 ms
Stream size: 239 MiB (7%)
Title: Original
Language: English
Service kind: Complete Main
Default: No
Forced: No
Menu
00:00:00.000: en:1
00:13:59.172: en:2
00:27:58.135: en:3
00:41:50.800: en:4
00:56:03.235: en:5
01:10:47.369: en:6
01:23:07.692: en:7

Скриншоты

admin

Post 01-May-2021 21:39

[Quote]


Название фильма: Без жслости
Оригинальное название фильма: Without Remorse
Год выпуска: 2021
Страна / студия: США, Paramount Pictures, Amazon Studios, Skydance Productions, New Republic Pictures, Weed Road Pictures
Жанр: Боевик, приключения, триллер
Продолжительность: 01:49:15
Перевод: Любительский двухголосый (Pazl Voice)
Режиссер: Стефано Соллима
В ролях: Майкл Б. Джордан, Джоди Тёрнер-Смит, Джейми Белл, Гай Пирс, Лорен Лондон, Джейкоб Скипио, Тодд Ласанс, Джек Кеси, Люси Расселл, Кэм Жиганде
О фильме: Джон Келли не раз отправлялся в смертельно опасные командировки во вьетнамские джунгли, но его главный враг оказался совсем рядом, на улицах родных американских городов. «Морской котик», потерявший и вновь обретший свою любовь, готов защищать ее всеми доступными средствами, пусть даже перед лицом гораздо более могущественного и многочисленного противника — наркомафии. И Келли начинает свою войну без всякой надежды на победу.


Релиз от: KinoPub | Без рекламы!
Качество: WEB-DL (1080p)
Видео: MPEG-4 AVC, 6401 Кбит/с, 1920x800
Аудио 1: AC3, 6 ch, 448 Кбит/с | RUS | Tnx.KinoPub | удаление рекламы: JNS82
Аудио 2: E-AC3, 6 ch, 640 Кбит/с | ENG
Субтитры: Русские (полные), английские (Forced, Full)

Скриншоты


]

Инфо

Общее
Уникальный идентификатор : 321575756740215477319229988070058824906 (0xF1ED3CE8F28EDB4935CADA679F2B14CA)
Полное имя : C:DownloadsБез жалости_(2021) WEB-DL_(1080p).mkv
Формат : Matroska
Версия формата : Version 4
Размер файла : 5,82 Гбайт
Продолжительность : 1 ч. 49 м.
Общий поток : 7 630 Кбит/сек
Название фильма : Без жалости_(2021) WEB-DL_(1080p)
Дата кодирования : UTC 2021-04-30 19:41:39
Программа кодирования : mkvmerge v53.0.0 ('Fool's Gold') 64-bit
Библиотека кодирования : libebml v1.4.1 + libmatroska v1.6.2
Видео
Идентификатор : 1
Формат : AVC
Формат/Информация : Advanced Video Codec
Профиль формата : High@L4
Настройки формата : CABAC / 4 Ref Frames
Параметр CABAC формата : Да
Параметр RefFrames формата : 4 кадра
Идентификатор кодека : V_MPEG4/ISO/AVC
Продолжительность : 1 ч. 49 м.
Вид битрейта : Постоянный
Битрейт : 6 540 Кбит/сек
Номинальный битрейт : 10 000 Кбит/сек
Ширина : 1 920 пикселей
Высота : 800 пикселей
Соотношение сторон : 2,40:1
Режим частоты кадров : Постоянный
Частота кадров : 23,976 (24000/1001) кадра/сек
Цветовое пространство : YUV
Субдискретизация насыщенности : 4:2:0
Битовая глубина : 8 бит
Тип развёртки : Прогрессивная
Бит/(Пиксели*Кадры) : 0.178
Размер потока : 4,99 Гбайт (86%)
Default : Да
Forced : Нет
Цветовой диапазон : Limited
Основные цвета : BT.709
Характеристики трансфера : BT.709
Коэффициенты матрицы : BT.709
Аудио #1
Идентификатор : 2
Формат : AC-3
Формат/Информация : Audio Coding 3
Коммерческое название : Dolby Digital
Идентификатор кодека : A_AC3
Продолжительность : 1 ч. 49 м.
Вид битрейта : Постоянный
Битрейт : 448 Кбит/сек
Каналы : 6 каналов
Channel layout : L R C LFE Ls Rs
Частота : 48,0 КГц
Частота кадров : 31,250 кадров/сек (1536 SPF)
Метод сжатия : С потерями
Размер потока : 350 Мбайт (6%)
Заголовок : (DVO) Pazl Voice | KinoPub
Язык : Russian
Service kind : Complete Main
Default : Да
Forced : Нет
Аудио #2
Идентификатор : 3
Формат : E-AC-3
Формат/Информация : Enhanced AC-3
Коммерческое название : Dolby Digital Plus
Идентификатор кодека : A_EAC3
Продолжительность : 1 ч. 49 м.
Вид битрейта : Постоянный
Битрейт : 640 Кбит/сек
Каналы : 6 каналов
Channel layout : L R C LFE Ls Rs
Частота : 48,0 КГц
Частота кадров : 31,250 кадров/сек (1536 SPF)
Метод сжатия : С потерями
Размер потока : 500 Мбайт (8%)
Язык : English
Service kind : Complete Main
Default : Нет
Forced : Нет
Текст #1
Идентификатор : 4
Формат : UTF-8
Идентификатор кодека : S_TEXT/UTF8
Идентификатор кодека/Информация : UTF-8 Plain Text
Продолжительность : 1 ч. 47 м.
Битрейт : 52 бит/сек
Count of elements : 896
Размер потока : 41,6 Кбайт (0%)
Заголовок : Russian
Язык : Russian
Default : Нет
Forced : Нет
Текст #2
Идентификатор : 5
Формат : UTF-8
Идентификатор кодека : S_TEXT/UTF8
Идентификатор кодека/Информация : UTF-8 Plain Text
Продолжительность : 44 м. 31 с.
Битрейт : 0 бит/сек
Count of elements : 9
Размер потока : 332 байт (0%)
Заголовок : English [Forced]
Язык : English
Default : Нет
Forced : Нет
Текст #3
Идентификатор : 6
Формат : UTF-8
Идентификатор кодека : S_TEXT/UTF8
Идентификатор кодека/Информация : UTF-8 Plain Text
Продолжительность : 1 ч. 48 м.
Битрейт : 47 бит/сек
Count of elements : 1436
Размер потока : 38,1 Кбайт (0%)
Заголовок : Full
Язык : English
Default : Нет
Forced : Нет

admin

Post 01-May-2021 21:25

[Quote]

Информация о фильме
Название: Клуб «Кастет»
Оригинальное название: Knuckledust
Год выхода: 2020
Жанр: Боевик, триллер
Режиссер: Джеймс Кермак
В ролях: Оливье Рихтерс, Кейт Дики, Филип Дэвис, Эми Бэйли, Мо Данфорд, Гетин Энтони, Джэми Уинстон, Гийом Делони, Себастьен Фука

О фильме: Спецгруппа полицейских врывается в элитный подземный клуб «Knuckledust» и обнаруживает семь уровней подземелья, заполненных трупами бойцов, бандитов и убийц. Среди горы мертвецов найден единственный выживший в этом аду — избитый боец по кличке Hard Eight. У полицейских есть всего лишь полтора часа, чтобы допросить этого человека и выяснить, кто же он на самом деле — жертва или убийца?
Страна: Великобритания, Франция
Студия: Featuristic Films, Head Gear Films, Metrol Technology, OneWorld Entertainment, Project, The, Trigger Films
Продолжительность: 01:45:27
Перевод: Дублированный | iTunes
Качество: BDRip 1080p
Видео: MPEG-4 AVC, 1920x1036, 20.2 Mbit/s, 23.976 fps
Аудио #01: 48 kHz, AC3, 5.1, 384 Kbps | iTunes | RUS |
Аудио #02: 48 kHz, AC3, 5.1, 640 Kbps | Оригинал | ENG |
Субтитры: Русские (Full), английские

Скриншоты

MI

General
Unique ID : 59968105698443536279196361736963770263 (0x2D1D6FE254A33BDD71C252E593304797)
Complete name : F:VideoKnuckledust.2020.BDRip.1080p.seleZen.mkv
Format : Matroska
Format version : Version 4
File size : 15.6 GiB
Duration : 1 h 45 min
Overall bit rate : 21.1 Mb/s
Movie name : Knuckledust 2020 from seleZen
Encoded date : UTC 2021-04-30 23:21:31
Writing application : mkvmerge v55.0.0 ('Waiting For Space') 64-bit
Writing library : libebml v1.4.2 + libmatroska v1.6.4
Video
ID : 1
Format : AVC
Format/Info : Advanced Video Codec
Format profile : High@L4.1
Format settings : CABAC / 4 Ref Frames
Format settings, CABAC : Yes
Format settings, Reference : 4 frames
Codec ID : V_MPEG4/ISO/AVC
Duration : 1 h 45 min
Bit rate : 20.2 Mb/s
Width : 1 920 pixels
Height : 1 036 pixels
Display aspect ratio : 1.85:1
Frame rate mode : Constant
Frame rate : 23.976 (24000/1001) FPS
Color space : YUV
Chroma subsampling : 4:2:0
Bit depth : 8 bits
Scan type : Progressive
Bits/(Pixel*Frame) : 0.423
Stream size : 14.8 GiB (95%)
Writing library : x264 core 146 -from seleZen
Encoding settings : cabac=1 / ref=4 / deblock=1:-2:-2 / analyse=0x3:0x133 / me=umh / subme=10 / psy=1 / psy_rd=1.09:0.09 / mixed_ref=1 / me_range=32 / chroma_me=1 / trellis=2 / 8x8dct=1 / cqm=0 / deadzone=21,11 / fast_pskip=0 / chroma_qp_offset=-3 / threads=36 / lookahead_threads=6 / sliced_threads=0 / nr=0 / decimate=0 / interlaced=0 / bluray_compat=0 / constrained_intra=0 / bframes=9 / b_pyramid=2 / b_adapt=2 / b_bias=0 / direct=1 / weightb=1 / open_gop=0 / weightp=2 / keyint=240 / keyint_min=23 / scenecut=40 / intra_refresh=0 / rc_lookahead=50 / rc=crf / mbtree=0 / crf=16.8 / qcomp=0.60 / qpmin=0 / qpmax=51 / qpstep=4 / vbv_maxrate=50000 / vbv_bufsize=62500 / crf_max=0.0 / nal_hrd=none / filler=0 / ip_ratio=1.40 / pb_ratio=1.30 / aq=3:0.80
Language : English
Default : Yes
Forced : No
Audio #1
ID : 2
Format : AC-3
Format/Info : Audio Coding 3
Commercial name : Dolby Digital
Codec ID : A_AC3
Duration : 1 h 45 min
Bit rate mode : Constant
Bit rate : 384 kb/s
Channel(s) : 6 channels
Channel layout : L R C LFE Ls Rs
Sampling rate : 48.0 kHz
Frame rate : 31.250 FPS (1536 SPF)
Compression mode : Lossy
Stream size : 290 MiB (2%)
Title : iTunes
Language : Russian
Service kind : Complete Main
Default : Yes
Forced : Yes
Audio #2
ID : 3
Format : AC-3
Format/Info : Audio Coding 3
Commercial name : Dolby Digital
Codec ID : A_AC3
Duration : 1 h 45 min
Bit rate mode : Constant
Bit rate : 640 kb/s
Channel(s) : 6 channels
Channel layout : L R C LFE Ls Rs
Sampling rate : 48.0 kHz
Frame rate : 31.250 FPS (1536 SPF)
Compression mode : Lossy
Stream size : 484 MiB (3%)
Title : Original
Language : English
Service kind : Complete Main
Default : No
Forced : No
Text #1
ID : 4
Format : UTF-8
Codec ID : S_TEXT/UTF8
Codec ID/Info : UTF-8 Plain Text
Duration : 1 h 41 min
Bit rate : 88 b/s
Count of elements : 1206
Stream size : 65.9 KiB (0%)
Title : Full
Language : Russian
Default : No
Forced : No
Text #2
ID : 5
Format : UTF-8
Codec ID : S_TEXT/UTF8
Codec ID/Info : UTF-8 Plain Text
Duration : 1 h 43 min
Bit rate : 62 b/s
Count of elements : 1563
Stream size : 47.0 KiB (0%)
Title : SDH
Language : English
Default : No
Forced : No
Menu
00:00:00.000 : en:Глава 01
00:08:52.282 : en:Глава 02
00:17:08.319 : en:Глава 03
00:25:55.262 : en:Глава 04
00:34:57.387 : en:Глава 05
00:43:02.455 : en:Глава 06
00:53:59.528 : en:Глава 07
01:03:49.159 : en:Глава 08
01:13:14.348 : en:Глава 09
01:22:03.836 : en:Глава 10
01:30:37.223 : en:Глава 11
01:39:01.477 : en:Глава 12

admin

Post 01-May-2021 21:20

[Quote]

Информация о фильме
Название: Клуб «Кастет»
Оригинальное название: Knuckledust
Год выхода: 2020
Жанр: Боевик, триллер
Режиссер: Джеймс Кермак
В ролях: Оливье Рихтерс, Кейт Дики, Филип Дэвис, Эми Бэйли, Мо Данфорд, Гетин Энтони, Джэми Уинстон, Гийом Делони, Себастьен Фука

О фильме: Спецгруппа полицейских врывается в элитный подземный клуб «Knuckledust» и обнаруживает семь уровней подземелья, заполненных трупами бойцов, бандитов и убийц. Среди горы мертвецов найден единственный выживший в этом аду — избитый боец по кличке Hard Eight. У полицейских есть всего лишь полтора часа, чтобы допросить этого человека и выяснить, кто же он на самом деле — жертва или убийца?
Страна: Великобритания, Франция
Студия: Featuristic Films, Head Gear Films, Metrol Technology, OneWorld Entertainment, Project, The, Trigger Films
Продолжительность: 01:45:27
Перевод: Дублированный | iTunes
Качество: BDRip 720p
Видео: MPEG-4 AVC, 1280x690, 8093 Кbit/s, 23.976 fps
Аудио #01: 48 kHz, AC3, 5.1, 384 Kbps | iTunes | RUS |
Аудио #02: 48 kHz, AC3, 5.1, 640 Kbps | Оригинал | ENG |
Субтитры: Русские (Full), английские

Скриншоты

MI

General
Unique ID : 293514978231679693533411172896112707550 (0xDCD0EDB6C7C16483D0A495C9176507DE)
Complete name : F:VideoKnuckledust.2020.BDRip.720p.seleZen.mkv
Format : Matroska
Format version : Version 4
File size : 6.72 GiB
Duration : 1 h 45 min
Overall bit rate : 9 090 kb/s
Movie name : Knuckledust 2020 from seleZen
Encoded date : UTC 2021-04-30 23:37:14
Writing application : mkvmerge v55.0.0 ('Waiting For Space') 64-bit
Writing library : libebml v1.4.2 + libmatroska v1.6.4
Video
ID : 1
Format : AVC
Format/Info : Advanced Video Codec
Format profile : High@L4.1
Format settings : CABAC / 9 Ref Frames
Format settings, CABAC : Yes
Format settings, Reference : 9 frames
Codec ID : V_MPEG4/ISO/AVC
Duration : 1 h 45 min
Bit rate : 8 093 kb/s
Width : 1 280 pixels
Height : 690 pixels
Display aspect ratio : 1.85:1
Frame rate mode : Constant
Frame rate : 23.976 (24000/1001) FPS
Color space : YUV
Chroma subsampling : 4:2:0
Bit depth : 8 bits
Scan type : Progressive
Bits/(Pixel*Frame) : 0.382
Stream size : 5.96 GiB (89%)
Writing library : x264 core 146 -from seleZen
Encoding settings : cabac=1 / ref=9 / deblock=1:-2:-2 / analyse=0x3:0x133 / me=umh / subme=10 / psy=1 / psy_rd=1.09:0.09 / mixed_ref=1 / me_range=32 / chroma_me=1 / trellis=2 / 8x8dct=1 / cqm=0 / deadzone=21,11 / fast_pskip=0 / chroma_qp_offset=-3 / threads=48 / lookahead_threads=5 / sliced_threads=0 / nr=0 / decimate=0 / interlaced=0 / bluray_compat=0 / constrained_intra=0 / bframes=9 / b_pyramid=2 / b_adapt=2 / b_bias=0 / direct=1 / weightb=1 / open_gop=0 / weightp=2 / keyint=240 / keyint_min=23 / scenecut=40 / intra_refresh=0 / rc_lookahead=50 / rc=crf / mbtree=0 / crf=16.8 / qcomp=0.60 / qpmin=0 / qpmax=51 / qpstep=4 / vbv_maxrate=50000 / vbv_bufsize=62500 / crf_max=0.0 / nal_hrd=none / filler=0 / ip_ratio=1.40 / pb_ratio=1.30 / aq=3:0.80
Language : English
Default : Yes
Forced : No
Audio #1
ID : 2
Format : AC-3
Format/Info : Audio Coding 3
Commercial name : Dolby Digital
Codec ID : A_AC3
Duration : 1 h 45 min
Bit rate mode : Constant
Bit rate : 384 kb/s
Channel(s) : 6 channels
Channel layout : L R C LFE Ls Rs
Sampling rate : 48.0 kHz
Frame rate : 31.250 FPS (1536 SPF)
Compression mode : Lossy
Stream size : 290 MiB (4%)
Title : iTunes
Language : Russian
Service kind : Complete Main
Default : Yes
Forced : Yes
Audio #2
ID : 3
Format : AC-3
Format/Info : Audio Coding 3
Commercial name : Dolby Digital
Codec ID : A_AC3
Duration : 1 h 45 min
Bit rate mode : Constant
Bit rate : 640 kb/s
Channel(s) : 6 channels
Channel layout : L R C LFE Ls Rs
Sampling rate : 48.0 kHz
Frame rate : 31.250 FPS (1536 SPF)
Compression mode : Lossy
Stream size : 484 MiB (7%)
Title : Original
Language : English
Service kind : Complete Main
Default : No
Forced : No
Text #1
ID : 4
Format : UTF-8
Codec ID : S_TEXT/UTF8
Codec ID/Info : UTF-8 Plain Text
Duration : 1 h 41 min
Bit rate : 88 b/s
Count of elements : 1206
Stream size : 65.9 KiB (0%)
Title : Full
Language : Russian
Default : No
Forced : No
Text #2
ID : 5
Format : UTF-8
Codec ID : S_TEXT/UTF8
Codec ID/Info : UTF-8 Plain Text
Duration : 1 h 43 min
Bit rate : 62 b/s
Count of elements : 1563
Stream size : 47.0 KiB (0%)
Title : SDH
Language : English
Default : No
Forced : No
Menu
00:00:00.000 : en:Глава 01
00:08:52.282 : en:Глава 02
00:17:08.319 : en:Глава 03
00:25:55.262 : en:Глава 04
00:34:57.387 : en:Глава 05
00:43:02.455 : en:Глава 06
00:53:59.528 : en:Глава 07
01:03:49.159 : en:Глава 08
01:13:14.348 : en:Глава 09
01:22:03.836 : en:Глава 10
01:30:37.223 : en:Глава 11
01:39:01.477 : en:Глава 12

admin

Post 25-Apr-2021 19:29

[Quote]


Название фильма: Мортал Комбат
Оригинальное название фильма: Mortal Kombat
Год выпуска: 2021
Страна / студия: Австралия, США, New Line Cinema, NetherRealm Studios, Atomic Monster
Жанр: Боевик, фэнтези, фантастика
Продолжительность: 01:50:01
Перевод: Дублированный (Line)
Режиссер: Саймон Маккуойд
В ролях: Льюис Тан, Джо Таслим, Джессика МакНэми, Джош Лоусон, Мехкад Брукс, Матильда Кимбер, Лора Брент, Таданобу Асано, Хироюки Санада, Чинь Хань
О фильме: Боец смешанных единоборств Коул Янг не раз соглашался проиграть за деньги. Он не знает о своем наследии и почему император Внешнего Мира Шан Цзун посылает своего лучшего воина, могущественного криомансера Саб-Зиро, на охоту за Коулом. Янг боится за безопасность своей семьи, и майор спецназа Джакс, обладатель такой же отметки в виде дракона, как и у Коула, советует ему отправиться на поиски Сони Блейд. Вскоре он оказывается в храме Лорда Рейдена, Старшего Бога и защитника Земного Царства, который дает убежище тем, кто носит метку. Здесь Коул тренируется с опытными воинами Лю Каном, Кун Лао и наемником-изгоем Кано, готовясь вместе с величайшими чемпионами Земли противостоять врагам из Внешнего Мира в битве за вселенную. Но сможет ли Коул приложить все усилия и раскрыть в себе аркану — могущественную силу его души, чтобы не только спасти свою семью, но и остановить Внешний Мир раз и навсегда?


Без рекламы!
Качество: WEB-DL 720p|AMZN
Видео: MPEG-4 AVC, 3944 Кбит/с, 1248x520
Аудио 1: AC3, 2 ch, 256 Кбит/с | RUS | Tnx.KinoPub
Аудио 2: E-AC3+atmos, 6 ch, 768 Кбит/с | ENG
Субтитры: Русские на китайскую речь (отдельно),Английские (SDH+вшитые на китайскую речь)

Скриншоты


Инфо

Общее
Уникальный идентификатор : 116679574417903523712794314610050554349 (0x57C7AB2B234403A5B167DB3F99F759ED)
Полное имя : C:DownloadsMortal.Kombat_(2021)_WEB-DL_720p_D_LineMortal.Kombat.2021.720p.AMZN.WEB-DL_Line.mkv
Формат : Matroska
Версия формата : Version 4
Размер файла : 3,82 Гбайт
Продолжительность : 1 ч. 50 м.
Общий поток : 4 970 Кбит/сек
Название фильма : Mortal.Kombat.2021.720p.AMZN.WEB-DL_Line
Дата кодирования : UTC 2021-04-24 15:53:29
Программа кодирования : mkvmerge v53.0.0 ('Fool's Gold') 64-bit
Библиотека кодирования : libebml v1.4.1 + libmatroska v1.6.2
Видео
Идентификатор : 1
Формат : AVC
Формат/Информация : Advanced Video Codec
Профиль формата : High@L3.1
Настройки формата : CABAC / 4 Ref Frames
Параметр CABAC формата : Да
Параметр RefFrames формата : 4 кадра
Идентификатор кодека : V_MPEG4/ISO/AVC
Продолжительность : 1 ч. 50 м.
Вид битрейта : Постоянный
Битрейт : 3 944 Кбит/сек
Номинальный битрейт : 6 000 Кбит/сек
Ширина : 1 248 пикселей
Высота : 520 пикселей
Соотношение сторон : 2,40:1
Режим частоты кадров : Постоянный
Частота кадров : 23,976 (24000/1001) кадра/сек
Цветовое пространство : YUV
Субдискретизация насыщенности : 4:2:0
Битовая глубина : 8 бит
Тип развёртки : Прогрессивная
Бит/(Пиксели*Кадры) : 0.253
Размер потока : 3,03 Гбайт (79%)
Default : Да
Forced : Нет
Цветовой диапазон : Limited
Основные цвета : BT.709
Характеристики трансфера : BT.709
Коэффициенты матрицы : BT.709
Аудио #1
Идентификатор : 2
Формат : AC-3
Формат/Информация : Audio Coding 3
Коммерческое название : Dolby Digital
Идентификатор кодека : A_AC3
Продолжительность : 1 ч. 50 м.
Вид битрейта : Постоянный
Битрейт : 256 Кбит/сек
Каналы : 2 канала
Channel layout : L R
Частота : 48,0 КГц
Частота кадров : 31,250 кадров/сек (1536 SPF)
Метод сжатия : С потерями
Размер потока : 201 Мбайт (5%)
Заголовок : (DUB) Line | KinoPub
Язык : Russian
Service kind : Complete Main
Default : Да
Forced : Нет
Аудио #2
Идентификатор : 3
Формат : E-AC-3 JOC
Формат/Информация : Enhanced AC-3 with Joint Object Coding
Коммерческое название : Dolby Digital Plus with Dolby Atmos
Идентификатор кодека : A_EAC3
Продолжительность : 1 ч. 50 м.
Вид битрейта : Постоянный
Битрейт : 768 Кбит/сек
Каналы : 6 каналов
Channel layout : L R C LFE Ls Rs
Частота : 48,0 КГц
Частота кадров : 31,250 кадров/сек (1536 SPF)
Метод сжатия : С потерями
Размер потока : 604 Мбайт (15%)
Язык : English
Service kind : Complete Main
Default : Нет
Forced : Нет
Complexity index : 16
Number of dynamic objects : 15
Bed channel count : 1 канал
Bed channel configuration : LFE
Текст
Идентификатор : 4
Формат : UTF-8
Идентификатор кодека : S_TEXT/UTF8
Идентификатор кодека/Информация : UTF-8 Plain Text
Продолжительность : 1 ч. 41 м.
Битрейт : 44 бит/сек
Count of elements : 1352
Размер потока : 32,6 Кбайт (0%)
Заголовок : SDH
Язык : English
Default : Нет
Forced : Нет
Меню
00:00:00.000 : Studio Logo
00:00:45.000 : Scene 2
00:04:48.000 : Scene 3
00:07:25.000 : Scene 4
00:10:11.000 : Scene 5
00:12:38.000 : Title Sequence
00:12:54.000 : Prologue
00:13:10.000 : Scene 8
00:15:54.000 : Scene 9
00:16:57.000 : Scene 10
00:19:13.000 : Scene 11
00:23:08.000 : Scene 12
00:25:22.000 : Scene 13
00:26:22.000 : Scene 14
00:27:24.000 : Scene 15
00:32:05.000 : Scene 16
00:34:39.000 : Scene 17
00:37:38.000 : Scene 18
00:38:55.000 : Scene 19
00:43:10.000 : Scene 20
00:46:10.000 : Scene 21
00:47:45.000 : Scene 22
00:51:11.000 : Scene 23
00:55:02.000 : Scene 24
00:57:51.000 : Scene 25
01:01:13.000 : Scene 26
01:03:19.000 : Scene 27
01:04:00.000 : Scene 28
01:05:48.000 : Scene 29
01:07:17.000 : Scene 30
01:13:05.000 : Scene 31
01:16:36.000 : Scene 32
01:19:23.000 : Scene 33
01:21:23.000 : Scene 34
01:25:21.000 : Scene 35
01:27:17.000 : Scene 36
01:28:10.000 : Scene 37
01:31:56.000 : Scene 38
01:35:35.000 : Scene 39
01:38:14.000 : Scene 40
01:38:59.000 : End Credits

admin

Post 25-Apr-2021 15:58

[Quote]


Название фильма: Мортал Комбат
Оригинальное название фильма: Mortal Kombat
Год выпуска: 2021
Страна / студия: Австралия, США, New Line Cinema, NetherRealm Studios, Atomic Monster
Жанр: Боевик, фэнтези, фантастика
Продолжительность: 01:50:01
Перевод: Дублированный (Line)
Режиссер: Саймон Маккуойд
В ролях: Льюис Тан, Джо Таслим, Джессика МакНэми, Джош Лоусон, Мехкад Брукс, Матильда Кимбер, Лора Брент, Таданобу Асано, Хироюки Санада, Чинь Хань
О фильме: Боец смешанных единоборств Коул Янг не раз соглашался проиграть за деньги. Он не знает о своем наследии и почему император Внешнего Мира Шан Цзун посылает своего лучшего воина, могущественного криомансера Саб-Зиро, на охоту за Коулом. Янг боится за безопасность своей семьи, и майор спецназа Джакс, обладатель такой же отметки в виде дракона, как и у Коула, советует ему отправиться на поиски Сони Блейд. Вскоре он оказывается в храме Лорда Рейдена, Старшего Бога и защитника Земного Царства, который дает убежище тем, кто носит метку. Здесь Коул тренируется с опытными воинами Лю Каном, Кун Лао и наемником-изгоем Кано, готовясь вместе с величайшими чемпионами Земли противостоять врагам из Внешнего Мира в битве за вселенную. Но сможет ли Коул приложить все усилия и раскрыть в себе аркану — могущественную силу его души, чтобы не только спасти свою семью, но и остановить Внешний Мир раз и навсегда?


Без рекламы!
Качество: WEB-DL 1080p | AMZN
Видео: MPEG-4 AVC, 8969 Кбит/с, 1920x800
Аудио 1: AC3, 2 ch, 256 Кбит/с | RUS | Tnx.KinoPub
Аудио 2: E-AC3+atmos, 6 ch, 768 Кбит/с | ENG
Субтитры: Русские на китайскую речь (отдельно), Английские (вшитые на китайскую речь+SDH)

Скриншоты

Инфо

Общее
Уникальный идентификатор : 307551587882838262998986652540609681752 (0xE76048004F867A6D916642AD955ED958)
Полное имя : C:DownloadsMortal Kombat (2021)_WEB-DL_1080p_Line.mkv
Формат : Matroska
Версия формата : Version 4
Размер файла : 7,68 Гбайт
Продолжительность : 1 ч. 50 м.
Общий поток : 9 995 Кбит/сек
Название фильма : Mortal Kombat (2021)_WEB-DL_1080p_Line
Дата кодирования : UTC 2021-04-24 14:35:22
Программа кодирования : mkvmerge v53.0.0 ('Fool's Gold') 64-bit
Библиотека кодирования : libebml v1.4.1 + libmatroska v1.6.2
Видео
Идентификатор : 1
Формат : AVC
Формат/Информация : Advanced Video Codec
Профиль формата : High@L4
Настройки формата : CABAC / 4 Ref Frames
Параметр CABAC формата : Да
Параметр RefFrames формата : 4 кадра
Идентификатор кодека : V_MPEG4/ISO/AVC
Продолжительность : 1 ч. 50 м.
Вид битрейта : Постоянный
Битрейт : 8 969 Кбит/сек
Номинальный битрейт : 10 000 Кбит/сек
Ширина : 1 920 пикселей
Высота : 800 пикселей
Соотношение сторон : 2,40:1
Режим частоты кадров : Постоянный
Частота кадров : 23,976 (24000/1001) кадра/сек
Цветовое пространство : YUV
Субдискретизация насыщенности : 4:2:0
Битовая глубина : 8 бит
Тип развёртки : Прогрессивная
Бит/(Пиксели*Кадры) : 0.244
Размер потока : 6,89 Гбайт (90%)
Default : Да
Forced : Нет
Цветовой диапазон : Limited
Основные цвета : BT.709
Характеристики трансфера : BT.709
Коэффициенты матрицы : BT.709
Аудио #1
Идентификатор : 2
Формат : AC-3
Формат/Информация : Audio Coding 3
Коммерческое название : Dolby Digital
Идентификатор кодека : A_AC3
Продолжительность : 1 ч. 50 м.
Вид битрейта : Постоянный
Битрейт : 256 Кбит/сек
Каналы : 2 канала
Channel layout : L R
Частота : 48,0 КГц
Частота кадров : 31,250 кадров/сек (1536 SPF)
Метод сжатия : С потерями
Размер потока : 201 Мбайт (3%)
Заголовок : (DUB) Line | KinoPub
Язык : Russian
Service kind : Complete Main
Default : Да
Forced : Нет
Аудио #2
Идентификатор : 3
Формат : E-AC-3 JOC
Формат/Информация : Enhanced AC-3 with Joint Object Coding
Коммерческое название : Dolby Digital Plus with Dolby Atmos
Идентификатор кодека : A_EAC3
Продолжительность : 1 ч. 50 м.
Вид битрейта : Постоянный
Битрейт : 768 Кбит/сек
Каналы : 6 каналов
Channel layout : L R C LFE Ls Rs
Частота : 48,0 КГц
Частота кадров : 31,250 кадров/сек (1536 SPF)
Метод сжатия : С потерями
Размер потока : 604 Мбайт (8%)
Язык : English
Service kind : Complete Main
Default : Нет
Forced : Нет
Complexity index : 16
Number of dynamic objects : 15
Bed channel count : 1 канал
Bed channel configuration : LFE
Текст
Идентификатор : 4
Формат : UTF-8
Идентификатор кодека : S_TEXT/UTF8
Идентификатор кодека/Информация : UTF-8 Plain Text
Продолжительность : 1 ч. 41 м.
Битрейт : 44 бит/сек
Count of elements : 1352
Размер потока : 32,6 Кбайт (0%)
Заголовок : SDH
Язык : English
Default : Нет
Forced : Нет
Меню
00:00:00.000 : Studio Logo
00:00:45.000 : Scene 2
00:04:48.000 : Scene 3
00:07:25.000 : Scene 4
00:10:11.000 : Scene 5
00:12:38.000 : Title Sequence
00:12:54.000 : Prologue
00:13:10.000 : Scene 8
00:15:54.000 : Scene 9
00:16:57.000 : Scene 10
00:19:13.000 : Scene 11
00:23:08.000 : Scene 12
00:25:22.000 : Scene 13
00:26:22.000 : Scene 14
00:27:24.000 : Scene 15
00:32:05.000 : Scene 16
00:34:39.000 : Scene 17
00:37:38.000 : Scene 18
00:38:55.000 : Scene 19
00:43:10.000 : Scene 20
00:46:10.000 : Scene 21
00:47:45.000 : Scene 22
00:51:11.000 : Scene 23
00:55:02.000 : Scene 24
00:57:51.000 : Scene 25
01:01:13.000 : Scene 26
01:03:19.000 : Scene 27
01:04:00.000 : Scene 28
01:05:48.000 : Scene 29
01:07:17.000 : Scene 30
01:13:05.000 : Scene 31
01:16:36.000 : Scene 32
01:19:23.000 : Scene 33
01:21:23.000 : Scene 34
01:25:21.000 : Scene 35
01:27:17.000 : Scene 36
01:28:10.000 : Scene 37
01:31:56.000 : Scene 38
01:35:35.000 : Scene 39
01:38:14.000 : Scene 40
01:38:59.000 : End Credits

admin

Post 25-Apr-2021 15:41

[Quote]

Информация о фильме
Название: Игры шпионов
Оригинальное название: The Courier
Год выхода: 2020
Жанр: Триллер
Режиссер: Доминик Кук
В ролях: Бенедикт Камбербэтч, Рэйчел Броснахэн, Джесси Бакли, Энгус Райт, Мераб Нинидзе, Майлз Ричардсон, Расселл Балог, Бернард Коллако, Элина Алминас

О фильме: Сюжет ленты основан на реальной истории Винна, который помог ЦРУ внедриться в ядерную программу Советского Союза во время Холодной войны. Британец и его источник, полковник ГРУ и шпион Олег Пеньковский, чьим позывным было слово «Айронбарк», предоставили руководству США данные о реальном военном потенциале СССР накануне Карибского кризиса 1962 года.
Страна: Великобритания, США
Студия: 42, FilmNation Entertainment, SunnyMarch
Продолжительность: 01:51:58
Перевод: Профессиональный многоголосый | HDRezka Studio
Качество: WEB-DL 1080p
Видео: MPEG-4 AVC, 1920x1080, 6903 Kbit/s, 23.976 fps
Аудио #01: 48 kHz, AC3, 5.1, 448 Kbps | Профессиональный многоголосый | RUS |
Аудио #02: 48 kHz, E-AC3, 5.1, 640 Kbps | Оригинал | ENG |
Субтитры: Русские (Forced), английские

Скриншоты

MI

General
Unique ID : 176841937054342864022538505394480702694 (0x850A84A8BB4B4AF436E06699A03F64E6)
Complete name : F:VideoThe.Courier.2020.WEB-DL.1080p.seleZen.mkv
Format : Matroska
Format version : Version 4
File size : 6.25 GiB
Duration : 1 h 51 min
Overall bit rate mode : Variable
Overall bit rate : 7 993 kb/s
Movie name : The Courier 2020 from seleZen
Encoded date : UTC 2021-04-25 01:07:27
Writing application : mkvmerge v55.0.0 ('Waiting For Space') 64-bit
Writing library : libebml v1.4.2 + libmatroska v1.6.4
Video
ID : 1
Format : AVC
Format/Info : Advanced Video Codec
Format profile : Main@L4.1
Format settings : CABAC / 4 Ref Frames
Format settings, CABAC : Yes
Format settings, Reference : 4 frames
Codec ID : V_MPEG4/ISO/AVC
Duration : 1 h 51 min
Bit rate mode : Variable
Bit rate : 6 903 kb/s
Maximum bit rate : 14.0 Mb/s
Width : 1 920 pixels
Height : 1 080 pixels
Display aspect ratio : 16:9
Frame rate mode : Constant
Frame rate : 23.976 (24000/1001) FPS
Color space : YUV
Chroma subsampling : 4:2:0
Bit depth : 8 bits
Scan type : Progressive
Bits/(Pixel*Frame) : 0.139
Stream size : 5.40 GiB (86%)
Language : English
Default : Yes
Forced : No
Color range : Limited
Color primaries : BT.709
Transfer characteristics : BT.709
Matrix coefficients : BT.709
Audio #1
ID : 2
Format : AC-3
Format/Info : Audio Coding 3
Commercial name : Dolby Digital
Codec ID : A_AC3
Duration : 1 h 51 min
Bit rate mode : Constant
Bit rate : 448 kb/s
Channel(s) : 6 channels
Channel layout : L R C LFE Ls Rs
Sampling rate : 48.0 kHz
Frame rate : 31.250 FPS (1536 SPF)
Compression mode : Lossy
Delay relative to video : 14 ms
Stream size : 359 MiB (6%)
Title : MVO [HDRezka Studio]
Language : Russian
Service kind : Complete Main
Default : Yes
Forced : Yes
Audio #2
ID : 3
Format : E-AC-3
Format/Info : Enhanced AC-3
Commercial name : Dolby Digital Plus
Codec ID : A_EAC3
Duration : 1 h 51 min
Bit rate mode : Constant
Bit rate : 640 kb/s
Channel(s) : 6 channels
Channel layout : L R C LFE Ls Rs
Sampling rate : 48.0 kHz
Frame rate : 31.250 FPS (1536 SPF)
Compression mode : Lossy
Delay relative to video : 14 ms
Stream size : 513 MiB (8%)
Title : Original
Language : English
Service kind : Complete Main
Default : No
Forced : No
Text #1
ID : 4
Format : UTF-8
Codec ID : S_TEXT/UTF8
Codec ID/Info : UTF-8 Plain Text
Duration : 1 h 43 min
Bit rate : 2 b/s
Count of elements : 25
Stream size : 2.09 KiB (0%)
Title : Forced
Language : Russian
Default : Yes
Forced : Yes
Text #2
ID : 5
Format : UTF-8
Codec ID : S_TEXT/UTF8
Codec ID/Info : UTF-8 Plain Text
Duration : 1 h 43 min
Bit rate : 53 b/s
Count of elements : 1278
Stream size : 40.2 KiB (0%)
Title : Full
Language : English
Default : No
Forced : No

admin

Post 23-Apr-2021 21:40

[Quote]

Информация о фильме
Название: Гипосомния
Оригинальное название: Cortex
Год выхода: 2020
Жанр: Триллер, драма, криминал
Режиссер: Мориц Бляйбтрой
В ролях: Анна Бедерке, Мориц Бляйбтрой, Марк Хоземанн, Мартин Клемпнов, Эмили Куше, Яннис Нивенер, Николас Офчарек, Надя Уль, Вотан Вильке Мёринг

О фильме: Хаген работает охранником в магазине. Его задача – внимательно вглядываться в покупателей, лища потенциальных воров. В последнее время его внимание всё чаще привлекает подозрительный парень, который ведёт себя как вор, и эта ситуация беспокоит Хагена. Но куда больше его беспокоит бессонница, причём довольно странная – ночами он не может уснуть, но иногда ненадолго отключается средь бела дня. В таких условиях тяжело поддерживать нормальные отношения с женой, а на работе вообще начинает твориться что-то непонятное.
Страна: Германия
Студия: Paloma Film, Port au Prince Film & Kultur Produktion, Warner Bros. Film Productions Germany
Продолжительность: 01:36:22
Перевод: Профессиональный многоголосый | iTunes
Качество: WEB-DL 1080p
Видео: MPEG-4 AVC, 1920x802, 4581 Kbit/s, 24.000 fps
Аудио: 48 kHz, AC3, 5.1, 384 Kbps | iTunes | RUS |
Субтитры: Отсутсвуют

Скриншоты

MI

General
Unique ID : 317866911292902078486687670303927077883 (0xEF22F0B61E01A6C2C6E5C9D4BEC08BFB)
Complete name : F:VideoCortex.2020.WEB-DL.1080p.seleZen.mkv
Format : Matroska
Format version : Version 4
File size : 3.34 GiB
Duration : 1 h 36 min
Overall bit rate : 4 967 kb/s
Movie name : Cortex 2020 from seleZen
Encoded date : UTC 2021-04-23 04:43:47
Writing application : mkvmerge v55.0.0 ('Waiting For Space') 64-bit
Writing library : libebml v1.4.2 + libmatroska v1.6.4
Video
ID : 1
Format : AVC
Format/Info : Advanced Video Codec
Format profile : High@L4
Format settings : CABAC / 5 Ref Frames
Format settings, CABAC : Yes
Format settings, Reference : 5 frames
Codec ID : V_MPEG4/ISO/AVC
Duration : 1 h 36 min
Bit rate : 4 581 kb/s
Width : 1 920 pixels
Height : 802 pixels
Display aspect ratio : 2.40:1
Frame rate mode : Constant
Frame rate : 24.000 FPS
Color space : YUV
Chroma subsampling : 4:2:0
Bit depth : 8 bits
Scan type : Progressive
Bits/(Pixel*Frame) : 0.124
Stream size : 3.08 GiB (92%)
Language : English
Default : Yes
Forced : No
Color range : Limited
Color primaries : BT.709
Transfer characteristics : BT.709
Matrix coefficients : BT.709
Audio
ID : 2
Format : AC-3
Format/Info : Audio Coding 3
Commercial name : Dolby Digital
Codec ID : A_AC3
Duration : 1 h 36 min
Bit rate mode : Constant
Bit rate : 384 kb/s
Channel(s) : 6 channels
Channel layout : L R C LFE Ls Rs
Sampling rate : 48.0 kHz
Frame rate : 31.250 FPS (1536 SPF)
Compression mode : Lossy
Stream size : 265 MiB (8%)
Title : iTunes
Language : Russian
Service kind : Complete Main
Default : Yes
Forced : Yes
Menu
00:00:00.000 : en:Глава 1
00:07:27.458 : en:Глава 2
00:14:36.749 : en:Глава 3
00:22:48.457 : en:Глава 4
00:29:21.498 : en:Глава 5
00:36:50.248 : en:Глава 6
00:44:19.039 : en:Глава 7
00:51:21.164 : en:Глава 8
00:59:04.164 : en:Глава 9
01:05:59.622 : en:Глава 10
01:12:54.205 : en:Глава 11
01:20:10.663 : en:Глава 12
01:25:55.788 : en:Глава 13

admin

Post 23-Apr-2021 00:24

[Quote]

Информация о фильме
Название: Дальний космос
Оригинальное название: Stowaway
Год выхода: 2021
Жанр: Фантастика, триллер, драма
Режиссер: Джо Пенна
В ролях: Анна Кендрик, Тони Коллетт, Дэниэл Дэ Ким, Шамир Андерсон

О фильме: События триллера разворачиваются на космическом корабле, который летит на Марс. Экипаж внезапно обнаруживает лишнего человека на борту, но вернуться на Землю уже нельзя. Так как ресурсы корабля четко ограничены, путь до Марса оказывается под вопросом. Когда большинство уже готово избавиться от «зайца», медик экипажа становится единственной, кто голосует против этого жестокого решения.
Страна: США, Германия
Студия: Augenschein Filmproduktion, MMC Movies, MysteryGuitarMan, Phiphen Pictures, Rainmaker Films, Rise Pictures, Stage 6 Films, XYZ Films, Yale Productions
Продолжительность: 01:56:09
Перевод: Дублированный | iTunes
Качество: WEB-DL 720p
Видео: MPEG-4 AVC, 1280x544, 1983 Kbit/s, 23.976 fps
Аудио #01: 48 kHz, AC3, 5.1, 384 Kbps | iTunes | RUS |
Аудио #02: 48 kHz, E-AC3, 2.0, 224 Kbps | Оригинал | ENG |
Субтитры: Русские (Full), английские

Скриншоты

MI

General
Unique ID : 242086387219100999424610535508403175672 (0xB620246903756A259007240C812240F8)
Complete name : C:VideoCodedStowaway.2021.AMZN.WEB-DL.720p.seleZen.mkv
Format : Matroska
Format version : Version 4
File size : 2.10 GiB
Duration : 1 h 56 min
Overall bit rate : 2 593 kb/s
Movie name : Stowaway 2021 from seleZen
Encoded date : UTC 2021-04-22 18:32:57
Writing application : mkvmerge v53.0.0 ('Fool's Gold') 64-bit
Writing library : libebml v1.4.1 + libmatroska v1.6.2
Video
ID : 1
Format : AVC
Format/Info : Advanced Video Codec
Format profile : High@L3.1
Format settings : CABAC / 4 Ref Frames
Format settings, CABAC : Yes
Format settings, Reference : 4 frames
Codec ID : V_MPEG4/ISO/AVC
Duration : 1 h 56 min
Bit rate mode : Constant
Bit rate : 1 983 kb/s
Nominal bit rate : 4 000 kb/s
Width : 1 280 pixels
Height : 544 pixels
Display aspect ratio : 2.35:1
Original display aspect rat : 2.35:1
Frame rate mode : Constant
Frame rate : 23.976 (24000/1001) FPS
Color space : YUV
Chroma subsampling : 4:2:0
Bit depth : 8 bits
Scan type : Progressive
Bits/(Pixel*Frame) : 0.119
Stream size : 1.61 GiB (76%)
Language : English
Default : Yes
Forced : No
Color range : Limited
Color primaries : BT.709
Transfer characteristics : BT.709
Matrix coefficients : BT.709
Audio #1
ID : 2
Format : AC-3
Format/Info : Audio Coding 3
Commercial name : Dolby Digital
Codec ID : A_AC3
Duration : 1 h 56 min
Bit rate mode : Constant
Bit rate : 384 kb/s
Channel(s) : 6 channels
Channel layout : L R C LFE Ls Rs
Sampling rate : 48.0 kHz
Frame rate : 31.250 FPS (1536 SPF)
Compression mode : Lossy
Stream size : 319 MiB (15%)
Title : iTunes
Language : Russian
Service kind : Complete Main
Default : Yes
Forced : Yes
Audio #2
ID : 3
Format : E-AC-3
Format/Info : Enhanced AC-3
Commercial name : Dolby Digital Plus
Codec ID : A_EAC3
Duration : 1 h 56 min
Bit rate mode : Constant
Bit rate : 224 kb/s
Channel(s) : 2 channels
Channel layout : L R
Sampling rate : 48.0 kHz
Frame rate : 31.250 FPS (1536 SPF)
Compression mode : Lossy
Stream size : 186 MiB (9%)
Title : Original
Language : English
Service kind : Complete Main
Default : No
Forced : No
Text #1
ID : 4
Format : UTF-8
Codec ID : S_TEXT/UTF8
Codec ID/Info : UTF-8 Plain Text
Duration : 1 h 49 min
Bit rate : 65 b/s
Count of elements : 1053
Stream size : 52.5 KiB (0%)
Title : Full
Language : Russian
Default : No
Forced : No
Text #2
ID : 5
Format : UTF-8
Codec ID : S_TEXT/UTF8
Codec ID/Info : UTF-8 Plain Text
Duration : 1 h 46 min
Bit rate : 43 b/s
Count of elements : 997
Stream size : 33.9 KiB (0%)
Title : Full
Language : English
Default : No
Forced : No

admin

Post 23-Apr-2021 00:20

[Quote]

Информация о фильме
Название: Дальний космос
Оригинальное название: Stowaway
Год выхода: 2021
Жанр: Фантастика, триллер, драма
Режиссер: Джо Пенна
В ролях: Анна Кендрик, Тони Коллетт, Дэниэл Дэ Ким, Шамир Андерсон

О фильме: События триллера разворачиваются на космическом корабле, который летит на Марс. Экипаж внезапно обнаруживает лишнего человека на борту, но вернуться на Землю уже нельзя. Так как ресурсы корабля четко ограничены, путь до Марса оказывается под вопросом. Когда большинство уже готово избавиться от «зайца», медик экипажа становится единственной, кто голосует против этого жестокого решения.
Страна: США, Германия
Студия: Augenschein Filmproduktion, MMC Movies, MysteryGuitarMan, Phiphen Pictures, Rainmaker Films, Rise Pictures, Stage 6 Films, XYZ Films, Yale Productions
Продолжительность: 01:56:09
Перевод: Дублированный | iTunes
Качество: WEB-DL 1080p
Видео: MPEG-4 AVC, 1920x816, 5156 Kbit/s, 23.976 fps
Аудио #01: 48 kHz, AC3, 5.1, 384 Kbps | iTunes | RUS |
Аудио #02: 48 kHz, E-AC3, 2.0, 224 Kbps | Оригинал | ENG |
Субтитры: Русские (Full), английские

Скриншоты

MI

General
Unique ID : 218191484145223129419834180313822083145 (0xA42626BB1BEBE4EBD6F687C932493849)
Complete name : C:VideoCodedStowaway.2021.AMZN.WEB-DL.1080p.seleZen.mkv
Format : Matroska
Format version : Version 4
File size : 4.68 GiB
Duration : 1 h 56 min
Overall bit rate : 5 766 kb/s
Movie name : Stowaway 2021 from seleZen
Encoded date : UTC 2021-04-22 18:20:13
Writing application : mkvmerge v53.0.0 ('Fool's Gold') 64-bit
Writing library : libebml v1.4.1 + libmatroska v1.6.2
Video
ID : 1
Format : AVC
Format/Info : Advanced Video Codec
Format profile : High@L4
Format settings : CABAC / 4 Ref Frames
Format settings, CABAC : Yes
Format settings, Reference : 4 frames
Codec ID : V_MPEG4/ISO/AVC
Duration : 1 h 56 min
Bit rate mode : Constant
Bit rate : 5 156 kb/s
Nominal bit rate : 10 000 kb/s
Width : 1 920 pixels
Height : 816 pixels
Display aspect ratio : 2.35:1
Frame rate mode : Constant
Frame rate : 23.976 (24000/1001) FPS
Color space : YUV
Chroma subsampling : 4:2:0
Bit depth : 8 bits
Scan type : Progressive
Bits/(Pixel*Frame) : 0.137
Stream size : 4.18 GiB (89%)
Language : English
Default : Yes
Forced : No
Color range : Limited
Color primaries : BT.709
Transfer characteristics : BT.709
Matrix coefficients : BT.709
Audio #1
ID : 2
Format : AC-3
Format/Info : Audio Coding 3
Commercial name : Dolby Digital
Codec ID : A_AC3
Duration : 1 h 56 min
Bit rate mode : Constant
Bit rate : 384 kb/s
Channel(s) : 6 channels
Channel layout : L R C LFE Ls Rs
Sampling rate : 48.0 kHz
Frame rate : 31.250 FPS (1536 SPF)
Compression mode : Lossy
Stream size : 319 MiB (7%)
Title : iTunes
Language : Russian
Service kind : Complete Main
Default : Yes
Forced : Yes
Audio #2
ID : 3
Format : E-AC-3
Format/Info : Enhanced AC-3
Commercial name : Dolby Digital Plus
Codec ID : A_EAC3
Duration : 1 h 56 min
Bit rate mode : Constant
Bit rate : 224 kb/s
Channel(s) : 2 channels
Channel layout : L R
Sampling rate : 48.0 kHz
Frame rate : 31.250 FPS (1536 SPF)
Compression mode : Lossy
Stream size : 186 MiB (4%)
Title : Original
Language : English
Service kind : Complete Main
Default : No
Forced : No
Text #1
ID : 4
Format : UTF-8
Codec ID : S_TEXT/UTF8
Codec ID/Info : UTF-8 Plain Text
Duration : 1 h 49 min
Bit rate : 65 b/s
Count of elements : 1053
Stream size : 52.5 KiB (0%)
Title : Full
Language : Russian
Default : No
Forced : No
Text #2
ID : 5
Format : UTF-8
Codec ID : S_TEXT/UTF8
Codec ID/Info : UTF-8 Plain Text
Duration : 1 h 46 min
Bit rate : 43 b/s
Count of elements : 997
Stream size : 33.9 KiB (0%)
Title : Full
Language : English
Default : No
Forced : No

admin

Post 21-Apr-2021 23:43

[Quote]

Информация о фильме
Название: Дочь волка
Оригинальное название: Daughter of the Wolf
Год выхода: 2019
Жанр: Боевик, триллер
Режиссер: Дэвид Хэкл
В ролях: Джина Карано, Ричард Дрейфусс, Сидель Грэйнджер, Брендан Фер, Брок Морган, Стю МакЛин, Антон Гиллис-Адельман, Сидель Ноэль, Чад Райли, Джошуа Мердок

О фильме: Клэр возвращается домой из поездки по Ближнему Востоку и узнает о том, что ее 13-лений сын похищен местными бандитами во главе с неким мужчиной, известным как Отец.
Страна: Канада
Студия: Falconer Pictures, Minds Eye Entertainment, VMI Worldwide
Продолжительность: 01:28:09
Перевод: Дублированный | iTunes
Качество: BDRip 1080p
Видео: MPEG-4 AVC, 1920x806, 10.5 Mbit/s, 23.976 fps
Аудио #01: 48 kHz, AC3, 5.1, 384 Kbps | Дублированный | iTunes | RUS |
Аудио #02: 48 kHz, AC3, 5.1, 640 Kbps | Оригинал | ENG |
Субтитры: Русские (Full [Enigma], full [milf2010]), английские

Скриншоты

MI

General
Unique ID : 133543708880448836818272458158040768811 (0x647795312F1CDED86CD6660E6E35612B)
Complete name : F:VideoDaughter.of.the.Wolf.2019.BDRip.1080p.seleZen.mkv
Format : Matroska
Format version : Version 4
File size : 7.09 GiB
Duration : 1 h 28 min
Overall bit rate : 11.5 Mb/s
Movie name : Daughter of the Wolf 2019 from seleZen
Encoded date : UTC 2021-04-21 03:37:23
Writing application : mkvmerge v55.0.0 ('Waiting For Space') 64-bit
Writing library : libebml v1.4.2 + libmatroska v1.6.4
Video
ID : 1
Format : AVC
Format/Info : Advanced Video Codec
Format profile : High@L4.1
Format settings : CABAC / 5 Ref Frames
Format settings, CABAC : Yes
Format settings, Reference : 5 frames
Codec ID : V_MPEG4/ISO/AVC
Duration : 1 h 28 min
Bit rate : 10.5 Mb/s
Width : 1 920 pixels
Height : 806 pixels
Display aspect ratio : 2.40:1
Frame rate mode : Constant
Frame rate : 23.976 (24000/1001) FPS
Color space : YUV
Chroma subsampling : 4:2:0
Bit depth : 8 bits
Scan type : Progressive
Bits/(Pixel*Frame) : 0.283
Stream size : 6.46 GiB (91%)
Writing library : x264 core 161 -from seleZen
Encoding settings : cabac=1 / ref=5 / deblock=1:-2:-2 / analyse=0x3:0x133 / me=umh / subme=11 / psy=1 / psy_rd=1.04:0.03 / mixed_ref=1 / me_range=32 / chroma_me=1 / trellis=2 / 8x8dct=1 / cqm=0 / deadzone=21,11 / fast_pskip=0 / chroma_qp_offset=-3 / threads=25 / lookahead_threads=4 / sliced_threads=0 / nr=0 / decimate=0 / interlaced=0 / bluray_compat=0 / constrained_intra=0 / bframes=9 / b_pyramid=2 / b_adapt=2 / b_bias=0 / direct=3 / weightb=1 / open_gop=0 / weightp=2 / keyint=240 / keyint_min=23 / scenecut=40 / intra_refresh=0 / rc_lookahead=40 / rc=2pass / mbtree=0 / bitrate=10500 / ratetol=1.0 / qcomp=0.60 / qpmin=0 / qpmax=51 / qpstep=4 / cplxblur=20.0 / qblur=0.5 / vbv_maxrate=50000 / vbv_bufsize=62000 / nal_hrd=none / filler=0 / ip_ratio=1.40 / pb_ratio=1.30 / aq=3:0.80
Language : English
Default : Yes
Forced : No
Audio #1
ID : 2
Format : AC-3
Format/Info : Audio Coding 3
Commercial name : Dolby Digital
Codec ID : A_AC3
Duration : 1 h 28 min
Bit rate mode : Constant
Bit rate : 384 kb/s
Channel(s) : 6 channels
Channel layout : L R C LFE Ls Rs
Sampling rate : 48.0 kHz
Frame rate : 31.250 FPS (1536 SPF)
Compression mode : Lossy
Stream size : 242 MiB (3%)
Title : iTunes
Language : Russian
Service kind : Complete Main
Default : Yes
Forced : Yes
Audio #2
ID : 3
Format : AC-3
Format/Info : Audio Coding 3
Commercial name : Dolby Digital
Codec ID : A_AC3
Duration : 1 h 28 min
Bit rate mode : Constant
Bit rate : 640 kb/s
Channel(s) : 6 channels
Channel layout : L R C LFE Ls Rs
Sampling rate : 48.0 kHz
Frame rate : 31.250 FPS (1536 SPF)
Compression mode : Lossy
Stream size : 404 MiB (6%)
Title : Original
Language : English
Service kind : Complete Main
Default : No
Forced : No
Text #1
ID : 4
Format : UTF-8
Codec ID : S_TEXT/UTF8
Codec ID/Info : UTF-8 Plain Text
Duration : 1 h 22 min
Bit rate : 33 b/s
Count of elements : 529
Stream size : 19.9 KiB (0%)
Title : Full [Enigma]
Language : Russian
Default : No
Forced : No
Text #2
ID : 5
Format : UTF-8
Codec ID : S_TEXT/UTF8
Codec ID/Info : UTF-8 Plain Text
Duration : 1 h 22 min
Bit rate : 32 b/s
Count of elements : 500
Stream size : 19.5 KiB (0%)
Title : Full [milf2010]
Language : Russian
Default : No
Forced : No
Text #3
ID : 6
Format : UTF-8
Codec ID : S_TEXT/UTF8
Codec ID/Info : UTF-8 Plain Text
Duration : 1 h 17 min
Bit rate : 20 b/s
Count of elements : 525
Stream size : 11.6 KiB (0%)
Title : Full
Language : English
Default : No
Forced : No
Menu
00:00:00.000 : en:Глава 01
00:04:13.795 : en:Глава 02
00:07:38.958 : en:Глава 03
00:15:22.421 : en:Глава 04
00:20:33.441 : en:Глава 05
00:26:27.920 : en:Глава 06
00:40:30.094 : en:Глава 07
00:47:54.455 : en:Глава 08
00:57:12.387 : en:Глава 09
01:06:36.492 : en:Глава 10
01:12:47.905 : en:Глава 11
01:23:22.748 : en:Глава 12

admin

Post 21-Apr-2021 23:40

[Quote]

Информация о фильме
Название: Дочь волка
Оригинальное название: Daughter of the Wolf
Год выхода: 2019
Жанр: Боевик, триллер
Режиссер: Дэвид Хэкл
В ролях: Джина Карано, Ричард Дрейфусс, Сидель Грэйнджер, Брендан Фер, Брок Морган, Стю МакЛин, Антон Гиллис-Адельман, Сидель Ноэль, Чад Райли, Джошуа Мердок

О фильме: Клэр возвращается домой из поездки по Ближнему Востоку и узнает о том, что ее 13-лений сын похищен местными бандитами во главе с неким мужчиной, известным как Отец.
Страна: Канада
Студия: Falconer Pictures, Minds Eye Entertainment, VMI Worldwide
Продолжительность: 01:28:09
Перевод: Дублированный | iTunes
Качество: BDRip 720p
Видео: MPEG-4 AVC, 1280x538, 5000 Kbit/s, 23.976 fps
Аудио #01: 48 kHz, AC3, 5.1, 384 Kbps | Дублированный | iTunes | RUS |
Аудио #02: 48 kHz, AC3, 5.1, 640 Kbps | Оригинал | ENG |
Субтитры: Русские (Full [Enigma], full [milf2010]), английские

Скриншоты

MI

General
Unique ID : 197119499240033404861670440715154847929 (0x944BD5A9B71CE7B2B279B5108E9778B9)
Complete name : F:VideoDaughter.of.the.Wolf.2019.BDRip.720p.seleZen.mkv
Format : Matroska
Format version : Version 4
File size : 3.71 GiB
Duration : 1 h 28 min
Overall bit rate : 6 023 kb/s
Movie name : Daughter of the Wolf 2019 from seleZen
Encoded date : UTC 2021-04-21 03:39:35
Writing application : mkvmerge v55.0.0 ('Waiting For Space') 64-bit
Writing library : libebml v1.4.2 + libmatroska v1.6.4
Video
ID : 1
Format : AVC
Format/Info : Advanced Video Codec
Format profile : High@L4.1
Format settings : CABAC / 12 Ref Frames
Format settings, CABAC : Yes
Format settings, Reference : 12 frames
Codec ID : V_MPEG4/ISO/AVC
Duration : 1 h 28 min
Bit rate : 5 000 kb/s
Width : 1 280 pixels
Height : 538 pixels
Display aspect ratio : 2.40:1
Frame rate mode : Constant
Frame rate : 23.976 (24000/1001) FPS
Color space : YUV
Chroma subsampling : 4:2:0
Bit depth : 8 bits
Scan type : Progressive
Bits/(Pixel*Frame) : 0.303
Stream size : 3.08 GiB (83%)
Writing library : x264 core 146 -from seleZen
Encoding settings : cabac=1 / ref=12 / deblock=1:-2:-2 / analyse=0x3:0x133 / me=umh / subme=11 / psy=1 / psy_rd=1.03:0.04 / mixed_ref=1 / me_range=32 / chroma_me=1 / trellis=2 / 8x8dct=1 / cqm=0 / deadzone=21,11 / fast_pskip=0 / chroma_qp_offset=-3 / threads=48 / lookahead_threads=4 / sliced_threads=0 / nr=0 / decimate=0 / interlaced=0 / bluray_compat=0 / constrained_intra=0 / bframes=9 / b_pyramid=2 / b_adapt=2 / b_bias=0 / direct=3 / weightb=1 / open_gop=0 / weightp=2 / keyint=240 / keyint_min=23 / scenecut=40 / intra_refresh=0 / rc_lookahead=50 / rc=2pass / mbtree=0 / bitrate=5000 / ratetol=1.0 / qcomp=0.60 / qpmin=0 / qpmax=51 / qpstep=4 / cplxblur=20.0 / qblur=0.5 / vbv_maxrate=50000 / vbv_bufsize=62500 / nal_hrd=none / filler=0 / ip_ratio=1.40 / pb_ratio=1.30 / aq=3:0.80
Language : English
Default : Yes
Forced : No
Audio #1
ID : 2
Format : AC-3
Format/Info : Audio Coding 3
Commercial name : Dolby Digital
Codec ID : A_AC3
Duration : 1 h 28 min
Bit rate mode : Constant
Bit rate : 384 kb/s
Channel(s) : 6 channels
Channel layout : L R C LFE Ls Rs
Sampling rate : 48.0 kHz
Frame rate : 31.250 FPS (1536 SPF)
Compression mode : Lossy
Stream size : 242 MiB (6%)
Title : iTunes
Language : Russian
Service kind : Complete Main
Default : Yes
Forced : Yes
Audio #2
ID : 3
Format : AC-3
Format/Info : Audio Coding 3
Commercial name : Dolby Digital
Codec ID : A_AC3
Duration : 1 h 28 min
Bit rate mode : Constant
Bit rate : 640 kb/s
Channel(s) : 6 channels
Channel layout : L R C LFE Ls Rs
Sampling rate : 48.0 kHz
Frame rate : 31.250 FPS (1536 SPF)
Compression mode : Lossy
Stream size : 404 MiB (11%)
Title : Original
Language : English
Service kind : Complete Main
Default : No
Forced : No
Text #1
ID : 4
Format : UTF-8
Codec ID : S_TEXT/UTF8
Codec ID/Info : UTF-8 Plain Text
Duration : 1 h 22 min
Bit rate : 33 b/s
Count of elements : 529
Stream size : 19.9 KiB (0%)
Title : Full [Enigma]
Language : Russian
Default : No
Forced : No
Text #2
ID : 5
Format : UTF-8
Codec ID : S_TEXT/UTF8
Codec ID/Info : UTF-8 Plain Text
Duration : 1 h 22 min
Bit rate : 32 b/s
Count of elements : 500
Stream size : 19.5 KiB (0%)
Title : Full [milf2010]
Language : Russian
Default : No
Forced : No
Text #3
ID : 6
Format : UTF-8
Codec ID : S_TEXT/UTF8
Codec ID/Info : UTF-8 Plain Text
Duration : 1 h 17 min
Bit rate : 20 b/s
Count of elements : 525
Stream size : 11.6 KiB (0%)
Title : Full
Language : English
Default : No
Forced : No
Menu
00:00:00.000 : en:Глава 01
00:04:13.795 : en:Глава 02
00:07:38.958 : en:Глава 03
00:15:22.421 : en:Глава 04
00:20:33.441 : en:Глава 05
00:26:27.920 : en:Глава 06
00:40:30.094 : en:Глава 07
00:47:54.455 : en:Глава 08
00:57:12.387 : en:Глава 09
01:06:36.492 : en:Глава 10
01:12:47.905 : en:Глава 11
01:23:22.748 : en:Глава 12

admin

Post 21-Apr-2021 23:13

[Quote]

Информация о фильме
Название: Заступник
Оригинальное название: The Marksman
Год выхода: 2021
Жанр: Боевик, криминал, триллер
Режиссер: Роберт Лоренц
В ролях: Лиам Нисон, Кэтрин Уинник, Тереса Руис, Хуан Пабло Раба, Грэйсон Берри, Лелия Симингтон, Люче Рэйнс, Дилан Кенин, Чейз Маллинз, Томми Лафит, Шон А. Розалес, Хосе Л. Васкес, Антонио Лейба, Алекс Найт, Дэвид ДеЛао

О фильме: Джим был лучшим профессиональным снайпером, но теперь он оставил войны позади и ведет уединенную мирную жизнь. Покою приходит конец, когда он решает вступиться за беззащитного мальчика, случайно ставшего свидетелем преступлений могущественного наркокартеля. С этого момента Джиму предстоит в одиночку противостоять киллерам, используя все свои боевые навыки.
Страна: США
Студия: Cutting Edge Group, Raven Capital Management, Sculptor Media, Stonehouse Motion Pictures, UTA Independent Film Group, Voltage Pictures, Zero Gravity Management
Продолжительность: 01:47:29
Перевод(ы):
#1: Дублированный | iTunes
#2: Профессиональный многоголосый | HDRezka Studio

Качество: BDRip 720p
Видео: MPEG-4 AVC, 1280x536, 3119 Kbit/s, 23.976 fps
Аудио #01: 48 kHz, AC3, 5.1, 384 Kbps | Дублированный | iTunes | RUS |
Аудио #02: 48 kHz, AC3, 5.1, 448 Kbps | Профессиональный многоголосый | HDRezka Studio | RUS |

Аудио #03: 48 kHz, AC3, 5.1, 640 Kbps | Оригинал | ENG |

Субтитры: Русские (Forced, full), английские

Скриншоты

MI

General
Unique ID : 332723496221589696824315904284733979019 (0xFA5036E6AEBF8DF5307E64A7B477B98B)
Complete name : F:VideoThe.Marksman.2021.D.MVO.BDRip.720p.seleZen.mkv
Format : Matroska
Format version : Version 4
File size : 3.45 GiB
Duration : 1 h 47 min
Overall bit rate : 4 593 kb/s
Movie name : Th Marksman 2021 from seleZen
Encoded date : UTC 2021-04-21 01:59:05
Writing application : mkvmerge v55.0.0 ('Waiting For Space') 64-bit
Writing library : libebml v1.4.2 + libmatroska v1.6.4
Video
ID : 1
Format : AVC
Format/Info : Advanced Video Codec
Format profile : High@L4.1
Format settings : CABAC / 12 Ref Frames
Format settings, CABAC : Yes
Format settings, Reference : 12 frames
Codec ID : V_MPEG4/ISO/AVC
Duration : 1 h 47 min
Bit rate : 3 119 kb/s
Width : 1 280 pixels
Height : 536 pixels
Display aspect ratio : 2.40:1
Frame rate mode : Constant
Frame rate : 23.976 (24000/1001) FPS
Color space : YUV
Chroma subsampling : 4:2:0
Bit depth : 8 bits
Scan type : Progressive
Bits/(Pixel*Frame) : 0.190
Stream size : 2.34 GiB (68%)
Title : MTeam
Writing library : x264 core 157 r2938 2b00a84 TnP@MTeam Mod
Encoding settings : cabac=1 / ref=12 / deblock=1:-3:-3 / analyse=0x3:0x133 / me=umh / subme=10 / psy=1 / psy_rd=1.05:0.00 / mixed_ref=1 / me_range=32 / chroma_me=1 / trellis=2 / 8x8dct=1 / cqm=0 / deadzone=21,11 / fast_pskip=0 / chroma_qp_offset=-2 / threads=12 / lookahead_threads=2 / sliced_threads=0 / nr=0 / decimate=0 / interlaced=0 / bluray_compat=0 / constrained_intra=0 / bframes=8 / b_pyramid=2 / b_adapt=2 / b_bias=0 / direct=3 / weightb=1 / open_gop=0 / weightp=2 / keyint=250 / keyint_min=24 / scenecut=40 / intra_refresh=0 / rc_lookahead=250 / rc=crf / mbtree=0 / crf=16.8 / qcomp=0.60 / qpmin=0 / qpmax=69 / qpstep=4 / vbv_maxrate=62500 / vbv_bufsize=78125 / crf_max=0.0 / nal_hrd=none / filler=0 / ip_ratio=1.30 / pb_ratio=1.20 / aq=3:0.80
Language : English
Default : Yes
Forced : No
Color range : Limited
Color primaries : BT.709
Matrix coefficients : BT.709
Audio #1
ID : 2
Format : AC-3
Format/Info : Audio Coding 3
Commercial name : Dolby Digital
Codec ID : A_AC3
Duration : 1 h 47 min
Bit rate mode : Constant
Bit rate : 384 kb/s
Channel(s) : 6 channels
Channel layout : L R C LFE Ls Rs
Sampling rate : 48.0 kHz
Frame rate : 31.250 FPS (1536 SPF)
Compression mode : Lossy
Stream size : 295 MiB (8%)
Title : iTunes
Language : Russian
Service kind : Complete Main
Default : Yes
Forced : Yes
Audio #2
ID : 3
Format : AC-3
Format/Info : Audio Coding 3
Commercial name : Dolby Digital
Codec ID : A_AC3
Duration : 1 h 47 min
Bit rate mode : Constant
Bit rate : 448 kb/s
Channel(s) : 6 channels
Channel layout : L R C LFE Ls Rs
Sampling rate : 48.0 kHz
Frame rate : 31.250 FPS (1536 SPF)
Compression mode : Lossy
Stream size : 344 MiB (10%)
Title : MVO [HDRzka Studio]
Language : Russian
Service kind : Complete Main
Default : No
Forced : No
Audio #3
ID : 4
Format : AC-3
Format/Info : Audio Coding 3
Commercial name : Dolby Digital
Codec ID : A_AC3
Duration : 1 h 47 min
Bit rate mode : Constant
Bit rate : 640 kb/s
Channel(s) : 6 channels
Channel layout : L R C LFE Ls Rs
Sampling rate : 48.0 kHz
Frame rate : 31.250 FPS (1536 SPF)
Compression mode : Lossy
Stream size : 492 MiB (14%)
Title : Original
Language : English
Service kind : Complete Main
Default : No
Forced : No
Text #1
ID : 5
Format : UTF-8
Codec ID : S_TEXT/UTF8
Codec ID/Info : UTF-8 Plain Text
Duration : 1 h 38 min
Bit rate : 5 b/s
Count of elements : 136
Stream size : 4.24 KiB (0%)
Title : Forced [HDRezka Studio]
Language : Russian
Default : No
Forced : No
Text #2
ID : 6
Format : UTF-8
Codec ID : S_TEXT/UTF8
Codec ID/Info : UTF-8 Plain Text
Duration : 1 h 39 min
Bit rate : 52 b/s
Count of elements : 859
Stream size : 38.4 KiB (0%)
Title : Full [iTunes]
Language : Russian
Default : No
Forced : No
Text #3
ID : 7
Format : UTF-8
Codec ID : S_TEXT/UTF8
Codec ID/Info : UTF-8 Plain Text
Duration : 1 h 44 min
Bit rate : 32 b/s
Count of elements : 1044
Stream size : 25.0 KiB (0%)
Title : SDH
Language : English
Default : No
Forced : No
Menu
00:00:00.000 : :Chapter 1
00:09:43.416 : :Chapter 2
00:18:07.002 : :Chapter 3
00:27:57.008 : :Chapter 4
00:40:06.570 : :Chapter 5
00:51:09.524 : :Chapter 6
01:01:57.380 : :Chapter 7
01:10:22.134 : :Chapter 8
01:20:10.263 : :Chapter 9
01:30:26.045 : :Chapter 10
01:40:41.368 : :Chapter 11
 

Current time is: 06-May 03:45

All times are UTC + 3