Search found 189 matches

Author Message

admin

Post 17-Aug-2021 01:16

[Quote]

Информация о фильме
Название: Пункт пропуска. Офицерская история
Год выхода: 2021
Жанр: Военный
Режиссер: Вера Соколова
В ролях: Валерий Карпов, Анастасия Черникова, Эммануил Виторган, Николай Добрынин, Александр Старовойтов, Кирилл Емельянов, Александр Зачиняев, Екатерина Петрова, Иван Соловьёв, Михаил Полицеймако
О фильме:
Молодой лейтенант Алексей Филатов – потомственный военный, который не представляет для себя другого призвания. Он живет с матерью в Севастополе и в 2014 году принимает российскую присягу. Но кроме службы, есть и другая жизнь: юношеские мечты и надежды, новая любовь и старые друзья. Много лет Леша был почти неразлучен с товарищами по учебе и по службе Максимом Шалаевым и Тарасом Комко. Однако политический раскол в стране отражается и на простых человеческих отношениях. Тарас – сын высокопоставленного украинского генерала, который запрещает ему общаться с «крымскими дезертирами». Конфликт принимает драматический оборот, когда Алексей и Максим приезжают к Тарасу на пункт пропуска и попадают под арест. Им предъявляют обвинение в измене.

Страна: Россия
Студия: Горизонт Кино
Продолжительность: 01:42:10
Язык: Русский
Файл
Кодек: MPEG-4 AVC
Качество: WEB-DL 1080p
Видео: MPEG-4 AVC, 5000 Кбит/с, 1920x1016
Звук: AC3, 6 ch, 384 Кбит/с

Скриншоты

admin

Post 16-Aug-2021 00:58

[Quote]

Название: Солнцепёк
Год выхода: 2021
Жанр: Драма, реальные события
Режиссер: Максим Бриус, Михаил Вассербаум
В ролях: Александр Бухаров, Марина Денисова, Глеб Борисов, Максим Дахненко, Алексей Кравченко, Владимир Ильин, Светлана Терентьева, Андрей Терентьев, Глеб Темнов, Сергей Гарусов
О фильме:
Май 2014 года, Луганск. Цветущий край. Та весна выдалась особенно жаркой. Время жить — любовь, счастье и планы на лето. И мечты, которым не суждено сбыться. Лето всё меняет — нечаянное ощущение безысходности и тревоги, неизбежно накрывающее с головой. Хрупкий мир на грани войны. Время, которое полностью перевернет жизнь многих людей. Кого из них сломает новая реальность, а кто до конца останется человеком?

Страна: Россия
Студия: Паритет Фильм, ООО «АУРУМ»
Продолжительность: 02:13:04
Перевод: не требуется
Качество: WEBRip 720p
Видео: MPEG-4 AVC, 1768 Кбит/с, 24 fps, 1280х720
Звук: AAC, 2 ch, 210 Кбит/с

MediaInfo

Общее
Полное имя : D:DMTorrentSolncepek.2021.720p.WEB-DL.mp4
Формат : MPEG-4
Профиль формата : Base Media
Идентификатор кодека : isom (isom/iso2/avc1/mp41)
Размер файла : 1,84 Гбайт
Продолжительность : 2 ч. 13 м.
Режим общего битрейта : Переменный
Общий поток : 1983 Кбит/сек
Программа кодирования : Lavf58.45.100
Видео
Идентификатор : 1
Формат : AVC
Формат/Информация : Advanced Video Codec
Профиль формата : Main@L3.1
Параметр CABAC формата : Да
Параметр ReFrames формата : 3 кадра
Параметр GOP формата : M=1, N=73
Идентификатор кодека : avc1
Идентификатор кодека/Информация : Advanced Video Coding
Продолжительность : 2 ч. 13 м.
Вид битрейта : Переменный
Битрейт : 1768 Кбит/сек
Максимальный битрейт : 5318 Кбит/сек
Ширина : 1280 пикселей
Высота : 720 пикселей
Соотношение сторон : 16:9
Частота кадров : 24,000 кадра/сек
Цветовое пространство : YUV
Субдискретизация насыщенности : 4:2:0
Битовая глубина : 8 бит
Тип развёртки : Прогрессивная
Бит/(Пиксели*Кадры) : 0.080
Размер потока : 1,64 Гбайт (89%)
Дата пометки : UTC 2021-08-12 13:25:42
Аудио
Идентификатор : 2
Формат : AAC
Формат/Информация : Advanced Audio Codec
Профиль формата : LC
Идентификатор кодека : 40
Продолжительность : 2 ч. 13 м.
Вид битрейта : Постоянный
Битрейт : 210 Кбит/сек
Каналы : 2 канала
Расположение каналов : Front: L R
Частота : 44,1 КГц
Частота кадров : 43,066 кадра/сек (1024 spf)
Метод сжатия : С потерями
Размер потока : 200 Мбайт (11%)
Default : Да
Alternate group : 1
Дата пометки : UTC 2021-08-12 13:25:42

Скриншоты

admin

Post 16-Aug-2021 00:56

[Quote]

Информация о фильме
Название: Солнцепек
Год выхода: 2021
Жанр: Драма
Режиссер: Максим Бриус, Михаил Вассербаум
В ролях: Александр Бухаров, Марина Денисова, Глеб Борисов, Максим Дахненко, Алексей Кравченко, Владимир Ильин, Светлана Терентьева, Андрей Терентьев, Глеб Темнов, Сергей Гарусов
О фильме:
Луганская область, май 2014-го. Семья Новожиловых волей случая оказывается в самой гуще событий в Луганске. Влад Новожилов – бывший афганец. О том, что такое война, он знает не понаслышке. Насмотревшись в свое время ужасов войны, принципиально не желает даже прикасаться к оружию. В ситуации ему видится только один выход – уехать из страны. Вот только от войны не убежишь, граница уже закрыта. Чтобы спасти семью, ему придется сделать сложный моральный выбор...

Страна: Россия
Студия: Паритет Фильм, ООО «АУРУМ»
Продолжительность: 02:13:04
Язык: Русский
Файл
Формат: MKV
Качество: WEB-DL 1080p
Видео: MPEG-4 AVC, 4980 Кбит/с, 1920x1080
Звук: AAC, 2 ch, 317 Кбит/с
Семпл

Скриншоты

MI

General
Unique ID : 238144327905816787202811610484875767737 (0xB328EDE15C4A9CC2914455F629C8AFB9)
Complete name : D:Солнцепек 2021 WEB-DL 1080p.mkv
Format : Matroska
Format version : Version 4 / Version 2
File size : 4.93 GiB
Duration : 2 h 13 min
Overall bit rate mode : Variable
Overall bit rate : 5 300 kb/s
Encoded date : UTC 2021-08-15 10:43:35
Writing application : mkvmerge v6.1.0 ('Old Devil') built on Mar 2 2013 14:32:37
Writing library : libebml v1.3.0 + libmatroska v1.4.0
Video
ID : 1
Format : AVC
Format/Info : Advanced Video Codec
Format profile : Main@L4.1
Format settings : CABAC / 2 Ref Frames
Format settings, CABAC : Yes
Format settings, ReFrames : 2 frames
Format settings, GOP : M=2, N=48
Codec ID : V_MPEG4/ISO/AVC
Duration : 2 h 13 min
Bit rate mode : Variable
Width : 1 920 pixels
Height : 1 080 pixels
Display aspect ratio : 16:9
Frame rate mode : Constant
Frame rate : 24.000 FPS
Color space : YUV
Chroma subsampling : 4:2:0
Bit depth : 8 bits
Scan type : Progressive
Language : English
Default : Yes
Forced : No
Color range : Limited
Color primaries : BT.709
Transfer characteristics : BT.709
Matrix coefficients : BT.709
Audio
ID : 2
Format : AAC
Format/Info : Advanced Audio Codec
Format profile : LC
Codec ID : A_AAC-2
Duration : 2 h 13 min
Channel(s) : 2 channels
Channel positions : Front: L R
Sampling rate : 48.0 kHz
Frame rate : 46.875 FPS (1024 SPF)
Compression mode : Lossy
Language : Russian
Default : Yes
Forced : No

admin

Post 25-Jul-2021 03:28

[Quote]

Информация о фильме
Название: Дважды два
Год выпуска: 2021
Производство: Россия / Виталий Манюков Студия
Жанр: Мелодрама, комедия
Режиссер: Виталий Манюков
Актеры: Ольга Литвинова, Иван Николаев, София Сальман, Григорий Данцигер, Артур Папоян, Артур Диланян, Андрей Крыжний, Инна Лясковец, Вартан Торосян, Рипсимэ Гюлезян
Описание:
В кафе встречаются две пары. Вскрывшаяся деликатная и откровенная тема провоцирует ссору «пара на пару» и внутри каждой пары одновременно. Всё заканчивается попыткой спасти вечер, спасти дружбу, спасти отношения. Как? Похоже, ответ был известен ещё в начале вечера.

Продолжительность: 01:22:09
Перевод: Не требуется (Русский)
Субтитры: Отсутствуют
Файл
Формат: Matroska
Качество: WEB-DL 1080p
Видео: AVC/H.264, 1920x1080, ~7870 Kbps
Аудио: AAC, 2 ch, 256 Kbps

M/I

General
Format : Matroska
Format version : Version 4
File size : 4.66 GiB
Duration : 1 h 22 min
Overall bit rate : 8 128 kb/s
Encoded date : UTC 2021-04-22 20:57:03
Writing application : mkvmerge v56.1.0 ('My Friend') 64-bit
Writing library : libebml v1.4.2 + libmatroska v1.6.4
Video
ID : 1
Format : AVC
Format/Info : Advanced Video Codec
Format profile : High@L4
Format settings : CABAC / 2 Ref Frames
Format settings, CABAC : Yes
Format settings, Reference frames : 2 frames
Codec ID : V_MPEG4/ISO/AVC
Duration : 1 h 22 min
Bit rate : 7 870 kb/s
Width : 1 920 pixels
Height : 1 080 pixels
Display aspect ratio : 16:9
Frame rate mode : Constant
Frame rate : 25.000 FPS
Color space : YUV
Chroma subsampling : 4:2:0
Bit depth : 8 bits
Scan type : Progressive
Bits/(Pixel*Frame) : 0.152
Stream size : 4.52 GiB (97%)
Default : Yes
Forced : No
Color range : Limited
Color primaries : BT.709
Transfer characteristics : BT.709
Matrix coefficients : BT.709
Audio
ID : 2
Format : AAC LC
Format/Info : Advanced Audio Codec Low Complexity
Codec ID : A_AAC-2
Duration : 1 h 22 min
Bit rate : 256 kb/s
Channel(s) : 2 channels
Channel layout : L R
Sampling rate : 44.1 kHz
Frame rate : 43.066 FPS (1024 SPF)
Compression mode : Lossy
Stream size : 150 MiB (3%)
Language : Russian
Default : No
Forced : No
Menu
00:00:00.000 : :Глава 1
00:08:18.650 : :Глава 2
00:16:30.970 : :Глава 3
00:24:32.370 : :Глава 4
00:32:51.370 : :Глава 5
00:40:54.130 : :Глава 6
00:50:08.650 : :Глава 7
00:59:25.050 : :Глава 8
01:07:25.810 : :Глава 9
01:15:38.650 : :Глава 10

Релиз

ЦитатаКто-то писал:
Источник неизвестный (чистый видеоряд).
- Сохранены оригинальные главы как на iTunes.

Скриншоты

admin

Post 16-Jul-2021 04:40

[Quote]

Информация о фильме
Название: Папа закодировался
Год выхода: 2020
Жанр: комедия
Режиссёр: Павел Ходнев
В ролях: Евгений Сытый, Алла Юганова, Фёдор Семчев, Александр Новиков, Александр Булатов, Николай Шрайбер, Дмитрий Куличков, Александр Головин, Иван Макаревич, Игорь Гудеев, Дарья Мингазетдинова, Александр Ревенко, Илья Щербинин, Павел Кабанов, Сергей Аброскин, Василий Бабаев, Андрей Капустин, Олеся Репина, Юлия Полынская
О фильме:
После кодирования от алкоголизма Анатолий Снаров взглянул на свою жизнь новыми, трезвыми глазами. Оказывается, у него есть жена, дети и ответственная должность начальника ЖКХ в уездном городке Сорочинске, которыми он совершенно не занимался раньше. Достигнув просветления, Снаров решает осчастливить окружающих. Он становится примерным семьянином и активным гражданином. Его бурная деятельность быстро выходит за рамки полномочий начальника ЖКХ. В надежде спастись от деятельного реформатора, окружение Снарова бросает все силы на то, чтобы его раскодировать…

Страна: Россия
Студия: Кинокомпания «АРТЛАЙТ» при финансовой поддержке Министерства культуры РФ
Продолжительность: 01:32:29
Перевод: Не требуется
Файл
Контейнер: MKV
Качество: WEB-DL 1080p | IVI
Видео: MPEG-4 (AVC), 1920х860 (2.25:1), 24 fps, ~ 5120 kbps, 0.129 bit/pixel
Аудио: AAC, 48 kHz, 6 ch, 512 Kbps

MediaInfo

General
Unique ID : 71092453148750751346077403592771020615 (0x357BE88F1FF9114E36340C5FB5FCA747)
Complete name : Papa.zakodirovalsya.2020.1080p.IVI.WEB-DL.AAC5.1.H.264-EniaHD.mkv
Format : Matroska
Format version : Version 4
File size : 3.63 GiB
Duration : 1 h 32 min
Overall bit rate : 5 619 kb/s
Writing application : mkvmerge v59.0.0 ('Shining Star') 64-bit
Writing library : libebml v1.4.2 + libmatroska v1.6.4
Video
ID : 1
Format : AVC
Format/Info : Advanced Video Codec
Format profile : High@L4
Format settings : CABAC / 4 Ref Frames
Format settings, CABAC : Yes
Format settings, Reference frames : 4 frames
Codec ID : V_MPEG4/ISO/AVC
Duration : 1 h 32 min
Bit rate : 5 120 kb/s
Width : 1 920 pixels
Height : 860 pixels
Display aspect ratio : 2.25:1
Frame rate mode : Constant
Frame rate : 24.000 FPS
Color space : YUV
Chroma subsampling : 4:2:0
Bit depth : 8 bits
Scan type : Progressive
Bits/(Pixel*Frame) : 0.129
Stream size : 3.30 GiB (91%)
Writing library : x264 core 152 r2854 e9a5903
Encoding settings : cabac=1 / ref=3 / deblock=1:0:0 / analyse=0x3:0x113 / me=hex / subme=7 / psy=1 / psy_rd=1.00:0.00 / mixed_ref=1 / me_range=16 / chroma_me=1 / trellis=1 / 8x8dct=1 / cqm=0 / deadzone=21,11 / fast_pskip=1 / chroma_qp_offset=-2 / threads=27 / lookahead_threads=4 / sliced_threads=0 / nr=0 / decimate=1 / interlaced=0 / bluray_compat=0 / constrained_intra=0 / bframes=6 / b_pyramid=2 / b_adapt=1 / b_bias=0 / direct=1 / weightb=1 / open_gop=0 / weightp=2 / keyint=48 / keyint_min=25 / scenecut=0 / intra_refresh=0 / rc_lookahead=40 / rc=2pass / mbtree=1 / bitrate=5120 / ratetol=1.0 / qcomp=0.60 / qpmin=0 / qpmax=69 / qpstep=4 / cplxblur=20.0 / qblur=0.5 / vbv_maxrate=7680 / vbv_bufsize=20480 / nal_hrd=none / filler=0 / ip_ratio=1.40 / aq=1:1.00
Default : Yes
Forced : No
Audio
ID : 2
Format : AAC LC
Format/Info : Advanced Audio Codec Low Complexity
Codec ID : A_AAC-2
Duration : 1 h 32 min
Bit rate : 512 kb/s
Channel(s) : 6 channels
Channel layout : C L R Ls Rs LFE
Sampling rate : 48.0 kHz
Frame rate : 46.875 FPS (1024 SPF)
Compression mode : Lossy
Stream size : 339 MiB (9%)
Language : Russian
Default : Yes
Forced : No

Скриншоты


admin

Post 16-Jul-2021 04:38

[Quote]

Информация о фильме
Название: Папа закодировался
Год выхода: 2020
Жанр: комедия
Режиссёр: Павел Ходнев
В ролях: Евгений Сытый, Алла Юганова, Фёдор Семчев, Александр Новиков, Александр Булатов, Николай Шрайбер, Дмитрий Куличков, Александр Головин, Иван Макаревич, Игорь Гудеев, Дарья Мингазетдинова, Александр Ревенко, Илья Щербинин, Павел Кабанов, Сергей Аброскин, Василий Бабаев, Андрей Капустин, Олеся Репина, Юлия Полынская
О фильме:
После кодирования от алкоголизма Анатолий Снаров взглянул на свою жизнь новыми, трезвыми глазами. Оказывается, у него есть жена, дети и ответственная должность начальника ЖКХ в уездном городке Сорочинске, которыми он совершенно не занимался раньше. Достигнув просветления, Снаров решает осчастливить окружающих. Он становится примерным семьянином и активным гражданином. Его бурная деятельность быстро выходит за рамки полномочий начальника ЖКХ. В надежде спастись от деятельного реформатора, окружение Снарова бросает все силы на то, чтобы его раскодировать…

Страна: Россия
Студия: Кинокомпания «АРТЛАЙТ» при финансовой поддержке Министерства культуры РФ
Продолжительность: 01:32:29
Перевод: Не требуется
Субтитры: Отсутствуют
Файл
Формат: Matroska
Качество: WEB-DLRip 720p
Видео: 1274x568 at 24.000 fps, x264@L4.1, ~2133 kbps
Аудио: AC3, 6 ch, ~384 kbps - | Русский | -
► Без Рекламы!

M/I

x264 [info]: frame I:1154 Avg QP:17.27 size: 63003
x264 [info]: frame P:27538 Avg QP:18.79 size: 23692
x264 [info]: frame B:104496 Avg QP:20.76 size: 7217
General
Format : Matroska
Format version : Version 4
File size : 1.63 GiB
Duration : 1 h 32 min
Overall bit rate : 2 519 kb/s
Movie name : Папа закодировался.(2020).WEB-DLRip.x264.720p.[-=DoMiNo=-]
Encoded date : UTC 2021-07-15 09:04:48
Writing application : mkvmerge v59.0.0 ('Shining Star') 64-bit
Writing library : libebml v1.4.2 + libmatroska v1.6.4
Cover : Yes
Attachments : Cover.png / Cover 2.jpg
Video
ID : 1
Format : AVC
Format/Info : Advanced Video Codec
Format profile : High@L4.1
Format settings : CABAC / 11 Ref Frames
Format settings, CABAC : Yes
Format settings, Reference : 11 frames
Codec ID : V_MPEG4/ISO/AVC
Duration : 1 h 32 min
Bit rate : 2 133 kb/s
Width : 1 274 pixels
Height : 568 pixels
Display aspect ratio : 2.25:1
Frame rate mode : Constant
Frame rate : 24.000 FPS
Color space : YUV
Chroma subsampling : 4:2:0
Bit depth : 8 bits
Scan type : Progressive
Bits/(Pixel*Frame) : 0.123
Stream size : 1.38 GiB (85%)
Title : -=DoMiNo=-
Writing library : x264 core 164 r3065+55M 280faca t_mod_New [(8 & 10)-bit@all X86_64]
Encoding settings : cabac=1 / ref=11 / deblock=1:-3:-3 / analyse=0x3:0x133 / me=umh / subme=10 / psy=1 / fade_compensate=0.00 / psy_rd=1.03:0.05 / mixed_ref=1 / me_range=32 / chroma_me=1 / trellis=2 / 8x8dct=1 / cqm=0 / deadzone=21,11 / fast_pskip=0 / chroma_qp_offset=-3 / threads=24 / lookahead_threads=4 / sliced_threads=0 / nr=0 / decimate=1 / interlaced=0 / bluray_compat=0 / constrained_intra=0 / fgo=0 / bframes=9 / b_pyramid=2 / b_adapt=2 / b_bias=0 / direct=1 / weightb=1 / open_gop=0 / weightp=2 / keyint=240 / keyint_min=24 / scenecut=40 / intra_refresh=0 / rc_lookahead=60 / rc=crf / mbtree=0 / crf=20.0000 / qcomp=0.65 / qpmin=0:0:0 / qpmax=69:69:69 / qpstep=4 / vbv_maxrate=50000 / vbv_bufsize=62500 / crf_max=0.0 / nal_hrd=none / filler=0 / ip_ratio=1.30 / pb_ratio=1.20 / aq=3:0.80 / aq-sensitivity=10.00 / aq-factor=1.00:1.00:1.00 / aq2=0 / aq3=0
Language : Russian
Default : Yes
Forced : No
Color range : Limited
Color primaries : BT.709
Transfer characteristics : BT.709
Matrix coefficients : BT.709
Audio
ID : 2
Format : AC-3
Format/Info : Audio Coding 3
Commercial name : Dolby Digital
Codec ID : A_AC3
Duration : 1 h 32 min
Bit rate mode : Constant
Bit rate : 384 kb/s
Channel(s) : 6 channels
Channel layout : L R C LFE Ls Rs
Sampling rate : 48.0 kHz
Frame rate : 31.250 FPS (1536 SPF)
Compression mode : Lossy
Stream size : 254 MiB (15%)
Language : Russian
Service kind : Complete Main
Default : Yes
Forced : Yes

Скриншоты

admin

Post 16-Jul-2021 03:42

[Quote]

Информация о фильме
Название: Красный призрак
Год выхода: 2020
Жанр: триллер, история, военный
Режиссёр: Андрей Богатырев
В ролях: Юра Борисов, Алексей Шевченков, Владимир Гостюхин, Полина Чернышова, Вольфганг Черни, Михаил Горевой, Олег Васильков, Павел Абраменков, Вячеслав Шихалеев, Герман Сегал, Пауль Орлянский, Михаил Мелин, Николай Орловский, Олег Клёнов, Юрий Маслак, Константин Симонов
О фильме:
Зима 1941 года. Выходя из окружения около Вязьмы, небольшая группа советских солдат вынуждена остановиться в заброшенной деревне. Но передышки не получается. В этом же доме решает обосноваться хорошо вооружённый немецкий отряд во главе с карателем Вермахта, который ищет таинственного солдата по прозвищу Красный призрак. Он появляется из ниоткуда, в одиночку убивает захватчиков и так же загадочно исчезает.

Страна: Россия
Студия: АБС
Продолжительность: 01:38:20
Перевод: Не требуется
Субтитры: Отсутствуют
Файл
Формат: Matroska
Качество: WEB-DLRip 720p | КиноПоиск HD
Видео: 1280x480 at 24.000 fps, x264@L4.1, ~3207 kbps, 0.218 bpp
Аудио: AC3, 6 ch, ~448 kbps - | Русский | -
► Без Рекламы!

M/I

x264 [info]: frame I:1355 Avg QP:18.41 size: 89176
x264 [info]: frame P:31262 Avg QP:19.78 size: 32307
x264 [info]: frame B:108985 Avg QP:20.81 size: 11329
General
Format : Matroska
Format version : Version 4
File size : 2.51 GiB
Duration : 1 h 38 min
Overall bit rate : 3 657 kb/s
Movie name : Красный призрак.(2020).WEB-DLRip.x264.720p.[-=DoMiNo=-]
Encoded date : UTC 2021-07-15 07:43:42
Writing application : mkvmerge v59.0.0 ('Shining Star') 64-bit
Writing library : libebml v1.4.2 + libmatroska v1.6.4
Cover : Yes
Attachments : Cover.jpg / Cover 2.jpg
Video
ID : 1
Format : AVC
Format/Info : Advanced Video Codec
Format profile : High@L4.1
Format settings : CABAC / 12 Ref Frames
Format settings, CABAC : Yes
Format settings, Reference : 12 frames
Codec ID : V_MPEG4/ISO/AVC
Duration : 1 h 38 min
Bit rate : 3 207 kb/s
Width : 1 280 pixels
Height : 480 pixels
Display aspect ratio : 2.667
Frame rate mode : Constant
Frame rate : 24.000 FPS
Color space : YUV
Chroma subsampling : 4:2:0
Bit depth : 8 bits
Scan type : Progressive
Bits/(Pixel*Frame) : 0.218
Stream size : 2.20 GiB (88%)
Title : -=DoMiNo=-
Writing library : x264 core 164 r3065+55M 280faca t_mod_New [(8 & 10)-bit@all X86_64]
Encoding settings : cabac=1 / ref=12 / deblock=1:-3:-3 / analyse=0x3:0x133 / me=umh / subme=10 / psy=1 / fade_compensate=0.00 / psy_rd=1.00:0.05 / mixed_ref=1 / me_range=32 / chroma_me=1 / trellis=2 / 8x8dct=1 / cqm=0 / deadzone=21,11 / fast_pskip=0 / chroma_qp_offset=-3 / threads=24 / lookahead_threads=3 / sliced_threads=0 / nr=0 / decimate=1 / interlaced=0 / bluray_compat=0 / constrained_intra=0 / fgo=0 / bframes=10 / b_pyramid=2 / b_adapt=2 / b_bias=0 / direct=1 / weightb=1 / open_gop=0 / weightp=2 / keyint=240 / keyint_min=24 / scenecut=40 / intra_refresh=0 / rc_lookahead=60 / rc=crf / mbtree=0 / crf=19.0000 / qcomp=0.65 / qpmin=0:0:0 / qpmax=69:69:69 / qpstep=4 / vbv_maxrate=50000 / vbv_bufsize=62500 / crf_max=0.0 / nal_hrd=none / filler=0 / ip_ratio=1.30 / pb_ratio=1.20 / aq=3:0.80 / aq-sensitivity=10.00 / aq-factor=1.00:1.00:1.00 / aq2=0 / aq3=0
Language : Russian
Default : Yes
Forced : No
Color range : Limited
Color primaries : BT.709
Transfer characteristics : BT.709
Matrix coefficients : BT.709
Audio
ID : 2
Format : AC-3
Format/Info : Audio Coding 3
Commercial name : Dolby Digital
Codec ID : A_AC3
Duration : 1 h 38 min
Bit rate mode : Constant
Bit rate : 448 kb/s
Channel(s) : 6 channels
Channel layout : L R C LFE Ls Rs
Sampling rate : 48.0 kHz
Frame rate : 31.250 FPS (1536 SPF)
Compression mode : Lossy
Stream size : 315 MiB (12%)
Language : Russian
Service kind : Complete Main
Default : Yes
Forced : Yes

admin

Post 15-Jul-2021 05:05

[Quote]

Информация о фильме
Название: Хартс
Год выхода: 2020
Жанр: триллер
Режиссёр: Владимир Бухаров
В ролях: Михаил Салин, Игорь Колесников, Александра Субботина, Маруся Климова, Елена Чубина, Алексей Шаранин, Вилен Бабичев, Михаил Мухин, Николина Калиберда, Татьяна Правниченко, Алексей Гусаров, Александр Коврижных
О фильме:
Врач Геннадий Лисицын приходит к известному журналисту с важным сообщением. По его словам, менее чем через год мир будет охвачен неизвестным вирусом, который материализует человеческие страхи. Геннадий подробно рассказывает о будущей катастрофе, уверяя, что уже пережил её... в прошлом.

Страна: Россия
Студия: Box Films
Продолжительность: 01:20:50
Перевод: Не требуется
Файл
Контейнер: MKV
Качество: WEB-DL 1080p | iTunes
Видео: MPEG-4 (AVC), 1920х816 (2.35:1), 23.976 fps, ~ 4528 kbps, 0.121 bit/pixel
Аудио: AAC, 44.1 kHz, 2 ch, 256 Kbps

MediaInfo

General
Unique ID : 25870617078449437521997236447749266699 (0x13767FE6839C9FFCC7FC311F03CEDD0B)
Complete name : Kharts.2020.1080p.iT.WEB-DL.AAC2.0.H.264-EniaHD.mkv
Format : Matroska
Format version : Version 4
File size : 2.70 GiB
Duration : 1 h 20 min
Overall bit rate : 4 786 kb/s
Writing application : mkvmerge v59.0.0 ('Shining Star') 64-bit
Writing library : libebml v1.4.2 + libmatroska v1.6.4
Video
ID : 1
Format : AVC
Format/Info : Advanced Video Codec
Format profile : High@L4
Format settings : CABAC / 5 Ref Frames
Format settings, CABAC : Yes
Format settings, Reference frames : 5 frames
Codec ID : V_MPEG4/ISO/AVC
Duration : 1 h 20 min
Bit rate : 4 528 kb/s
Width : 1 920 pixels
Height : 816 pixels
Display aspect ratio : 2.35:1
Frame rate mode : Constant
Frame rate : 23.976 (24000/1001) FPS
Color space : YUV
Chroma subsampling : 4:2:0
Bit depth : 8 bits
Scan type : Progressive
Bits/(Pixel*Frame) : 0.121
Stream size : 2.56 GiB (95%)
Default : Yes
Forced : No
Color range : Limited
Color primaries : BT.709
Transfer characteristics : BT.709
Matrix coefficients : BT.709
Audio
ID : 2
Format : AAC LC
Format/Info : Advanced Audio Codec Low Complexity
Codec ID : A_AAC-2
Duration : 1 h 20 min
Bit rate : 256 kb/s
Channel(s) : 2 channels
Channel layout : L R
Sampling rate : 44.1 kHz
Frame rate : 43.066 FPS (1024 SPF)
Compression mode : Lossy
Stream size : 148 MiB (5%)
Language : Russian
Default : Yes
Forced : No
Menu
00:00:00.000 : Глава 1
00:09:24.230 : Глава 2
00:17:57.618 : Глава 3
00:27:00.077 : Глава 4
00:35:30.045 : Глава 5
00:43:47.041 : Глава 6
00:52:32.649 : Глава 7
01:01:09.749 : Глава 8
01:09:40.134 : Глава 9
01:18:02.845 : Глава 10

Скриншоты


admin

Post 15-Jul-2021 03:54

[Quote]

Информация о фильме
Название: Красный призрак
Год выхода: 2020
Жанр: триллер, история, военный
Режиссёр: Андрей Богатырев
В ролях: Юра Борисов, Алексей Шевченков, Владимир Гостюхин, Полина Чернышова, Вольфганг Черни, Михаил Горевой, Олег Васильков, Павел Абраменков, Вячеслав Шихалеев, Герман Сегал, Пауль Орлянский, Михаил Мелин, Николай Орловский, Олег Клёнов, Юрий Маслак, Константин Симонов
О фильме:
Зима 1941 года. Выходя из окружения около Вязьмы, небольшая группа советских солдат вынуждена остановиться в заброшенной деревне. Но передышки не получается. В этом же доме решает обосноваться хорошо вооружённый немецкий отряд во главе с карателем Вермахта, который ищет таинственного солдата по прозвищу Красный призрак. Он появляется из ниоткуда, в одиночку убивает захватчиков и так же загадочно исчезает.

Страна: Россия
Студия: АБС
Продолжительность: 01:38:20
Перевод: Не требуется
Файл
Контейнер: MKV
Качество: WEB-DL 1080p | КиноПоиск HD
Видео: MPEG-4 (AVC), 1920х720 (2.66:1), 24 fps, ~ 6000 kbps, 0.181 bit/pixel
Аудио: E-AC3, 48 kHz, 6 ch, 448 Kbps

MediaInfo

General
Unique ID : 213299997923189221662193847978191692149 (0xA07815D7200F30F6EE730D6B2A432175)
Complete name : Krasnyy.prizrak.2020.1080p.KP.WEB-DL.DDP5.1.H.264-EniaHD.mkv
Format : Matroska
Format version : Version 4
File size : 4.41 GiB
Duration : 1 h 38 min
Overall bit rate : 6 426 kb/s
Writing application : mkvmerge v59.0.0 ('Shining Star') 64-bit
Writing library : libebml v1.4.2 + libmatroska v1.6.4
Video
ID : 1
Format : AVC
Format/Info : Advanced Video Codec
Format profile : High@L4
Format settings : CABAC / 6 Ref Frames
Format settings, CABAC : Yes
Format settings, Reference frames : 6 frames
Codec ID : V_MPEG4/ISO/AVC
Duration : 1 h 38 min
Bit rate : 6 000 kb/s
Width : 1 920 pixels
Height : 720 pixels
Display aspect ratio : 2.667
Frame rate mode : Constant
Frame rate : 24.000 FPS
Color space : YUV
Chroma subsampling : 4:2:0
Bit depth : 8 bits
Scan type : Progressive
Bits/(Pixel*Frame) : 0.181
Stream size : 4.02 GiB (91%)
Writing library : x264 core 157
Encoding settings : cabac=1 / ref=6 / deblock=1:0:0 / analyse=0x3:0x133 / me=umh / subme=10 / psy=1 / psy_rd=1.00:0.00 / mixed_ref=1 / me_range=24 / chroma_me=1 / trellis=2 / 8x8dct=1 / cqm=0 / deadzone=21,11 / fast_pskip=1 / chroma_qp_offset=-2 / threads=22 / lookahead_threads=3 / sliced_threads=0 / nr=0 / decimate=1 / interlaced=0 / bluray_compat=0 / constrained_intra=0 / bframes=8 / b_pyramid=2 / b_adapt=2 / b_bias=0 / direct=3 / weightb=1 / open_gop=0 / weightp=2 / keyint=192 / keyint_min=96 / scenecut=40 / intra_refresh=0 / rc_lookahead=60 / rc=2pass / mbtree=1 / bitrate=6000 / ratetol=1.0 / qcomp=0.60 / qpmin=0 / qpmax=69 / qpstep=4 / cplxblur=20.0 / qblur=0.5 / vbv_maxrate=6600 / vbv_bufsize=9000 / nal_hrd=none / filler=0 / ip_ratio=1.40 / aq=1:1.00
Default : Yes
Forced : No
Audio
ID : 2
Format : E-AC-3
Format/Info : Enhanced AC-3
Commercial name : Dolby Digital Plus
Codec ID : A_EAC3
Duration : 1 h 38 min
Bit rate mode : Constant
Bit rate : 448 kb/s
Channel(s) : 6 channels
Channel layout : L R C LFE Ls Rs
Sampling rate : 48.0 kHz
Frame rate : 31.250 FPS (1536 SPF)
Compression mode : Lossy
Stream size : 315 MiB (7%)
Language : Russian
Service kind : Complete Main
Default : Yes
Forced : No
Menu
00:00:08.985 : Глава 1
00:08:24.485 : Глава 2
00:15:53.443 : Глава 3
00:22:45.026 : Глава 4
00:28:48.609 : Глава 5
00:36:10.442 : Глава 6
00:43:19.400 : Глава 7
00:50:16.566 : Глава 8
00:57:41.691 : Глава 9
01:06:05.316 : Глава 10
01:13:06.107 : Глава 11
01:22:14.648 : Глава 12
01:28:28.814 : Глава 13

Скриншоты


admin

Post 14-Jul-2021 04:51

[Quote]

Название: Приворот. Черное венчание
Год выхода: 2021
Жанр: Ужасы, триллер, мелодрама
Режиссер: Святослав Подгаевский
В ролях: Яна Енжаева, Константин Белошапка, Илья Ермолов, Варвара Бородина, Игорь Хрипунов, Сабина Ахмедова, Кристина Маранды, Лариса Домаскина, Даниэла Богатырева, Никита Юранов
О фильме: Женю бросает мужчина, которого она любит больше жизни. Не в силах смириться девушка решается на отчаянный шаг: цыганка помогает ей провести ритуал черного венчания и сделать самый сильный приворот на любовь. И Кирилл возвращается! Им еще никогда не было так хорошо вместе, влюбленные не могут оторваться друг от друга. Но с каждым днем страсть Кирилла все больше походит на пугающую одержимость - он контролирует каждый шаг девушки и не готов ни с кем ее делить: «Ты только моя, а я твой». На что Жене придется пойти, чтобы отменить черное венчание и спасти любимого от необратимого превращения в чудовище? Ведь пока приворот действует, даже смерть не разлучит их.

Страна: Россия
Студия: Централ Партнершип, Iney Productions, QS Films
Продолжительность: 01:32:59
Язык: Русский
Формат: MKV
Качество: BDRip 1080p
Видео: MPEG-4 AVC, 1920x804, 23.976 fps, ~ 13 Mb/s, 0.352 bit/pixel
Аудио #01: 48 kHz, AC3, 5.1, 640 Kbps | RUS |
Аудио #02: 48 kHz, DTS, 5.1, 1509 Kbps | RUS |

ОтчетМедиаИнфо

General
Unique ID : 231103495334553660398905215906972880915 (0xADDCEA08783DDEC7BAC033B1AF1ED013)
Complete name : F:Dark.Spell.2021.BDRip.1080.ExKinoRay.mkv
Format : Matroska
Format version : Version 4
File size : 9.87 GiB
Duration : 1 h 33 min
Overall bit rate : 15.2 Mb/s
Movie name : Dark Spell 2021 from ExKinoRay
Encoded date : UTC 2021-07-13 15:49:59
Writing application : mkvmerge v7.3.0 ('Nouages') 64bit built on Oct 22 2014 18:53:34
Writing library : libebml v1.3.0 + libmatroska v1.4.1
Video
ID : 1
Format : AVC
Format/Info : Advanced Video Codec
Format profile : High@L4.1
Format settings : CABAC / 5 Ref Frames
Format settings, CABAC : Yes
Format settings, Reference : 5 frames
Codec ID : V_MPEG4/ISO/AVC
Duration : 1 h 32 min
Bit rate : 13.0 Mb/s
Width : 1 920 pixels
Height : 804 pixels
Display aspect ratio : 2.40:1
Frame rate mode : Constant
Frame rate : 23.976 (24000/1001) FPS
Color space : YUV
Chroma subsampling : 4:2:0
Bit depth : 8 bits
Scan type : Progressive
Bits/(Pixel*Frame) : 0.352
Stream size : 8.47 GiB (86%)
Title : CHD
Writing library : x264 core 160 r3011+44 ec1850e Yuuki [all-bit@all X86_64]
Encoding settings : cabac=1 / ref=5 / deblock=1:-3:-3 / analyse=0x3:0x133 / me=umh / subme=11 / psy=1 / psy_rd=1.00:0.00 / mixed_ref=1 / me_range=48 / chroma_me=1 / trellis=2 / 8x8dct=1 / cqm=0 / deadzone=21,11 / fast_pskip=0 / chroma_qp_offset=-2 / threads=25 / lookahead_threads=6 / sliced_threads=0 / nr=0 / decimate=0 / interlaced=0 / bluray_compat=0 / constrained_intra=0 / fgo=0 / bframes=12 / b_pyramid=2 / b_adapt=2 / b_bias=0 / direct=3 / weightb=1 / open_gop=0 / weightp=2 / keyint=250 / keyint_min=23 / scenecut=40 / intra_refresh=0 / rc=crf / mbtree=0 / crf=17.0000 / qcomp=0.70 / qpmin=0:0:0 / qpmax=69:69:69 / qpstep=4 / ip_ratio=1.30 / pb_ratio=1.20 / aq=3:0.80
Language : English
Default : Yes
Forced : No
Color range : Limited
Color primaries : BT.709
Matrix coefficients : BT.709
Audio #1
ID : 2
Format : AC-3
Format/Info : Audio Coding 3
Commercial name : Dolby Digital
Codec ID : A_AC3
Duration : 1 h 33 min
Bit rate mode : Constant
Bit rate : 640 kb/s
Channel(s) : 6 channels
Channel layout : L R C LFE Ls Rs
Sampling rate : 48.0 kHz
Frame rate : 31.250 FPS (1536 SPF)
Compression mode : Lossy
Stream size : 426 MiB (4%)
Language : Russian
Service kind : Complete Main
Default : Yes
Forced : No
Audio #2
ID : 3
Format : DTS
Format/Info : Digital Theater Systems
Codec ID : A_DTS
Duration : 1 h 33 min
Bit rate mode : Constant
Bit rate : 1 509 kb/s
Channel(s) : 6 channels
Channel layout : C L R Ls Rs LFE
Sampling rate : 48.0 kHz
Frame rate : 93.750 FPS (512 SPF)
Bit depth : 24 bits
Compression mode : Lossy
Stream size : 1 004 MiB (10%)
Language : Russian
Default : No
Forced : No
Menu #1
00:00:00.000 : en:Chapter 01
00:02:57.844 : en:Chapter 02
00:09:28.485 : en:Chapter 03
00:18:50.463 : en:Chapter 04
00:27:20.013 : en:Chapter 05
00:36:18.676 : en:Chapter 06
00:46:50.516 : en:Chapter 07

Скриншоты

admin

Post 14-Jul-2021 04:26

[Quote]

Информация о фильме
Название: Кензели
Год выхода: 2020
Жанр: мелодрама, фантастика
Режиссёр: Федор Петрухин
В ролях: Полина Соя, Сергей Кемпо, Александр Домогаров, Елена Синёва, Тарас Добровольский, Галина Атаманова, Олег Яньков, Надежда Игошина, Дмитрий Беседа, Александр Армер, Владимир Гостев, Бибигуль Суюншалина, Юлия Беретта, Константин Соловьёв, Михаил Негин, Екатерина Маликова, Дмитрий Калистратов, Олег Ефименко, Сергей Ярченко, Светлана Варецкая, Анна Аникина, Майя Лобырева
О фильме:
Влиятельный бизнесмен Владимир владеет предприятиями по разработке и продаже технологий, позволяющих видеть скрытое. Вокруг него и его молодой супруги Екатерины разворачиваются события, уносящие их в прошлое. Они становятся свидетелями любовного треугольника Фелиссы Круут в 1820-30-х гг. В настоящем Екатерина встречает молодого музыканта Степана, и ее реальная любовная жизнь становится отражением жизни Фелиссы Круут в прошлом. Владимир, не в силах наблюдать со стороны и смириться с неверностью жены, пытается помешать этим отношениям.

Страна: Россия
Студия: Альфа Синема
Продолжительность: 01:48:36
Перевод: Не требуется
Файл
Контейнер: MKV
Качество: WEB-DL 1080p
Видео: MPEG-4 (AVC), 1920х1080 (16:9), 24 fps, ~ 5440 kbps, 0.109 bit/pixel
Аудио: AC3, 48.0 kHz, 6 ch, 384 Kbps

MediaInfo

General
Unique ID : 125417884226201149513745680307617120630 (0x5E5A9B1AE7C5C6315E2111CE3709C176)
Complete name : Kenzeli.2020.1080p.WEB-DL.DD5.1.H.264-EniaHD.mkv
Format : Matroska
Format version : Version 4
File size : 4.42 GiB
Duration : 1 h 48 min
Overall bit rate : 5 826 kb/s
Writing application : mkvmerge v59.0.0 ('Shining Star') 64-bit
Writing library : libebml v1.4.2 + libmatroska v1.6.4
Video
ID : 1
Format : AVC
Format/Info : Advanced Video Codec
Format profile : High@L4
Format settings : CABAC / 2 Ref Frames
Format settings, CABAC : Yes
Format settings, Reference frames : 2 frames
Codec ID : V_MPEG4/ISO/AVC
Duration : 1 h 48 min
Bit rate : 5 440 kb/s
Width : 1 920 pixels
Height : 1 080 pixels
Display aspect ratio : 16:9
Frame rate mode : Constant
Frame rate : 24.000 FPS
Color space : YUV
Chroma subsampling : 4:2:0
Bit depth : 8 bits
Scan type : Progressive
Bits/(Pixel*Frame) : 0.109
Stream size : 4.13 GiB (93%)
Writing library : x264 core 159 r2991 1771b55
Default : Yes
Forced : No
Color range : Limited
Color primaries : BT.709
Transfer characteristics : BT.709
Matrix coefficients : BT.709
Audio
ID : 2
Format : AC-3
Format/Info : Audio Coding 3
Commercial name : Dolby Digital
Codec ID : A_AC3
Duration : 1 h 48 min
Bit rate mode : Constant
Bit rate : 384 kb/s
Channel(s) : 6 channels
Channel layout : L R C LFE Ls Rs
Sampling rate : 48.0 kHz
Frame rate : 31.250 FPS (1536 SPF)
Compression mode : Lossy
Stream size : 298 MiB (7%)
Language : Russian
Service kind : Complete Main
Default : Yes
Forced : No
Menu
00:00:00.000 : Глава 1
00:08:16.625 : Глава 2
00:16:23.541 : Глава 3
00:24:43.416 : Глава 4
00:32:59.332 : Глава 5
00:41:04.373 : Глава 6
00:49:26.706 : Глава 7
00:57:39.372 : Глава 8
01:05:49.830 : Глава 9
01:13:53.163 : Глава 10
01:22:05.079 : Глава 11
01:30:43.037 : Глава 12
01:38:53.078 : Глава 13

Скриншоты


admin

Post 10-Jul-2021 06:00

[Quote]

Информация о фильме
Название: Майор Гром: Чумной Доктор
Год выхода: 2021
Жанр: приключения, боевик, криминал, детектив
Режиссер: Олег Трофим
В ролях: Тихон Жизневский, Любовь Аксёнова, Алексей Маклаков, Михаил Евланов, Александр Сетейкин, Сергей Горошко, Дмитрий Чеботарёв, Олег Чугунов, Антон Богданов, Юрий Насонов, Ойсель Море Деспайгне, Кристина Ибадуллаева, Владимир Дикун, Дмитрий Лиманов, Эльдар Мурсалов, Михаил Новиков, Евгений Катаев, Александр Какуев, Владислав Шкерин, Алексей Коршунов, Владислав Спирин, Никита Кологривый, Игорь Захаров, Владимир Лысенко, Алексей Синицин, Алина Недобитко, Николай Пинский, Григорий Сергеев, Игорь Киселёв, Андрей Мясников, Ангелина Тимофеева, Рафаэль Хисматулин
О фильме:
Майор полиции Игорь Гром известен всему Санкт-Петербургу пробивным характером и непримиримой позицией по отношению к преступникам всех мастей. Неимоверная сила, аналитический склад ума и неподкупность — всё это делает майора Грома идеальным полицейским. Но всё резко меняется с появлением человека в маске Чумного Доктора. Заявив, что его город «болен чумой беззакония», он принимается за «лечение», убивая людей, которые в своё время избежали наказания при помощи денег и влияния. Общество взбудоражено. Полиция бессильна. Игорь впервые сталкивается с трудностями в расследовании, от итогов которого может зависеть судьба всего города.

Страна: Россия
Студия: Bubble Studio
Продолжительность: 02:16:34
Перевод: Не требуется
Файл
Контейнер: MKV
Качество: WEB-DL 1080p | Netflix
Видео: MPEG-4 (AVC), 1920х1080 (16:9), 24 fps, ~ 5800 kbps, 0.117 bit/pixel
Аудио №1: E-AC3, 48.0 kHz, 6 ch, 640 Kbps | Оригинал
Аудио №2: E-AC3, 48.0 kHz, 6 ch, 640 Kbps | Тифлокомментарий
Субтитры: Русские (Full, SDH), английские, немецкие, испанские, французские, итальянские, польские, португальские, румынские

MediInfo

General
Unique ID : 324174660892923054945591640452852663991 (0xF3E1C4C7113A1E36DCF544BA2BECC6B7)
Complete name : Mayor.Grom.Chumnoy.Doktor.2021.1080p.NF.WEB-DL.DDP5.1.H.264-EniaHD.mkv
Format : Matroska
Format version : Version 4
File size : 6.75 GiB
Duration : 2 h 16 min
Overall bit rate mode : Variable
Overall bit rate : 7 073 kb/s
Writing application : mkvmerge v58.0.0 ('Supper's Ready') 64-bit
Writing library : libebml v1.4.2 + libmatroska v1.6.4
Video
ID : 1
Format : AVC
Format/Info : Advanced Video Codec
Format profile : Main@L4
Format settings : CABAC / 3 Ref Frames
Format settings, CABAC : Yes
Format settings, Reference frames : 3 frames
Codec ID : V_MPEG4/ISO/AVC
Duration : 2 h 16 min
Bit rate mode : Variable
Bit rate : 5 800 kb/s
Maximum bit rate : 8 700 kb/s
Width : 1 920 pixels
Height : 1 080 pixels
Display aspect ratio : 16:9
Frame rate mode : Constant
Frame rate : 24.000 FPS
Color space : YUV
Chroma subsampling : 4:2:0
Bit depth : 8 bits
Scan type : Progressive
Bits/(Pixel*Frame) : 0.117
Stream size : 5.52 GiB (82%)
Writing library : x264 core 148 r2722 1b0121b
Encoding settings : cabac=1 / ref=3 / deblock=1:0:0 / analyse=0x1:0x111 / me=umh / subme=10 / psy=1 / psy_rd=1.00:0.00 / mixed_ref=1 / me_range=24 / chroma_me=1 / trellis=2 / 8x8dct=0 / cqm=0 / deadzone=21,11 / fast_pskip=1 / chroma_qp_offset=-2 / threads=8 / lookahead_threads=1 / sliced_threads=0 / nr=0 / decimate=1 / interlaced=0 / bluray_compat=0 / stitchable=1 / constrained_intra=0 / bframes=2 / b_pyramid=0 / b_adapt=2 / b_bias=0 / direct=3 / weightb=1 / open_gop=0 / weightp=2 / keyint=250 / keyint_min=24 / scenecut=0 / intra_refresh=0 / rc_lookahead=48 / rc=2pass / mbtree=1 / bitrate=5800 / ratetol=1.0 / qcomp=0.50 / qpmin=6 / qpmax=51 / qpstep=4 / cplxblur=20.0 / qblur=0.5 / vbv_maxrate=8700 / vbv_bufsize=11600 / nal_hrd=vbr / filler=0 / ip_ratio=1.40 / aq=1:1.00
Default : Yes
Forced : No
Audio #1
ID : 2
Format : E-AC-3
Format/Info : Enhanced AC-3
Commercial name : Dolby Digital Plus
Codec ID : A_EAC3
Duration : 2 h 16 min
Bit rate mode : Constant
Bit rate : 640 kb/s
Channel(s) : 6 channels
Channel layout : L R C LFE Ls Rs
Sampling rate : 48.0 kHz
Frame rate : 31.250 FPS (1536 SPF)
Compression mode : Lossy
Stream size : 625 MiB (9%)
Title : Оригинал
Language : Russian
Service kind : Complete Main
Default : Yes
Forced : No
Audio #2
ID : 3
Format : E-AC-3
Format/Info : Enhanced AC-3
Commercial name : Dolby Digital Plus
Codec ID : A_EAC3
Duration : 2 h 16 min
Bit rate mode : Constant
Bit rate : 640 kb/s
Channel(s) : 6 channels
Channel layout : L R C LFE Ls Rs
Sampling rate : 48.0 kHz
Frame rate : 31.250 FPS (1536 SPF)
Compression mode : Lossy
Stream size : 625 MiB (9%)
Title : Тифлокомментарий
Language : Russian
Service kind : Complete Main
Default : No
Forced : No
Text #1
ID : 4
Format : UTF-8
Codec ID : S_TEXT/UTF8
Codec ID/Info : UTF-8 Plain Text
Duration : 2 h 8 min
Bit rate : 83 b/s
Count of elements : 1632
Stream size : 78.7 KiB (0%)
Language : Russian
Default : No
Forced : No
Text #2
ID : 5
Format : UTF-8
Codec ID : S_TEXT/UTF8
Codec ID/Info : UTF-8 Plain Text
Duration : 2 h 16 min
Bit rate : 103 b/s
Count of elements : 2109
Stream size : 104 KiB (0%)
Title : SDH
Language : Russian
Default : No
Forced : No
Text #3
ID : 6
Format : UTF-8
Codec ID : S_TEXT/UTF8
Codec ID/Info : UTF-8 Plain Text
Duration : 2 h 15 min
Bit rate : 47 b/s
Count of elements : 1689
Stream size : 47.3 KiB (0%)
Language : English
Default : No
Forced : No
Text #4
ID : 7
Format : UTF-8
Codec ID : S_TEXT/UTF8
Codec ID/Info : UTF-8 Plain Text
Duration : 2 h 15 min
Bit rate : 48 b/s
Count of elements : 1552
Stream size : 47.9 KiB (0%)
Language : German
Default : No
Forced : No
Text #5
ID : 8
Format : UTF-8
Codec ID : S_TEXT/UTF8
Codec ID/Info : UTF-8 Plain Text
Duration : 2 h 15 min
Bit rate : 46 b/s
Count of elements : 1673
Stream size : 45.9 KiB (0%)
Language : Spanish
Default : No
Forced : No
Text #6
ID : 9
Format : UTF-8
Codec ID : S_TEXT/UTF8
Codec ID/Info : UTF-8 Plain Text
Duration : 2 h 15 min
Bit rate : 44 b/s
Count of elements : 1671
Stream size : 44.7 KiB (0%)
Language : French
Default : No
Forced : No
Text #7
ID : 10
Format : UTF-8
Codec ID : S_TEXT/UTF8
Codec ID/Info : UTF-8 Plain Text
Duration : 2 h 15 min
Bit rate : 47 b/s
Count of elements : 1624
Stream size : 46.8 KiB (0%)
Language : Italian
Default : No
Forced : No
Text #8
ID : 11
Format : UTF-8
Codec ID : S_TEXT/UTF8
Codec ID/Info : UTF-8 Plain Text
Duration : 2 h 15 min
Bit rate : 43 b/s
Count of elements : 1680
Stream size : 43.0 KiB (0%)
Language : Polish
Default : No
Forced : No
Text #9
ID : 12
Format : UTF-8
Codec ID : S_TEXT/UTF8
Codec ID/Info : UTF-8 Plain Text
Duration : 2 h 15 min
Bit rate : 46 b/s
Count of elements : 1592
Stream size : 46.7 KiB (0%)
Language : Portuguese
Default : No
Forced : No
Text #10
ID : 13
Format : UTF-8
Codec ID : S_TEXT/UTF8
Codec ID/Info : UTF-8 Plain Text
Duration : 2 h 15 min
Bit rate : 42 b/s
Count of elements : 1665
Stream size : 42.7 KiB (0%)
Language : Romanian
Default : No
Forced : No

Скриншоты


admin

Post 09-Jul-2021 04:20

[Quote]

Информация о фильме
Название: Сердце и как им пользоваться
Год выхода: 2021
Жанр: комедия, приключения
Режиссёр: Дмитрий Губарев
В ролях: Сергей Чирков, Сергей Белов, Нонна Гришаева, Игорь Угольников, Фёдор Лавров, Ольга Лерман, Никита Тарасов
О фильме:
Они очень разные, но у них одна мечта — достучаться до небес. Известного московского стендап-комика Илью Погорелова публично обвинила во лжи его бывшая, и теперь ему нужно «просто» выжить. А застенчивый провинциал Санек хочет вырваться из своего кокона и хоть немного пожить по-настоящему. Волею случая (или провидения) Санек и Илья вместе отправляются в путешествие к морю, чтобы обрести себя, воплотить мечту и найти любовь. Сложившийся в пути дуэт «Погорелов и Санек» проедет пол России, взорвет ТикТок, рассмешит и растрогает миллионы — заставит сердца биться быстрее и напомнит, как радоваться жизни.

Страна: Россия
Студия: РК Медиа
Продолжительность: 01:32:44
Перевод: Не требуется
Файл
Контейнер: MKV
Качество: WEB-DL 1080p | iTunes
Видео: MPEG-4 (AVC), 1920х806 (2.40:1), 24 fps, ~ 4561 kbps, 0.123 bit/pixel
Аудио: AC3, 48 kHz, 6 ch, 384 Kbps

MediaInfo

General
Unique ID : 203794036189641055905299606604368325164 (0x99514DBDE0112DBD5CBD60D887A02A2C)
Complete name : Serdtse.i.kak.im.polzovatsya.2021.1080p.iT.WEB-DL.DD5.1.H.264-EniaHD.mkv
Format : Matroska
Format version : Version 4
File size : 3.20 GiB
Duration : 1 h 32 min
Overall bit rate : 4 947 kb/s
Writing application : mkvmerge v58.0.0 ('Supper's Ready') 64-bit
Writing library : libebml v1.4.2 + libmatroska v1.6.4
Video
ID : 1
Format : AVC
Format/Info : Advanced Video Codec
Format profile : High@L4
Format settings : CABAC / 5 Ref Frames
Format settings, CABAC : Yes
Format settings, Reference frames : 5 frames
Codec ID : V_MPEG4/ISO/AVC
Duration : 1 h 32 min
Bit rate : 4 561 kb/s
Width : 1 920 pixels
Height : 806 pixels
Display aspect ratio : 2.40:1
Frame rate mode : Constant
Frame rate : 24.000 FPS
Color space : YUV
Chroma subsampling : 4:2:0
Bit depth : 8 bits
Scan type : Progressive
Bits/(Pixel*Frame) : 0.123
Stream size : 2.95 GiB (92%)
Language : English
Default : Yes
Forced : No
Color range : Limited
Color primaries : BT.709
Transfer characteristics : BT.709
Matrix coefficients : BT.709
Audio
ID : 2
Format : AC-3
Format/Info : Audio Coding 3
Commercial name : Dolby Digital
Codec ID : A_AC3
Duration : 1 h 32 min
Bit rate mode : Constant
Bit rate : 384 kb/s
Channel(s) : 6 channels
Channel layout : L R C LFE Ls Rs
Sampling rate : 48.0 kHz
Frame rate : 31.250 FPS (1536 SPF)
Compression mode : Lossy
Stream size : 255 MiB (8%)
Language : Russian
Service kind : Complete Main
Default : Yes
Forced : No
Menu
00:00:00.000 : Глава 1
00:08:00.875 : Глава 2
00:16:26.291 : Глава 3
00:24:40.874 : Глава 4
00:32:49.374 : Глава 5
00:41:02.332 : Глава 6
00:49:26.457 : Глава 7
00:57:30.290 : Глава 8
01:05:36.081 : Глава 9
01:14:10.081 : Глава 10
01:22:19.706 : Глава 11

Скриншоты


admin

Post 09-Jul-2021 04:18

[Quote]

Информация о фильме
Название: Сердце и как им пользоваться
Год выхода: 2021
Жанр: Комедия, приключения
Режиссер: Дмитрий Губарев
В ролях: Сергей Чирков, Сергей Белов, Ольга Лерман, Нонна Гришаева, Игорь Угольников, Федор Лавров, Глеб Кулаков, Никита Тарасов, Анна Драничкина, Анастасия Спектор
О фильме:
Они очень разные, но у них одна мечта — достучаться до небес. Известного московского стендап-комика Илью Погорелова публично обвинила во лжи его бывшая, и теперь ему нужно «просто» выжить. А застенчивый провинциал Санек хочет вырваться из своего кокона и хоть немного пожить по-настоящему. Волею случая (или провидения) Санек и Илья вместе отправляются в путешествие к морю, чтобы обрести себя, воплотить мечту и найти любовь. Сложившийся в пути дуэт «Погорелов и Санек» проедет пол России, взорвет ТикТок, рассмешит и растрогает миллионы — заставит сердца биться быстрее и напомнит, как радоваться жизни.

Страна: Россия
Студия: РК Медиа
Продолжительность: 01:32:44
Перевод: Не требуется | iTunes
Субтитры: Отсутствуют
Файл
Формат: Matroska
Качество: WEB-DLRip 720p
Видео: 1272x534 at 24.000 fps, x264@L4.1, ~2378 kbps, 0.146 bpp
Аудио: AC3, 6 ch, ~384 kbps - | Русский | -
Формат субтитров: softsub (SRT)

M/I

x264 [info]: frame I:1395 Avg QP:17.58 size: 69485
x264 [info]: frame P:35778 Avg QP:18.76 size: 24742
x264 [info]: frame B:96370 Avg QP:20.80 size: 6973
x264 [info]: consecutive B-frames: 2.7% 5.6% 4.8% 73.4% 4.5% 7.5% 0.5% 0.7% 0.1% 0.1% 0.1%
General
Format : Matroska
Format version : Version 4
File size : 1.79 GiB
Duration : 1 h 32 min
Overall bit rate : 2 764 kb/s
Movie name : Сердце и как им пользоваться.(2021).WEB-DLRip.x264.720p.[-=DoMiNo=-]
Encoded date : UTC 2021-07-08 10:52:38
Writing application : mkvmerge v58.0.0 ('Supper's Ready') 64-bit
Writing library : libebml v1.4.2 + libmatroska v1.6.4
Cover : Yes
Attachments : Cover.png / Cover 2.jpg
Video
ID : 1
Format : AVC
Format/Info : Advanced Video Codec
Format profile : High@L4.1
Format settings : CABAC / 12 Ref Frames
Format settings, CABAC : Yes
Format settings, Reference : 12 frames
Codec ID : V_MPEG4/ISO/AVC
Duration : 1 h 32 min
Bit rate : 2 378 kb/s
Width : 1 272 pixels
Height : 534 pixels
Display aspect ratio : 2.40:1
Frame rate mode : Constant
Frame rate : 24.000 FPS
Color space : YUV
Chroma subsampling : 4:2:0
Bit depth : 8 bits
Scan type : Progressive
Bits/(Pixel*Frame) : 0.146
Stream size : 1.54 GiB (86%)
Title : -=DoMiNo=-
Writing library : x264 core 164 r3065+55M 280faca t_mod_New [(8 & 10)-bit@all X86_64]
Encoding settings : cabac=1 / ref=12 / deblock=1:-2:-2 / analyse=0x3:0x133 / me=umh / subme=10 / psy=1 / fade_compensate=0.00 / psy_rd=1.00:0.00 / mixed_ref=1 / me_range=32 / chroma_me=1 / trellis=2 / 8x8dct=1 / cqm=0 / deadzone=21,11 / fast_pskip=0 / chroma_qp_offset=-2 / threads=17 / lookahead_threads=4 / sliced_threads=0 / nr=0 / decimate=1 / interlaced=0 / bluray_compat=0 / constrained_intra=0 / fgo=0 / bframes=10 / b_pyramid=2 / b_adapt=2 / b_bias=0 / direct=1 / weightb=1 / open_gop=0 / weightp=2 / keyint=240 / keyint_min=24 / scenecut=40 / intra_refresh=0 / rc_lookahead=60 / rc=crf / mbtree=0 / crf=20.0000 / qcomp=0.70 / qpmin=0:0:0 / qpmax=69:69:69 / qpstep=4 / vbv_maxrate=50000 / vbv_bufsize=62500 / crf_max=0.0 / nal_hrd=none / filler=0 / ip_ratio=1.40 / pb_ratio=1.30 / aq=3:1.00 / aq-sensitivity=10.00 / aq-factor=1.00:1.00:1.00 / aq2=0 / aq3=0
Language : Russian
Default : Yes
Forced : No
Color range : Limited
Color primaries : BT.709
Transfer characteristics : BT.709
Matrix coefficients : BT.709
Audio
ID : 2
Format : AC-3
Format/Info : Audio Coding 3
Commercial name : Dolby Digital
Codec ID : A_AC3
Duration : 1 h 32 min
Bit rate mode : Constant
Bit rate : 384 kb/s
Channel(s) : 6 channels
Channel layout : L R C LFE Ls Rs
Sampling rate : 48.0 kHz
Frame rate : 31.250 FPS (1536 SPF)
Compression mode : Lossy
Stream size : 255 MiB (14%)
Language : Russian
Service kind : Complete Main
Default : Yes
Forced : Yes
Menu
00:00:00.000 : Глава 1
00:08:00.875 : Глава 2
00:16:26.291 : Глава 3
00:24:40.874 : Глава 4
00:32:49.374 : Глава 5
00:41:02.332 : Глава 6
00:49:26.457 : Глава 7
00:57:30.290 : Глава 8
01:05:36.081 : Глава 9
01:14:10.081 : Глава 10
01:22:19.706 : Глава 11

admin

Post 08-Jul-2021 04:58

[Quote]

Информация о фильме
Название: На дальних рубежах
Год выхода: 2020
Жанр: драма
Режиссёр: Максим Дашкин
В ролях: Виктория Толстоганова, Сергей Шнырёв, Александр Кудин
О фильме:
Российская военная база, Кыргызстан. Мария, жена заместителя командира базы, хочет вырваться из этого тесного мира и с нетерпением ждёт перевода мужа обратно в Россию. У неё завязываются отношения с сослуживцем мужа, капитаном Крайновым, который тренирует её сына в секции дзюдо. Стремительное развитие их романа трагически и необратимо меняет жизнь Марии и её семьи.

Страна: Россия
Студия: Киностудия Соль, Victoria Films
Продолжительность: 01:20:10
Перевод: Не требуется | iTunes
Субтитры: Отсутствуют
Файл
Формат: Matroska
Качество: WEB-DLRip 720p [Na.dalnikh.rubezhakh.2020.1080p.WEB-DL.DD5.1.H.264-EniaHD.mkv]
Видео: 1278x538 at 24.000 fps, x264@L4.1, ~2208 kbps, 0.134 bpp
Аудио: AC3, 6 ch, ~384 kbps - | Русский | -
***Релиз от: -=DoMiNo=-

M/I

x264 [info]: frame I:674 Avg QP:15.86 size: 86058
x264 [info]: frame P:24686 Avg QP:18.20 size: 26280
x264 [info]: frame B:90100 Avg QP:19.20 size: 6893
General
Format : Matroska
Format version : Version 4
File size : 1.45 GiB
Duration : 1 h 20 min
Overall bit rate : 2 594 kb/s
Movie name : На дальних рубежах.(2020).WEB-DLRip.x264.720p.[-=DoMiNo=-]
Encoded date : UTC 2021-07-07 08:18:35
Writing application : mkvmerge v58.0.0 ('Supper's Ready') 64-bit
Writing library : libebml v1.4.2 + libmatroska v1.6.4
Cover : Yes
Attachments : Cover.png / Cover 2.jpg
Video
ID : 1
Format : AVC
Format/Info : Advanced Video Codec
Format profile : High@L4.1
Format settings : CABAC / 12 Ref Frames
Format settings, CABAC : Yes
Format settings, Reference : 12 frames
Codec ID : V_MPEG4/ISO/AVC
Duration : 1 h 20 min
Bit rate : 2 208 kb/s
Width : 1 278 pixels
Height : 538 pixels
Display aspect ratio : 2.40:1
Frame rate mode : Constant
Frame rate : 24.000 FPS
Color space : YUV
Chroma subsampling : 4:2:0
Bit depth : 8 bits
Scan type : Progressive
Bits/(Pixel*Frame) : 0.134
Stream size : 1.24 GiB (85%)
Title : -=DoMiNo=-
Writing library : x264 core 164 r3065+55M 280faca t_mod_New [(8 & 10)-bit@all X86_64]
Encoding settings : cabac=1 / ref=12 / deblock=1:-2:-2 / analyse=0x3:0x133 / me=umh / subme=10 / psy=1 / fade_compensate=0.00 / psy_rd=1.00:0.20 / mixed_ref=1 / me_range=32 / chroma_me=1 / trellis=2 / 8x8dct=1 / cqm=0 / deadzone=21,11 / fast_pskip=0 / chroma_qp_offset=-3 / threads=17 / lookahead_threads=2 / sliced_threads=0 / nr=0 / decimate=0 / interlaced=0 / bluray_compat=0 / constrained_intra=0 / fgo=0 / bframes=9 / b_pyramid=2 / b_adapt=2 / b_bias=0 / direct=3 / weightb=1 / open_gop=0 / weightp=2 / keyint=240 / keyint_min=24 / scenecut=40 / intra_refresh=0 / rc_lookahead=60 / rc=2pass / mbtree=0 / bitrate=2208 / ratetol=1.0 / qcomp=0.70 / qpmin=0:0:0 / qpmax=69:69:69 / qpstep=4 / cplxblur=20.0 / qblur=0.5 / vbv_maxrate=50000 / vbv_bufsize=62500 / nal_hrd=none / filler=0 / ip_ratio=1.24 / pb_ratio=1.20 / aq=3:1.00 / aq-sensitivity=10.00 / aq-factor=1.00:1.00:1.00 / aq2=0 / aq3=0
Language : Russian
Default : Yes
Forced : No
Color range : Limited
Color primaries : BT.709
Transfer characteristics : BT.709
Matrix coefficients : BT.709
Audio
ID : 2
Format : AC-3
Format/Info : Audio Coding 3
Commercial name : Dolby Digital
Codec ID : A_AC3
Duration : 1 h 20 min
Bit rate mode : Constant
Bit rate : 384 kb/s
Channel(s) : 6 channels
Channel layout : L R C LFE Ls Rs
Sampling rate : 48.0 kHz
Frame rate : 31.250 FPS (1536 SPF)
Compression mode : Lossy
Stream size : 220 MiB (15%)
Language : Russian
Service kind : Complete Main
Default : Yes
Forced : Yes
Menu
00:00:00.000 : Глава 1
00:06:20.666 : Глава 2
00:13:53.457 : Глава 3
00:18:16.998 : Глава 4
00:25:34.081 : Глава 5
00:30:10.247 : Глава 6
00:36:38.622 : Глава 7
00:42:23.830 : Глава 8
00:46:52.871 : Глава 9
00:54:04.412 : Глава 10
00:59:22.203 : Глава 11
01:04:30.161 : Глава 12
01:07:39.536 : Глава 13
01:14:11.869 : Глава 14

Релиз

ЦитатаКто-то писал:
- Источник видео неизвестный (чистый видеоряд).
- Источник аудио iTunes, без синхронизации (идентичны по пикам).
- Сохранены оригинальные главы как на iTunes.
 

Current time is: 18-Sep 12:49

All times are UTC + 3