Search found 237 matches

Author Message

admin

Post Yesterday 14:03

[Quote]

Информация о фильме
Название: Снегурочка против всех
Год выхода: 2021
Жанр: Комедия
Режиссер: Полина Ануфриева
В ролях: Павел Воля, Надежда Сысоева, Виталий Хаев, Настасья Самбурская, Оскар Кучера, Мария Пирогова, Павел Ворожцов, Александра Булычёва, Анна Исайкина, Юрий Грубник
О фильме: Главные качества 45-летнего бизнесмена Евгения Васина — гениальный ум, благодаря которому он разбогател, и отвратительный характер, превращающий жизнь родных и подчиненных бизнесмена в самый настоящий ад. В новогоднюю ночь Васин сбивает на автомобиле Деда Мороза и вместо того, чтобы оказать помощь, крадет елку и уезжает. Наказание неминуемо. Дед Мороз переселяет душу Евгения в тело своей Снегурочки. Теперь в образе дедушкиной помощницы Васину придется разносить подарки всем тем, кого он обидел, унизил или оскорбил, посмотреть на себя со стороны и проверить, похожа ли его жизнь и жизнь его семьи на сказку, которую Евгений себе рисовал.

Выпущено: Россия / LEGIO FELIX
Продолжительность: 01:14:47
Перевод: не требуется
Файл
Качество: WEB-DLRip 720p
Формат: MKV
Видео: MPEG-4 AVC/H.264, 3220 Кбит/сек, 1280x534
Аудио: Русский: AC3, 2 ch, 192 Кбит/сек
Субтитры: нет

MediaInfo:

Общее
Уникальный идентификатор : 96127830132031790474307618674742647128 (0x48518BF184A772984BA5886E9A37D958)
Полное имя : F:1.ФИЛЬМЫ2. ФИЛЬМЫ СНГСнегурочка против всех (2021)Snegurochka protiv vsekh (2021) WEB-DLRip 720p OKKO.mkv
Формат : Matroska
Версия формата : Version 4
Размер файла : 1,78 Гбайт
Продолжительность : 1 ч. 14 м.
Общий поток : 3 409 Кбит/сек
Программа кодирования : Lavf
Библиотека кодирования : Lavf
Авторское право : *=#=*
ErrorDetectionType : Per level 1
Attachments : poster.jpg
Язык : und
Видео
Идентификатор : 1
Формат : AVC
Формат/Информация : Advanced Video Codec
Профиль формата : High@L4.1
Настройки формата : CABAC / 12 Ref Frames
Параметр CABAC формата : Да
Параметр RefFrames формата : 12 кадров
Идентификатор кодека : V_MPEG4/ISO/AVC
Продолжительность : 1 ч. 14 м.
Битрейт : 3 220 Кбит/сек
Ширина : 1 280 пикселей
Высота : 534 пикселя
Соотношение сторон : 2,40:1
Режим частоты кадров : Постоянный
Частота кадров : 25,000 кадров/сек
Цветовое пространство : YUV
Субдискретизация насыщенности : 4:2:0
Битовая глубина : 8 бит
Тип развёртки : Прогрессивная
Бит/(Пиксели*Кадры) : 0.188
Размер потока : 1,65 Гбайт (92%)
Заголовок : Russia (LEGIO FELIX)
Библиотека кодирования : x264 core 159 r2991 1771b55
Настройки программы : cabac=1 / ref=12 / deblock=1:-3:-3 / analyse=0x3:0x133 / me=umh / subme=11 / psy=1 / psy_rd=1.00:0.15 / mixed_ref=1 / me_range=32 / chroma_me=1 / trellis=2 / 8x8dct=1 / cqm=0 / deadzone=21,18 / fast_pskip=0 / chroma_qp_offset=-3 / threads=29 / lookahead_threads=4 / sliced_threads=0 / nr=60 / decimate=0 / interlaced=0 / bluray_compat=0 / constrained_intra=0 / bframes=16 / b_pyramid=2 / b_adapt=2 / b_bias=10 / direct=3 / weightb=1 / open_gop=0 / weightp=2 / keyint=250 / keyint_min=25 / scenecut=40 / intra_refresh=0 / rc_lookahead=60 / rc=2pass / mbtree=0 / bitrate=3220 / ratetol=1.0 / qcomp=0.70 / qpmin=3 / qpmax=69 / qpstep=4 / cplxblur=20.0 / qblur=0.5 / vbv_maxrate=5000 / vbv_bufsize=4000 / nal_hrd=none / filler=0 / ip_ratio=1.40 / pb_ratio=1.30 / aq=1:0.60
Язык : Russian
Default : Да
Forced : Нет
Цветовой диапазон : Limited
Основные цвета : BT.709
Характеристики трансфера : BT.709
Коэффициенты матрицы : BT.709
Аудио
Идентификатор : 2
Формат : AC-3
Формат/Информация : Audio Coding 3
Коммерческое название : Dolby Digital
Идентификатор кодека : A_AC3
Продолжительность : 1 ч. 14 м.
Вид битрейта : Постоянный
Битрейт : 192 Кбит/сек
Каналы : 2 канала
Channel layout : L R
Частота : 48,0 КГц
Частота кадров : 31,250 кадров/сек (1536 SPF)
Битовая глубина : 32 бит
Метод сжатия : С потерями
Размер потока : 103 Мбайт (6%)
Заголовок : Original (Russian)
Язык : Russian
Service kind : Complete Main
Default : Да
Forced : Нет
СЭМПЛ

admin

Post 20-Jan-2022 13:31

[Quote]

Дочь короля / The King's Daughter
Год выпуска: 2022
Выпущено: Австралия
Жанр: Фэнтези, Семейный, Приключения, Мелодрама
Режиссер: Шон МакНамара / Sean McNamara
В ролях: Пирс Броснан, Уильям Хёрт, Бенджамин Уокер, Кая Скоделарио, Фань Бинбин, Бен Ллойд-Хьюз, Пол Айрлэнд, Пабло Шрайбер, Кристал Кларк, Рэйчел Гриффитс, Вирджиния Бауэрс, Джули Эндрюс, Касия Качмарек, Кристиан Беддоу, Том Мортон
О фильме: «Король-солнце» Людовик XIV решил, что должен жить вечно. Некий колдун рассказал королю, что для получения эликсира вечной жизни нужно добыть настоящую русалку. Король отправляет на поиски сирены толпу авантюристов. Но на пути безумных планов встают двое – страж русалки и 18-летняя дочь Людовика, весьма непокорная принцесса.

Продолжительность: 01:34:02
Перевод: Любительский, двухголосый закадровый (Pazl Voice)
Субтитры: английские
Фрмат: MKV
Качество: WEB-DL 1080p | AMZN
Видео: MPEG-4 AVC, 8133 Кбит/с, 1920x800
Аудио #1: AC3, 6 ch, 448 Кбит/с | RUS | Tnx.KinoPub
Аудио #2: E-AC3, 6 ch, 640 Кбит/с | ENG |

Скриншоты

-

MediaInfo

Общее
Уникальный идентификатор : 14384906800919533318536761606355553364 (0xAD26EA99B9ED552CA6C5E41343C0C54)
Полное имя : E:TorrentsThe.Kings.Daughter.2022.1080p_от New-Team.mkv
Формат : Matroska
Версия формата : Version 4
Размер файла : 6,06 Гбайт
Продолжительность : 1 ч. 34 м.
Общий поток : 9 224 Кбит/сек
Название фильма : The.Kings.Daughter.2022.1080p_от New-Team
Дата кодирования : UTC 2022-01-19 07:22:18
Программа кодирования : mkvmerge v59.0.0 ('Shining Star') 64-bit
Библиотека кодирования : libebml v1.4.2 + libmatroska v1.6.4
Видео
Идентификатор : 1
Формат : AVC
Формат/Информация : Advanced Video Codec
Профиль формата : High@L4
Настройки формата : CABAC / 4 Ref Frames
Параметр CABAC формата : Да
Параметр RefFrames формата : 4 кадра
Идентификатор кодека : V_MPEG4/ISO/AVC
Продолжительность : 1 ч. 34 м.
Вид битрейта : Постоянный
Битрейт : 8 133 Кбит/сек
Номинальный битрейт : 10 000 Кбит/сек
Ширина : 1 920 пикселей
Высота : 800 пикселей
Соотношение сторон : 2,40:1
Режим частоты кадров : Постоянный
Частота кадров : 25,000 кадров/сек
Цветовое пространство : YUV
Субдискретизация насыщенности : 4:2:0
Битовая глубина : 8 бит
Тип развёртки : Прогрессивная
Бит/(Пиксели*Кадры) : 0.212
Размер потока : 5,34 Гбайт (88%)
Default : Да
Forced : Нет
Цветовой диапазон : Limited
Основные цвета : BT.709
Характеристики трансфера : BT.709
Коэффициенты матрицы : BT.709
Аудио #1
Идентификатор : 2
Формат : AC-3
Формат/Информация : Audio Coding 3
Коммерческое название : Dolby Digital
Идентификатор кодека : A_AC3
Продолжительность : 1 ч. 34 м.
Вид битрейта : Постоянный
Битрейт : 448 Кбит/сек
Каналы : 6 каналов
Channel layout : L R C LFE Ls Rs
Частота : 48,0 КГц
Частота кадров : 31,250 кадров/сек (1536 SPF)
Метод сжатия : С потерями
Размер потока : 301 Мбайт (5%)
Заголовок : [DVO] Pazl Voice
Язык : Russian
Service kind : Complete Main
Default : Да
Forced : Нет
Аудио #2
Идентификатор : 3
Формат : E-AC-3
Формат/Информация : Enhanced AC-3
Коммерческое название : Dolby Digital Plus
Идентификатор кодека : A_EAC3
Продолжительность : 1 ч. 34 м.
Вид битрейта : Постоянный
Битрейт : 640 Кбит/сек
Каналы : 6 каналов
Channel layout : L R C LFE Ls Rs
Частота : 48,0 КГц
Частота кадров : 31,250 кадров/сек (1536 SPF)
Метод сжатия : С потерями
Размер потока : 430 Мбайт (7%)
Язык : English
Service kind : Complete Main
Default : Нет
Forced : Нет
Текст
Идентификатор : 4
Формат : UTF-8
Идентификатор кодека : S_TEXT/UTF8
Идентификатор кодека/Информация : UTF-8 Plain Text
Продолжительность : 1 ч. 23 м.
Битрейт : 47 бит/сек
Count of elements : 897
Размер потока : 29,2 Кбайт (0%)
Язык : English
Default : Нет
Forced : Нет

admin

Post 18-Jan-2022 04:39

[Quote]

Информация о фильме
Название: Прикосновение
Год выхода: 2021
Жанр: Драма
Режиссер: Мария Афанасьева
В ролях: Марианна Лучинина, Давид Очхикидзе, Анна Геллер, Сергей Шоколов, Екатерина Унтилова, Алексей Торковер, Мария Одегова, Алексей Штукин, Наталья Латышева
О фильме:
Мария ведёт скромную жизнь преподавателя и одна растит маленькую дочь. Однажды в её жизни появляется новый студент и привлекает Марию своей одарённостью. Он отвечает ей взаимной симпатией, они всё больше сближаются. Но в тот момент, когда эти чувства готовы перерасти в любовь, выясняется, что мужчина женат. Несмотря на несчастливый брак, он не готов уйти из семьи, потому что очень любит своего сына. А Мария не готова встречаться с женатым человеком из-за своих принципов. В результате всё усложняется с каждой новой встречей, и рано или поздно им предстоит сделать выбор.

Страна: Россия
Студия: Proline film
Продолжительность: 01:38:25
Язык: Русский
Файл
Кодек: MPEG-4 AVC
Качество: WEB-DL 1080p
Видео: MPEG-4 AVC, 5000 Кбит/с, 1920х808
Звук: АC3, 6 ch, 384 Кбит/с
Реклама, любого вида, отсутствует.

Скриншоты

admin

Post 18-Jan-2022 04:32

[Quote]

Информация о фильме
Название: 5 недель
Год выхода: 2021
Жанр: Комедия
Режиссер: Александр Суворов
В ролях: Артём Быстров, Юлия Шубарева, Андрей Шимко, Дарья Циберкина, Екатерина Петрова
О фильме:
Маша и Сергей мечтают «жить на необитаемом острове, как Робинзон и Пятница», но это невозможно — Сергей работает где-то за полярным кругом вахтовиком и бывает у Маши наездами. Маша мало знает о своём возлюбленном, но придерживается правила «меньше знаешь, крепче спишь». Ведь главное, что они любят друг друга. Внезапно обрушившаяся на мир пандемия запирает их в одной квартире, на карантин. В четырех стенах они пройдут пять стадий принятия неизбежного, заново узнают друг друга и смирятся с тем, что в мире есть вещи, которые им неподвластны.

Страна: Россия
Студия: ТРИ А ФИЛЬМ
Продолжительность: 01:23:18
Язык: Русский
Файл
Кодек: MPEG-4 AVC
Качество: WEB-DL 1080p
Видео: MPEG-4 AVC, 5000 Кбит/с, 1920х868
Звук: АC3, 2 ch, 192 Кбит/с
Реклама, любого вида, отсутствует.

Скриншоты

admin

Post 14-Jan-2022 06:46

[Quote]

Информация о фильме
Название: Летчик
Год выхода: 2021
Жанр: военный, биография, драма, история
Режиссер: Ренат Давлетьяров
В ролях: Пётр Фёдоров, Анна Пескова, Павел Осадчий, Максим Емельянов, Елена Дробышева, Евгений Михеев, Гела Месхи, Роман Книжка, Марчин Стец, Николоз Паикридзе
О фильме:
Декабрь 1941 года. Летчик Николай Комлев успешно выполняет приказ и уничтожает немецкую танковую колонну, движущуюся к Москве. Но самолет Комлева подбит вражескими истребителями, и летчик чудом сажает свой Ил-2 на глухую лесную поляну. Кажется, самое страшное позади — он выжил в воздушном бою. Однако испытания только начинаются: раненому Комлеву предстоит проделать немыслимый путь, превозмогая мороз, боль и голод, спасаясь от волков и спецотряда нацистов, задача которых — найти его во что бы то ни стало. Летчика ведут воля к жизни, мужество и, конечно, любовь. Дома его ждет Ольга, именно ее образ согревает его в стужу и помогает двигаться вперед, к спасению. У него лишь один шанс выжить, чтобы вернуться к любимой, снова подняться в небо и победить.

Выпущено: Россия / ДАПродакшн, Интерфест, Star Media
Продолжительность: 01:41:01
Озвучивание: Оригинальное | КиноПоиск HD
Файл
Формат: MKV
Качество: WEB-DLRip 1080p
Видео: MPEG-4 AVC, 6000 Kb/s, 1920x806
Аудио: Russian: AC3, 448 Kb/s (6 ch) / Е-AC3, 448 Kb/s (6 ch)
Субтитры: Нет
Дополнительно: Нет

Инфо-файл:

Complete name : Letchik.2021.KP.WEB-DL.1080p.ELEKTRI4KA.UNIONGANG.mkv
Format : Matroska
Format version : Version 4
File size : 4.82 GiB
Duration : 1 h 41 min
Overall bit rate : 6 837 kb/s
Movie name : Letchik.2021.KP.WEB-DL.1080p.ELEKTRI4KA.UNIONGANG.
Encoded date : UTC 2021-12-24 18:27:15
Writing application : mkvmerge v8.3.0 ('Over the Horizon') 32bit
Writing library : libebml v1.3.1 + libmatroska v1.4.2
Video
ID : 1
Format : AVC
Format/Info : Advanced Video Codec
Format profile : High@L4
Format settings : CABAC / 5 Ref Frames
Format settings, CABAC : Yes
Format settings, Reference frames : 5 frames
Codec ID : V_MPEG4/ISO/AVC
Duration : 1 h 41 min
Bit rate : 6 000 kb/s
Width : 1 920 pixels
Height : 806 pixels
Display aspect ratio : 2.40:1
Frame rate mode : Constant
Frame rate : 25.000 FPS
Color space : YUV
Chroma subsampling : 4:2:0
Bit depth : 8 bits
Scan type : Progressive
Bits/(Pixel*Frame) : 0.155
Stream size : 4.19 GiB (87%)
Writing library : x264 core 157
Encoding settings : cabac=1 / ref=5 / deblock=1:0:0 / analyse=0x3:0x133 / me=umh / subme=10 / psy=1 / psy_rd=1.00:0.00 / mixed_ref=1 / me_range=24 / chroma_me=1 / trellis=2 / 8x8dct=1 / cqm=0 / deadzone=21,11 / fast_pskip=1 / chroma_qp_offset=-2 / threads=25 / lookahead_threads=4 / sliced_threads=0 / nr=0 / decimate=1 / interlaced=0 / bluray_compat=0 / stitchable=1 / constrained_intra=0 / bframes=8 / b_pyramid=2 / b_adapt=2 / b_bias=0 / direct=3 / weightb=1 / open_gop=0 / weightp=2 / keyint=200 / keyint_min=100 / scenecut=40 / intra_refresh=0 / rc_lookahead=60 / rc=2pass / mbtree=1 / bitrate=6000 / ratetol=1.0 / qcomp=0.60 / qpmin=0 / qpmax=69 / qpstep=4 / cplxblur=20.0 / qblur=0.5 / vbv_maxrate=6600 / vbv_bufsize=9000 / nal_hrd=none / filler=0 / ip_ratio=1.40 / aq=1:1.00
Default : Yes
Forced : No
Audio #1
ID : 2
Format : AC-3
Format/Info : Audio Coding 3
Commercial name : Dolby Digital
Codec ID : A_AC3
Duration : 1 h 41 min
Bit rate mode : Constant
Bit rate : 448 kb/s
Channel(s) : 6 channels
Channel layout : L R C LFE Ls Rs
Sampling rate : 48.0 kHz
Frame rate : 31.250 FPS (1536 SPF)
Compression mode : Lossy
Stream size : 324 MiB (7%)
Title : Original AC3 (KinoPoisk HD)
Language : Russian
Service kind : Complete Main
Default : Yes
Forced : Yes
Audio #2
ID : 3
Format : E-AC-3
Format/Info : Enhanced AC-3
Commercial name : Dolby Digital Plus
Codec ID : A_EAC3
Duration : 1 h 41 min
Bit rate mode : Constant
Bit rate : 448 kb/s
Channel(s) : 6 channels
Channel layout : L R C LFE Ls Rs
Sampling rate : 48.0 kHz
Frame rate : 31.250 FPS (1536 SPF)
Compression mode : Lossy
Stream size : 324 MiB (7%)
Title : Original E-AC3 (KinoPoisk HD)
Language : Russian
Service kind : Complete Main
Default : No
Forced : No

Скриншоты

admin

Post 14-Jan-2022 06:45

[Quote]

Информация о фильме
Название: Летчик
Год выхода: 2021
Жанр: Военный, биография, драма, история
Режиссер: Ренат Давлетьяров
В ролях: Пётр Фёдоров, Анна Пескова, Павел Осадчий, Максим Емельянов, Елена Дробышева, Евгений Михеев, Гела Месхи, Роман Книжка, Марчин Стец, Николоз Паикридзе
О фильме:
Декабрь 1941 года. Летчик Николай Комлев успешно выполняет приказ и уничтожает немецкую танковую колонну, движущуюся к Москве. Но самолет Комлева подбит вражескими истребителями, и летчик чудом сажает свой Ил-2 на глухую лесную поляну. Кажется, самое страшное позади — он выжил в воздушном бою. Однако испытания только начинаются: раненому Комлеву предстоит проделать немыслимый путь, превозмогая мороз, боль и голод, спасаясь от волков и спецотряда нацистов, задача которых — найти его во что бы то ни стало. Летчика ведут воля к жизни, мужество и, конечно, любовь. Дома его ждет Ольга, именно ее образ согревает его в стужу и помогает двигаться вперед, к спасению. У него лишь один шанс выжить, чтобы вернуться к любимой, снова подняться в небо и победить.

Страна: Россия
Студия: ДАПродакшн, Интерфест, Star Media
Продолжительность: 01:41:01
Озвучивание: Оригинальное | КиноПоиск HD
Субтитры: Отсутствуют
Файл
Формат: Matroska
Качество: WEB-DLRip 720p
Видео: 1272x534 at 25.000 fps, x264@L4.1, ~2647 kbps
Аудио: AC3, 6 ch, ~448 kbps - | Русский |
► Без Рекламы!

M/I

x264 [info]: frame I:1023 Avg QP:16.09 size: 87047
x264 [info]: frame P:32699 Avg QP:18.25 size: 28236
x264 [info]: frame B:117795 Avg QP:20.09 size: 8364
General
Unique ID : 147483599584978274232754035897245478520 (0x6EF44EDDFB53C97BE47BA82B5715AE78)
Complete name : K:Letchik.2021.KP.WEB-DLRip.x264.720p.mkv
Format : Matroska
Format version : Version 4
File size : 2.18 GiB
Duration : 1 h 41 min
Overall bit rate : 3 087 kb/s
Encoded date : UTC 2021-12-24 21:15:37
Writing application : mkvmerge v63.0.0 ('Everything') 64-bit
Writing library : libebml v1.4.2 + libmatroska v1.6.4
Cover : Yes
Attachments : cover.jpg / cover 2.jpg
Video
ID : 1
Format : AVC
Format/Info : Advanced Video Codec
Format profile : High@L4.1
Format settings : CABAC / 12 Ref Frames
Format settings, CABAC : Yes
Format settings, Reference : 12 frames
Codec ID : V_MPEG4/ISO/AVC
Duration : 1 h 41 min
Bit rate : 2 647 kb/s
Width : 1 272 pixels
Height : 534 pixels
Display aspect ratio : 2.40:1
Frame rate mode : Constant
Frame rate : 25.000 FPS
Color space : YUV
Chroma subsampling : 4:2:0
Bit depth : 8 bits
Scan type : Progressive
Bits/(Pixel*Frame) : 0.156
Stream size : 1.86 GiB (85%)
Title : -=DoMiNo=-
Writing library : x264 core 164 r3079 d9a19f0
Encoding settings : cabac=1 / ref=12 / deblock=1:-2:-2 / analyse=0x3:0x133 / me=umh / subme=9 / psy=1 / psy_rd=1.00:0.15 / mixed_ref=1 / me_range=32 / chroma_me=1 / trellis=2 / 8x8dct=1 / cqm=0 / deadzone=21,11 / fast_pskip=0 / chroma_qp_offset=-3 / threads=17 / lookahead_threads=4 / sliced_threads=0 / nr=0 / decimate=0 / interlaced=0 / bluray_compat=0 / constrained_intra=0 / bframes=10 / b_pyramid=2 / b_adapt=2 / b_bias=0 / direct=3 / weightb=1 / open_gop=0 / weightp=2 / keyint=250 / keyint_min=25 / scenecut=40 / intra_refresh=0 / rc_lookahead=60 / rc=2pass / mbtree=0 / bitrate=2647 / ratetol=1.0 / qcomp=0.65 / qpmin=0 / qpmax=69 / qpstep=4 / cplxblur=20.0 / qblur=0.5 / vbv_maxrate=50000 / vbv_bufsize=62500 / nal_hrd=none / filler=0 / ip_ratio=1.40 / pb_ratio=1.30 / aq=1:0.90
Language : English
Default : Yes
Forced : No
Audio
ID : 2
Format : AC-3
Format/Info : Audio Coding 3
Commercial name : Dolby Digital
Codec ID : A_AC3
Duration : 1 h 41 min
Bit rate mode : Constant
Bit rate : 448 kb/s
Channel(s) : 6 channels
Channel layout : L R C LFE Ls Rs
Sampling rate : 48.0 kHz
Frame rate : 31.250 FPS (1536 SPF)
Compression mode : Lossy
Stream size : 324 MiB (15%)
Title : Original AC3 (KinoPoisk HD)
Language : Russian
Service kind : Complete Main
Default : Yes
Forced : No

Скриншоты

admin

Post 12-Jan-2022 05:22

[Quote]

Информация о фильме
Оригинальное название: Старушки в снегах
Год выхода: 2021
Жанр: Новогодняя лирическая комедия
Режиссер: Всеволод Аравин
В ролях: Елена Сафонова, Татьяна Орлова, Марина Яковлева, Андрей Аверьянов, Эра Зиганшина, Борис Романов, Виолетта Давыдовская, Виктор Супрун, Алексей Овсянников
О фильме:
Фактически это предыстория фильмов "Старушки в бегах" 1 и 2. А какими они были раньше? А такими же решительными и легкими на подъем! Таинственная открытка от старинной знакомой, полученная в канун Нового Года – и вот уже «Старушки в снегах» мчатся на синей Волге навстречу новым приключениям!

Страна: Россия
Студия: Кинокомпания "Фокус Фильм"
Продолжительность: 01:24:09
Перевод: Не требуется
Файл
Кодек: MPEG-4 AVC
Качество: HDTV 1080i
Видео: MPEG-4 AVC, ~ 6144 Кбит/с, 1920x1080, 25 кадр/с
Звук: MP2, 2 ch, 192 Кбит/с

Скриншоты


admin

Post 12-Jan-2022 05:21

[Quote]

Оригинальное название: Старушки в снегах
Год выхода: 2021
Жанр: Новогодняя лирическая комедия
Режиссер: Всеволод Аравин
В ролях: Елена Сафонова, Татьяна Орлова, Марина Яковлева, Андрей Аверьянов, Эра Зиганшина, Борис Романов, Виолетта Давыдовская, Виктор Супрун, Алексей Овсянников
О фильме:
Фактически это предыстория фильмов "Старушки в бегах" 1 и 2. А какими они были раньше? А такими же решительными и легкими на подъем! Таинственная открытка от старинной знакомой, полученная в канун Нового Года – и вот уже «Старушки в снегах» мчатся на синей Волге навстречу новым приключениям!

Страна: Россия
Студия: Кинокомпания "Фокус Фильм"
Продолжительность: 01:24:09
Язык: Русский
Cубтитры: Нет
Файл
Кодек: h.264
Качество: HDTV 720p
Видео: MPEG-4 AVC, 3787 Кбит/с, 1280x720, 25 кадр/с
Аудио: AC3, 2 ch, 192 Кбит/с

M/I

General
Unique ID : 217041953300809334681213009062914112249 (0xA348C27C076D17A39F127731DFB33AF9)
Complete name : N:RazdachiStarushki.V.Snegah.2021.HDTV.720p.shevanlk.mkv
Format : Matroska
Format version : Version 2
File size : 2.37 GiB
Duration : 1 h 24 min
Overall bit rate : 4 040 kb/s
Encoded date : UTC 2022-01-09 19:49:20
Writing application : mkvmerge v7.8.0 ('River Man') 32bit built on Apr 3 2015 12:11:22
Writing library : libebml v1.3.1 + libmatroska v1.4.2
Video
ID : 1
Format : AVC
Format/Info : Advanced Video Codec
Format profile : High@L3.1
Format settings : CABAC / 4 Ref Frames
Format settings, CABAC : Yes
Format settings, Reference frames : 4 frames
Codec ID : V_MPEG4/ISO/AVC
Duration : 1 h 24 min
Bit rate : 3 767 kb/s
Width : 1 280 pixels
Height : 720 pixels
Display aspect ratio : 16:9
Frame rate mode : Constant
Frame rate : 25.000 FPS
Color space : YUV
Chroma subsampling : 4:2:0
Bit depth : 8 bits
Scan type : Progressive
Bits/(Pixel*Frame) : 0.164
Stream size : 2.21 GiB (93%)
Default : Yes
Forced : No
Audio
ID : 2
Format : AC-3
Format/Info : Audio Coding 3
Commercial name : Dolby Digital
Codec ID : A_AC3
Duration : 1 h 24 min
Bit rate mode : Constant
Bit rate : 192 kb/s
Channel(s) : 2 channels
Channel layout : L R
Sampling rate : 48.0 kHz
Frame rate : 31.250 FPS (1536 SPF)
Compression mode : Lossy
Stream size : 116 MiB (5%)
Service kind : Complete Main
Default : Yes
Forced : No

Скриншоты

admin

Post 12-Jan-2022 05:01

[Quote]

Информация о фильме
Название: Небо
Год выхода: 2021
Жанр: Биография, драма, боевик
Режиссер: Игорь Копылов
В ролях: Игорь Петренко, Иван Батарев, Сергей Губанов, Мария Миронова, Илья Носков, Николай Козак, Дмитрий Власкин, Сергей Жарков, Дмитрий Блохин, Григорий Некрасов
О фильме:
Подполковник Сошников и капитан Муравьев — два разных характера, две разные судьбы, которым суждено будет сойтись на военной базе Хмеймим. Во время боевого вылета самолет Сошникова был сбит турецким истребителем. Это событие освещали все мировые СМИ, а за ходом спасательной операции следила вся Россия.

Выпущено: Россия / Триикс Медиа
Продолжительность: 02:11:23
Озвучивание: Оригинальное | iTunes
Файл
Формат: MKV
Качество: WEB-DL 720p
Видео: MPEG-4 AVC, 3200 Kb/s, 1280x528
Аудио: Russian: AC3, 384 Kb/s (6 ch)
Субтитры: Нет
Дополнительно: Сохранены оригинальные чаптеры.

Инфо-файл:

Complete name : Nebo.2021.WEB-DL.720p.ELEKTRI4KA.UNIONGANG.mkv
Format : Matroska
Format version : Version 4
File size : 3.28 GiB
Duration : 2 h 11 min
Overall bit rate : 3 576 kb/s
Movie name : Nebo.2021.WEB-DL.720p.ELEKTRI4KA.UNIONGANG.
Encoded date : UTC 2022-01-10 20:07:12
Writing application : mkvmerge v8.3.0 ('Over the Horizon') 32bit
Writing library : libebml v1.3.1 + libmatroska v1.4.2
Video
ID : 1
Format : AVC
Format/Info : Advanced Video Codec
Format profile : High@L4
Format settings : CABAC / 3 Ref Frames
Format settings, CABAC : Yes
Format settings, Reference frames : 3 frames
Codec ID : V_MPEG4/ISO/AVC
Duration : 2 h 11 min
Bit rate : 3 200 kb/s
Width : 1 280 pixels
Height : 528 pixels
Display aspect ratio : 2.40:1
Original display aspect ratio : 2.40:1
Frame rate mode : Constant
Frame rate : 24.000 FPS
Color space : YUV
Chroma subsampling : 4:2:0
Bit depth : 8 bits
Scan type : Progressive
Bits/(Pixel*Frame) : 0.197
Stream size : 2.93 GiB (89%)
Writing library : x264 core 161 r3048 b86ae3c
Encoding settings : cabac=1 / ref=2 / deblock=1:1:1 / analyse=0x3:0x133 / me=umh / subme=9 / psy=1 / psy_rd=0.40:1.00 / mixed_ref=1 / me_range=24 / chroma_me=1 / trellis=0 / 8x8dct=1 / cqm=0 / deadzone=21,11 / fast_pskip=1 / chroma_qp_offset=-2 / threads=16 / lookahead_threads=1 / sliced_threads=0 / nr=0 / decimate=1 / interlaced=0 / bluray_compat=0 / constrained_intra=0 / bframes=3 / b_pyramid=1 / b_adapt=1 / b_bias=0 / direct=3 / weightb=1 / open_gop=0 / weightp=2 / keyint=72 / keyint_min=37 / scenecut=0 / intra_refresh=0 / rc_lookahead=30 / rc=2pass / mbtree=1 / bitrate=3200 / ratetol=1.0 / qcomp=0.80 / qpmin=1 / qpmax=69 / qpstep=4 / cplxblur=20.0 / qblur=0.5 / vbv_maxrate=4800 / vbv_bufsize=6400 / nal_hrd=none / filler=0 / ip_ratio=1.40 / aq=1:1.00
Default : Yes
Forced : No
Color range : Limited
Color primaries : BT.709
Transfer characteristics : BT.709
Matrix coefficients : BT.709
Audio
ID : 2
Format : AC-3
Format/Info : Audio Coding 3
Commercial name : Dolby Digital
Codec ID : A_AC3
Duration : 2 h 11 min
Bit rate mode : Constant
Bit rate : 384 kb/s
Channel(s) : 6 channels
Channel layout : L R C LFE Ls Rs
Sampling rate : 48.0 kHz
Frame rate : 31.250 FPS (1536 SPF)
Compression mode : Lossy
Stream size : 361 MiB (11%)
Title : Original (iTunes)
Language : Russian
Service kind : Complete Main
Default : Yes
Forced : Yes
Menu
00:00:00.000 : en:Глава 1
00:09:21.083 : en:Глава 2
00:18:26.833 : en:Глава 3
00:26:48.958 : en:Глава 4
00:34:53.874 : en:Глава 5
00:42:58.332 : en:Глава 6
00:51:51.957 : en:Глава 7
01:00:01.998 : en:Глава 8
01:08:03.998 : en:Глава 9
01:17:15.748 : en:Глава 10
01:25:49.581 : en:Глава 11
01:34:47.831 : en:Глава 12
01:44:37.956 : en:Глава 13
01:52:55.956 : en:Глава 14
02:01:45.497 : en:Глава 15

Скриншоты

admin

Post 12-Jan-2022 05:01

[Quote]

Информация о фильме
Название: Небо
Год выхода: 2021
Жанр: Биография, драма, боевик
Режиссер: Игорь Копылов
В ролях: Игорь Петренко, Иван Батарев, Сергей Губанов, Мария Миронова, Илья Носков, Николай Козак, Дмитрий Власкин, Сергей Жарков, Дмитрий Блохин, Григорий Некрасов
О фильме:
Подполковник Сошников и капитан Муравьев — два разных характера, две разные судьбы, которым суждено будет сойтись на военной базе Хмеймим. Во время боевого вылета самолет Сошникова был сбит турецким истребителем. Это событие освещали все мировые СМИ, а за ходом спасательной операции следила вся Россия.

Выпущено: Россия / Триикс Медиа
Продолжительность: 02:11:23
Озвучивание: Оригинальное | iTunes
Файл
Формат: MKV
Качество: WEB-DL 1080p
Видео: MPEG-4 AVC, 5000 Kb/s, 1920x800
Аудио: Russian: AC3, 384 Kb/s (6 ch)
Субтитры: Нет
Дополнительно: Сохранены оригинальные чаптеры.

Инфо-файл:

Complete name : Nebo.2021.WEB-DL.1080p.ELEKTRI4KA.UNIONGANG.mkv
Format : Matroska
Format version : Version 4
File size : 4.93 GiB
Duration : 2 h 11 min
Overall bit rate : 5 375 kb/s
Movie name : Nebo.2021.WEB-DL.1080p.ELEKTRI4KA.UNIONGANG.
Encoded date : UTC 2022-01-10 19:56:57
Writing application : mkvmerge v8.3.0 ('Over the Horizon') 32bit
Writing library : libebml v1.3.1 + libmatroska v1.4.2
Video
ID : 1
Format : AVC
Format/Info : Advanced Video Codec
Format profile : High@L4
Format settings : CABAC / 3 Ref Frames
Format settings, CABAC : Yes
Format settings, Reference frames : 3 frames
Codec ID : V_MPEG4/ISO/AVC
Duration : 2 h 11 min
Bit rate : 5 000 kb/s
Width : 1 920 pixels
Height : 800 pixels
Display aspect ratio : 2.40:1
Frame rate mode : Constant
Frame rate : 24.000 FPS
Color space : YUV
Chroma subsampling : 4:2:0
Bit depth : 8 bits
Scan type : Progressive
Bits/(Pixel*Frame) : 0.136
Stream size : 4.58 GiB (93%)
Writing library : x264 core 161 r3048 b86ae3c
Encoding settings : cabac=1 / ref=4 / deblock=1:1:1 / analyse=0x3:0x133 / me=umh / subme=9 / psy=1 / psy_rd=0.40:1.00 / mixed_ref=1 / me_range=24 / chroma_me=1 / trellis=0 / 8x8dct=1 / cqm=0 / deadzone=21,11 / fast_pskip=1 / chroma_qp_offset=-2 / threads=25 / lookahead_threads=2 / sliced_threads=0 / nr=0 / decimate=1 / interlaced=0 / bluray_compat=0 / constrained_intra=0 / bframes=8 / b_pyramid=1 / b_adapt=1 / b_bias=0 / direct=3 / weightb=1 / open_gop=0 / weightp=2 / keyint=72 / keyint_min=37 / scenecut=0 / intra_refresh=0 / rc_lookahead=30 / rc=2pass / mbtree=1 / bitrate=5000 / ratetol=1.0 / qcomp=0.80 / qpmin=1 / qpmax=69 / qpstep=4 / cplxblur=20.0 / qblur=0.5 / vbv_maxrate=7500 / vbv_bufsize=10000 / nal_hrd=none / filler=0 / ip_ratio=1.40 / aq=1:1.00
Default : Yes
Forced : No
Color range : Limited
Color primaries : BT.709
Transfer characteristics : BT.709
Matrix coefficients : BT.709
Audio
ID : 2
Format : AC-3
Format/Info : Audio Coding 3
Commercial name : Dolby Digital
Codec ID : A_AC3
Duration : 2 h 11 min
Bit rate mode : Constant
Bit rate : 384 kb/s
Channel(s) : 6 channels
Channel layout : L R C LFE Ls Rs
Sampling rate : 48.0 kHz
Frame rate : 31.250 FPS (1536 SPF)
Compression mode : Lossy
Stream size : 361 MiB (7%)
Title : Original (iTunes)
Language : Russian
Service kind : Complete Main
Default : Yes
Forced : Yes
Menu
00:00:00.000 : en:Глава 1
00:09:21.083 : en:Глава 2
00:18:26.833 : en:Глава 3
00:26:48.958 : en:Глава 4
00:34:53.874 : en:Глава 5
00:42:58.332 : en:Глава 6
00:51:51.957 : en:Глава 7
01:00:01.998 : en:Глава 8
01:08:03.998 : en:Глава 9
01:17:15.748 : en:Глава 10
01:25:49.581 : en:Глава 11
01:34:47.831 : en:Глава 12
01:44:37.956 : en:Глава 13
01:52:55.956 : en:Глава 14
02:01:45.497 : en:Глава 15

Скриншоты

admin

Post 12-Jan-2022 04:32

[Quote]

Информация о фильме
Название: День мертвых
Год выхода: 2021
Жанр: драма
Режиссер: Виктор Рыжаков
В ролях: Александр Паль, Агриппина Стеклова
О фильме:
В родительскую субботу — день памяти предков — мать и сын отправляются в путешествие. Путь неблизкий: за день им нужно успеть навестить пять кладбищ. По дороге они пытаются разобраться в вечном вопросе отношений отцов и детей.

Выпущено: Россия / Art For People
Продолжительность: 01:28:36
Озвучивание: Оригинальное | iTunes
Файл
Формат: MKV
Качество: WEB-DL 720p
Видео: MPEG-4 AVC, 4069 Кb/s, 1280x720
Аудио: Russian: AC3, 384 Kb/s (6 ch)
Субтитры: Нет
Дополнительно: Сохранены оригинальные чаптеры.

Инфо-файл:

Complete name : Den.mertvyih.2021.WEB-DL.720p.ELEKTRI4KA.UNIONGANG.mkv
Format : Matroska
Format version : Version 4
File size : 2.76 GiB
Duration : 1 h 28 min
Overall bit rate : 4 455 kb/s
Movie name : Den.mertvyih.2021.WEB-DL.720p.ELEKTRI4KA.UNIONGANG.
Encoded date : UTC 2022-01-10 12:34:54
Writing application : mkvmerge v8.3.0 ('Over the Horizon') 32bit
Writing library : libebml v1.3.1 + libmatroska v1.4.2
Video
ID : 1
Format : AVC
Format/Info : Advanced Video Codec
Format profile : High@L3.1
Format settings : 2 Ref Frames
Format settings, CABAC : No
Format settings, Reference frames : 2 frames
Codec ID : V_MPEG4/ISO/AVC
Duration : 1 h 28 min
Bit rate : 4 069 kb/s
Width : 1 280 pixels
Height : 720 pixels
Display aspect ratio : 16:9
Frame rate mode : Constant
Frame rate : 24.000 FPS
Color space : YUV
Chroma subsampling : 4:2:0
Bit depth : 8 bits
Scan type : Progressive
Bits/(Pixel*Frame) : 0.184
Stream size : 2.52 GiB (91%)
Language : English
Default : Yes
Forced : No
Color range : Limited
Color primaries : BT.709
Transfer characteristics : BT.709
Matrix coefficients : BT.709
Audio
ID : 2
Format : AC-3
Format/Info : Audio Coding 3
Commercial name : Dolby Digital
Codec ID : A_AC3
Duration : 1 h 28 min
Bit rate mode : Constant
Bit rate : 384 kb/s
Channel(s) : 6 channels
Channel layout : L R C LFE Ls Rs
Sampling rate : 48.0 kHz
Frame rate : 31.250 FPS (1536 SPF)
Compression mode : Lossy
Stream size : 243 MiB (9%)
Title : Original (iTunes)
Language : Russian
Service kind : Complete Main
Default : Yes
Forced : No
Menu
00:00:00.000 : en:Глава 1
00:09:41.416 : en:Глава 2
00:18:01.582 : en:Глава 3
00:27:18.832 : en:Глава 4
00:35:54.582 : en:Глава 5
00:43:25.123 : en:Глава 6
00:51:46.748 : en:Глава 7
01:01:41.206 : en:Глава 8
01:11:08.497 : en:Глава 9
01:20:02.247 : en:Глава 10

Скриншоты

admin

Post 10-Jan-2022 01:09

[Quote]

Информация о фильме
Оригинальное название: Семь пар нечистых
Год выпуска: 2018
Жанр: Военный, драма
Режиссер: Кирилл Белевич, Юрий Ильин (II)
В ролях: Юрий Борисов (II), Мари Ворожи, Василий Мищенко, Тимофей Трибунцев, Михаил Евланов, Александр Вершинин, Евгений Куршинский, Микаэл Джанибекян, Бесо Гатаев, Кирилл Белевич-Оболенский, Александр Алёшкин, Максим Браматкин, Станислав Курач, Артём Мельничук, Александр Коротков (II), Александр Ковалёв (II), Вадим Утенков, Константин Спиркин, Егор Клеймёнов, Азамат Нигманов, Кирилл Белевич, Руслан Ягудин, Алексей Кашников, Александр Воробьёв
О фильме:
По мотивам одноименной повести Вениамина Каверина. 1941 г. Бунт на корабле — это всегда страшно. Особенно, если это бунт заключенных против охраны: из людей выплескивается ненависть, от которой некуда деться в открытом море. Этот бунт может привести к смерти не только охраны судна, но и матросов, и лейтенанта Сбоева, плывущего с секретным грузом, и случайной пассажирки — военврача Нины. Зачинщик бунта заключенный Аламасов продумал все детали, но не учел одного: корабль под названием «Онега» вышел в море 21 июня 1941 года, и когда мятеж почти увенчался успехом, судно начинают бомбить немецкие истребители.

Выпущено: Россия, АРК фильм при поддержке Фонда кино
Продолжительность: 01:21:42
Язык: Русский
Файл
Тип релиза: Blu-ray 1080p
Контейнер: BDMV
Видео: AVC / 1920x1080 / 16:9 / 24.0 fps / 27481 Kbps / High@L4.1
Аудио Rus: LPCM / 48.0 KHz / 2.0 / 2304 kbps / 24 bit
Бонусы: Галерея. Интервью. Фильмографии

BDInfo

DISC INFO:
Disc Label: Sem.par.nechistykh.BluRay.1080p.AVC.LPCM.2.0-porvaliparus
Disc Size: 20,394,985,540 bytes
Protection: AACS
Extras: BD-Java
BDInfo: 0.7.5.5
PLAYLIST REPORT:
Name: 00002.MPLS
Length: 1:21:42.208 (h:m:s.ms)
Size: 19,133,212,032 bytes
Total Bitrate: 31.22 Mbps
VIDEO:
Codec Bitrate Deion
----- ------- -----------
MPEG-4 AVC Video 27481 kbps 1080p / 24 fps / 16:9 / High Profile 4.1
AUDIO:
Codec Language Bitrate Deion
----- -------- ------- -----------
LPCM Audio Russian 2304 kbps 2.0 / 48 kHz / 2304 kbps / 24-bit
FILES:
Name Time In Length Size Total Bitrate
---- ------- ------ ---- -------------
00002.M2TS 0:00:00.000 1:21:42.208 19,133,212,032 31,224

Скриншоты

admin

Post 10-Jan-2022 01:07

[Quote]

Информация о фильме
Название: Семь пар нечистых
Год выхода: 2018
Жанр: Боевик, драма, военный, приключения
Режиссер: Кирилл Белевич
В ролях: Юра Борисов, Марина Ворожищева, Тимофей Трибунцев, Василий Мищенко, Михаил Евланов, Александр Вершинин, Евгений Куршинский, Микаэл Джанибекян, Бесо Гатаев, Александр Алёшкин и др.
О фильме: 1941 г. Бунт в открытом море – это всегда страшно. Ненависть заключенных и охранников друг к другу копится десятилетиями. Эта ненависть переполняет людей. Бунт заключенных на корабле страшен вдвойне. Слишком много ненависти на ограниченном пространстве. Но все меняется, когда появляется общий враг.

Выпущено: Россия / АРК-Фильм
Продолжительность: 01:21:42
Перевод: не требуется
Файл
Качество: BDRip 720p (исх. Sem.par.nechistykh.BluRay.1080p.AVC.LPCM.2.0-porvaliparus)
Формат: MKV
Видео: MPEG-4 AVC/H.264, 3220 Кбит/сек, 1280x536
Аудио: Русский: AC3, 2 ch, 256 Кбит/сек
Субтитры: украинские [вшитые отключаемые]

MediaInfo:

Общее
Уникальный идентификатор : 255227720911822795992094180339476659481 (0xC003122F4BC2C57FE703DF8A9BB4FD19)
Полное имя : F:1.ФИЛЬМЫ2. ФИЛЬМЫ СНГСемь пар нечистых 2018Sem par nechistykh (2018) BDRip 720p.mkv
Формат : Matroska
Версия формата : Version 4
Размер файла : 1,97 Гбайт
Продолжительность : 1 ч. 21 м.
Общий поток : 3 449 Кбит/сек
Программа кодирования : Lavf
Библиотека кодирования : Lavf
Авторское право : *=#=*
ErrorDetectionType : Per level 1
Attachments : poster.png
Язык : und
Видео
Идентификатор : 1
Формат : AVC
Формат/Информация : Advanced Video Codec
Профиль формата : High@L4.1
Настройки формата : CABAC / 12 Ref Frames
Параметр CABAC формата : Да
Параметр RefFrames формата : 12 кадров
Идентификатор кодека : V_MPEG4/ISO/AVC
Продолжительность : 1 ч. 21 м.
Битрейт : 3 220 Кбит/сек
Ширина : 1 280 пикселей
Высота : 536 пикселей
Соотношение сторон : 2,40:1
Режим частоты кадров : Постоянный
Частота кадров : 24,000 кадра/сек
Цветовое пространство : YUV
Субдискретизация насыщенности : 4:2:0
Битовая глубина : 8 бит
Тип развёртки : Прогрессивная
Бит/(Пиксели*Кадры) : 0.196
Размер потока : 1,78 Гбайт (91%)
Заголовок : Russia (ARK-Film)
Библиотека кодирования : x264 core 159 r2991 1771b55
Настройки программы : cabac=1 / ref=12 / deblock=1:-3:-3 / analyse=0x3:0x133 / me=umh / subme=11 / psy=1 / psy_rd=1.00:0.15 / mixed_ref=1 / me_range=32 / chroma_me=1 / trellis=2 / 8x8dct=1 / cqm=0 / deadzone=21,18 / fast_pskip=0 / chroma_qp_offset=-3 / threads=29 / lookahead_threads=4 / sliced_threads=0 / nr=60 / decimate=0 / interlaced=0 / bluray_compat=0 / constrained_intra=0 / bframes=16 / b_pyramid=2 / b_adapt=2 / b_bias=10 / direct=3 / weightb=1 / open_gop=0 / weightp=2 / keyint=240 / keyint_min=24 / scenecut=40 / intra_refresh=0 / rc_lookahead=60 / rc=2pass / mbtree=0 / bitrate=3220 / ratetol=1.0 / qcomp=0.70 / qpmin=3 / qpmax=69 / qpstep=4 / cplxblur=20.0 / qblur=0.5 / vbv_maxrate=5000 / vbv_bufsize=4000 / nal_hrd=none / filler=0 / ip_ratio=1.40 / pb_ratio=1.30 / aq=1:0.60
Язык : Russian
Default : Да
Forced : Нет
Цветовой диапазон : Limited
Основные цвета : BT.709
Характеристики трансфера : BT.709
Коэффициенты матрицы : BT.709
Аудио
Идентификатор : 2
Формат : AC-3
Формат/Информация : Audio Coding 3
Коммерческое название : Dolby Digital
Идентификатор кодека : A_AC3
Продолжительность : 1 ч. 21 м.
Вид битрейта : Постоянный
Битрейт : 256 Кбит/сек
Каналы : 2 канала
Channel layout : L R
Частота : 48,0 КГц
Частота кадров : 31,250 кадров/сек (1536 SPF)
Битовая глубина : 16 бит
Метод сжатия : С потерями
Размер потока : 150 Мбайт (7%)
Заголовок : Original (Russian)
Язык : Russian
Service kind : Complete Main
Default : Да
Forced : Нет
Текст
Идентификатор : 3
Формат : ASS
Идентификатор кодека : S_TEXT/ASS
Идентификатор кодека/Информация : Advanced Sub Station Alpha
Метод сжатия : Без потерь
Язык : Ukrainian
Default : Да
Forced : Нет
СЭМПЛ

admin

Post 08-Jan-2022 01:21

[Quote]

Информация о фильме
Название: Старые шишки
Год выхода: 2021
Жанр: Комедия
Режиссер: Андрей Шавкеро
В ролях: Алексей Гуськов, Ирина Алферова, Василий Кортуков, Елена Валюшкина, Валентина Мазунина, Николай Козак, Сергей Баталов, Виктор Сосновцев, Максим Белбородов, Сергей Борисов, Александра Власова, Петр Черняев, Юрий Лопарев, Александр Коньшин, Надежда Подъяпольская, Константин Третьяков, Сергей Галькевич, Лариса Маркина, Ведат Меметов, Эллина Бандеева, Николай Рыжков, Татьяна Ошуркова, Валентина Юркова, Наталия Махрова
О фильме:
В доме престарелых «Шишки» каждый день похож на предыдущий. Старики поджигают салфетки в столовой, заведующая сама красит стены, а благотворитель вместо лекарств дарит гробы. Все меняется, когда к одному из постояльцев приезжает друг по прозвищу Балагур. Он решает доказать всем, что умирать еще рано, а вот тряхнуть стариной — самое то. Вместе с бывшей театральной актрисой троица придумывает необычный бизнес и быстро приходит к успеху: жизнь в «Шишках» становится курортом! Вот только энергичные пенсионеры стали конкурентами местных бандитов…

Страна: Россия
Студия: ООО «Студия Свердловск»
Продолжительность: 01:19:04
Язык: Русский | КиноПоиск HD
Цифровой релиз: 31 декабря 2021 года (КиноПоиск HD)
Примечание: Без рекламы
Версия 18+
Файл
Формат: MKV
Качество: WEB-DL 1080p
Видео: MPEG-4 AVC, 6000 Кбит/с, 1920x818
Аудио #01: E-AC3, 6 ch, 448 Кбит/с | RUS
Аудио #02: AC3, 6 ch, 448 Кбит/с | RUS
Субтитры: Русские (полные)
Семпл

Скриншоты

MI

Общее
Уникальный идентификатор : 281240778828894941180500966199603387274 (0xD39500F5F3CFE50CA478676CD6465B8A)
Полное имя : D:Starye.shishki.2021.WEB-DL.1080p.ELEKTRI4KA.UNIONGANG.mkv
Формат : Matroska
Версия формата : Version 4
Размер файла : 3,73 Гбайт
Продолжительность : 1 ч. 19 м.
Общий поток : 6 756 Кбит/сек
Название фильма : Starye.shishki.2021.WEB-DL.1080p.ELEKTRI4KA.UNIONGANG
Дата кодирования : UTC 2021-12-31 17:52:01
Программа кодирования : mkvmerge v64.0.0 ('Willows') 64-bit
Библиотека кодирования : libebml v1.4.2 + libmatroska v1.6.4
Attachments : poster.jpg
Видео
Идентификатор : 1
Формат : AVC
Формат/Информация : Advanced Video Codec
Профиль формата : High@L4
Настройки формата : CABAC / 5 Ref Frames
Параметр CABAC формата : Да
Параметр RefFrames формата : 5 кадров
Идентификатор кодека : V_MPEG4/ISO/AVC
Продолжительность : 1 ч. 19 м.
Битрейт : 6 000 Кбит/сек
Ширина : 1 920 пикселей
Высота : 818 пикселей
Соотношение сторон : 2,35:1
Режим частоты кадров : Постоянный
Частота кадров : 25,000 кадров/сек
Цветовое пространство : YUV
Субдискретизация насыщенности : 4:2:0
Битовая глубина : 8 бит
Тип развёртки : Прогрессивная
Бит/(Пиксели*Кадры) : 0.153
Размер потока : 3,23 Гбайт (87%)
Библиотека кодирования : x264 core 157
Настройки программы : cabac=1 / ref=5 / deblock=1:0:0 / analyse=0x3:0x133 / me=umh / subme=10 / psy=1 / psy_rd=1.00:0.00 / mixed_ref=1 / me_range=24 / chroma_me=1 / trellis=2 / 8x8dct=1 / cqm=0 / deadzone=21,11 / fast_pskip=1 / chroma_qp_offset=-2 / threads=26 / lookahead_threads=4 / sliced_threads=0 / nr=0 / decimate=1 / interlaced=0 / bluray_compat=0 / stitchable=1 / constrained_intra=0 / bframes=8 / b_pyramid=2 / b_adapt=2 / b_bias=0 / direct=3 / weightb=1 / open_gop=0 / weightp=2 / keyint=200 / keyint_min=100 / scenecut=40 / intra_refresh=0 / rc_lookahead=60 / rc=2pass / mbtree=1 / bitrate=6000 / ratetol=1.0 / qcomp=0.60 / qpmin=0 / qpmax=69 / qpstep=4 / cplxblur=20.0 / qblur=0.5 / vbv_maxrate=6600 / vbv_bufsize=9000 / nal_hrd=none / filler=0 / ip_ratio=1.40 / aq=1:1.00
Default : Да
Forced : Нет
Аудио #1
Идентификатор : 2
Формат : E-AC-3
Формат/Информация : Enhanced AC-3
Коммерческое название : Dolby Digital Plus
Идентификатор кодека : A_EAC3
Продолжительность : 1 ч. 19 м.
Вид битрейта : Постоянный
Битрейт : 448 Кбит/сек
Каналы : 6 каналов
Channel layout : L R C LFE Ls Rs
Частота : 48,0 КГц
Частота кадров : 31,250 кадров/сек (1536 SPF)
Метод сжатия : С потерями
Размер потока : 253 Мбайт (7%)
Заголовок : Original E-AC3 [KinoPoisk HD]
Язык : Russian
Service kind : Complete Main
Default : Да
Forced : Да
Аудио #2
Идентификатор : 3
Формат : AC-3
Формат/Информация : Audio Coding 3
Коммерческое название : Dolby Digital
Идентификатор кодека : A_AC3
Продолжительность : 1 ч. 19 м.
Вид битрейта : Постоянный
Битрейт : 448 Кбит/сек
Каналы : 6 каналов
Channel layout : L R C LFE Ls Rs
Частота : 48,0 КГц
Частота кадров : 31,250 кадров/сек (1536 SPF)
Метод сжатия : С потерями
Размер потока : 253 Мбайт (7%)
Заголовок : AC3 [KinoPoisk HD]
Язык : Russian
Service kind : Complete Main
Default : Нет
Forced : Нет
Текст
Идентификатор : 4
Формат : UTF-8
Идентификатор кодека : S_TEXT/UTF8
Идентификатор кодека/Информация : UTF-8 Plain Text
Продолжительность : 1 ч. 17 м.
Битрейт : 93 бит/сек
Count of elements : 787
Размер потока : 52,5 Кбайт (0%)
Язык : Russian
Default : Нет
Forced : Нет

admin

Post 08-Jan-2022 01:19

[Quote]

Информация о фильме
Название: Старые шишки
Год выхода: 2021
Жанр: Комедия
Режиссер: Андрей Шавкеро
В ролях: Алексей Гуськов, Ирина Алферова, Василий Кортуков, Елена Валюшкина, Валентина Мазунина, Николай Козак, Сергей Баталов, Виктор Сосновцев, Максим Белбородов, Сергей Борисов, Александра Власова, Петр Черняев, Юрий Лопарев, Александр Коньшин, Надежда Подъяпольская, Константин Третьяков, Сергей Галькевич, Лариса Маркина, Ведат Меметов, Эллина Бандеева, Николай Рыжков, Татьяна Ошуркова, Валентина Юркова, Наталия Махрова
Слоган: «Миссия: не накосячить»
О фильме: В доме престарелых «Шишки» каждый день похож на предыдущий. Старики поджигают салфетки в столовой, заведующая сама красит стены, а благотворитель вместо лекарств дарит гробы. Все меняется, когда к одному из постояльцев приезжает друг по прозвищу Балагур. Он решает доказать всем, что умирать еще рано, а вот тряхнуть стариной — самое то. Вместе с бывшей театральной актрисой троица придумывает необычный бизнес и быстро приходит к успеху: жизнь в «Шишках» становится курортом! Вот только энергичные пенсионеры стали конкурентами местных бандитов…

Выпущено: Россия / ООО «Студия Свердловск»
Продолжительность: 01:19:04
Перевод: не требуется КиноПоиск HD
Файл
Качество: WEB-DL 720p
Формат: MKV
Видео: MPEG-4 AVC/H.264, 3240 Кбит/сек, 1280x546
Аудио: Русский: AC3, 6 ch, 448 Кбит/сек
Субтитры: русские, украинские [вшитые отключаемые]

MediaInfo:

Общее
Уникальный идентификатор : 150443286374825654098424647282908283987 (0x712E52B12F62D8C8D2BBD2E14E9D4453)
Полное имя : F:1.ФИЛЬМЫ2. ФИЛЬМЫ СНГСтарые шишки (2021)Staryye shishki (2021) WEB-DL 720p KinoPoisk.mkv
Формат : Matroska
Версия формата : Version 4
Размер файла : 2,04 Гбайт
Продолжительность : 1 ч. 19 м.
Режим общего битрейта : Переменный
Общий поток : 3 695 Кбит/сек
Дата кодирования : UTC 2022-01-07 13:41:03
Программа кодирования : mkvmerge v64.0.0 ('Willows') 64-bit
Библиотека кодирования : libebml v1.4.2 + libmatroska v1.6.4
Attachments : poster.jpg
Видео
Идентификатор : 1
Формат : AVC
Формат/Информация : Advanced Video Codec
Профиль формата : High@L4.1
Настройки формата : CABAC / 2 Ref Frames
Параметр CABAC формата : Да
Параметр RefFrames формата : 2 кадра
Идентификатор кодека : V_MPEG4/ISO/AVC
Продолжительность : 1 ч. 19 м.
Вид битрейта : Переменный
Битрейт : 3 240 Кбит/сек
Максимальный битрейт : 9 660 Кбит/сек
Ширина : 1 280 пикселей
Высота : 546 пикселей
Соотношение сторон : 2,35:1
Режим частоты кадров : Постоянный
Частота кадров : 25,000 кадров/сек
Цветовое пространство : YUV
Субдискретизация насыщенности : 4:2:0
Битовая глубина : 8 бит
Тип развёртки : Прогрессивная
Бит/(Пиксели*Кадры) : 0.185
Размер потока : 1,79 Гбайт (88%)
Заголовок : Russia (Studio Sverdlovsk LLC)
Язык : Russian
Default : Да
Forced : Нет
Цветовой диапазон : Limited
Основные цвета : BT.709
Характеристики трансфера : BT.709
Коэффициенты матрицы : BT.709
Аудио
Идентификатор : 2
Формат : AC-3
Формат/Информация : Audio Coding 3
Коммерческое название : Dolby Digital
Идентификатор кодека : A_AC3
Продолжительность : 1 ч. 19 м.
Вид битрейта : Постоянный
Битрейт : 448 Кбит/сек
Каналы : 6 каналов
Channel layout : L R C LFE Ls Rs
Частота : 48,0 КГц
Частота кадров : 31,250 кадров/сек (1536 SPF)
Метод сжатия : С потерями
Размер потока : 253 Мбайт (12%)
Заголовок : Original (Russian)
Язык : Russian
Service kind : Complete Main
Default : Нет
Forced : Нет
Текст #1
Идентификатор : 3
Формат : UTF-8
Идентификатор кодека : S_TEXT/UTF8
Идентификатор кодека/Информация : UTF-8 Plain Text
Продолжительность : 1 ч. 17 м.
Битрейт : 93 бит/сек
Count of elements : 787
Размер потока : 52,5 Кбайт (0%)
Язык : Russian
Default : Нет
Forced : Нет
Текст #2
Идентификатор : 4
Формат : ASS
Идентификатор кодека : S_TEXT/ASS
Идентификатор кодека/Информация : Advanced Sub Station Alpha
Продолжительность : 1 ч. 17 м.
Битрейт : 122 бит/сек
Count of elements : 787
Метод сжатия : Без потерь
Размер потока : 68,9 Кбайт (0%)
Язык : Ukrainian
Default : Да
Forced : Нет
18+
СЭМПЛ
 

Current time is: 26-Jan 01:16

All times are UTC + 3