Search found 303 matches

Author Message

admin

Post Today 00:32

[Quote]

Рэпер
Год выпуска: 2022
Жанр: драма, криминал
Продолжительность: 01:43:25
Субтитры: Нет-Режиссёр: Стас Крючков
В ролях: Азиз Султанов, Антон Волков, Валерия Трухина, Атхам Султанов, Сергей Акуленко, Александр Фуголь-Описание: Молодой рэпер Рах готовится к сольному концерту и мечтает уехать из маленького города. Вместе со своим другом по прозвищу Грех он готов пойти на всё ради успеха. Но что на самом деле нужно Раху? По какому пути он пойдёт дальше: справится или станет лишь пешкой в игре преступной группировки?
-Качество: WEB-DL 1080p
Формат: MKV
Видео: MPEG-4 (AVC), 1920х1080 (16:9), 24 fps, ~ 6000 kbps
Аудио: E-AC3, 48 kHz, 6 ch, 448 Kbps-

MediaInfo

General
Complete name : Reper.2022.1080p-EniaHD.mkv
Format : Matroska
Format version : Version 4
File size : 4.65 GiB
Duration : 1 h 43 min
Overall bit rate : 6 433 kb/s
Movie name : Рэпер (2022) - EniaHD
Writing application : mkvmerge v65.0.0 ('Too Much') 64-bit
Writing library : libebml v1.4.2 + libmatroska v1.6.4
Video
ID : 1
Format : AVC
Format/Info : Advanced Video Codec
Format profile : High@L4
Format settings : CABAC / 4 Ref Frames
Format settings, CABAC : Yes
Format settings, Reference frames : 4 frames
Codec ID : V_MPEG4/ISO/AVC
Duration : 1 h 43 min
Bit rate : 6 000 kb/s
Width : 1 920 pixels
Height : 1 080 pixels
Display aspect ratio : 16:9
Frame rate mode : Constant
Frame rate : 24.000 FPS
Color space : YUV
Chroma subsampling : 4:2:0
Bit depth : 8 bits
Scan type : Progressive
Bits/(Pixel*Frame) : 0.121
Stream size : 4.23 GiB (91%)
Writing library : x264 core 157
Encoding settings : cabac=1 / ref=4 / deblock=1:0:0 / analyse=0x3:0x133 / me=umh / subme=10 / psy=1 / psy_rd=1.00:0.00 / mixed_ref=1 / me_range=24 / chroma_me=1 / trellis=2 / 8x8dct=1 / cqm=0 / deadzone=21,11 / fast_pskip=1 / chroma_qp_offset=-2 / threads=34 / lookahead_threads=5 / sliced_threads=0 / nr=0 / decimate=1 / interlaced=0 / bluray_compat=0 / stitchable=1 / constrained_intra=0 / bframes=8 / b_pyramid=2 / b_adapt=2 / b_bias=0 / direct=3 / weightb=1 / open_gop=0 / weightp=2 / keyint=250 / keyint_min=24 / scenecut=40 / intra_refresh=0 / rc_lookahead=60 / rc=2pass / mbtree=1 / bitrate=6000 / ratetol=1.0 / qcomp=0.60 / qpmin=0 / qpmax=69 / qpstep=4 / cplxblur=20.0 / qblur=0.5 / vbv_maxrate=6600 / vbv_bufsize=24000 / nal_hrd=none / filler=0 / ip_ratio=1.40 / aq=1:1.00
Default : Yes
Forced : No
Audio
ID : 2
Format : E-AC-3
Format/Info : Enhanced AC-3
Commercial name : Dolby Digital Plus
Codec ID : A_EAC3
Duration : 1 h 43 min
Bit rate mode : Constant
Bit rate : 448 kb/s
Channel(s) : 6 channels
Channel layout : L R C LFE Ls Rs
Sampling rate : 48.0 kHz
Frame rate : 31.250 FPS (1536 SPF)
Compression mode : Lossy
Stream size : 331 MiB (7%)
Language : Russian
Service kind : Complete Main
Default : Yes
Forced : No

Скриншоты

admin

Post 21-Jun-2022 20:51

[Quote]

Информация о фильме
Название: Модель
Год выхода: 2022
Жанр: Триллер, драма
Режиссер: Ольга Ланд
В ролях: Анна Дойникова, Светлана Ефремова, Илья Волох, Екатерина Гусева, Игорь Жижикин, Арина Слесарева, Дмитрий С. Будрин, Виктория Полторак, Томас Скоуфолд
О фильме:
Аня отправляется по контракту в Лос-Анджелес для работы в модельном агентстве. Проснувшись после вечеринки, она обнаруживает в руках окровавленный нож. Ее подозревают в преступлении, но разгадать тайны юной модели окажется совсем не просто.

Страна: Россия
Студия: Ogon Film Studio
Продолжительность: 01:32:52
Язык: Русский
Файл
Кодек: MPEG-4 AVC
Качество: WEB-DL 720p
Видео: MPEG-4 AVC, 2670 Кбит/с, 1280x534
Звук: AC3, 6 ch, 384 Кбит/с
Реклама, любого вида, отсутствует.

Скриншоты


admin

Post 21-Jun-2022 20:48

[Quote]

Информация о фильме
Название: Модель
Год выхода: 2022
Жанр: Триллер, драма
Режиссер: Ольга Ланд
В ролях: Анна Дойникова, Светлана Ефремова, Илья Волох, Екатерина Гусева, Игорь Жижикин, Арина Слесарева, Дмитрий С. Будрин, Виктория Полторак, Томас Скоуфолд
О фильме:
Аня отправляется по контракту в Лос-Анджелес для работы в модельном агентстве. Проснувшись после вечеринки, она обнаруживает в руках окровавленный нож. Ее подозревают в преступлении, но разгадать тайны юной модели окажется совсем не просто.

Страна: Россия
Студия: Ogon Film Studio
Продолжительность: 01:32:52
Язык: Русский
Файл
Кодек: MPEG-4 AVC
Качество: WEB-DL 1080p
Видео: MPEG-4 AVC, 5120 Кбит/с, 1920x802
Звук: AC3, 6 ch, 384 Кбит/с
Реклама, любого вида, отсутствует.

Скриншоты

admin

Post 19-Jun-2022 19:44

[Quote]

«Один гарпун... и море проблем!»
Информация о фильме
Название: Приплыли!
Год выхода: 2022
Жанр: комедия
Режиссер: Юрий Ярушников
В ролях: Владимир Яглыч, Роман Фомин, Маргарита Аброськина, Александр Соколовский, Игорь Золотовицкий, Мария Голицына, Василий Кортуков
О фильме:
Незадачливый романтик Паша мечтает сделать предложение своей девушке, разыграв на яхте сцену из «Титаника». Однако у отца Паши совсем другие планы — яхта нужна ему, чтобы провернуть одну не очень законную операцию. В итоге морская прогулка оборачивается чередой безумных событий, в которой запланированное кораблекрушение будет далеко не самой большой проблемой.

Выпущено: Россия / XOVP eXtraOrdinary Virtual Production
Продолжительность: 01:27:50
Озвучивание: Оригинальное | KION
Файл
Формат: MKV
Качество: WEB-DL 1080p
Видео: MPEG-4 AVC, 6144 Kb/s, 1920x1080
Аудио: Russian: AC3, 640 Kb/s (6 ch)
Субтитры: Нет
Дополнительно: Нет

Инфо-файл:

Complete name : Priplyili.2022.WEB-DL.1080p.ELEKTRI4KA.UNIONGANG.mkv
Format : Matroska
Format version : Version 4
File size : 4.13 GiB
Duration : 1 h 27 min
Overall bit rate mode : Constant
Overall bit rate : 6 735 kb/s
Movie name : Priplyili.2022.WEB-DL.1080p.ELEKTRI4KA.UNIONGANG.
Encoded date : UTC 2022-06-18 22:05:38
Writing application : mkvmerge v63.0.0 ('Everything') 32-bit
Writing library : libebml v1.4.2 + libmatroska v1.6.4
Video
ID : 1
Format : AVC
Format/Info : Advanced Video Codec
Format profile : Baseline@L4
Format settings : 2 Ref Frames
Format settings, CABAC : No
Format settings, Reference frames : 2 frames
Codec ID : V_MPEG4/ISO/AVC
Duration : 1 h 27 min
Bit rate mode : Constant
Bit rate : 6 144 kb/s
Width : 1 920 pixels
Height : 1 080 pixels
Display aspect ratio : 16:9
Frame rate mode : Constant
Frame rate : 24.000 FPS
Color space : YUV
Chroma subsampling : 4:2:0
Bit depth : 8 bits
Scan type : Progressive
Bits/(Pixel*Frame) : 0.123
Stream size : 3.74 GiB (90%)
Default : Yes
Forced : No
Audio
ID : 2
Format : AC-3
Format/Info : Audio Coding 3
Commercial name : Dolby Digital
Codec ID : A_AC3
Duration : 1 h 27 min
Bit rate mode : Constant
Bit rate : 640 kb/s
Channel(s) : 6 channels
Channel layout : L R C LFE Ls Rs
Sampling rate : 48.0 kHz
Frame rate : 31.250 FPS (1536 SPF)
Compression mode : Lossy
Stream size : 402 MiB (10%)
Title : Original (KION)
Language : Russian
Service kind : Complete Main
Default : Yes
Forced : Yes

Скриншоты

admin

Post 11-Jun-2022 03:57

[Quote]

Бодибилдер
Год выпуска: 2022
Страна: Россия
Жанр: триллер, спорт
Продолжительность: 01:31:08
Субтитры: Нет-Режиссёр: Андрей Грачев
В ролях: Денис Семенихин, Михаил Горевой, Виктория Полторак, Владимир Епифанцев, Дарья Повереннова, Сергей Чонишвили, Максим Линников, Михаил Черкасов-Описание: Макс – знаменитый бодибилдер, мечтающий стать чемпионом планеты, по состоянию здоровья вынужден уйти из спорта. Его жизнь катится под откос. Случайно он знакомится с врачом скорой помощи Виктором, который когда-то по заказу Минобороны разработал уникальное лекарство, позволяющее не только лечить самые страшные заболевания, но и усиливать все возможности человеческого тела. Однако проект был заморожен. Виктор хочет закончить работу. Ему нужен испытуемый, и Макс идеально подходит для завершения эксперимента.
-Качество: WEB-DL 1080p
Формат: MKV
Видео: MPEG-4 (AVC), 1920х804 (2.40:1), 24 fps, ~ 6000 kbps
Аудио: E-AC3, 48 kHz, 6 ch, 448 Kbps-

Скриншоты

admin

Post 10-Jun-2022 05:06

[Quote]

Информация о фильме
Название: Первый Оскар
Год выхода: 2022
Жанр: Драма, военный, история
Режиссер: Сергей Мокрицкий
В ролях: Тихон Жизневский, Антон Момот, Дарья Жовнер, Андрей Мерзликин, Никита Тарасов, Василий Мищенко, Михаил Брашинский, Алексей Колган, Станислав Стрелков, Лев Малишава
О фильме:
Осень 1941 года. Немецкие войска на подступах к Москве. Студенты-операторы Лев Альперин и Иван Майский отказываются уезжать в эвакуацию и добиваются направления на фронт, чтобы с кинокамерами оказаться в эпицентре грандиозной битвы за Москву. А в мирном Лос-Анджелесе 15-я церемония вручения премии «Оскар» начинается с сенсации − главную кинонаграду Голливуда получает документальная лента из СССР.

Страна: Россия
Студия: Новые люди, «Централ Партнершип»
Продолжительность: 01:54:10
Язык: Русский
Файл
Кодек: MPEG-4 AVC
Качество: WEB-DL 1080p
Видео: MPEG-4 AVC, 5000 Кбит/с, 1920x1080
Звук: AC3, 6 ch, 384 Кбит/с
Реклама, любого вида, отсутствует.

Скриншоты

admin

Post 10-Jun-2022 05:03

[Quote]

Информация о фильме
Название: Первый Оскар
Год выхода: 2022
Жанр: Драма, военный, история
Режиссер: Сергей Мокрицкий
В ролях: Тихон Жизневский, Антон Момот, Дарья Жовнер, Андрей Мерзликин, Никита Тарасов, Василий Мищенко, Михаил Брашинский, Алексей Колган, Станислав Стрелков, Лев Малишава
О фильме:
Осень 1941 года. Немецкие войска на подступах к Москве. Студенты-операторы Лев Альперин и Иван Майский отказываются уезжать в эвакуацию и добиваются направления на фронт, чтобы с кинокамерами оказаться в эпицентре грандиозной битвы за Москву. А в мирном Лос-Анджелесе 15-я церемония вручения премии «Оскар» начинается с сенсации − главную кинонаграду Голливуда получает документальная лента из СССР.

Страна: Россия
Студия: Новые люди, «Централ Партнершип»
Продолжительность: 01:54:10
Язык: Русский
Файл
Кодек: MPEG-4 AVC
Качество: WEB-DL 720p
Видео: MPEG-4 AVC, 3200 Кбит/с, 1280x720
Звук: AC3, 6 ch, 384 Кбит/с
Реклама, любого вида, отсутствует.

Скриншоты


admin

Post 06-Jun-2022 05:55

[Quote]

Информация о фильме
Название: Тайна амулета
Год выхода: 2022
Жанр: Фэнтези, семейный
Режиссер: Елена Бычкова
В ролях: Александр Пацевич, Роман Коваль, Евгений Зарубин, Алексей Трофимов, Макар Пусторамов, Дмитрий Мигунов, Ирина Вилкова, Иван Агапов, Ирина Пегова, Ольга Кавалай-Аксенова
О фильме:
Трое малознакомых молодых людей сталкиваются с мифической птицей, которая превращает их обратно в детей. Им предстоит разыскать могущественный амулет желаний, попавший не в те руки. Добрая семейная сказка о вере в чудо и мечту с элементами славянской мифологии и красивыми приморскими пейзажами.

Страна: Россия
Студия: Сияна
Продолжительность: 01:34:57
Язык: Русский
Файл
Кодек: MPEG-4 AVC
Качество: WEB-DL 1080p
Видео: MPEG-4 AVC, 6000 Кбит/с, 1920x720
Звук: Русский (AC3, 6 ch, 448 Кбит/с), (E-AC3, 6 ch, 448 Кбит/с)
Реклама, любого вида, отсутствует.

Скриншоты

admin

Post 05-Jun-2022 06:08

[Quote]

Информация о фильме
Название: Не женская игра
Год выхода: 2011
Жанр: триллер
Режиссер: Валентин Донсков
В ролях: Ксения Лаврова-Глинка, Константин Юшкевич, Вероника Агапова, Галина Звягинцева
О фильме: В Москве существует некий закрытый женский клуб, члены которого разыгрывают на рулетке судьбы незнакомых им людей, которых потом убивают...

Страна: Россия
Студия: "Народное кино"
Продолжительность: 4 x ~ 00:45:00
Файл
Кодек: H.264
Качество: WEBRip 720p
Видео: MPEG-4 (AVC), 1280х720@1196x720, 25 fps, ~ 950 kbps, ~ 0.04 bit/pixel
Звук: AC3, 44.1 kHz, 2 ch, 192 Kbps
Семпл

Скриншоты


admin

Post 03-Jun-2022 05:01

[Quote]

Информация о фильме
Название: Отчаянные дольщики
Год выхода: 2021
Жанр: Комедия, криминал
Режиссер: Илья Фарфель
В ролях: Михаил Трухин, Максим Лагашкин, Екатерина Стулова, Никита Кологривый, Ольга Веникова, Александра Флоринская, Григорий Сиятвинда, Екатерина Шмакова, Кирилл Гребенщиков, Жаннат Керимбаев
О фильме:
Кто не мечтает о своей квартире, да ещё в центре города? Две заурядные семейные пары — не исключение. Однако на пути к их мечте встаёт ушлый застройщик, который взамен кровно нажитых денег даёт только котлован для фундамента. Простые россияне не хотят мириться с несправедливостью и совершенно случайно берут главу строительной компании в плен.

Страна: Россия
Студия: Yellow, Black & White
Продолжительность: 01:27:28
Язык: Русский
Файл
Кодек: MPEG-4 AVC
Качество: WEB-DL 1080p
Видео: MPEG-4 AVC, 5000 Кбит/с, 1920x800
Звук: AC3, 6 ch, 384 Кбит/с

Скриншоты

admin

Post 31-May-2022 05:11

[Quote]

Информация о фильме
Оригинальное название: 1941. Крылья над Берлином
Год выхода: 2022
Жанр: боевик, военный, исторический
Режиссер: Константин Буслов
В ролях: Сергей Пускепалис, Максим Битюков, Сергей Гилёв, Гела Месхи, Александр Метёлкин (II), Николай Козак, Егор Кирячок, Евгений Сафронов, Евгений Антропов, Владимир Тяптушкин, Степан Белозеров, Равиль Батыров (II), Алексей Овсянников, Леонела Мантурова, Наталья Николаева (V), Олег Савостюк (II), Всеволод Иванов (II), Арсений Тополага, Дмитрий Матвеев (II), Сергей Демидов, Георгий Иобадзе, Александр Кудин, Евгения Лях, Тимур Орагвелидзе, Кирилл Папин, Юрий Павлов, Иван Решетняк, Максим Солопов, Яков Шамшин, Андрей Харенко
О фильме:
История о подвиге лётчиков 1-го минно-торпедного авиационного полка ВВС Балтийского флота во главе с полковником Преображенским. У них была сложнейшая боевая задача — нанести первые бомбовые удары по Берлину, столице фашистской Германии.

Выпущено: Россия / RB Production
Продолжительность: 01:40:05
Озвучивание: Оригинальное | КиноПоиск HD
Субтитры: Нет
Файл
Формат: Matroska
Качество: WEB-DLRip 720p
Видео: 1280x536 at 24.000 fps, x264@L4.1, ~2339 kbps
Аудио 1: AC3, 6 ch, ~448 kbps - | Русский |
Аудио 2: E-AC3, 6 ch, ~448 kbps - | Русский |
► Без Рекламы!

M/I

x264 [info]: frame I:1381 Avg QP:16.63 size: 74927
x264 [info]: frame P:33600 Avg QP:17.70 size: 24375
x264 [info]: frame B:109139 Avg QP:19.60 size: 7635
x264 [info]: consecutive B-frames: 2.3% 2.3% 8.6% 43.9% 10.4% 20.0% 3.0% 8.2% 0.7% 0.5%
General
Unique ID : 56879527564280710018000419496847185550 (0x2ACA9939A57C8A38CBD91B17E557968E)
Complete name : K:1941.Крылья над Берлином.2022.WEB-DLRip.x264.720p.mkv
Format : Matroska
Format version : Version 4
File size : 2.26 GiB
Duration : 1 h 40 min
Overall bit rate : 3 237 kb/s
Encoded date : UTC 2022-05-30 11:40:48
Writing application : mkvmerge v63.0.0 ('Everything') 64-bit
Writing library : libebml v1.4.2 + libmatroska v1.6.4
Cover : Yes
Attachments : cover.jpg / cover 2.jpg
Video
ID : 1
Format : AVC
Format/Info : Advanced Video Codec
Format profile : High@L4.1
Format settings : CABAC / 12 Ref Frames
Format settings, CABAC : Yes
Format settings, Reference : 12 frames
Codec ID : V_MPEG4/ISO/AVC
Duration : 1 h 40 min
Bit rate : 2 339 kb/s
Width : 1 280 pixels
Height : 536 pixels
Display aspect ratio : 2.40:1
Frame rate mode : Constant
Frame rate : 24.000 FPS
Color space : YUV
Chroma subsampling : 4:2:0
Bit depth : 8 bits
Scan type : Progressive
Bits/(Pixel*Frame) : 0.142
Stream size : 1.64 GiB (72%)
Title : -=DoMiNo=-
Writing library : x264 core 164 r3094 bfc87b7
Encoding settings : cabac=1 / ref=12 / deblock=1:-2:-2 / analyse=0x3:0x133 / me=umh / subme=9 / psy=1 / psy_rd=1.10:0.20 / mixed_ref=1 / me_range=32 / chroma_me=1 / trellis=2 / 8x8dct=1 / cqm=0 / deadzone=21,11 / fast_pskip=0 / chroma_qp_offset=-3 / threads=17 / lookahead_threads=2 / sliced_threads=0 / nr=0 / decimate=1 / interlaced=0 / bluray_compat=0 / constrained_intra=0 / bframes=9 / b_pyramid=2 / b_adapt=2 / b_bias=0 / direct=1 / weightb=1 / open_gop=0 / weightp=2 / keyint=250 / keyint_min=24 / scenecut=40 / intra_refresh=0 / rc_lookahead=60 / rc=crf / mbtree=0 / crf=20.0 / qcomp=0.65 / qpmin=0 / qpmax=69 / qpstep=4 / vbv_maxrate=50000 / vbv_bufsize=62500 / crf_max=0.0 / nal_hrd=none / filler=0 / ip_ratio=1.35 / pb_ratio=1.25 / aq=3:0.90
Language : Russian
Default : Yes
Forced : No
Color range : Limited
Color primaries : BT.709
Transfer characteristics : BT.709
Matrix coefficients : BT.709
Audio #1
ID : 2
Format : AC-3
Format/Info : Audio Coding 3
Commercial name : Dolby Digital
Codec ID : A_AC3
Duration : 1 h 40 min
Bit rate mode : Constant
Bit rate : 448 kb/s
Channel(s) : 6 channels
Channel layout : L R C LFE Ls Rs
Sampling rate : 48.0 kHz
Frame rate : 31.250 FPS (1536 SPF)
Compression mode : Lossy
Stream size : 321 MiB (14%)
Language : Russian
Service kind : Complete Main
Default : Yes
Forced : No
Audio #2
ID : 3
Format : E-AC-3
Format/Info : Enhanced AC-3
Commercial name : Dolby Digital Plus
Codec ID : A_EAC3
Duration : 1 h 40 min
Bit rate mode : Constant
Bit rate : 448 kb/s
Channel(s) : 6 channels
Channel layout : L R C LFE Ls Rs
Sampling rate : 48.0 kHz
Frame rate : 31.250 FPS (1536 SPF)
Compression mode : Lossy
Stream size : 321 MiB (14%)
Title : Original EAC3 (KP HD)
Language : Russian
Service kind : Complete Main
Default : No
Forced : No
Menu
00:00:00.000 : :Глава 01
00:12:30.000 : :Глава 02
00:25:00.000 : :Глава 03
00:37:30.000 : :Глава 04
00:50:00.000 : :Глава 05
01:02:30.000 : :Глава 06
01:15:00.000 : :Глава 07
01:27:30.000 : :Глава 08
01:40:00.000 : :Глава 09

admin

Post 30-May-2022 05:51

[Quote]

Информация о фильме
Оригинальное название: 1941. Крылья над Берлином
Год выхода: 2020
Жанр: боевик, военный, исторический
Режиссер: Константин Буслов
В ролях: Сергей Пускепалис, Максим Битюков, Сергей Гилёв, Гела Месхи, Александр Метёлкин (II), Николай Козак, Егор Кирячок, Евгений Сафронов, Евгений Антропов, Владимир Тяптушкин, Степан Белозеров, Равиль Батыров (II), Алексей Овсянников, Леонела Мантурова, Наталья Николаева (V), Олег Савостюк (II), Всеволод Иванов (II), Арсений Тополага, Дмитрий Матвеев (II), Сергей Демидов, Георгий Иобадзе, Александр Кудин, Евгения Лях, Тимур Орагвелидзе, Кирилл Папин, Юрий Павлов, Иван Решетняк, Максим Солопов, Яков Шамшин, Андрей Харенко
О фильме:
История о подвиге лётчиков 1-го минно-торпедного авиационного полка ВВС Балтийского флота во главе с полковником Преображенским. У них была сложнейшая боевая задача — нанести первые бомбовые удары по Берлину, столице фашистской Германии.

Выпущено: Россия / RB Production
Продолжительность: 01:40:05
Озвучивание: Оригинальное | КиноПоиск HD
Файл
Формат: MKV
Качество: WEB-DL 1080p
Видео: MPEG-4 AVC, 6000 Kb/s, 1920x804
Аудио: Russian: АС3, 448 Kb/s (6 ch) / E-АС3, 448 Kb/s (6 ch)
Субтитры: Нет
Дополнительно: Нет.

Инфо-файл:

Complete name : 1941.Kryilya.nad.Berlinom.2022.KP.WEB-DL.1080p.ELEKTRI4KA.UNIONGANG.mkv
Format : Matroska
Format version : Version 4
File size : 4.81 GiB
Duration : 1 h 40 min
Overall bit rate : 6 876 kb/s
Movie name : 1941.Kryilya.nad.Berlinom.2022.KP.WEB-DL.1080p.ELEKTRI4KA.UNIONGANG.
Encoded date : UTC 2022-05-29 22:30:55
Writing application : mkvmerge v63.0.0 ('Everything') 32-bit
Writing library : libebml v1.4.2 + libmatroska v1.6.4
Video
ID : 1
Format : AVC
Format/Info : Advanced Video Codec
Format profile : High@L4
Format settings : CABAC / 5 Ref Frames
Format settings, CABAC : Yes
Format settings, Reference frames : 5 frames
Codec ID : V_MPEG4/ISO/AVC
Duration : 1 h 40 min
Bit rate : 6 000 kb/s
Width : 1 920 pixels
Height : 804 pixels
Display aspect ratio : 2.40:1
Frame rate mode : Constant
Frame rate : 24.000 FPS
Color space : YUV
Chroma subsampling : 4:2:0
Bit depth : 8 bits
Scan type : Progressive
Bits/(Pixel*Frame) : 0.162
Stream size : 4.18 GiB (87%)
Writing library : x264 core 157
Encoding settings : cabac=1 / ref=5 / deblock=1:0:0 / analyse=0x3:0x133 / me=umh / subme=10 / psy=1 / psy_rd=1.00:0.00 / mixed_ref=1 / me_range=24 / chroma_me=1 / trellis=2 / 8x8dct=1 / cqm=0 / deadzone=21,11 / fast_pskip=1 / chroma_qp_offset=-2 / threads=25 / lookahead_threads=4 / sliced_threads=0 / nr=0 / decimate=1 / interlaced=0 / bluray_compat=0 / stitchable=1 / constrained_intra=0 / bframes=8 / b_pyramid=2 / b_adapt=2 / b_bias=0 / direct=3 / weightb=1 / open_gop=0 / weightp=2 / keyint=250 / keyint_min=24 / scenecut=40 / intra_refresh=0 / rc_lookahead=60 / rc=2pass / mbtree=1 / bitrate=6000 / ratetol=1.0 / qcomp=0.60 / qpmin=0 / qpmax=69 / qpstep=4 / cplxblur=20.0 / qblur=0.5 / vbv_maxrate=6600 / vbv_bufsize=24000 / nal_hrd=none / filler=0 / ip_ratio=1.40 / aq=1:1.00
Default : Yes
Forced : No
Audio #1
ID : 2
Format : AC-3
Format/Info : Audio Coding 3
Commercial name : Dolby Digital
Codec ID : A_AC3
Duration : 1 h 40 min
Bit rate mode : Constant
Bit rate : 448 kb/s
Channel(s) : 6 channels
Channel layout : L R C LFE Ls Rs
Sampling rate : 48.0 kHz
Frame rate : 31.250 FPS (1536 SPF)
Compression mode : Lossy
Stream size : 321 MiB (7%)
Title : Original AC3 (KP HD)
Language : Russian
Service kind : Complete Main
Default : Yes
Forced : Yes
Audio #2
ID : 3
Format : E-AC-3
Format/Info : Enhanced AC-3
Commercial name : Dolby Digital Plus
Codec ID : A_EAC3
Duration : 1 h 40 min
Bit rate mode : Constant
Bit rate : 448 kb/s
Channel(s) : 6 channels
Channel layout : L R C LFE Ls Rs
Sampling rate : 48.0 kHz
Frame rate : 31.250 FPS (1536 SPF)
Compression mode : Lossy
Stream size : 321 MiB (7%)
Title : Original EAC3 (KP HD)
Language : Russian
Service kind : Complete Main
Default : No
Forced : No

Скриншоты

admin

Post 15-May-2022 15:56

[Quote]

-Название: Оторви и выбрось
Год выхода: 2021
Жанр: комедия, боевик
Режиссер: Кирилл Соколов
В ролях: Анна Михалкова, Виктория Короткова, Софья Кругова, Александр Яценко, Ольга Лапшина, Виталий Хаев, Данил Стеклов, Игорь Грабузов, Евгений Сытый
Страна: Россия
Студия: Кинокомпания «САГа», Метрафильмс
Продолжительность: 01:39:08
Файл
Качество: Blu-ray 1080p
Видео: MPEG-4 AVC, 8582 Кбит/с, 1920x960
Аудио 01: Немецкий, DTS-HD MA, 6 ch, 2390 Кбит/с
Аудио 02: Русский, DTS-HD MA, 6 ch, 1912 Кбит/с
Субтитры: Немецкие (Full), немецкие (Forced)- - -Описание:
От любящей родни не уйдешь. Суровая Вера Павловна отправляется в лихую погоню за своей внучкой Машей и непутёвой дочерью Олей. Помогает ей в этом Олег — все еще влюбленный в Олю «бывший», даже после того, как посадил за решетку. Кажется, во всей этой уморительной суматохе только маленькая Маша знает, как взрослым не слететь с катушек.

Скриншоты



admin

Post 15-May-2022 15:16

[Quote]

Информация о фильме
Название: Родители строгого режима
Год выхода: 2022
Жанр: комедия
Режиссер: Никита Владимиров
В ролях: Алиса Фрейндлих, Александр Адабашьян, Евгений Ткачук, Ольга Медынич, Игорь Хрипунов, Владимир Сычев, Валерия Федорович, Елена Руфанова, Анна Алексахина, Александр Безруков
О фильме:
Родители запирают сына дома на перевоспитание. Ему 38 лет. Он — мэр.

Выпущено: Россия / Искусство для людей
Продолжительность: 01:19:11
Озвучивание: Оригинальное [KION]
Файл
Формат: MKV (x264)
Качество: WEB-DL 1080p
Видео: 6144 Kb/s, 1920x1080
Аудио: Russian: AC3, 640 Kb/s (6 ch)
Субтитры: Нет
Дополнительно: Нет

Инфо-файл:

Complete name : Roditeli.strogogo.rezhima.2022.WEB-DL.1080p.ELEKTRI4KA.UNIONGANG.mkv
Format : Matroska
Format version : Version 4
File size : 3.70 GiB
Duration : 1 h 19 min
Overall bit rate mode : Constant
Overall bit rate : 6 692 kb/s
Movie name : Roditeli.strogogo.rezhima.2022.WEB-DL.1080p.ELEKTRI4KA.UNIONGANG.
Encoded date : UTC 2022-05-14 22:05:39
Writing application : mkvmerge v8.3.0 ('Over the Horizon') 32bit
Writing library : libebml v1.3.1 + libmatroska v1.4.2
Video
ID : 1
Format : AVC
Format/Info : Advanced Video Codec
Format profile : Baseline@L4
Format settings : 2 Ref Frames
Format settings, CABAC : No
Format settings, Reference frames : 2 frames
Codec ID : V_MPEG4/ISO/AVC
Duration : 1 h 19 min
Bit rate mode : Constant
Bit rate : 6 144 kb/s
Width : 1 920 pixels
Height : 1 080 pixels
Display aspect ratio : 16:9
Frame rate mode : Constant
Frame rate : 24.000 FPS
Color space : YUV
Chroma subsampling : 4:2:0
Bit depth : 8 bits
Scan type : Progressive
Bits/(Pixel*Frame) : 0.123
Stream size : 3.35 GiB (90%)
Default : Yes
Forced : No
Audio
ID : 2
Format : AC-3
Format/Info : Audio Coding 3
Commercial name : Dolby Digital
Codec ID : A_AC3
Duration : 1 h 19 min
Bit rate mode : Constant
Bit rate : 640 kb/s
Channel(s) : 6 channels
Channel layout : L R C LFE Ls Rs
Sampling rate : 48.0 kHz
Frame rate : 31.250 FPS (1536 SPF)
Compression mode : Lossy
Stream size : 362 MiB (10%)
Title : Original (KION)
Language : Russian
Service kind : Complete Main
Default : Yes
Forced : Yes

Скриншоты

admin

Post 10-May-2022 01:49

[Quote]

Информация о фильме
Название: Возвращение с фронта
Год выхода: 2021
Жанр: Драма, военный
Режиссер: Николай Гадомский
В ролях: Любовь Гамова, Анатолий Горковенко, Елена Зорина, Эльвира Плотникова, Светлана Алферова, Юлия Просянникова, Дмитрий Шестаков, Елена Сафронова, Ирина Нольфина, Евгений Нимаев
О фильме:
В самый разгар Великой Отечественной войны возвращается с фронта домой к родным двадцатилетняя Пашка, отслужив санитаркой и героически спасая раненых солдат. Параллельно на Западном фронте всё ещё идут ожесточенные бои и воспоминания с фронта настигают героиню каждый день в мирной жизни… ведь каждый день на войне как последний.

Страна: Россия
Студия: «Кенон Фильм»
Продолжительность: 01:15:03
Язык: Русский
Файл
Кодек: MPEG-4 AVC
Качество: WEB-DL 1080p
Видео: MPEG-4 AVC, 5120 Кбит/с, 1920x804
Звук: AC3, 6 ch, 384 Кбит/с
Реклама, любого вида, отсутствует.

Скриншоты

 

Current time is: 28-Jun 14:30

All times are UTC + 3