Search found 219 matches

Author Message

itaSal

Post 06-Dec-2019 22:46

[Quote]

Ok. I use translate and will be good ok?

admin

Post 06-Dec-2019 06:29

[Quote]

Информация о фильме
Название: Двое
«Жизнь даётся на время»
Год выхода: 2018
Жанр: Драма
Режиссер: Тимофей Жалнин
В ролях: Антон Момот, Татьяна Полосина, Андрей Щепочкин, Александра Мареева, Андрей Астраханцев, Андрей Толшин, Сергей Доможаков, Валентин Ульчугаев
О фильме:
Отчаявшись поправить здоровье путём традиционной медицины, Надя уговаривает своего мужа Андрея отправиться в поход к целебным озерам. Андрей соглашается. В этом походе, вдали от сурового тестя, он планирует сообщить Наде о разводе. Но природа вмешивается в планы героев. Из-за начавшихся дождей, вода в реке поднимается, отрезая путь домой. В поисках переправы, Андрей и Надя теряются в глухой сибирской тайге. С этого момента начинается их сложный путь борьбы со своими страхами и работы над ошибками прошлого. Только здесь, оказавшись на грани жизни и смерти, они по-настоящему узнают себя и друг друга.

Страна: Россия
Студия: АРТЛАЙТ, Инвада фильм
Продолжительность: 01:36:12
Перевод: Не требуется
Файл
Качество: WEB-DL 1080p
Формат: MKV
Кодек: MPEG-4 AVC
Видео: 1920x804 (2,40:1), 24 fps, MPEG-4 AVC ~ 4511 Кbps avg, 0.122 bit/pixel
Аудио: AC3, 48 kHz, 6 ch, ~384.00 kbps avg | русский | iTunes

Инфо-файл

Общее
Уникальный идентификатор : 191210522543678528446009003846071679056 (0x8FD9CE9E6CE88338BCFCEB5F0EEEF850)
Полное имя : G:DVOE (2018) WEB-DL 1080p.mkv
Формат : Matroska
Версия формата : Version 4
Размер файла : 3,29 Гбайт
Продолжительность : 1 ч. 36 м.
Общий поток : 4897 Кбит/сек
Название фильма : DVOE (2018) WEB-DL 1080p
Дата кодирования : UTC 2019-12-05 06:53:11
Программа кодирования : mkvmerge v38.0.0 ('The Silent Type') 64-bit
Библиотека кодирования : libebml v1.3.9 + libmatroska v1.5.2
Обложка : Yes
Attachments : cover.jpg
Видео
Идентификатор : 1
Формат : AVC
Формат/Информация : Advanced Video Codec
Профиль формата : High@L4
Настройки формата : CABAC / 5 Ref Frames
Параметр CABAC формата : Да
Параметр RefFrames формата : 5 кадров
Идентификатор кодека : V_MPEG4/ISO/AVC
Продолжительность : 1 ч. 36 м.
Битрейт : 4511 Кбит/сек
Ширина : 1920 пикселей
Высота : 804 пикселя
Соотношение сторон : 2,40:1
Режим частоты кадров : Постоянный
Частота кадров : 24,000 кадра/сек
Цветовое пространство : YUV
Субдискретизация насыщенности : 4:2:0
Битовая глубина : 8 бит
Тип развёртки : Прогрессивная
Бит/(Пиксели*Кадры) : 0.122
Размер потока : 3,03 Гбайт (92%)
Заголовок : #stillet
Язык : English
Default : Да
Forced : Нет
Цветовой диапазон : Limited
Основные цвета : BT.709
Характеристики трансфера : BT.709
Коэффициенты матрицы : BT.709
Аудио
Идентификатор : 2
Формат : AC-3
Формат/Информация : Audio Coding 3
Коммерческое название : Dolby Digital
Идентификатор кодека : A_AC3
Продолжительность : 1 ч. 36 м.
Вид битрейта : Постоянный
Битрейт : 384 Кбит/сек
Каналы : 6 каналов
ChannelLayout : L R C LFE Ls Rs
Частота : 48,0 КГц
Частота кадров : 31,250 кадров/сек (1536 SPF)
Метод сжатия : С потерями
Задержка видео : -42 мс.
Размер потока : 264 Мбайт (8%)
Заголовок : iTunes | DVOE (2018) WEB-DL 1080p
Язык : Russian
Default : Да
Forced : Нет
Меню
00:00:00.000 : en:Глава 1
00:08:43.707 : en:Глава 2
00:17:19.207 : en:Глава 3
00:25:51.540 : en:Глава 4
00:34:01.415 : en:Глава 5
00:42:13.373 : en:Глава 6
00:50:33.748 : en:Глава 7
00:58:49.081 : en:Глава 8
01:07:04.331 : en:Глава 9
01:16:18.663 : en:Глава 10
01:24:53.829 : en:Глава 11

Скриншоты

admin

Post 22-Nov-2019 19:23

[Quote]

Информация о фильме
Название: Девушки бывают разные
Год выхода: 2019
Жанр: комедия, драма
Режиссер: Сарик Андреасян
В ролях: Дмитрий Нагиев, Роман Попов, Артем Сучков, Дмитрий Власкин, Владимир Яглыч, Зоя Бербер, Елизавета Моряк, Алена Чехова
О фильме:
Это история о трёх друзьях, решивших покататься на серфе в Мексике. Все как полагается: океан, девушки и золотой песок. История не предвещает неожиданностей. Но не для наших героев, которые первым делом как следует отметили свой приезд. С трудом проснувшись наутро, парни обнаруживают себя посреди пляжа, они в замешательстве — не помнят, что же произошло накануне. Но вскоре появляются люди, которые освежают им память: оказывается, прошлой ночью парни страшно навредили международному криминальному авторитету Хуану, который по какой-то причине хочет их убить. Скрываясь от преследования, без денег и документов, они находят спасение — переодеваются в девушек и участвуют в женском турнире по сёрфингу. Победа поможет выиграть сто тысяч долларов и выбраться из страны. Но они еще не знают, что их неидеальному плану помешают любовь, секретные спецслужбы, мафия и даже бойцовые петухи.

Страна: Россия
Студия: Fetisoff Illusion
Продолжительность: 01:29:15
Перевод: Русский | iTunes
Файл
Кодек: MKV
Качество: WEB-DL 1080p
Видео: MPEG4 AVC Video, H264, 2.40:1, 1920x800, 24 fps, 5097 kbps
Звук: Russian (AC3, 6 ch, 384 kbps, 16 bits, 48.0 KHz) - оригинал
Субтитры: Отсутствуют

Скриншоты

MI

MediaInfo
General
Unique ID : 221014064901784692167770124994939612657 (0xA645C2B4E144E0409FAEA6AFD6C26DF1)
Complete name : D:Devushki.byvayut.raznye.2019.WEB-DL.(1080p).Getty.mkv
Format : Matroska
Format version : Version 4 / Version 2
File size : 3.42 GiB
Duration : 1 h 29 min
Overall bit rate : 5 483 kb/s
Movie name : Devushki.byvayut.raznye.2019.WEB-DL.(1080p).Getty
Encoded date : UTC 2019-11-20 23:12:57
Writing application : mkvmerge v7.8.0 ('River Man') 32bit built on Mar 27 2015 16:18:02
Writing library : libebml v1.3.1 + libmatroska v1.4.2
Video
ID : 1
Format : AVC
Format/Info : Advanced Video Codec
Format profile : High@L4
Format settings : CABAC / 4 Ref Frames
Format settings, CABAC : Yes
Format settings, ReFrames : 4 frames
Format settings, GOP : M=7, N=48
Codec ID : V_MPEG4/ISO/AVC
Duration : 1 h 29 min
Bit rate : 5 097 kb/s
Width : 1 920 pixels
Height : 800 pixels
Display aspect ratio : 2.40:1
Frame rate mode : Constant
Frame rate : 24.000 FPS
Color space : YUV
Chroma subsampling : 4:2:0
Bit depth : 8 bits
Scan type : Progressive
Bits/(Pixel*Frame) : 0.138
Stream size : 3.18 GiB (93%)
Default : Yes
Forced : No
Audio
ID : 2
Format : AC-3
Format/Info : Audio Coding 3
Codec ID : A_AC3
Duration : 1 h 29 min
Bit rate mode : Constant
Bit rate : 384 kb/s
Channel(s) : 6 channels
Channel positions : Front: L C R, Side: L R, LFE
Sampling rate : 48.0 kHz
Frame rate : 31.250 FPS (1536 SPF)
Bit depth : 16 bits
Compression mode : Lossy
Stream size : 245 MiB (7%)
Service kind : Complete Main
Default : Yes
Forced : No

admin

Post 08-Nov-2019 01:28

[Quote]

Дикая Лига
Страна: Россия
Производство: Кинокомпания «Союз Маринс Групп», Modern Age Productions
Жанр: приключения, боевик
Год выпуска: 2019
Продолжительность: 01:50:53
Режиссеры: Андрей Богатырев, Арт Камачо
В ролях: Владимир Яглыч, Аделина Голубенко-Гизатуллина, Иван Охлобыстин, Дмитрий Назаров, Евгений Коряковский, Олеся Судзиловская, Эдриан Пол, Уильям Шокли, Станислав Тикунов, Анатолий Гущин, Иван Михайловский, Вячеслав Шихалеев, Павел Абраменков, Денис Кузнецов, Антон Колесников, Мария Дубина, Михаил Мелин, Вилен Бабичев
Описание: Основанная на реальных событиях начала XX века история парня Варлама из низших социальных слоев, которому ради того, чтобы быть с любимой, пришлось покинуть родные края и начать жить в Москве. Проявившего себя в бою стенка на стенку парня замечает англичанин, владелец футбольного клуба, который предлагает ему попробовать силы в команде. Однако команда не принимает неотесанного бурлака с Волги. Тогда собравшись с силами, Варлам вместе с настоящим патриотом и увлеченным футболом купцом Балашовым создает первую народную команду и становится лидером, изменив при этом свою жизнь и жизнь окружающих. Благодаря Варламу и его команде футбол в России становится поистине народной игрой...

Перевод: не требуется (оригинал)
Субтитры: нет-Качество: WEB-DL 1080p
Формат: МКV
Видео кодек: AVC
Аудио кодек: АС3
Видео: 1920x804 (2.40:1), 24.000 fps, MPEG-4 AVC ~4 999 kbps avg
Аудио: 48.0 kHz, AC3 Dolby Digital, 2/0 (L,R) ch, ~192 kbps
Дата премьеры (РФ): 24 октября 2019, «Кинолэнд»

Media Info

General
Уникальный идентификатор : 190370550511859357735889469031185101795 (0x8F3808CCDE08EB71AFAA4CA3EABBB3E3)
Полное имя : Dikaya.liga.2019.WEB-DL.(1080p).Getty.mkv
Формат : Matroska
Версия формата : Version 4
Размер файла : 4,02 Гбайт
Продолжительность : 1 ч. 50 м.
Общий поток : 5193 Кбит/сек
Название фильма : Dikaya.liga.2019.WEB-DL.(1080p).Getty
Дата кодирования : UTC 2019-11-07 01:46:28
Программа кодирования : mkvmerge v7.8.0 ('River Man') 32bit built on Mar 27 2015 16:18:02
Библиотека кодирования : libebml v1.3.1 + libmatroska v1.4.2
Видео
Идентификатор : 1
Формат : AVC
Формат/Информация : Advanced Video Codec
Профиль формата : High@L4
Настройки формата : CABAC / 3 Ref Frames
Параметр CABAC формата : Да
Параметр RefFrames формата : 3 кадра
Идентификатор кодека : V_MPEG4/ISO/AVC
Продолжительность : 1 ч. 50 м.
Битрейт : 4999 Кбит/сек
Ширина : 1920 пикселей
Высота : 804 пикселя
Соотношение сторон : 2,40:1
Режим частоты кадров : Постоянный
Частота кадров : 24,000 кадра/сек
Цветовое пространство : YUV
Субдискретизация насыщенности : 4:2:0
Битовая глубина : 8 бит
Тип развёртки : Прогрессивная
Бит/(Пиксели*Кадры) : 0.135
Размер потока : 3,87 Гбайт (96%)
Default : Да
Forced : Нет
Цветовой диапазон : Limited
Основные цвета : BT.709
Характеристики трансфера : BT.709
Коэффициенты матрицы : BT.709
Аудио
Идентификатор : 2
Формат : AC-3
Формат/Информация : Audio Coding 3
Коммерческое название : Dolby Digital
Идентификатор кодека : A_AC3
Продолжительность : 1 ч. 50 м.
Вид битрейта : Постоянный
Битрейт : 192 Кбит/сек
Каналы : 2 канала
ChannelLayout : L R
Частота : 48,0 КГц
Частота кадров : 31,250 кадров/сек (1536 SPF)
Битовая глубина : 16 бит
Метод сжатия : С потерями
Размер потока : 152 Мбайт (4%)
Default : Да
Forced : Нет

Скриншоты

admin

Post 05-Nov-2019 01:17

[Quote]

Информация о фильме
Название: Волшебник
Год выпуска: 2019
Жанр: Комедия, драма
Режиссер: Михаил Морсков
В ролях: Семен Трескунов, Максим Суханов, Ангелина Стречина, Ирина Купченко, Владимир Капустин, Ирина Яковлева, Иван Охлобыстин, Сергей Чонишвили, Сергей Аброскин, Екатерина Маликова
О фильме:
В прошлом популярный рок-музыкант Фима влачит жалкое существование, растратив свой талант и предаваясь разгульному образу жизни. Все меняется, когда уроки на гитаре у него начинает брать мальчик Рома, страдающий ДЦП и отчаянно жаждущий завоевать сердце своей одноклассницы Маши.

Страна: Россия
Студия: RSS Production
Продолжительность: 01:22:57
Перевод: Не требуется | iTunes
Субтитры: Нет
Файл
Формат: MKV
Качество: WEB-DL 1080p
Видео: AVC/H.264, 1920x712, ~5120 Kbps
Аудио: AC3, 6 ch, 384 Kbps

MediaInfo:

Общее
Формат : Matroska
Версия формата : Version 4
Размер файла : 3,19 Гбайт
Продолжительность : 1 ч. 22 м.
Общий поток : 5504 Кбит/сек
Дата кодирования : UTC 2019-11-03 19:14:11
Программа кодирования : mkvmerge v38.0.0 ('The Silent Type') 64-bit
Библиотека кодирования : libebml v1.3.9 + libmatroska v1.5.2
Видео
Идентификатор : 1
Формат : AVC
Формат/Информация : Advanced Video Codec
Профиль формата : High@L4
Настройки формата : CABAC / 4 Ref Frames
Параметр CABAC формата : Да
Параметр RefFrames формата : 4 кадра
Идентификатор кодека : V_MPEG4/ISO/AVC
Продолжительность : 1 ч. 22 м.
Битрейт : 5120 Кбит/сек
Ширина : 1920 пикселей
Высота : 712 пикселей
Соотношение сторон : 2,697
Режим частоты кадров : Постоянный
Частота кадров : 25,000 кадров/сек
Цветовое пространство : YUV
Субдискретизация насыщенности : 4:2:0
Битовая глубина : 8 бит
Тип развёртки : Прогрессивная
Бит/(Пиксели*Кадры) : 0.150
Размер потока : 2,97 Гбайт (93%)
Default : Нет
Forced : Нет
Цветовой диапазон : Limited
Основные цвета : BT.709
Характеристики трансфера : BT.709
Коэффициенты матрицы : BT.709
Аудио
Идентификатор : 2
Формат : AC-3
Формат/Информация : Audio Coding 3
Коммерческое название : Dolby Digital
Идентификатор кодека : A_AC3
Продолжительность : 1 ч. 22 м.
Вид битрейта : Постоянный
Битрейт : 384 Кбит/сек
Каналы : 6 каналов
ChannelLayout : L R C LFE Ls Rs
Частота : 48,0 КГц
Частота кадров : 31,250 кадров/сек (1536 SPF)
Битовая глубина : 16 бит
Метод сжатия : С потерями
Размер потока : 228 Мбайт (7%)
Язык : Russian
ServiceKind : Complete Main
Default : Да
Forced : Нет

Скриншоты

admin

Post 25-Oct-2019 02:08

[Quote]

Сторож
Страна: Россия
Производство: АРТЛАЙТ, Инвада фильм, Yellow, Black & White
Год выпуска: 2019
Жанр: драма, триллер
Продолжительность: 01:43:10
Режиссер: Юрий Быков
В ролях: Юрий Быков, Владислав Абашин, Алла Юганова, Александр Кузьмин, Артур Бесчастный, Гела Месхи, Олег Зима, Алексей Симонов, Николай Козак
Описание: Размеренную жизнь сторожа заброшенного санатория нарушает приезд странной пары, которая просит остановиться в одном из номеров. Всем троим есть что скрывать и от чего прятаться в снежной глуши...

Перевод: не требуется | оригинал
Субтитры: нет-Качество: WEBRip 1080р
Формат: МКV
Видео кодек: AVC
Аудио кодек: АС3
Видео: 1920x800 (2.40:1), 24.000 fps, MPEG-4 AVC ~3 588 kbps avg
Аудио №1: 48.0 kHz, AC3 Dolby Digital, 2/0 (L,R) ch, ~192 kbps | RUS / с цензурой
Аудио №2: 48.0 kHz, AC3 Dolby Digital, 2/0 (L,R) ch, ~192 kbps | RUS / без цензуры
Дата премьеры (мир): 24 октября 2019, «КиноПоиск»

Media Info

General
Unique ID : 234355031818119408558590079128724875221 (0xB04F2328B0B44DABB63008B7EAFCA7D5)
Complete name : Storozh.2019.WEB-DL.(1080p).Getty.mkv
Format : Matroska
Format version : Version 4 / Version 2
File size : 2.92 GiB
Duration : 1 h 43 min
Overall bit rate mode : Variable
Overall bit rate : 4 053 kb/s
Movie name : Storozh.2019.WEB-DL.(1080p).Getty
Encoded date : UTC 2019-10-24 02:18:15
Writing application : mkvmerge v6.1.0 ('Old Devil') built on Mar 2 2013 14:32:37
Writing library : libebml v1.3.0 + libmatroska v1.4.0
Video
ID : 1
Format : AVC
Format/Info : Advanced Video Codec
Format profile : High@L4
Format settings : CABAC / 5 Ref Frames
Format settings, CABAC : Yes
Format settings, ReFrames : 5 frames
Codec ID : V_MPEG4/ISO/AVC
Duration : 1 h 43 min
Bit rate mode : Variable
Bit rate : 3 588 kb/s
Maximum bit rate : 40.0 Mb/s
Width : 1 920 pixels
Height : 800 pixels
Display aspect ratio : 2.40:1
Frame rate mode : Constant
Frame rate : 24.000 FPS
Color space : YUV
Chroma subsampling : 4:2:0
Bit depth : 8 bits
Scan type : Progressive
Bits/(Pixel*Frame) : 0.097
Stream size : 2.59 GiB (89%)
Default : Yes
Forced : No
Audio #1
ID : 2
Format : AC-3
Format/Info : Audio Coding 3
Codec ID : A_AC3
Duration : 1 h 43 min
Bit rate mode : Constant
Bit rate : 192 kb/s
Channel(s) : 2 channels
Channel positions : Front: L R
Sampling rate : 48.0 kHz
Frame rate : 31.250 FPS (1536 SPF)
Bit depth : 16 bits
Compression mode : Lossy
Stream size : 142 MiB (5%)
Language : Russian
Service kind : Complete Main
Default : Yes
Forced : No
Audio #2
ID : 3
Format : AC-3
Format/Info : Audio Coding 3
Codec ID : A_AC3
Duration : 1 h 43 min
Bit rate mode : Constant
Bit rate : 192 kb/s
Channel(s) : 2 channels
Channel positions : Front: L R
Sampling rate : 48.0 kHz
Frame rate : 31.250 FPS (1536 SPF)
Bit depth : 16 bits
Compression mode : Lossy
Stream size : 142 MiB (5%)
Title : +18
Language : Russian
Service kind : Complete Main
Default : No
Forced : No

Скриншоты

admin

Post 22-Oct-2019 02:24

[Quote]

Информация о фильме
Название: Ничей
Год выхода: 2019
Жанр: Драма
Режиссер: Евгений Татаров
В ролях: Надежда Маркина, Олег Чугунов, Владимир Меньшов, Дарья Юргенс, Галина Бокашевская, Владимир Ямненко, Хельга Филиппова, Сергей Рост, Александр Тютрюмов, Андрей Шимко
О фильме:
После смерти матери двенадцатилетнего Колю отправляют в детский дом. Оттуда его забирает Валентина. Эта одинокая пожилая женщина — его родная тётя, с которой он прежде не был знаком. Коля ждёт, что старший брат после освобождения из тюрьмы приедет за ним, и они вместе вернутся домой.

Страна: Россия
Студия: АТК-Студио
Продолжительность: 01:16:43
Перевод: Не требуется
Файл
Качество: WEB-DL 1080p
Формат: MKV
Кодек: MPEG-4 AVC
Видео: 1920x806 (2,40:1), 25 fps, MPEG-4 AVC ~ 4516 Кbps avg, 0.117 bit/pixel
Аудио: AC3, 48 kHz, 6 ch, ~384.00 kbps avg | русский | iTunes

Инфо-файл

Общее
Уникальный идентификатор : 221572612106248626018139112098907570375 (0xA6B15535BBAD224CA76A1EC8B7A040C7)
Полное имя : NiCHEJ_2019_WEB-DL_1080p-BLUEBIRD.mkv
Формат : Matroska
Версия формата : Version 4 / Version 2
Размер файла : 2,68 Гбайт
Продолжительность : 1 ч. 16 м.
Общий поток : 4999 Кбит/сек
Название фильма : NiCHEJ_2019_WEB-DL_1080p-BLUEBIRD
Дата кодирования : UTC 2019-10-20 18:15:40
Программа кодирования : mkvmerge v6.9.1 ('Blue Panther') 32bit built on Apr 18 2014 18:15:44
Библиотека кодирования : libebml v1.3.0 + libmatroska v1.4.1
Обложка : Yes
Attachments : cover.png
Видео
Идентификатор : 1
Формат : AVC
Формат/Информация : Advanced Video Codec
Профиль формата : High@L4
Настройки формата : CABAC / 5 Ref Frames
Параметр CABAC формата : Да
Параметр RefFrames формата : 5 кадров
Идентификатор кодека : V_MPEG4/ISO/AVC
Продолжительность : 1 ч. 16 м.
Битрейт : 4516 Кбит/сек
Ширина : 1920 пикселей
Высота : 806 пикселей
Соотношение сторон : 2,40:1
Режим частоты кадров : Постоянный
Частота кадров : 25,000 кадров/сек
Цветовое пространство : YUV
Субдискретизация насыщенности : 4:2:0
Битовая глубина : 8 бит
Тип развёртки : Прогрессивная
Бит/(Пиксели*Кадры) : 0.117
Размер потока : 2,42 Гбайт (90%)
Заголовок : NiCHEJ_2019_WEB-DL_1080p-BLUEBIRD
Язык : English
Default : Да
Forced : Нет
Цветовой диапазон : Limited
Основные цвета : BT.709
Характеристики трансфера : BT.709
Коэффициенты матрицы : BT.709
Аудио
Идентификатор : 2
Формат : AC-3
Формат/Информация : Audio Coding 3
Идентификатор кодека : A_AC3
Продолжительность : 1 ч. 16 м.
Вид битрейта : Постоянный
Битрейт : 384 Кбит/сек
Каналы : 6 каналов
Расположение каналов : Front: L C R, Side: L R, LFE
Частота : 48,0 КГц
Частота кадров : 31,250 кадров/сек (1536 SPF)
Битовая глубина : 16 бит
Метод сжатия : С потерями
Размер потока : 211 Мбайт (8%)
Заголовок : [ORIGINAL] DD 5.1 @ 384 kbps (iTunes)
Язык : Russian
Default : Да
Forced : Нет
Меню
00:00:00.000 : en:Глава 1
00:08:07.920 : en:Глава 2
00:16:33.040 : en:Глава 3
00:25:03.920 : en:Глава 4
00:34:38.200 : en:Глава 5
00:42:49.880 : en:Глава 6
00:50:57.320 : en:Глава 7
01:00:24.640 : en:Глава 8
01:08:35.920 : en:Глава 9

Скриншоты

admin

Post 14-Oct-2019 02:59

[Quote]

Информация о фильме
Оригинальное название: Дорогой папа
Год выхода: 2019
Жанр: Комедия, семейный
Режиссер: Михаил Расходников
В ролях: Владимир Вдовиченков, Валентина Ляпина, Владимир Сычев, Ирина Пегова, Николай Шрайбер, Иева Андреевайте, Игорь Ясулович, Юлия Сулес, Варвара Малкова, Андрей Пермяков
О фильме:
Владелец ведущей торговой сети Вадим Дюмин привык добиваться своего любыми способами. Обаяние и продуманный план помогают ему найти китайского инвестора, готового стать партнером в компании Вадима, оформленной когда-то на его маму. Вот только, оказалось, она завещала акции своей внучке, его дочери... Которую Вадим бросил, когда ей было 2 года.
Теперь Вадим должен поехать в свой родной маленький город, найти бывшую жену и дочь и убедить их отказаться от наследства на сумму... где-то полмиллиарда долларов. Вадим уверен, что его обаяние и манипуляции сработают и здесь, но в мире дочери его методы не работают, и слово "дорогой" здесь совсем не про деньги.
«Богатый тоже плачет»
Страна: Россия
Студия: Renovatio Entertainment, РВВ
Продолжительность: 01:28:13
Перевод: Оригинал | [iTunes]
Файл
Кодек: MPEG-4 AVC
Качество: WEB-DL 720p
Видео: 1280х532 (2.40:1), 24 fps, AVC MPEG-4 (x264), High@L4.1 2503 kbps avg, 0.153 bit/pixel
Звук: 48 kHz, AC3 Dolby Digital, 3/2 (L,C,R,l,r) + LFE ch, ~384.00 kbps avg | RUS (iTunes)
Дата премьеры (мир): 12 сентября 2019, «Централ Партнершип»
Дата премьеры (РФ):
Цифровой релиз:

Скриншоты


Mi

MediaInfo
Общее
Уникальный идентификатор : 246995731384125318378555446272157266287 (0xB9D1A5C3ED2FDCEBB4D671072127B16F)
Полное имя : G:Dorogoy.papa.2019.WEB-DL.(720p).ExKinoRay.mkv
Формат : Matroska
Версия формата : Version 4 / Version 2
Размер файла : 1,82 Гбайт
Продолжительность : 1 ч. 28 м.
Общий поток : 2947 Кбит/сек
Название фильма : Dorogoy.papa.2019 #TorpedoUK#
Дата кодирования : UTC 2019-10-12 12:19:43
Программа кодирования : mkvmerge v6.9.1 ('Blue Panther') 64bit built on Apr 18 2014 18:23:38
Библиотека кодирования : libebml v1.3.0 + libmatroska v1.4.1
Видео
Идентификатор : 1
Формат : AVC
Формат/Информация : Advanced Video Codec
Профиль формата : High@L4
Настройки формата : CABAC / 4 Ref Frames
Параметр CABAC формата : Да
Параметр RefFrames формата : 4 кадра
Идентификатор кодека : V_MPEG4/ISO/AVC
Продолжительность : 1 ч. 28 м.
Битрейт : 2505 Кбит/сек
Ширина : 1280 пикселей
Высота : 532 пикселя
Соотношение сторон : 2,40:1
Режим частоты кадров : Постоянный
Частота кадров : 24,000 кадра/сек
Цветовое пространство : YUV
Субдискретизация насыщенности : 4:2:0
Битовая глубина : 8 бит
Тип развёртки : Прогрессивная
Бит/(Пиксели*Кадры) : 0.153
Размер потока : 1,54 Гбайт (85%)
Default : Да
Forced : Нет
Аудио
Идентификатор : 2
Формат : AC-3
Формат/Информация : Audio Coding 3
Идентификатор кодека : A_AC3
Продолжительность : 1 ч. 28 м.
Вид битрейта : Постоянный
Битрейт : 384 Кбит/сек
Каналы : 6 каналов
Расположение каналов : Front: L C R, Side: L R, LFE
Частота : 48,0 КГц
Частота кадров : 31,250 кадров/сек (1536 SPF)
Битовая глубина : 16 бит
Метод сжатия : С потерями
Размер потока : 242 Мбайт (13%)
Язык : Russian
Default : Да
Forced : Нет

admin

Post 14-Oct-2019 02:56

[Quote]

Название: Дорогой папа
Год выхода: 2019
Жанр: комедия, семейный
Режиссер: Михаил Расходников
В ролях: Владимир Вдовиченков, Валентина Ляпина, Владимир Сычев, Ирина Пегова, Николай Шрайбер, Иева Андреевайте, Игорь Ясулович, Юлия Сулес, Варвара Малкова, Андрей Пермяков
О фильме:
Владелец ведущей торговой сети Вадим Дюмин привык добиваться своего любыми способами. Обаяние и продуманный план помогают ему найти китайского инвестора, готового стать партнером в компании Вадима, оформленной когда-то на его маму. Вот только, оказалось, она завещала акции своей внучке, его дочери... Которую Вадим бросил, когда ей было 2 года.
Теперь Вадим должен поехать в свой родной маленький город, найти бывшую жену и дочь и убедить их отказаться от наследства на сумму... где-то полмиллиарда долларов. Вадим уверен, что его обаяние и манипуляции сработают и здесь, но в мире дочери его методы не работают, и слово "дорогой" здесь совсем не про деньги.
«Богатый тоже плачет»

Выпущено: Россия
Продолжительность: 01:27:04
Перевод: не требуется
Контейнер: MKV
Тип релиза: WEB-DL 1080p
Видео: MPEG4 AVC Video, H264, 2.40:1, 1920x800, 24 fps, 5176 kbps
Аудио: Russian (AC3, 6 ch, 384 kbps, 16 bits, 48.0 KHz) - оригинал (iTunes)
Субтитры: нет

M/I

General
Unique ID : 193979933455381108027471167423148523441 (0x91EF2D1E67B9B0F29C4693A52E8CFFB1)
Complete name : D:Dorogoy.papa.2019.WEB-DL.(1080p).Getty.mkv
Format : Matroska
Format version : Version 4 / Version 2
File size : 3.38 GiB
Duration : 1 h 27 min
Overall bit rate : 5 562 kb/s
Movie name : Dorogoy.papa.2019.WEB-DL.(1080p).Getty
Encoded date : UTC 2019-10-11 23:46:59
Writing application : mkvmerge v7.8.0 ('River Man') 32bit built on Mar 27 2015 16:18:02
Writing library : libebml v1.3.1 + libmatroska v1.4.2
Video
ID : 1
Format : AVC
Format/Info : Advanced Video Codec
Format profile : High@L4
Format settings : CABAC / 4 Ref Frames
Format settings, CABAC : Yes
Format settings, ReFrames : 4 frames
Codec ID : V_MPEG4/ISO/AVC
Duration : 1 h 27 min
Bit rate : 5 176 kb/s
Width : 1 920 pixels
Height : 800 pixels
Display aspect ratio : 2.40:1
Frame rate mode : Constant
Frame rate : 24.000 FPS
Color space : YUV
Chroma subsampling : 4:2:0
Bit depth : 8 bits
Scan type : Progressive
Bits/(Pixel*Frame) : 0.140
Stream size : 3.15 GiB (93%)
Default : Yes
Forced : No
Audio
ID : 2
Format : AC-3
Format/Info : Audio Coding 3
Codec ID : A_AC3
Duration : 1 h 27 min
Bit rate mode : Constant
Bit rate : 384 kb/s
Channel(s) : 6 channels
Channel positions : Front: L C R, Side: L R, LFE
Sampling rate : 48.0 kHz
Frame rate : 31.250 FPS (1536 SPF)
Bit depth : 16 bits
Compression mode : Lossy
Stream size : 239 MiB (7%)
Service kind : Complete Main
Default : Yes
Forced : No

Скриншоты

admin

Post 03-Oct-2019 01:46

[Quote]

Информация о фильме
Название: Последнее испытание
Год выхода: 2018
Жанр: Драма, боевик
Страна: Россия
Перевод: Не требуется
Продолжительность: 02:18:03
Режиссер: Алексей А. Петрухин
В ролях: Ирина Купченко, Ирина Алферова, Андрей Мерзликин, Анна Чурина, Елена Захарова, Иван Кокорин, Беслан Терекбаев, Алиса Гребенщикова, Михаил Евланов, Игорь Жижикин и др.
О фильме: Основано на реальных событиях. Фильм посвящен освобождению заложников в московском театральном центре на Дубровке осенью 2002 года. На сцене, где должна была пройти премьера мюзикла, разыгралась драма… Люди шли на праздник — веселый, яркий, а оказались лицом к лицу со смертью. Они, ставшие заложниками, сумевшие пройти страшное испытание, сохранив человеческое достоинство и мужество — обычные люди, ставшие героями…

Файл
Качество: WEB-DL 1080p
Видео: MPEG-4 AVC, 1920x806, 4559 kbps, 24,000 fps
Звук: русский, AC3, 5.1 ch, 48 kHz, 384 kbps | iTunes
Субтитры: нет

MI

Общее
Уникальный идентификатор : 229561944454519848372077735516859944445 (0xACB405B4E831D7BCB53D4455F32E4DFD)
Полное имя : G:Torrent2PosledneeIspytanieWEBDL1080p.mkv
Формат : Matroska
Версия формата : Version 4 / Version 2
Размер файла : 4,77 Гбайт
Продолжительность : 2 ч. 18 м.
Общий поток : 4944 Кбит/сек
Дата кодирования : UTC 2019-10-02 13:43:31
Программа кодирования : mkvmerge v9.5.0 ('Quiet Fire') 64bit
Библиотека кодирования : libebml v1.3.4 + libmatroska v1.4.5
Видео
Идентификатор : 1
Формат : AVC
Формат/Информация : Advanced Video Codec
Профиль формата : High@L4
Настройки формата : CABAC / 5 Ref Frames
Параметр CABAC формата : Да
Параметр RefFrames формата : 5 кадров
Идентификатор кодека : V_MPEG4/ISO/AVC
Продолжительность : 2 ч. 18 м.
Битрейт : 4559 Кбит/сек
Ширина : 1920 пикселей
Высота : 806 пикселей
Соотношение сторон : 2,40:1
Режим частоты кадров : Постоянный
Частота кадров : 24,000 кадра/сек
Цветовое пространство : YUV
Субдискретизация насыщенности : 4:2:0
Битовая глубина : 8 бит
Тип развёртки : Прогрессивная
Бит/(Пиксели*Кадры) : 0.123
Размер потока : 4,40 Гбайт (92%)
Язык : English
Default : Да
Forced : Нет
Цветовой диапазон : Limited
Основные цвета : BT.709
Характеристики трансфера : BT.709
Коэффициенты матрицы : BT.709
Аудио
Идентификатор : 2
Формат : AC-3
Формат/Информация : Audio Coding 3
Параметр Endianness формата : Big
Идентификатор кодека : A_AC3
Продолжительность : 2 ч. 18 м.
Вид битрейта : Постоянный
Битрейт : 384 Кбит/сек
Каналы : 6 каналов
Расположение каналов : Front: L C R, Side: L R, LFE
Частота : 48,0 КГц
Частота кадров : 31,250 кадров/сек (1536 SPF)
Битовая глубина : 16 бит
Метод сжатия : С потерями
Задержка видео : 22 мс.
Размер потока : 379 Мбайт (8%)
Язык : Russian
Default : Да
Forced : Нет
Меню
00:00:00.000 : en:Глава 1
00:07:44.708 : en:Глава 2
00:15:52.291 : en:Глава 3
00:24:46.332 : en:Глава 4
00:32:10.207 : en:Глава 5
00:39:49.582 : en:Глава 6
00:47:05.290 : en:Глава 7
00:54:42.498 : en:Глава 8
01:02:06.998 : en:Глава 9
01:11:28.706 : en:Глава 10
01:18:56.831 : en:Глава 11
01:26:17.539 : en:Глава 12
01:35:41.039 : en:Глава 13
01:44:26.830 : en:Глава 14
01:53:09.621 : en:Глава 15
02:02:49.371 : en:Глава 16

Скриншоты


admin

Post 30-Aug-2019 23:04

[Quote]

Информация о фильме
Название: Это не навсегда
Год выхода: 2019
Жанр: Драма
Режиссер: Евгения Яцкина, Алена Рубинштейн
В ролях: Агриппина Стеклова, Ольга Лапшина, Яна Есипович, Александр Мохов, Марта Дроздова, Михаил Сазанов, Макар Пусторамов, Саша Агашков, Даниил Коновалов, Тимур Шошин
О фильме: В центре сюжета — истории четырёх воспитанников детского дома. Петя, Ваня, Настенька и Миша мечтают об одном: найти свою семью. Несмотря на то, что их судьбы тесно переплетены между собой, у каждого из них свой путь. Герои проживают вместе нелегкие будни, однако надеются и верят, что это не навсегда.

Выпущено: Россия
Продолжительность: 01:32:56
Язык: Русский | iTunes
Файл
Качество: WEB-DL 1080p
Контейнер: MKV
Видео: MPEG-4 AVC, 1920x804, 4524 Kbps, 25.000 fps
Аудио: Russian: AC3, 48.0 KHz, 6 ch, 384 kbps - iTunes
Субтитры: Нет

Скриншоты


MediaInfo

General
Unique ID : 200156626247057610389412572527787917893 (0x9694C395E03487EE9CCC521638164245)
Complete name : Это.не.навсегда.2019.WEB-DL.1080p.mkv
Format : Matroska
Format version : Version 4 / Version 2
File size : 3.19 GiB
Duration : 1 h 32 min
Overall bit rate : 4 910 kb/s
Encoded date : UTC 2019-08-29 18:57:23
Writing application : mkvmerge v7.8.0 ('River Man') 32bit built on Apr 3 2015 12:11:22
Writing library : libebml v1.3.1 + libmatroska v1.4.2
Video
ID : 1
Format : AVC
Format/Info : Advanced Video Codec
Format profile : High@L4
Format settings, CABAC : Yes
Format settings, RefFrames : 5 frames
Codec ID : V_MPEG4/ISO/AVC
Duration : 1 h 32 min
Bit rate : 4 524 kb/s
Width : 1 920 pixels
Height : 804 pixels
Display aspect ratio : 2.40:1
Frame rate mode : Constant
Frame rate : 25.000 FPS
Color space : YUV
Chroma subsampling : 4:2:0
Bit depth : 8 bits
Scan type : Progressive
Bits/(Pixel*Frame) : 0.117
Stream size : 2.94 GiB (92%)
Language : Russian
Default : Yes
Forced : No
Color range : Limited
Color primaries : BT.709
Transfer characteristics : BT.709
Matrix coefficients : BT.709
Audio
ID : 2
Format : AC-3
Format/Info : Audio Coding 3
Format settings, Endianness : Big
Codec ID : A_AC3
Duration : 1 h 32 min
Bit rate mode : Constant
Bit rate : 384 kb/s
Channel(s) : 6 channels
Channel positions : Front: L C R, Side: L R, LFE
Sampling rate : 48.0 kHz
Frame rate : 31.250 FPS (1536 SPF)
Bit depth : 16 bits
Compression mode : Lossy
Stream size : 255 MiB (8%)
Title : iTunes
Language : Russian
Service kind : Complete Main
Default : Yes
Forced : No
Menu
00:00:00.000 : en:Глава 1
00:08:26.800 : en:Глава 2
00:16:46.480 : en:Глава 3
00:25:23.880 : en:Глава 4
00:33:39.040 : en:Глава 5
00:41:58.640 : en:Глава 6
00:50:50.640 : en:Глава 7
01:00:01.680 : en:Глава 8
01:08:06.640 : en:Глава 9
01:15:49.520 : en:Глава 10
01:24:28.880 : en:Глава 11

admin

Post 17-Aug-2019 01:05

[Quote]

Информация о фильме
Название: Выше неба
Год выхода: 2019
Жанр: Драма, мелодрама, детектив
Страна: Россия
Перевод: Не требуется
Продолжительность: 01:43:39
Режиссер: Оксана Карас
В ролях: Таисия Вилкова, Филипп Авдеев, Полина Виторган, Дарья Жовнер, Виктория Толстоганова, Алексей Агранович, Артем Немов, Анастасия Богатырева, Ирина Денисова, Валентин Самохин и др.
О фильме: Молодая девушка проводит лето на загородном курорте под бдительным присмотром матери. Там её внимание привлекает парень, прошлое которого окутано тайной. Девушка не догадывается, что после этой встречи её жизнь изменится навсегда, а чувствам будет суждено взлететь выше неба…

Файл
Качество: WEB-DL 1080p
Видео: MPEG-4 AVC, 1920x816, 4590 kbps, 24,000 fps
Звук: русский, AC3, 5.1 ch, 48 kHz, 384 kbps
Субтитры: нет

MI

Общее
Уникальный идентификатор : 255013802550056421284795472488469783003 (0xBFD9DF31F9D0857F88A64ADC77E661DB)
Полное имя : E:Torrent2VysheNebaWEBDL1080p.mkv
Формат : Matroska
Версия формата : Version 4 / Version 2
Размер файла : 3,60 Гбайт
Продолжительность : 1 ч. 43 м.
Общий поток : 4976 Кбит/сек
Дата кодирования : UTC 2019-08-14 18:17:40
Программа кодирования : mkvmerge v9.5.0 ('Quiet Fire') 64bit
Библиотека кодирования : libebml v1.3.4 + libmatroska v1.4.5
Видео
Идентификатор : 1
Формат : AVC
Формат/Информация : Advanced Video Codec
Профиль формата : High@L4
Настройки формата : CABAC / 5 Ref Frames
Параметр CABAC формата : Да
Параметр RefFrames формата : 5 кадров
Идентификатор кодека : V_MPEG4/ISO/AVC
Продолжительность : 1 ч. 43 м.
Битрейт : 4590 Кбит/сек
Ширина : 1920 пикселей
Высота : 816 пикселей
Соотношение сторон : 2,35:1
Режим частоты кадров : Постоянный
Частота кадров : 24,000 кадра/сек
Цветовое пространство : YUV
Субдискретизация насыщенности : 4:2:0
Битовая глубина : 8 бит
Тип развёртки : Прогрессивная
Бит/(Пиксели*Кадры) : 0.122
Размер потока : 3,32 Гбайт (92%)
Заголовок : Sisendrovich(R)
Язык : English
Default : Да
Forced : Нет
Цветовой диапазон : Limited
Основные цвета : BT.709
Характеристики трансфера : BT.709
Коэффициенты матрицы : BT.709
Аудио
Идентификатор : 2
Формат : AC-3
Формат/Информация : Audio Coding 3
Параметр Endianness формата : Big
Идентификатор кодека : A_AC3
Продолжительность : 1 ч. 43 м.
Вид битрейта : Постоянный
Битрейт : 384 Кбит/сек
Каналы : 6 каналов
Расположение каналов : Front: L C R, Side: L R, LFE
Частота : 48,0 КГц
Частота кадров : 31,250 кадров/сек (1536 SPF)
Битовая глубина : 16 бит
Метод сжатия : С потерями
Размер потока : 285 Мбайт (8%)
Заголовок : rus
Язык : Russian
Default : Да
Forced : Нет
Меню
00:00:00.000 : en:Глава 1
00:08:15.958 : en:Глава 2
00:16:31.333 : en:Глава 3
00:24:33.499 : en:Глава 4
00:32:57.582 : en:Глава 5
00:41:07.498 : en:Глава 6
00:49:27.831 : en:Глава 7
00:58:08.914 : en:Глава 8
01:06:21.539 : en:Глава 9
01:14:43.122 : en:Глава 10
01:23:50.955 : en:Глава 11
01:32:05.205 : en:Глава 12

Скриншоты


admin

Post 19-Jul-2019 07:18

[Quote]

Игра
Страна: Россия
Производство: Беларусьфильм, Мавр
Год выпуска: 2019
Жанр: комедия, триллер
Продолжительность: 01:43:09
Режиссер: Дмитрий Астрахан
В ролях: Виктор Васильев, Анар Халилов, Эльвира Болгова, Наталья Бергер, Олег Васильков, Сергей Чугай, Михаил Зуй, Георгий Малявский, Павел Воля
Описание: Молодой бизнесмен Юрий Платонов с лёгкостью достиг всего, о чём можно было мечтать: крупный издательский дом, положение в обществе, красавица-жена и даже личный самолёт. Он успешен во всём, за что ни берётся — так не бывает! Похоже, что его жизнь — кем-то лихо срежиссированный фейк…

Перевод: не требуется (оригинал) | iTunes
Субтитры: нет-Качество: WEB-DL 1080p
Формат: MKV
Видео кодек: AVC
Аудио кодек: AC3
Видео: 1908x792 (2.40:1), 23.976 fps, MPEG-4 AVC ~4 453 kbps avg
Аудио: 48.0 kHz, AC3 Dolby Digital, 3/2 (L,C,R,l,r) + LFE ch, ~384 kbps
Дата премьеры (РФ): 6 июня 2019, «Каскад фильм»

Скриншоты

admin

Post 15-Jul-2019 04:56

[Quote]

Информация о фильме
Название: Дылда
Год выхода: 2019
Жанр: Драма
Режиссер: Кантемир Балагов
В ролях: Виктория Мирошниченко, Василиса Перелыгина, Андрей Быков, Игорь Широков, Константин Балакирев, Ксения Кутепова, Ольга Драгунова, Тимофей Глазков
О фильме: История двух молодых женщин-фронтовичек, которые возвращаются в послевоенный Ленинград и пытаются обрести новую мирную жизнь, когда и вокруг, и главное, внутри них — руины.-
Страна: Россия
Студия: Нон-стоп Продакшн
Продолжительность: 02:17:07
Перевод: Русский язык
Файл
Кодек: MPEG-4 AVC
Качество: WEB-DL 1080p
Видео: 1920x1080, 3911 kb/s, 24.000 fps
Звук: 192 kb/s, 2 ch, 48000 kHz, AC3 [RUS]
Субтитры: Отсутствуют
РЕКЛАМА ОТСУТСТВУЕТ

MI

Формат : Matroska
Версия формата : Version 4 / Version 2
Размер файла : 4,01 Гбайт
Продолжительность : 2 ч. 17 м.
Общий поток : 4187 Кбит/сек
Программа кодирования : Lavf56.36.100
Библиотека кодирования : Lavf56.36.100
Видео
Идентификатор : 1
Формат : AVC
Формат/Информация : Advanced Video Codec
Профиль формата : High@L4
Настройки формата : CABAC / 4 Ref Frames
Параметр CABAC формата : Да
Параметр RefFrames формата : 4 кадра
Идентификатор кодека : V_MPEG4/ISO/AVC
Продолжительность : 2 ч. 17 м.
Битрейт : 3911 Кбит/сек
Номинальный битрейт : 5000 Кбит/сек
Ширина : 1920 пикселей
Высота : 1080 пикселей
Соотношение сторон : 16:9
Режим частоты кадров : Постоянный
Частота кадров : 24,000 кадра/сек
Цветовое пространство : YUV
Субдискретизация насыщенности : 4:2:0
Битовая глубина : 8 бит
Тип развёртки : Прогрессивная
Бит/(Пиксели*Кадры) : 0.079
Размер потока : 3,75 Гбайт (93%)
Библиотека кодирования : x264 core 148 r2721 72d53ab
Настройки программы : cabac=1 / ref=4 / deblock=1:0:0 / analyse=0x3:0x133 / me=umh / subme=10 / psy=1 / psy_rd=1.00:0.00 / mixed_ref=1 / me_range=24 / chroma_me=1 / trellis=2 / 8x8dct=1 / cqm=0 / deadzone=21,11 / fast_pskip=1 / chroma_qp_offset=-2 / threads=34 / lookahead_threads=5 / sliced_threads=0 / nr=0 / decimate=1 / interlaced=0 / bluray_compat=0 / constrained_intra=0 / bframes=8 / b_pyramid=2 / b_adapt=2 / b_bias=0 / direct=3 / weightb=1 / open_gop=0 / weightp=2 / keyint=96 / keyint_min=48 / scenecut=40 / intra_refresh=0 / rc_lookahead=60 / rc=2pass / mbtree=1 / bitrate=5000 / ratetol=1.0 / qcomp=0.60 / qpmin=0 / qpmax=69 / qpstep=4 / cplxblur=20.0 / qblur=0.5 / vbv_maxrate=5500 / vbv_bufsize=920 / nal_hrd=none / filler=0 / ip_ratio=1.40 / aq=1:1.00
Default : Да
Forced : Нет
Цветовой диапазон : Limited
Аудио
Идентификатор : 2
Формат : AC-3
Формат/Информация : Audio Coding 3
Идентификатор кодека : A_AC3
Продолжительность : 2 ч. 17 м.
Вид битрейта : Постоянный
Битрейт : 192 Кбит/сек
Каналы : 2 канала
Расположение каналов : Front: L R
Частота : 48,0 КГц
Частота кадров : 31,250 кадров/сек (1536 SPF)
Битовая глубина : 16 бит
Метод сжатия : С потерями
Задержка видео : -417 мс.
Размер потока : 188 Мбайт (5%)
Язык : Russian
Default : Да
Forced : Нет

Скриншоты

admin

Post 13-Jul-2019 05:56

[Quote]

Информация о фильме
Название: Гайлер
Год выхода: 2017
Жанр: Драма, криминал
Режиссер: Пётр Дикарев, Михаил Меньших
В ролях: Захар Прилепин, Сергей Пускепалис, Алексей Вертков, Сергей Новиков, Артур Согоян, Ксения Шагаевская, Константин Телегин, Екатерина Жирова, Татьяна Жулянова, Зоя Терехова, Игорь Новиков, Владимир Казанцев, Владимир Дербенцев, Снежанна Мордвинова, Даниэлла Албаут
О фильме:
Бизнесмен Дмитрий возвращается на малую родину — в небольшой городок в Сибири — после 15-летнего отсутствия. Причина возвращения трагическая: при ограблении погибли его родители, и Дмитрий настроен найти и лично покарать преступников. Вместе с ним приезжает его друг, армянин Рубик. До поры до времени никто не догадывается, что ради своей цели друзья готовы на многое, даже вернуться в суровое прошлое и превратиться в настоящих волков. Но жизнь вносит свои коррективы в их планы, поставив на кон жизнь Рубика…
Страна: Россия
Студия: ООО Продюсерский центр «1 февраля»
Продолжительность: 01:53:06
Перевод: Не требуется
Файл
Кодек: MPEG-4 AVC
Качество: WEBRip 1080p
Видео: 1920х1080 (16:9), 25 fps, AVC MPEG-4 (x264), High@L4.0 6000 kbps avg, 0.152 bit/pixel
Звук: 48 kHz, AC3, 2 ch, ~ 192 kbps avg

Скриншоты


 

Current time is: 14-Dec 07:43

All times are UTC + 3