Search found 232 matches

Author Message

Борисыч

Post 30-Mar-2020 10:00

[Quote]

- - Год выхода: 2020
Страна:
Жанр: Триллер, приключения
Продолжительность: 01:39:08
Режиссер: Егор Кончаловский
В ролях: Иван Архангельский, Виталий Кищенко, Александр Балуев, Федор Бавтриков, Степан Лапин, Варвара Комарова, Сейдулла Молдаханов...
Описание: Глеб, сын очень важного, обеспеченного и высокопоставленного господина, заслужил своими сомнительными подвигами на грани криминала репутацию сорвиголовы и беспредельщика. Однажды во время ночных гонок по улицам Москвы, уходя от преследования ГИБДД, Глеб не справился с управлением и сбил пешехода. Пока неприятности не улягутся, отец отсылает сына подальше в северные края, туда, где он любил охотиться еще в 90-е и где познакомился с отшельником, живущим в лесу. Именно у него и прячут Глеба. Для молодого человека начинается совершенно иная жизнь с крайне непредсказуемым, мрачным и молчаливым стариком.
Качество: WEB-DL 1080p
Формат: MKV
Видео кодек: AVC
Аудио кодек: АС3
Видео: 1920x804, 24 fps, 4501 kbps
Аудио: 48 kHz, 6 ch, 384 kbps

Скриншоты

admin

Post 30-Mar-2020 04:13

[Quote]


Информация о фильме
Название: Папа, сдохни
«Знакомство с родителями не пройдет гладко»
Год выхода: 2018
Жанр: Комедия
Режиссер: Кирилл Соколов
В ролях: Виталий Хаев, Александр Кузнецов, Евгения Крегжде, Михаил Горевой, Елена Шевченко, Игорь Грабузов, Александр Домогаров мл., Владимир Кондауров, Артём Башенин, Илья Костюков
О фильме:
Самый гнусный отец в мире, опер Андрей Геннадьевич, собирает у себя в квартире компанию отъявленных мерзавцев: мстительную дочь-актрису, озлобленного хулигана и обманутого мента. У каждого из них есть свои причины для мести.

Страна: Россия
Студия: Белое Зеркало
Продолжительность: 01:38:28
Перевод: Не требуется | Лицензия Blu-ray GER
Файл
Качество: BDRip 1080p
Формат: MKV
Кодек: MPEG-4 AVC
Видео: 1920x804 (2,40:1), 24 fps, MPEG-4 AVC ~ 8678 Кbps avg, 0.234 bit/pixel
Аудио#1: DTS, 48 kHz, 6 ch, ~1510.00 kbps avg | русский | Blu-ray GER
Аудио#2: AC3, 48 kHz, 6 ch, ~640.00 kbps avg | русский | Blu-ray GER
Субтитры: Отсутствуют

Инфо-файл

Общее
Уникальный идентификатор : 108582412664643611319920979011360133952 (0x51B036458809884A2509B1F812321340)
Полное имя : Why.Dont.You.Just.Die.2018.GER.1080p.x264.BluRay.DTS.mkv
Формат : Matroska
Версия формата : Version 4
Размер файла : 7,45 Гбайт
Продолжительность : 1 ч. 38 м.
Общий поток : 10,8 Мбит/сек
Название фильма : Папа, сдохни (2018)
Дата кодирования : UTC 2020-03-29 12:37:25
Программа кодирования : mkvmerge v41.0.0 ('Smarra') 64-bit
Библиотека кодирования : libebml v1.3.9 + libmatroska v1.5.2
Обложка : Yes
Attachments : cover.jpg
Видео
Идентификатор : 1
Формат : AVC
Формат/Информация : Advanced Video Codec
Профиль формата : High@L4.1
Настройки формата : CABAC / 5 Ref Frames
Параметр CABAC формата : Да
Параметр RefFrames формата : 5 кадров
Идентификатор кодека : V_MPEG4/ISO/AVC
Продолжительность : 1 ч. 38 м.
Битрейт : 8678 Кбит/сек
Ширина : 1920 пикселей
Высота : 804 пикселя
Соотношение сторон : 2,40:1
Режим частоты кадров : Постоянный
Частота кадров : 24,000 кадра/сек
Цветовое пространство : YUV
Субдискретизация насыщенности : 4:2:0
Битовая глубина : 8 бит
Тип развёртки : Прогрессивная
Бит/(Пиксели*Кадры) : 0.234
Размер потока : 5,82 Гбайт (78%)
Заголовок : #stillet
Библиотека кодирования : x264 core 152 r2851bm ba24899
Настройки программы : cabac=1 / ref=5 / deblock=1:-3:-3 / analyse=0x3:0x113 / me=umh / subme=11 / psy=1 / psy_rd=1.00:0.15 / mixed_ref=1 / me_range=32 / chroma_me=1 / trellis=2 / 8x8dct=1 / cqm=0 / deadzone=21,11 / fast_pskip=0 / chroma_qp_offset=-3 / threads=8 / lookahead_threads=3 / sliced_threads=0 / nr=0 / decimate=0 / interlaced=0 / bluray_compat=0 / constrained_intra=0 / bframes=10 / b_pyramid=2 / b_adapt=2 / b_bias=0 / direct=3 / weightb=1 / open_gop=0 / weightp=2 / keyint=240 / keyint_min=23 / scenecut=40 / intra_refresh=0 / rc_lookahead=40 / rc=2pass / mbtree=0 / bitrate=8678 / ratetol=1.0 / qcomp=0.60 / qpmin=0 / qpmax=69 / qpstep=4 / cplxblur=20.0 / qblur=0.5 / vbv_maxrate=50000 / vbv_bufsize=62500 / nal_hrd=none / filler=0 / ip_ratio=1.40 / pb_ratio=1.30 / aq=1:1.00
Язык : German
Default : Да
Forced : Нет
Аудио #1
Идентификатор : 2
Формат : DTS
Формат/Информация : Digital Theater Systems
Идентификатор кодека : A_DTS
Продолжительность : 1 ч. 38 м.
Вид битрейта : Постоянный
Битрейт : 1510 Кбит/сек
Каналы : 6 каналов
ChannelLayout : C L R Ls Rs LFE
Частота : 48,0 КГц
Частота кадров : 93,750 кадра/сек (512 SPF)
Битовая глубина : 24 бит
Метод сжатия : С потерями
Размер потока : 1,04 Гбайт (14%)
Заголовок : Blu-ray GER
Язык : Russian
Default : Да
Forced : Нет
Аудио #2
Идентификатор : 3
Формат : AC-3
Формат/Информация : Audio Coding 3
Коммерческое название : Dolby Digital
Идентификатор кодека : A_AC3
Продолжительность : 1 ч. 38 м.
Вид битрейта : Постоянный
Битрейт : 640 Кбит/сек
Каналы : 6 каналов
ChannelLayout : L R C LFE Ls Rs
Частота : 48,0 КГц
Частота кадров : 31,250 кадров/сек (1536 SPF)
Метод сжатия : С потерями
Размер потока : 451 Мбайт (6%)
Заголовок : Blu-ray GER
Язык : Russian
Default : Нет
Forced : Нет
Меню
00:00:00.000 : :Глава 01
00:07:45.875 : :Глава 02
00:15:15.541 : :Глава 03
00:24:22.000 : :Глава 04
00:31:58.625 : :Глава 05
00:40:18.500 : :Глава 06
00:48:43.250 : :Глава 07
00:57:27.541 : :Глава 08
01:04:11.000 : :Глава 09
01:11:29.125 : :Глава 10
01:19:51.582 : :Глава 11
01:28:17.666 : :Глава 12
01:33:42.832 : :Глава 13
01:38:26.916 : :Глава 14

Скриншоты

admin

Post 28-Mar-2020 03:44

[Quote]

Информация о фильме
Название: Зима
Год выхода: 2019
Жанр: Драма
Режиссер: Сергей Черников
В ролях: Игорь Петренко, Александр Петров, Тимофей Трибунцев, Никита Павленко, Михаил Жигалов, Дмитрий Куличков, Александр Аблязов, Никита Салопин, Алексей Демидов, Никита Абдулов
О фильме:
История развивается под новый год в небольшом подмосковном городке на фоне криминальных событий. По пути домой в чужом городе Александр со своим отцом ветераном ВОВ попадают в случайные трагические обстоятельства, при которых на АЗС оба получают тяжелые ранения от пьяных малолетних преступников. Отец Александра попадает в реанимацию, а он получив легкие ранения, становится опасным свидетелем, которого необходимо устранить.

Страна: Россия
Студия: Кинотрест, Лук-фильм
Продолжительность: 01:19:02
Язык: Русский
Файл
Формат: MKV
Качество: WEB-DL 1080p
Видео: AVC/H.264, 1920x804, ~4518 Kbps
Аудио: AC3, 6 ch, 384 Kbps - Русский
Субтитры: Нет

M/I

General
Complete name : Зима.(2019).WEB-DL.1080p.mkv
Format : Matroska
Format version : Version 4
File size : 2.71 GiB
Duration : 1 h 19 min
Overall bit rate : 4 904 kb/s
Movie name : Зима.(2019).WEB-DL.1080p
Encoded date : UTC 2020-03-27 09:09:46
Writing application : mkvmerge v44.0.0 ('Domino') 64-bit
Writing library : libebml v1.3.10 + libmatroska v1.5.2
Attachments : poster.jpg / poster 2.jpg
Video
ID : 1
Format : AVC
Format/Info : Advanced Video Codec
Format profile : High@L4
Format settings : CABAC / 5 Ref Frames
Format settings, CABAC : Yes
Format settings, Reference : 5 frames
Codec ID : V_MPEG4/ISO/AVC
Duration : 1 h 19 min
Bit rate : 4 518 kb/s
Width : 1 920 pixels
Height : 804 pixels
Display aspect ratio : 2.40:1
Frame rate mode : Constant
Frame rate : 24.000 FPS
Color space : YUV
Chroma subsampling : 4:2:0
Bit depth : 8 bits
Scan type : Progressive
Bits/(Pixel*Frame) : 0.122
Stream size : 2.49 GiB (92%)
Title : Зима.(2019).WEB-DL.1080p
Language : Russian
Default : Yes
Forced : No
Color range : Limited
Color primaries : BT.709
Transfer characteristics : BT.709
Matrix coefficients : BT.709
Audio
ID : 2
Format : AC-3
Format/Info : Audio Coding 3
Commercial name : Dolby Digital
Codec ID : A_AC3
Duration : 1 h 19 min
Bit rate mode : Constant
Bit rate : 384 kb/s
Channel(s) : 6 channels
Channel layout : L R C LFE Ls Rs
Sampling rate : 48.0 kHz
Frame rate : 31.250 FPS (1536 SPF)
Compression mode : Lossy
Stream size : 217 MiB (8%)
Title : iTunes
Language : Russian
Service kind : Complete Main
Default : Yes
Forced : No
Menu
00:00:00.000 : :Глава 01
00:05:30.000 : :Глава 02
00:11:00.000 : :Глава 03
00:16:30.000 : :Глава 04
00:22:00.000 : :Глава 05
00:27:30.000 : :Глава 06
00:33:00.000 : :Глава 07
00:38:30.000 : :Глава 08
00:44:00.000 : :Глава 09
00:49:30.000 : :Глава 10
00:55:00.000 : :Глава 11
01:00:30.000 : :Глава 12
01:06:00.000 : :Глава 13
01:11:30.000 : :Глава 14
01:17:00.000 : :Глава 15

Скриншоты

admin

Post 14-Mar-2020 23:35

[Quote]

Информация о фильме
Оригинальное название: Вторжение
Год выпуска: 2019
Жанр: Фантастика, боевик
Выпущено: Россия, Art Pictures Studio, Vodorod
Режиссер: Фёдор Бондарчук
В ролях: Ирина Старшенбаум, Риналь Мухаметов, Александр Петров, Юрий Борисов, Сергей Гармаш, Олег Меньшиков, Даниил Кользенов, Сергей Троев, Игорь Костерин, Екатерина Степанова
О фильме: Падение инопланетного объекта разделило жизни на «до» и «после». Обычная девушка из московского Чертанова - Юлия Лебедева - вынуждена смириться с ролью подопытного кролика в лаборатории, ведь она единственная была в контакте с пришельцем. Ученые и военные разбирают на атомы её чувства, эмоции и переживания, пытаясь разгадать природу растущей в ней силы. Но страшнее всего, что её сверхъестественные способности волнуют не только землян. Над планетой в буквальном смысле нависла угроза вторжения. И победить в грядущем столкновении можно только одним способом: найти в себе силы остаться людьми. Когда каждый ради общего спасения должен сделать выбор, от которого зависит жизнь и судьба миллионов, - смогут ли любовь, верность и милосердие стать сильнее безжалостной силы и инопланетных технологий?

Качество: BDRip (1080p)
Видео: MPEG-4 AVC, 9625 Кбит/с, 1920x720, 24 Кадр/c
Аудио: Русский (AC3, 6 ch, 640 Кбит/с), (DTS, 6 ch, 1509 Кбит/с)
Размер: 10.97 ГБ
Продолжительность: 02:13:19
Язык: Русский
Озвучивание - (Лицензия)
Сохранены оригинальные чаптеры как на Blu-Ray.

x264

x264 [info]: frame I:1426 Avg QP:14.53 size:197029
x264 [info]: frame P:46105 Avg QP:17.46 size: 88549
x264 [info]: frame B:144456 Avg QP:19.15 size: 36419
x264 [info]: consecutive B-frames: 3.7% 5.1% 10.4% 20.0% 15.6% 33.1% 5.0% 0.7% 1.9% 2.2% 2.5%
x264 [info]: mb I I16..4: 20.8% 57.4% 21.8%
x264 [info]: mb P I16..4: 4.1% 25.7% 2.6% P16..4: 25.6% 30.5% 8.9% 1.4% 0.1% skip: 1.1%
x264 [info]: mb B I16..4: 1.0% 3.6% 0.3% B16..8: 35.4% 22.7% 4.1% direct: 8.7% skip:24.1% L0:44.3% L1:41.3% BI:14.4%
x264 [info]: 8x8 transform intra:76.0% inter:52.9%
x264 [info]: direct mvs spatial:96.2% temporal:3.8%
x264 [info]: coded y,uvDC,uvAC intra: 79.1% 86.9% 76.0% inter: 32.4% 38.6% 24.1%
x264 [info]: i16 v,h,dc,p: 37% 13% 14% 36%
x264 [info]: i8 v,h,dc,ddl,ddr,vr,hd,vl,hu: 9% 9% 16% 9% 11% 10% 11% 11% 14%
x264 [info]: i4 v,h,dc,ddl,ddr,vr,hd,vl,hu: 14% 13% 22% 7% 10% 9% 9% 7% 10%
x264 [info]: i8c dc,h,v,p: 50% 21% 15% 14%
x264 [info]: Weighted P-Frames: Y:3.1% UV:1.5%
x264 [info]: ref P L0: 46.1% 7.6% 24.8% 10.2% 9.6% 1.6% 0.0%
x264 [info]: ref B L0: 68.5% 22.0% 7.5% 2.0%
x264 [info]: ref B L1: 90.7% 9.3%
x264 [info]: kb/s:9625.06

Инфо-файл

Общее
Уникальный идентификатор : 240233501545895558096756131433790120639 (0xB4BB4A17E70C9BCE90F1A52B77D122BF)
Полное имя : D:ЗагрузкиVtorzhienie.2019.x264.BDRip.(1080p).OlLanDGroup.mkv
Формат : Matroska
Версия формата : Version 4 / Version 2
Размер файла : 11,0 Гбайт
Продолжительность : 2 ч. 13 м.
Общий поток : 11,8 Мбит/сек
Название фильма : Вторжение.2019.Rip by: ollan
Дата кодирования : UTC 2020-03-13 08:54:07
Программа кодирования : mkvmerge v6.5.0 ('Isn't she lovely') built on Oct 20 2013 12:50:05
Библиотека кодирования : libebml v1.3.0 + libmatroska v1.4.1
Обложка : Yes
Attachments : Cover - Vtorzhienie..png
Видео
Идентификатор : 1
Формат : AVC
Формат/Информация : Advanced Video Codec
Профиль формата : High@L4.1
Настройки формата : CABAC / 5 Ref Frames
Параметр CABAC формата : Да
Параметр ReFrames формата : 5 кадров
Идентификатор кодека : V_MPEG4/ISO/AVC
Продолжительность : 2 ч. 13 м.
Битрейт : 9625 Кбит/сек
Ширина : 1920 пикселей
Высота : 720 пикселей
Соотношение сторон : 2,667
Режим частоты кадров : Постоянный
Частота кадров : 24,000 кадра/сек
Цветовое пространство : YUV
Субдискретизация насыщенности : 4:2:0
Битовая глубина : 8 бит
Тип развёртки : Прогрессивная
Бит/(Пиксели*Кадры) : 0.290
Размер потока : 8,75 Гбайт (80%)
Библиотека кодирования : x264 core 146 r2538 121396c
Настройки программы : cabac=1 / ref=5 / deblock=1:-3:-3 / analyse=0x3:0x133 / me=umh / subme=11 / psy=1 / psy_rd=0.95:0.10 / mixed_ref=1 / me_range=64 / chroma_me=1 / trellis=2 / 8x8dct=1 / cqm=0 / deadzone=21,11 / fast_pskip=0 / chroma_qp_offset=-3 / threads=12 / lookahead_threads=3 / sliced_threads=0 / nr=0 / decimate=0 / interlaced=0 / bluray_compat=0 / constrained_intra=0 / bframes=10 / b_pyramid=2 / b_adapt=2 / b_bias=0 / direct=3 / weightb=1 / open_gop=0 / weightp=2 / keyint=240 / keyint_min=23 / scenecut=40 / intra_refresh=0 / rc_lookahead=40 / rc=2pass / mbtree=0 / bitrate=9625 / ratetol=1.0 / qcomp=0.60 / qpmin=0 / qpmax=69 / qpstep=4 / cplxblur=20.0 / qblur=0.5 / vbv_maxrate=50000 / vbv_bufsize=62500 / nal_hrd=none / filler=0 / ip_ratio=1.40 / pb_ratio=1.30 / aq=1:1.00
Язык : English
Default : Да
Forced : Нет
Аудио #1
Идентификатор : 2
Формат : AC-3
Формат/Информация : Audio Coding 3
Идентификатор кодека : A_AC3
Продолжительность : 2 ч. 13 м.
Вид битрейта : Постоянный
Битрейт : 640 Кбит/сек
Каналы : 6 каналов
Расположение каналов : Front: L C R, Side: L R, LFE
Частота : 48,0 КГц
Частота кадров : 31,250 кадров/сек (1536 SPF)
Битовая глубина : 16 бит
Метод сжатия : С потерями
Размер потока : 610 Мбайт (5%)
Заголовок : Лицензия
Язык : Russian
Service kind : Complete Main
Default : Да
Forced : Нет
Аудио #2
Идентификатор : 3
Формат : DTS
Формат/Информация : Digital Theater Systems
Идентификатор кодека : A_DTS
Продолжительность : 2 ч. 13 м.
Вид битрейта : Постоянный
Битрейт : 1509 Кбит/сек
Каналы : 6 каналов
Расположение каналов : Front: L C R, Side: L R, LFE
Частота : 48,0 КГц
Частота кадров : 93,750 кадра/сек (512 SPF)
Битовая глубина : 24 бит
Метод сжатия : С потерями
Размер потока : 1,41 Гбайт (13%)
Заголовок : Лицензия
Язык : Russian
Default : Нет
Forced : Нет
Меню
00:00:00.000 : ru:Chapter 01
00:07:12.083 : ru:Chapter 02
00:15:44.166 : ru:Chapter 03
00:22:49.000 : ru:Chapter 04
00:29:34.500 : ru:Chapter 05
00:38:14.291 : ru:Chapter 06
00:48:08.916 : ru:Chapter 07
00:55:27.666 : ru:Chapter 08
01:02:58.500 : ru:Chapter 09
01:12:48.458 : ru:Chapter 10
01:19:51.041 : ru:Chapter 11
01:27:54.791 : ru:Chapter 12
01:36:02.083 : ru:Chapter 13
01:41:48.708 : ru:Chapter 14
01:51:46.958 : ru:Chapter 15
01:59:19.708 : ru:Chapter 16
02:13:18.458 : ru:Chapter 17

Скриншоты



admin

Post 14-Mar-2020 22:49

[Quote]

Название: Вторжение
Год выхода: 2019
Жанр: Фантастика, боевик
Режиссер: Фёдор Бондарчук
В ролях: Ирина Старшенбаум, Риналь Мухаметов, Александр Петров, Юрий Борисов, Сергей Гармаш, Олег Меньшиков, Даниил Кользенов, Сергей Троев, Игорь Костерин, Екатерина Степанова
Описание: Падение инопланетного объекта разделило жизни на «до» и «после». Обычная девушка из московского Чертанова — Юлия Лебедева — вынуждена смириться с ролью подопытного кролика в лаборатории, ведь она единственная была в контакте с пришельцем.
Ученые и военные разбирают на атомы её чувства, эмоции и переживания, пытаясь разгадать природу растущей в ней силы. Но страшнее всего, что её сверхъестественные способности волнуют не только землян. Над планетой в буквальном смысле нависла угроза вторжения. И победить в грядущем столкновении можно только одним способом: найти в себе силы остаться людьми. Когда каждый ради общего спасения должен сделать выбор, от которого зависит жизнь и судьба миллионов, — смогут ли любовь, верность и милосердие стать сильнее безжалостной силы и инопланетных технологий?


Страна: Россия
Студия: Art Pictures Studio, Vodorod
Продолжительность: 02:13:19
Перевод: Не требуется | Лицензия Blu-ray GER
Формат: MKV
Качество: BDRip 720p
Видео: MPEG-4 AVC, 1280x478, 24.000 fps, 4950 Kbps, 0.337 bit/pixel
Аудио : 48 kHz, AC3, 5.1, 640 Kbps | RUS |

ОтчетМедиаИнфо

General
Unique ID : 197940867421711864515310089785487753533 (0x94EA063DAC21428582732CBFE1A5813D)
Complete name : F:Attraction.2.Invasion.2019.BDRip.720p.ExKinoRay.mkv
Format : Matroska
Format version : Version 2
File size : 5.21 GiB
Duration : 2 h 13 min
Overall bit rate : 5 592 kb/s
Movie name : Вторжение 2019 from ExKinoRay
Encoded date : UTC 2020-03-12 22:38:23
Writing application : mkvmerge v5.6.0 ('Kenya Kane') built on May 27 2012 16:44:04
Writing library : libebml v1.2.3 + libmatroska v1.3.0
Video
ID : 1
Format : AVC
Format/Info : Advanced Video Codec
Format profile : High@L4.1
Format settings, CABAC : Yes
Format settings, ReFrames : 12 frames
Codec ID : V_MPEG4/ISO/AVC
Duration : 2 h 13 min
Bit rate : 4 950 kb/s
Width : 1 280 pixels
Height : 478 pixels
Display aspect ratio : 2.678
Frame rate mode : Constant
Frame rate : 24.000 FPS
Color space : YUV
Chroma subsampling : 4:2:0
Bit depth : 8 bits
Scan type : Progressive
Bits/(Pixel*Frame) : 0.337
Stream size : 4.51 GiB (87%)
Title : Enigma
Writing library : x264 core 152 r2851 ba24899
Encoding settings : cabac=1 / ref=12 / deblock=1:-2:-2 / analyse=0x3:0x113 / me=umh / subme=10 / psy=1 / psy_rd=1.03:0.05 / mixed_ref=1 / me_range=32 / chroma_me=1 / trellis=2 / 8x8dct=1 / cqm=0 / deadzone=21,11 / fast_pskip=0 / chroma_qp_offset=-3 / threads=12 / lookahead_threads=3 / sliced_threads=0 / nr=0 / decimate=0 / interlaced=0 / bluray_compat=0 / constrained_intra=0 / bframes=10 / b_pyramid=2 / b_adapt=2 / b_bias=0 / direct=3 / weightb=1 / open_gop=0 / weightp=2 / keyint=240 / keyint_min=24 / scenecut=40 / intra_refresh=0 / rc=2pass / mbtree=0 / bitrate=4950 / ratetol=1.0 / qcomp=0.60 / qpmin=0 / qpmax=51 / qpstep=4 / cplxblur=20.0 / qblur=0.5 / ip_ratio=1.40 / pb_ratio=1.30 / aq=1:1.00
Language : English
Default : Yes
Forced : No
Color range : Limited
Color primaries : BT.709
Transfer characteristics : BT.709
Matrix coefficients : BT.709
Audio
ID : 2
Format : AC-3
Format/Info : Audio Coding 3
Mode extension : CM (complete main)
Format settings, Endianness : Big
Codec ID : A_AC3
Duration : 2 h 13 min
Bit rate mode : Constant
Bit rate : 640 kb/s
Channel(s) : 6 channels
Channel positions : Front: L C R, Side: L R, LFE
Sampling rate : 48.0 kHz
Frame rate : 31.250 FPS (1536 spf)
Compression mode : Lossy
Stream size : 610 MiB (11%)
Title : Blu-Ray
Language : Russian
Default : Yes
Forced : No
Menu
00:00:00.000 : ru:Глава 01
00:07:12.083 : ru:Глава 02
00:15:44.167 : ru:Глава 03
00:22:49.000 : ru:Глава 04
00:29:34.500 : ru:Глава 05
00:38:14.292 : ru:Глава 06
00:48:08.917 : ru:Глава 07
00:55:27.667 : ru:Глава 08
01:02:58.500 : ru:Глава 09
01:12:48.458 : ru:Глава 10
01:19:51.042 : ru:Глава 11
01:27:54.792 : ru:Глава 12
01:36:02.083 : ru:Глава 13
01:41:48.708 : ru:Глава 14
01:51:46.958 : ru:Глава 15
01:59:19.708 : ru:Глава 16

Скриншоты

Борисыч

Post 12-Mar-2020 07:20

[Quote]

- - Год выпуска: 2020
Страна: Россия
Жанр: Фантастика, приключения
Продолжительность: 01:50:59
Режиссер: Никита Аргунов
В ролях: Риналь Мухаметов, Константин Лавроненко, Антон Пампушный, Любовь Аксёнова, Милош Бикович, Ростислав Гулбис, Полина Кузьминская
Описание: После таинственной и страшной аварии молодой талантливый архитектор приходит в себя в причудливом мире. Этот мир соткан из воспоминаний людей, находящихся в коме. Как и человеческая память, он фрагментарен, хаотичен и непостоянен. Это и есть пространство КОМЫ, в котором реки, ледники и города могут умещаться в одной комнате, а любые законы физики – нарушаться. Герою предстоит выяснить, по каким законам существует это пространство, бороться за жизнь, встретить любовь, найти, наконец, выход в реальный мир и осознать его по-новому, поняв, что такое КОМА на самом деле.
Качество: WEBRip 1080p
Формат: MKV
Видео кодек: AVC
Аудио кодек: АС3
Видео: 1920x800, 25 fps, 5103 kbps
Аудио: 48 kHz, 2 ch, 192 kbps

Скриншоты

admin

Post 27-Feb-2020 11:35

[Quote]

Название: Холоп
Год выпуска: 2019
Жанр: Комедия
Выпущено: Россия, Yellow, Black & White
Режиссер: Клим Шипенко
В ролях: Милош Бикович, Александра Бортич, Александр Самойленко, Иван Охлобыстин, Мария Миронова, Олег Комаров, Ольга Дибцева, Кирилл Нагиев, Сергей Соцердотский, Софья Зайка
О фильме: Молодой мажор Гриша заигрался в красивую жизнь и решил, что ему всё дозволено. Он натворил много дел, и теперь ему грозит тюрьма. Чтобы исправить своего сына, отчаявшийся отец-олигарх идёт на крайние меры. Вместе с психологом он придумывает уникальный проект: на базе заброшенной деревни воссоздаётся атмосфера России XIX века, а Гриша попадает в подстроенную аварию и якобы переносится в прошлое. На самом деле над ним проводится изощрённый психологический эксперимент — избалованного мажора превращают в обычного холопа Гришку, живущего в хлеву на территории барской усадьбы. Его окружают актёры, чья цель — изменить его жизнь и личность. За каждым его движением пристально следит команда психолога с помощью множества камер. Грише предстоит заново научиться общаться с людьми, ценить простые удовольствия, работать, а также обрести истинную любовь.
Качество: WEB-DL (1080p)
Видео: MPEG-4 AVC, 4543 Кбит/с, 1920x804
Аудио: AC3, 6 ch, 384 Кбит/с
Продолжительность: 01:43:55
Язык: Русский (исходник iTunes)

Скриншоты


admin

Post 11-Feb-2020 04:38

[Quote]

Информация о фильме
Название: Сквозь чёрное стекло
Год выпуска: 2019
Жанр: Драма
Режиссер: Константин Лопушанский
В ролях: Максим Суханов, Василиса Денисова, Надежда Маркина, Ольга Онищенко, Андрей Полищук, Анна Екатерининская, Елена Зимина, Анна Дулова, Александра Мамкаева, Алексей Манцыгин
О фильме: История молодой девушки, которая поверила в сказку о прекрасном принце и попала в ловушку. Героиня фильма совсем ничего не видит с детства, росла в интернате и её большая мечта, хотя бы один раз увидеть мир своими глазами. И однажды ей судьба преподносит уникальный шанс, состоятельный мужчина, предлагает девушке оплатить ей все расходы за операцию на глаза, но только, если она выйдет за него замуж. Девушка соглашается на все условия, лишь бы стать зрячей. Но в жизни не бывает бесплатного сыра и этот дар открывает героине жестокую правду жизни.

Страна: Россия
Студия: Proline Film
Продолжительность: 02:19:08
Перевод: Не требуется | iTunes
Файл
Качество: WEB-DL 1080p
Контейнер: MKV
Видео: MPEG-4 AVC, 1920x1080, 5146 Kbps, 25.000 fps
Аудио: Russian: AC3, 48.0 KHz, 6 ch, 384 kbps
Субтитры: Нет

Скриншоты

MediaInfo

Video
ID : 1
Format : AVC
Format/Info : Advanced Video Codec
Format profile : High@L4
Format settings : CABAC / 4 Ref Frames
Format settings, CABAC : Yes
Format settings, Reference : 4 frames
Codec ID : V_MPEG4/ISO/AVC
Duration : 2 h 19 min
Bit rate : 5 146 kb/s
Width : 1 920 pixels
Height : 1 080 pixels
Display aspect ratio : 16:9
Frame rate mode : Constant
Frame rate : 25.000 FPS
Color space : YUV
Chroma subsampling : 4:2:0
Bit depth : 8 bits
Scan type : Progressive
Bits/(Pixel*Frame) : 0.099
Stream size : 5.00 GiB (91%)
Language : English
Default : Yes
Forced : No
Color range : Limited
Color primaries : BT.709
Transfer characteristics : BT.709
Matrix coefficients : BT.709
Audio
ID : 2
Format : AC-3
Format/Info : Audio Coding 3
Commercial name : Dolby Digital
Codec ID : A_AC3
Duration : 2 h 19 min
Bit rate mode : Constant
Bit rate : 384 kb/s
Channel(s) : 6 channels
Channel layout : L R C LFE Ls Rs
Sampling rate : 48.0 kHz
Frame rate : 31.250 FPS (1536 SPF)
Compression mode : Lossy
Stream size : 382 MiB (7%)
Title : [ORIGINAL] DD 5.1 @ 384 kbps (iTunes)
Language : Russian
Service kind : Complete Main
Default : Yes
Forced : No
Menu
00:00:00.000 : en:Глава 1
00:05:12.520 : en:Глава 2
00:12:41.000 : en:Глава 3
00:21:39.800 : en:Глава 4
00:30:31.920 : en:Глава 5
00:40:11.840 : en:Глава 6
00:49:05.880 : en:Глава 7
00:58:14.560 : en:Глава 8
01:07:06.080 : en:Глава 9
01:16:36.360 : en:Глава 10
01:24:24.840 : en:Глава 11
01:31:09.280 : en:Глава 12
01:37:52.040 : en:Глава 13
01:45:10.280 : en:Глава 14
01:54:50.280 : en:Глава 15
02:05:11.600 : en:Глава 16

admin

Post 06-Feb-2020 04:22

[Quote]

Информация о фильме
Название: Братство
Год выхода: 2019
Жанр: Драма, боевик, история, военный
Режиссер: Павел Лунгин
В ролях: Кирилл Пирогов, Ян Цапник, Виталий Кищенко, Фёдор Лавров, Олег Васильков, Антон Момот, Михаил Кремер, Кирилл Ермичев, Роман Колотухин, Василий Буткевич
О фильме:
1988 год, канун вывода советских войск из Афганистана. Командование 108-й мотострелковой дивизии планирует отход через перевал Саланг, подконтрольный группировке моджахедов Инженера Хошема. Разведка пытается договориться о перемирии с душманами, но дело осложняется тем, что в плен к Хошему попадает советский военный пилот. Начинается сложная игра, в которой переплетаются противоположные интересы множества самых разных людей: штабистов, исламистов, спецназа, разведки, чиновников из афганского правительства, сотрудников советских спецслужб, таджиков и пуштунов. А в самом центре этого водоворота оказываются солдаты разведроты, для которых важнее любых политических соображений остается правило — не бросать своих.

Страна: Россия
Студия: Мастерская Павла Лунгина
Продолжительность: 01:53:40
Перевод: Не требуется | Лицензия Blu-Ray FRA
Файл
Качество: BDRip 1080p
Формат: MKV
Кодек: MPEG-4 AVC
Видео: 1920x1080 (16:9), 23,976 fps, MPEG-4 AVC ~ 8005 Кbps avg, 0.161 bit/pixel
Аудио: AC3, 48 kHz, 6 ch, ~640.00 kbps avg | русский | Blu-Ray FRA
Аудио: DTS, 48 kHz, 6 ch, ~1510.00 kbps avg | русский | Blu-Ray FRA
Аудио: DTS, 48 kHz, 6 ch, ~1509.00 kbps avg | французский |
Субтитры: Французские (Full)

Инфо-файл

Общее
Уникальный идентификатор : 264465618420759620155555672058489658156 (0xC6F639B25B1338DE6AE2546605EEDB2C)
Полное имя : Bratstvo.2019.MULTi.1080p.BluRay.x264.mkv
Формат : Matroska
Версия формата : Version 4
Размер файла : 9,26 Гбайт
Продолжительность : 1 ч. 53 м.
Общий поток : 11,7 Мбит/сек
Название фильма : Братство (2019)
Дата кодирования : UTC 2020-02-05 11:50:55
Программа кодирования : mkvmerge v41.0.0 ('Smarra') 64-bit
Библиотека кодирования : libebml v1.3.9 + libmatroska v1.5.2
Обложка : Yes
Attachments : cover.jpg
Видео
Идентификатор : 1
Формат : AVC
Формат/Информация : Advanced Video Codec
Профиль формата : High@L4.1
Настройки формата : CABAC / 4 Ref Frames
Параметр CABAC формата : Да
Параметр RefFrames формата : 4 кадра
Идентификатор кодека : V_MPEG4/ISO/AVC
Продолжительность : 1 ч. 53 м.
Битрейт : 8005 Кбит/сек
Ширина : 1920 пикселей
Высота : 1080 пикселей
Соотношение сторон : 16:9
Режим частоты кадров : Постоянный
Частота кадров : 23,976 (24000/1001) кадра/сек
Цветовое пространство : YUV
Субдискретизация насыщенности : 4:2:0
Битовая глубина : 8 бит
Тип развёртки : Прогрессивная
Бит/(Пиксели*Кадры) : 0.161
Размер потока : 6,35 Гбайт (69%)
Заголовок : UTT
Библиотека кодирования : x264 core 152 r2851 ba24899
Настройки программы : cabac=1 / ref=4 / deblock=1:-3:-3 / analyse=0x3:0x113 / me=umh / subme=10 / psy=1 / psy_rd=1.00:0.00 / mixed_ref=1 / me_range=24 / chroma_me=1 / trellis=2 / 8x8dct=1 / cqm=0 / deadzone=21,11 / fast_pskip=1 / chroma_qp_offset=-2 / threads=24 / lookahead_threads=4 / sliced_threads=0 / nr=0 / decimate=1 / interlaced=0 / bluray_compat=0 / constrained_intra=0 / bframes=8 / b_pyramid=2 / b_adapt=2 / b_bias=0 / direct=3 / weightb=1 / open_gop=0 / weightp=2 / keyint=230 / keyint_min=23 / scenecut=40 / intra_refresh=0 / rc_lookahead=60 / rc=2pass / mbtree=1 / bitrate=8005 / ratetol=1.0 / qcomp=0.60 / qpmin=0 / qpmax=69 / qpstep=4 / cplxblur=20.0 / qblur=0.5 / vbv_maxrate=62500 / vbv_bufsize=78125 / nal_hrd=none / filler=0 / ip_ratio=1.40 / aq=1:1.00
Язык : French
Default : Да
Forced : Нет
Аудио #1
Идентификатор : 2
Формат : AC-3
Формат/Информация : Audio Coding 3
Коммерческое название : Dolby Digital
Идентификатор кодека : A_AC3
Продолжительность : 1 ч. 53 м.
Вид битрейта : Постоянный
Битрейт : 640 Кбит/сек
Каналы : 6 каналов
ChannelLayout : L R C LFE Ls Rs
Частота : 48,0 КГц
Частота кадров : 31,250 кадров/сек (1536 SPF)
Метод сжатия : С потерями
Размер потока : 520 Мбайт (5%)
Заголовок : Blu-ray FRA
Язык : Russian
Default : Да
Forced : Да
Аудио #2
Идентификатор : 3
Формат : DTS
Формат/Информация : Digital Theater Systems
Идентификатор кодека : A_DTS
Продолжительность : 1 ч. 53 м.
Вид битрейта : Постоянный
Битрейт : 1509 Кбит/сек
Каналы : 6 каналов
ChannelLayout : C L R Ls Rs LFE
Частота : 48,0 КГц
Частота кадров : 93,750 кадра/сек (512 SPF)
Битовая глубина : 24 бит
Метод сжатия : С потерями
Размер потока : 1,20 Гбайт (13%)
Заголовок : Blu-ray FRA
Язык : Russian
Default : Нет
Forced : Нет
Аудио #3
Идентификатор : 4
Формат : DTS
Формат/Информация : Digital Theater Systems
Идентификатор кодека : A_DTS
Продолжительность : 1 ч. 53 м.
Вид битрейта : Постоянный
Битрейт : 1509 Кбит/сек
Каналы : 6 каналов
ChannelLayout : C L R Ls Rs LFE
Частота : 48,0 КГц
Частота кадров : 93,750 кадра/сек (512 SPF)
Битовая глубина : 24 бит
Метод сжатия : С потерями
Размер потока : 1,20 Гбайт (13%)
Язык : French
Default : Нет
Forced : Нет
Текст
Идентификатор : 5
Формат : UTF-8
Идентификатор кодека : S_TEXT/UTF8
Идентификатор кодека/Информация : UTF-8 Plain Text
Продолжительность : 1 ч. 49 м.
Битрейт : 44 бит/сек
ElementCount : 1057
Размер потока : 35,6 Кбайт (0%)
Заголовок : Full
Язык : French
Default : Нет
Forced : Нет
Меню
00:00:00.000 : en:00:00:00.000
00:08:36.516 : en:00:08:36.516
00:21:33.501 : en:00:21:33.501
00:36:35.443 : en:00:36:35.443
00:49:51.071 : en:00:49:51.071
00:59:56.635 : en:00:59:56.635
01:10:45.658 : en:01:10:45.658
01:18:43.469 : en:01:18:43.469
01:28:27.719 : en:01:28:27.719
01:38:17.475 : en:01:38:17.475

Скриншоты

admin

Post 06-Feb-2020 04:22

[Quote]

Информация о фильме
Название: Братство
Год выхода: 2019
Жанр: Драма, боевик, история, военный
Режиссер: Павел Лунгин
В ролях: Кирилл Пирогов, Ян Цапник, Виталий Кищенко, Фёдор Лавров, Олег Васильков, Антон Момот, Михаил Кремер, Кирилл Ермичев, Роман Колотухин, Василий Буткевич
О фильме:
1988 год, канун вывода советских войск из Афганистана. Командование 108-й мотострелковой дивизии планирует отход через перевал Саланг, подконтрольный группировке моджахедов Инженера Хошема. Разведка пытается договориться о перемирии с душманами, но дело осложняется тем, что в плен к Хошему попадает советский военный пилот. Начинается сложная игра, в которой переплетаются противоположные интересы множества самых разных людей: штабистов, исламистов, спецназа, разведки, чиновников из афганского правительства, сотрудников советских спецслужб, таджиков и пуштунов. А в самом центре этого водоворота оказываются солдаты разведроты, для которых важнее любых политических соображений остается правило — не бросать своих.

Страна: Россия
Студия: Мастерская Павла Лунгина
Продолжительность: 01:53:40
Перевод: Не требуется | Лицензия Blu-Ray FRA
Файл
Качество: BDRip 720p
Формат: MKV
Кодек: MPEG-4 AVC
Видео: 1280x720 (16:9), 23,976 fps, MPEG-4 AVC ~ 5462 Кbps avg, 0.247 bit/pixel
Аудио: AC3, 48 kHz, 6 ch, ~640.00 kbps avg | русский | Blu-Ray FRA
Аудио: DTS, 48 kHz, 6 ch, ~1510.00 kbps avg | русский | Blu-Ray FRA
Субтитры: Отсутствуют

Инфо-файл

Общее
Уникальный идентификатор : 248352559385841082848138434721425701491 (0xBAD6F68CFA2435A27C458A21A6A8BA73)
Полное имя : Bratstvo.2019.FRENCH.720p.BluRay.DTS.x264.mkv
Формат : Matroska
Версия формата : Version 4
Размер файла : 6,04 Гбайт
Продолжительность : 1 ч. 53 м.
Общий поток : 7611 Кбит/сек
Название фильма : Братство (2019)
Дата кодирования : UTC 2020-02-05 12:25:17
Программа кодирования : mkvmerge v41.0.0 ('Smarra') 64-bit
Библиотека кодирования : libebml v1.3.9 + libmatroska v1.5.2
Обложка : Yes
Attachments : cover.jpg
Видео
Идентификатор : 1
Формат : AVC
Формат/Информация : Advanced Video Codec
Профиль формата : High@L4.1
Настройки формата : CABAC / 5 Ref Frames
Параметр CABAC формата : Да
Параметр RefFrames формата : 5 кадров
Идентификатор кодека : V_MPEG4/ISO/AVC
Продолжительность : 1 ч. 53 м.
Битрейт : 5462 Кбит/сек
Ширина : 1280 пикселей
Высота : 720 пикселей
Соотношение сторон : 16:9
Режим частоты кадров : Постоянный
Частота кадров : 23,976 (24000/1001) кадра/сек
Цветовое пространство : YUV
Субдискретизация насыщенности : 4:2:0
Битовая глубина : 8 бит
Тип развёртки : Прогрессивная
Бит/(Пиксели*Кадры) : 0.247
Размер потока : 4,33 Гбайт (72%)
Заголовок : UTT
Библиотека кодирования : x264 core 152 r2851 ba24899
Настройки программы : cabac=1 / ref=5 / deblock=1:-3:-3 / analyse=0x3:0x113 / me=umh / subme=10 / psy=1 / psy_rd=1.00:0.00 / mixed_ref=1 / me_range=24 / chroma_me=1 / trellis=2 / 8x8dct=1 / cqm=0 / deadzone=21,11 / fast_pskip=1 / chroma_qp_offset=-2 / threads=22 / lookahead_threads=4 / sliced_threads=0 / nr=0 / decimate=1 / interlaced=0 / bluray_compat=0 / constrained_intra=0 / bframes=8 / b_pyramid=2 / b_adapt=2 / b_bias=0 / direct=3 / weightb=1 / open_gop=0 / weightp=2 / keyint=230 / keyint_min=23 / scenecut=40 / intra_refresh=0 / rc_lookahead=60 / rc=2pass / mbtree=1 / bitrate=5462 / ratetol=1.0 / qcomp=0.60 / qpmin=0 / qpmax=69 / qpstep=4 / cplxblur=20.0 / qblur=0.5 / vbv_maxrate=62500 / vbv_bufsize=78125 / nal_hrd=none / filler=0 / ip_ratio=1.40 / aq=1:1.00
Язык : French
Default : Да
Forced : Нет
Аудио #1
Идентификатор : 2
Формат : AC-3
Формат/Информация : Audio Coding 3
Коммерческое название : Dolby Digital
Идентификатор кодека : A_AC3
Продолжительность : 1 ч. 53 м.
Вид битрейта : Постоянный
Битрейт : 640 Кбит/сек
Каналы : 6 каналов
ChannelLayout : L R C LFE Ls Rs
Частота : 48,0 КГц
Частота кадров : 31,250 кадров/сек (1536 SPF)
Метод сжатия : С потерями
Размер потока : 520 Мбайт (8%)
Заголовок : Blu-ray FRA
Язык : Russian
Default : Да
Forced : Да
Аудио #2
Идентификатор : 3
Формат : DTS
Формат/Информация : Digital Theater Systems
Идентификатор кодека : A_DTS
Продолжительность : 1 ч. 53 м.
Вид битрейта : Постоянный
Битрейт : 1509 Кбит/сек
Каналы : 6 каналов
ChannelLayout : C L R Ls Rs LFE
Частота : 48,0 КГц
Частота кадров : 93,750 кадра/сек (512 SPF)
Битовая глубина : 24 бит
Метод сжатия : С потерями
Размер потока : 1,20 Гбайт (20%)
Заголовок : Blu-ray FRA
Язык : Russian
Default : Нет
Forced : Нет
Меню
00:00:00.000 : en:00:00:00.000
00:08:36.516 : en:00:08:36.516
00:21:33.501 : en:00:21:33.501
00:36:35.443 : en:00:36:35.443
00:49:51.071 : en:00:49:51.071
00:59:56.635 : en:00:59:56.635
01:10:45.658 : en:01:10:45.658
01:18:43.469 : en:01:18:43.469
01:28:27.719 : en:01:28:27.719
01:38:17.475 : en:01:38:17.475

Скриншоты

admin

Post 05-Feb-2020 06:04

[Quote]

Информация о фильме
Название: Рассвет
«Ты не проснёшься»
Год выхода: 2019
Жанр: Ужасы, триллер
Режиссер: Павел Сидоров
В ролях: Оксана Акиньшина, Александра Дроздова, Александр Молочников, Анна Слю, Олег Васильков, Кузьма Котрелев, Анастасия Куимова, Валерий Кухарешин, Мирослав Пенцов
О фильме:
У главной героини при загадочных обстоятельствах погибает брат. Девушку начинают преследовать реалистичные кошмары, и она отправляется в институт сомнологии, где ее вместе с другими пациентами погружают в совместное осознанное сновидение. Но после наступления рассвета они проснутся совсем в другой реальности, которая страшнее любого кошмара…

Страна: Россия
Студия: Karoprokat
Продолжительность: 1:37:52
Перевод: Не требуется | Лицензия Blu-Ray GER
Файл
Качество: BDRip 1080p
Исходник: Quiet.Comes.the.Dawn.2019.GERMAN.DUAL.COMPLETE.BLURAY-UNiVERSUM
Формат: MKV
Кодек: MPEG-4 AVC
Видео: 1920x804 (2,40:1), 23,976 fps, MPEG-4 AVC ~ 9916 Кbps avg, 0.268 bit/pixel
Аудио: AC3, 48 kHz, 6 ch, ~640.00 kbps avg | русский | Blu-Ray GER
Аудио: DTS, 48 kHz, 6 ch, ~1510.00 kbps avg | русский | Blu-Ray GER
Аудио: DTS, 48 kHz, 6 ch, ~1509.00 kbps avg | немецкий | Blu-Ray GER
Субтитры: Немецкие (Forced)

Инфо-файл

Общее
Уникальный идентификатор : 171549330644349299676272805402192101600 (0x810F330431CEBC49BA0FC0D70867C0E0)
Полное имя : Rassvet.2019.1080p.BluRay.x264.DTS.Rus.Ger.mkv
Формат : Matroska
Версия формата : Version 4
Размер файла : 9,28 Гбайт
Продолжительность : 1 ч. 37 м.
Общий поток : 13,6 Мбит/сек
Название фильма : Рассвет (2019)
Дата кодирования : UTC 2020-02-04 01:58:49
Программа кодирования : mkvmerge v41.0.0 ('Smarra') 64-bit
Библиотека кодирования : libebml v1.3.9 + libmatroska v1.5.2
Обложка : Yes
Attachments : cover.jpg
Видео
Идентификатор : 1
Формат : AVC
Формат/Информация : Advanced Video Codec
Профиль формата : High@L4.1
Настройки формата : CABAC / 4 Ref Frames
Параметр CABAC формата : Да
Параметр RefFrames формата : 4 кадра
Идентификатор кодека : V_MPEG4/ISO/AVC
Продолжительность : 1 ч. 37 м.
Битрейт : 9916 Кбит/сек
Ширина : 1920 пикселей
Высота : 804 пикселя
Соотношение сторон : 2,40:1
Режим частоты кадров : Постоянный
Частота кадров : 23,976 (24000/1001) кадра/сек
Цветовое пространство : YUV
Субдискретизация насыщенности : 4:2:0
Битовая глубина : 8 бит
Тип развёртки : Прогрессивная
Бит/(Пиксели*Кадры) : 0.268
Размер потока : 6,78 Гбайт (73%)
Заголовок : #stillet
Библиотека кодирования : x264 core 152 r2851bm ba24899
Настройки программы : cabac=1 / ref=4 / deblock=1:-3:-3 / analyse=0x3:0x113 / me=umh / subme=11 / psy=1 / psy_rd=1.00:0.15 / mixed_ref=1 / me_range=32 / chroma_me=1 / trellis=2 / 8x8dct=1 / cqm=0 / deadzone=21,11 / fast_pskip=0 / chroma_qp_offset=-3 / threads=8 / lookahead_threads=3 / sliced_threads=0 / nr=0 / decimate=0 / interlaced=0 / bluray_compat=0 / constrained_intra=0 / bframes=11 / b_pyramid=2 / b_adapt=2 / b_bias=0 / direct=3 / weightb=1 / open_gop=0 / weightp=2 / keyint=240 / keyint_min=23 / scenecut=40 / intra_refresh=0 / rc_lookahead=40 / rc=2pass / mbtree=0 / bitrate=9916 / ratetol=1.0 / qcomp=0.60 / qpmin=0 / qpmax=69 / qpstep=4 / cplxblur=20.0 / qblur=0.5 / vbv_maxrate=50000 / vbv_bufsize=62500 / nal_hrd=none / filler=0 / ip_ratio=1.40 / pb_ratio=1.30 / aq=1:1.00
Язык : German
Default : Да
Forced : Нет
Аудио #1
Идентификатор : 2
Формат : AC-3
Формат/Информация : Audio Coding 3
Коммерческое название : Dolby Digital
Идентификатор кодека : A_AC3
Продолжительность : 1 ч. 37 м.
Вид битрейта : Постоянный
Битрейт : 640 Кбит/сек
Каналы : 6 каналов
ChannelLayout : L R C LFE Ls Rs
Частота : 48,0 КГц
Частота кадров : 31,250 кадров/сек (1536 SPF)
Метод сжатия : С потерями
Размер потока : 448 Мбайт (5%)
Заголовок : Blu-ray GER
Язык : Russian
Default : Да
Forced : Да
Аудио #2
Идентификатор : 3
Формат : DTS
Формат/Информация : Digital Theater Systems
Идентификатор кодека : A_DTS
Продолжительность : 1 ч. 37 м.
Вид битрейта : Постоянный
Битрейт : 1510 Кбит/сек
Каналы : 6 каналов
ChannelLayout : C L R Ls Rs LFE
Частота : 48,0 КГц
Частота кадров : 93,750 кадра/сек (512 SPF)
Битовая глубина : 24 бит
Метод сжатия : С потерями
Размер потока : 1,03 Гбайт (11%)
Заголовок : Blu-ray GER
Язык : Russian
Default : Нет
Forced : Нет
Аудио #3
Идентификатор : 4
Формат : DTS
Формат/Информация : Digital Theater Systems
Идентификатор кодека : A_DTS
Продолжительность : 1 ч. 37 м.
Вид битрейта : Постоянный
Битрейт : 1509 Кбит/сек
Каналы : 6 каналов
ChannelLayout : C L R Ls Rs LFE
Частота : 48,0 КГц
Частота кадров : 93,750 кадра/сек (512 SPF)
Битовая глубина : 24 бит
Метод сжатия : С потерями
Размер потока : 1,03 Гбайт (11%)
Заголовок : Blu-ray GER
Язык : German
Default : Нет
Forced : Нет
Текст
Идентификатор : 5
Формат : UTF-8
Идентификатор кодека : S_TEXT/UTF8
Идентификатор кодека/Информация : UTF-8 Plain Text
Продолжительность : 1 ч. 1 м.
Битрейт : 1 бит/сек
ElementCount : 14
Размер потока : 505 байт (0%)
Заголовок : Forced
Язык : German
Default : Нет
Forced : Нет
Меню
00:00:00.000 : de:00:00:00.000
00:03:34.923 : de:00:03:34.923
00:09:57.639 : de:00:09:57.639
00:16:47.340 : de:00:16:47.340
00:23:19.982 : de:00:23:19.982
00:32:04.381 : de:00:32:04.381
00:43:36.280 : de:00:43:36.280
00:52:23.891 : de:00:52:23.891
01:02:26.242 : de:01:02:26.242
01:10:04.409 : de:01:10:04.409
01:18:24.158 : de:01:18:24.158
01:28:40.357 : de:01:28:40.357
01:33:40.490 : de:01:33:40.490

Скриншоты

admin

Post 05-Feb-2020 06:03

[Quote]

Информация о фильме
Название: Рассвет
«Ты не проснёшься»
Год выхода: 2019
Жанр: Ужасы, триллер
Режиссер: Павел Сидоров
В ролях: Оксана Акиньшина, Александра Дроздова, Александр Молочников, Анна Слю, Олег Васильков, Кузьма Котрелев, Анастасия Куимова, Валерий Кухарешин, Мирослав Пенцов
О фильме:
У главной героини при загадочных обстоятельствах погибает брат. Девушку начинают преследовать реалистичные кошмары, и она отправляется в институт сомнологии, где ее вместе с другими пациентами погружают в совместное осознанное сновидение. Но после наступления рассвета они проснутся совсем в другой реальности, которая страшнее любого кошмара…

Страна: Россия
Студия: Karoprokat
Продолжительность: 1:37:52
Перевод: Не требуется | Лицензия Blu-Ray GER
Файл
Качество: Blu-ray 1080p
Формат: BDMV
Кодек: MPEG-4 AVC Video
Видео: 1920x1080 (16:9), 23,976 fps, MPEG-4 AVC Video ~ 19982 kbps avg, High Profile 4.1
Аудио#1: DTS-HD Master Audio German 1973 kbps 5.1 / 48 kHz / 1973 kbps / 16-bit (DTS Core: 5.1 / 48 kHz / 1509 kbps / 16-bit)
Аудио#2: DTS-HD Master Audio Russian 1853 kbps 5.1 / 48 kHz / 1853 kbps / 16-bit (DTS Core: 5.1 / 48 kHz / 1509 kbps / 16-bit)
Субтитры: Немецкие (PGS)

Семпл

BDInfo

DISC INFO:
Disc Title: Quiet.Comes.the.Dawn.2019.GERMAN.DUAL.COMPLETE.BLURAY-UNiVERSUM
Disc Size: 20 181 160 111 bytes
Protection: AACS
BD-Java: No
BDInfo: 0.7.3.3
PLAYLIST REPORT:
Name: 00003.MPLS
Length: 1:37:52.491 (h:m:s.ms)
Size: 18 643 482 624 bytes
Total Bitrate: 25,40 Mbps
VIDEO:
Codec Bitrate Deion
----- ------- -----------
MPEG-4 AVC Video 19982 kbps 1080p / 23,976 fps / 16:9 / High Profile 4.1
AUDIO:
Codec Language Bitrate Deion
----- -------- ------- -----------
DTS-HD Master Audio German 1973 kbps 5.1 / 48 kHz / 1973 kbps / 16-bit (DTS Core: 5.1 / 48 kHz / 1509 kbps / 16-bit)
DTS-HD Master Audio Russian 1853 kbps 5.1 / 48 kHz / 1853 kbps / 16-bit (DTS Core: 5.1 / 48 kHz / 1509 kbps / 16-bit)
SUBTITLES:
Codec Language Bitrate Deion
----- -------- ------- -----------
Presentation Graphics German 0,398 kbps
FILES:
Name Time In Length Size Total Bitrate
---- ------- ------ ---- -------------
00008.M2TS 0:00:00.000 1:37:52.491 18 643 482 624 25 398

Скриншоты

admin

Post 09-Jan-2020 13:16

[Quote]

Информация о фильме
Название: Француз
Год выхода: 2019
Жанр: История, драма
Страна: Россия
Перевод: Не требуется
Продолжительность: 02:08:20
Режиссер: Андрей Смирнов
В ролях: Антон Риваль, Евгения Образцова, Александр Балуев, Евгений Ткачук, Михаил Ефремов, Роман Мадянов, Нина Дробышева, Наталья Тенякова, Лилия Багирова, Люси Арон и др.
О фильме: Картина посвящена памяти Александра Гинзбурга — одного из первых советских диссидентов. В 1957 году французский студент Пьер Дюран приезжает в Москву на стажировку в МГУ. Здесь он знакомится с балериной Большого театра Кирой Галкиной и фотографом Валерой Успенским. Благодаря этим знакомствам, Пьер погружается в культурную жизнь Москвы, не только официальную, но и подпольную. За год в Москве Пьер проживает целую жизнь, совершенно не похожую на всё, что он знал. Но стажировка и знакомство с разными сторонами быта советских людей — не единственная цель Пьера. Он ищет своего отца, белого офицера Татищева, который был арестован в конце 30-х.

Файл
Качество: WEB-DL 1080p
Видео: MPEG-4 AVC, 1920x1038, 5187 kbps, 24,000 fps
Звук: русский, AC3, 5.1 ch, 48 kHz, 384 kbps
Субтитры: русские (форс.)

MI

Общее
Уникальный идентификатор : 216985877947531824252398347169796835869 (0xA33DF5C190DBDFB3B478610BB575CA1D)
Полное имя : G:Torrent2FrancuzWEBDL1080p.mkv
Формат : Matroska
Версия формата : Version 4 / Version 2
Размер файла : 5,00 Гбайт
Продолжительность : 2 ч. 8 м.
Общий поток : 5573 Кбит/сек
Дата кодирования : UTC 2020-01-08 20:33:44
Программа кодирования : mkvmerge v9.5.0 ('Quiet Fire') 64bit
Библиотека кодирования : libebml v1.3.4 + libmatroska v1.4.5
Видео
Идентификатор : 1
Формат : AVC
Формат/Информация : Advanced Video Codec
Профиль формата : High@L4
Настройки формата : CABAC / 4 Ref Frames
Параметр CABAC формата : Да
Параметр RefFrames формата : 4 кадра
Идентификатор кодека : V_MPEG4/ISO/AVC
Продолжительность : 2 ч. 8 м.
Битрейт : 5187 Кбит/сек
Ширина : 1920 пикселей
Высота : 1038 пикселей
Соотношение сторон : 1,85:1
Режим частоты кадров : Постоянный
Частота кадров : 24,000 кадра/сек
Цветовое пространство : YUV
Субдискретизация насыщенности : 4:2:0
Битовая глубина : 8 бит
Тип развёртки : Прогрессивная
Бит/(Пиксели*Кадры) : 0.108
Размер потока : 4,65 Гбайт (93%)
Язык : English
Default : Да
Forced : Нет
Цветовой диапазон : Limited
Основные цвета : BT.709
Характеристики трансфера : BT.709
Коэффициенты матрицы : BT.709
Аудио
Идентификатор : 2
Формат : AC-3
Формат/Информация : Audio Coding 3
Параметр Endianness формата : Big
Идентификатор кодека : A_AC3
Продолжительность : 2 ч. 8 м.
Вид битрейта : Постоянный
Битрейт : 384 Кбит/сек
Каналы : 6 каналов
Расположение каналов : Front: L C R, Side: L R, LFE
Частота : 48,0 КГц
Частота кадров : 31,250 кадров/сек (1536 SPF)
Битовая глубина : 16 бит
Метод сжатия : С потерями
Размер потока : 352 Мбайт (7%)
Язык : Russian
Default : Да
Forced : Нет
Текст
Идентификатор : 3
Формат : UTF-8
Идентификатор кодека : S_TEXT/UTF8
Идентификатор кодека/Информация : UTF-8 Plain Text
Продолжительность : 49 м. 37 с.
Битрейт : 23 бит/сек
ElementCount : 123
Размер потока : 8,54 Кбайт (0%)
Заголовок : rusForced
Язык : Russian
Default : Да
Forced : Нет
Меню
00:00:00.000 : en:Глава 1
00:05:34.916 : en:Глава 2
00:15:17.874 : en:Глава 3
00:21:35.415 : en:Глава 4
00:30:21.373 : en:Глава 5
00:35:18.748 : en:Глава 6
00:39:51.206 : en:Глава 7
00:48:39.289 : en:Глава 8
00:57:32.039 : en:Глава 9
01:03:40.789 : en:Глава 10
01:07:56.914 : en:Глава 11
01:14:49.080 : en:Глава 12
01:24:02.621 : en:Глава 13
01:30:14.496 : en:Глава 14
01:50:15.329 : en:Глава 15
02:01:43.287 : en:Глава 16

Скриншоты

admin

Post 05-Jan-2020 12:45

[Quote]

Информация о фильме
Название: Без меня
Год выхода: 2018
Жанр: Драма, мелодрама
Режиссер: Кирилл Плетнёв
В ролях: Полина Максимова, Любовь Аксёнова, Риналь Мухаметов, Кирилл Плетнёв, Анна Каменкова, Евгения Дмитриева, Иван Титяев, Владимир Яглыч, Алексей Шевченков, Агриппина Стеклова
О фильме: Две девушки, любившие одного мужчину, после его гибели получают сообщения, автором которых может быть только он. В надежде на чудо им вдвоем предстоит отправиться в путь, который прокладывают его подсказки, чтобы открыть тайну, стоящую за загадочными посланиями.

Страна: Россия
Студия: Синетрейн, Марс Медиа Энтертейнмент
Продолжительность: 01:33:14
Перевод: Не требуется | Лицензия Blu-Ray GER
Файл
Качество: Blu-ray 1080p
Формат: BDMV
Видео: MPEG-4 AVC Video, 1920x1080, 21261 kbps, 24.000 fps
Аудио 1: German: 48 kHz, 16-bit, DTS-HD MA, 5.1 ch, 1659 kbps
Аудио 2: Russian: 48 kHz, 16-bit, DTS-HD MA, 5.1 ch, 1777 kbps
Субтитры: Немецкие

Скриншоты


BDInfo

DISC INFO:
Disc Title: Das.Beste.an.mir.bist.Du.2018.GERMAN.DUAL.COMPLETE.BLURAY-UNiVERSUM
Disc Size: 20,959,081,684 bytes
Protection: AACS
Extras: BD-Java, 50Hz Content
BDInfo: 0.7.5.5
PLAYLIST REPORT:
Name: 00003.MPLS
Length: 1:33:14.416 (h:m:s.ms)
Size: 18,310,944,768 bytes
Total Bitrate: 26.18 Mbps
VIDEO:
Codec Bitrate Deion
----- ------- -----------
MPEG-4 AVC Video 21261 kbps 1080p / 24 fps / 16:9 / High Profile 4.1
AUDIO:
Codec Language Bitrate Deion
----- -------- ------- -----------
DTS-HD Master Audio German 1659 kbps 5.1 / 48 kHz / 1659 kbps / 16-bit (DTS Core: 5.1 / 48 kHz / 768 kbps / 16-bit)
DTS-HD Master Audio Russian 1777 kbps 5.1 / 48 kHz / 1777 kbps / 16-bit (DTS Core: 5.1 / 48 kHz / 768 kbps / 16-bit)
SUBTITLES:
Codec Language Bitrate Deion
----- -------- ------- -----------
Presentation Graphics German 22.380 kbps
Presentation Graphics German 0.522 kbps

admin

Post 02-Jan-2020 12:36

[Quote]

Информация о фильме
Название: Лев Яшин. Вратарь моей мечты
Год выхода: 2019
Жанр: Биография, спорт, драма
Страна: Россия
Перевод: Не требуется
Продолжительность: 01:56:02
Режиссер: Василий Чигинский
В ролях: Александр Фокин, Юлия Хлынина, Алексей Гуськов, Алексей Кравченко, Евгений Дятлов, Виталий Хаев, Михаил Елисеев, Ян Цапник, Александр Самойленко, Владимир Андреев и др.
О фильме: Чёрный паук, Чёрная пантера и даже Чёрный осьминог — такими прозвищами награждали Льва Яшина за гибкость, молниеносное перемещение и гениальное видение поля. Он, неизменно в черном свитере с буквой «Д», был полноправным хозяином в своей штрафной. После поражения на Чемпионате мира в Чили ему придется уйти, чтобы позже с триумфом вернуться и снова стать лучшим не только в стране, но и во всем мире — единственным вратарём за всю историю футбола, получившим Золотой мяч. Лучшим, по мнению FIFA, вратарем ХХ века.

Файл
Качество: WEB-DL 1080p
Видео: MPEG-4 AVC, 1912x792, 4527 kbps, 23,976 fps
Звук: русский, AC3, 5.1 ch, 48 kHz, 384 kbps
Субтитры: нет

MI

Общее
Уникальный идентификатор : 234618732109081043671026536369281774422 (0xB081EC964B445C409DB03D81CDA73356)
Полное имя : G:Torrent2LevYAshinVratarMoejMechtyWEBDL1080p.mkv
Формат : Matroska
Версия формата : Version 4 / Version 2
Размер файла : 3,98 Гбайт
Продолжительность : 1 ч. 56 м.
Общий поток : 4913 Кбит/сек
Дата кодирования : UTC 2020-01-01 19:38:43
Программа кодирования : mkvmerge v9.5.0 ('Quiet Fire') 64bit
Библиотека кодирования : libebml v1.3.4 + libmatroska v1.4.5
Видео
Идентификатор : 1
Формат : AVC
Формат/Информация : Advanced Video Codec
Профиль формата : High@L4
Настройки формата : CABAC / 5 Ref Frames
Параметр CABAC формата : Да
Параметр RefFrames формата : 5 кадров
Идентификатор кодека : V_MPEG4/ISO/AVC
Продолжительность : 1 ч. 56 м.
Битрейт : 4527 Кбит/сек
Ширина : 1912 пикселей
Высота : 792 пикселя
Соотношение сторон : 2,40:1
Режим частоты кадров : Постоянный
Частота кадров : 23,976 кадра/сек
Цветовое пространство : YUV
Субдискретизация насыщенности : 4:2:0
Битовая глубина : 8 бит
Тип развёртки : Прогрессивная
Бит/(Пиксели*Кадры) : 0.125
Размер потока : 3,67 Гбайт (92%)
Язык : English
Default : Да
Forced : Нет
Цветовой диапазон : Limited
Основные цвета : BT.709
Характеристики трансфера : BT.709
Коэффициенты матрицы : BT.709
Аудио
Идентификатор : 2
Формат : AC-3
Формат/Информация : Audio Coding 3
Параметр Endianness формата : Big
Идентификатор кодека : A_AC3
Продолжительность : 1 ч. 56 м.
Вид битрейта : Постоянный
Битрейт : 384 Кбит/сек
Каналы : 6 каналов
Расположение каналов : Front: L C R, Side: L R, LFE
Частота : 48,0 КГц
Частота кадров : 31,250 кадров/сек (1536 SPF)
Битовая глубина : 16 бит
Метод сжатия : С потерями
Размер потока : 319 Мбайт (8%)
Заголовок : rus
Язык : Russian
Default : Да
Forced : Нет
Меню
00:00:00.000 : en:1
00:03:17.000 : en:2
00:10:08.000 : en:3
00:20:19.000 : en:4
00:31:28.000 : en:5
00:41:06.000 : en:6
00:50:11.000 : en:7
01:01:07.000 : en:8
01:09:30.000 : en:9
01:20:23.000 : en:10
01:29:58.000 : en:11
01:40:56.000 : en:12
01:51:15.000 : en:13

Скриншоты


 

Current time is: 02-Apr 11:29

All times are UTC + 3