Search found 171 matches

Author Message

admin

Post 13-Jun-2021 23:45

[Quote]

Информация о фильме
Оригинальное название: Замыкание
Год выхода: 2021
Жанр: Триллер
Режиссер: Татьяна Эверстова
В ролях: Юлия Мярина, Нюргуяна Шадрина, Василий Борисов, Саина Сергучева, Милана Мигалкина, Софья Баранова, Мария Сивцева, Анатолий Иванов
О фильме: Десятиклассница Таня живёт с мамой, сёстрами и отчимом. Дома отчим постоянно выпивает и обижает мать. Таня жалеет маму, ненавидит отчима и решает избавиться от него.

Выпущено: Россия / Хоро ОйУлуун Продакшн
Продолжительность: 01:22:28
Озвучивание: Профессиональное (многоголосое) | iTunes
Файл
Формат: MKV
Качество: WEB-DL 1080p
Видео: MPEG-4 AVC, 4551 Kb/s, 1920x804
Аудио #1: Russian: 48 kHz, AC3 Dolby Digital, 2/0 (L, R) ch, ~192 Kbps | MVO | iTunes
Аудио #2: Russian: 48 kHz, Advanced Audio Codec, 2/0 (L, R) ch, ~126 Kbps | MVO | iTunes
Субтитры: Нет
Дополнительно: Сохранены оригинальные чаптеры.

MediaInfo:

Complete name: Zamyikanie.2021.WEB-DL.1080p.ELEKTRI4KA.UNIONGANG.mkv
Format: Matroska
Format version: Version 4
File size: 2.81 GiB
Duration: 1 h 22 min
Overall bit rate: 4 871 kb/s
Movie name: Zamyikanie.2021.WEB-DL.1080p.ELEKTRI4KA.UNIONGANG.
Encoded date: UTC 2021-06-11 15:28:10
Writing application: mkvmerge v8.3.0 ('Over the Horizon') 64bit
Writing library: libebml v1.3.1 + libmatroska v1.4.2
Video
ID: 1
Format: AVC
Format/Info: Advanced Video Codec
Format profile: High@L4
Format settings: CABAC / 5 Ref Frames
Format settings, CABAC: Yes
Format settings, Reference frames: 5 frames
Codec ID: V_MPEG4/ISO/AVC
Duration: 1 h 22 min
Bit rate: 4 551 kb/s
Width: 1 920 pixels
Height: 804 pixels
Display aspect ratio: 2.40:1
Frame rate mode: Constant
Frame rate: 25.000 FPS
Color space: YUV
Chroma subsampling: 4:2:0
Bit depth: 8 bits
Scan type: Progressive
Bits/(Pixel*Frame): 0.118
Stream size: 2.62 GiB (93%)
Language: English
Default: Yes
Forced: No
Color range: Limited
Color primaries: BT.709
Transfer characteristics: BT.709
Matrix coefficients: BT.709
Audio #1
ID: 2
Format: AC-3
Format/Info: Audio Coding 3
Commercial name: Dolby Digital
Codec ID: A_AC3
Duration: 1 h 22 min
Bit rate mode: Constant
Bit rate: 192 kb/s
Channel(s): 2 channels
Channel layout: L R
Sampling rate: 48.0 kHz
Frame rate: 31.250 FPS (1536 SPF)
Compression mode: Lossy
Stream size: 113 MiB (4%)
Title: Original AC3 (iTunes)
Language: Russian
Service kind: Complete Main
Default: Yes
Forced: Yes
Audio #2
ID: 3
Format: AAC LC
Format/Info: Advanced Audio Codec Low Complexity
Codec ID: A_AAC-2
Duration: 1 h 22 min
Bit rate: 126 kb/s
Channel(s): 2 channels
Channel layout: L R
Sampling rate: 48.0 kHz
Frame rate: 46.875 FPS (1024 SPF)
Compression mode: Lossy
Stream size: 74.2 MiB (3%)
Title: Original AAC (iTunes)
Language: Russian
Default: No
Forced: No
Menu
00:00:00.000: en:Глава 1
00:05:48.440: en:Глава 2
00:09:08.960: en:Глава 3
00:14:50.280: en:Глава 4
00:21:40.080: en:Глава 5
00:24:58.400: en:Глава 6
00:34:54.440: en:Глава 7
00:41:04.040: en:Глава 8
00:44:46.240: en:Глава 9
00:51:15.720: en:Глава 10
00:56:57.600: en:Глава 11
01:02:22.480: en:Глава 12
01:06:41.480: en:Глава 13
01:10:41.160: en:Глава 14
01:16:39.040: en:Глава 15

Скриншоты

admin

Post 10-Jun-2021 21:56

[Quote]

Информация о фильме
Название: Конец фильма
Год выхода: 2021
Жанр: комедия
Режиссёр: Владимир Котт
В ролях: Валентин Самохин, Яна Троянова, Егор Бероев, Виктор Хориняк, Наталья Суркова, Лина Весёлкина, Мария Шумакова, Борис Каморзин, Анастасия Чернышова, Владимир Котт, Андрей Харыбин, Дмитрий Савельев, Лера Лахина
О фильме:
Режиссёр Митя сбегает со съёмочной площадки очередного телесериала. В этом ему помогает призрак Марчелло Мастроянни. Решение о побеге запускает цепочку событий с участием Митиных родных и близких, распутать которую сможет только ответ на вопрос о том, каким режиссером он хочет быть: великим, талантливым или просто нормальным.

Страна: Россия
Студия: КиноКластер
Продолжительность: 01:45:31
Перевод: Не требуется
Файл
Контейнер: MKV
Качество: WEB-DL 1080p | IVI
Видео: MPEG-4 (AVC), 1920х800 (2.40:1), 25 fps, ~ 5120 kbps, 0.133 bit/pixel
Аудио: AAC, 48 kHz, 6 ch, 512 Kbps

MediaInfo

General
Unique ID : 225344322631381880351569256303726802987 (0xA987BCE566058F9CBA55B70456E5B82B)
Complete name : Konets.filma.2021.1080p.IVI.WEB-DL.AAC5.1.H.264-EniaHD.mkv
Format : Matroska
Format version : Version 4
File size : 4.14 GiB
Duration : 1 h 45 min
Overall bit rate : 5 622 kb/s
Writing application : mkvmerge v57.0.0 ('Till The End') 64-bit
Writing library : libebml v1.4.2 + libmatroska v1.6.4
Video
ID : 1
Format : AVC
Format/Info : Advanced Video Codec
Format profile : High@L4
Format settings : CABAC / 4 Ref Frames
Format settings, CABAC : Yes
Format settings, Reference frames : 4 frames
Codec ID : V_MPEG4/ISO/AVC
Duration : 1 h 45 min
Bit rate : 5 120 kb/s
Width : 1 920 pixels
Height : 800 pixels
Display aspect ratio : 2.40:1
Frame rate mode : Constant
Frame rate : 25.000 FPS
Color space : YUV
Chroma subsampling : 4:2:0
Bit depth : 8 bits
Scan type : Progressive
Bits/(Pixel*Frame) : 0.133
Stream size : 3.76 GiB (91%)
Writing library : x264 core 152 r2854 e9a5903
Encoding settings : cabac=1 / ref=3 / deblock=1:0:0 / analyse=0x3:0x113 / me=hex / subme=7 / psy=1 / psy_rd=1.00:0.00 / mixed_ref=1 / me_range=16 / chroma_me=1 / trellis=1 / 8x8dct=1 / cqm=0 / deadzone=21,11 / fast_pskip=1 / chroma_qp_offset=-2 / threads=25 / lookahead_threads=4 / sliced_threads=0 / nr=0 / decimate=1 / interlaced=0 / bluray_compat=0 / constrained_intra=0 / bframes=6 / b_pyramid=2 / b_adapt=1 / b_bias=0 / direct=1 / weightb=1 / open_gop=0 / weightp=2 / keyint=50 / keyint_min=26 / scenecut=0 / intra_refresh=0 / rc_lookahead=40 / rc=2pass / mbtree=1 / bitrate=5120 / ratetol=1.0 / qcomp=0.60 / qpmin=0 / qpmax=69 / qpstep=4 / cplxblur=20.0 / qblur=0.5 / vbv_maxrate=7680 / vbv_bufsize=20480 / nal_hrd=none / filler=0 / ip_ratio=1.40 / aq=1:1.00
Default : Yes
Forced : No
Audio
ID : 2
Format : AAC LC
Format/Info : Advanced Audio Codec Low Complexity
Codec ID : A_AAC-2
Duration : 1 h 45 min
Bit rate : 512 kb/s
Channel(s) : 6 channels
Channel layout : C L R Ls Rs LFE
Sampling rate : 48.0 kHz
Frame rate : 46.875 FPS (1024 SPF)
Compression mode : Lossy
Stream size : 386 MiB (9%)
Language : Russian
Default : Yes
Forced : No

Скриншоты


admin

Post 10-Jun-2021 00:49

[Quote]

Информация о фильме
Название: После Чернобыля
Год выхода: 2021
Жанр: ужасы, триллер, детектив
Режиссер: Игорь Кинько, Максим Литвинов
В ролях: Майкл Гул, Ростислав Гулбис, Владимир Дыховичный, Катрин Бадалян, Иван Ивашкин, Татьяна Семенюк, Диана Барыбина, Татьяна Корнета, Роберт Фишман, Сергей Амбалов, Никита Мучкаев, Марк Барыбин
О фильме:
Путешествуя по Восточной Европе, группа американских туристов случайным образом попадает в мёртвый город Припять. Зона отчуждения оказывается не такой уж и заброшенной. Её нынешние обитатели начинают преследовать ребят, перед которыми встает задача выяснить: кто или что продолжает жить там, где якобы жизни нет.

Страна: Россия, Украина, США
Студия: Nikolaus Geyrhalter Filmproduktion
Продолжительность: 01:20:50
Перевод: Не требуется
Файл
Контейнер: MKV
Качество: WEB-DLRip 1080p
Видео: MPEG-4 (AVC), 1920х1080 (16:9), 25 fps, ~ 7838 kbps, 0.151 bit/pixel
Аудио: AC3, 48.0 kHz, 6 ch, 384 Kbps

MediaInfo

Общее
Уникальный идентификатор : 27130213337878389559732770008316856573 (0x146916CA70E0915F2E7EEF3D524548FD)
Полное имя : E:TorrentsFilesPosle.Chernobilya.2021.1080p.WEB-DL.DD5.1.H.264-EniaHD.mkv
Формат : Matroska
Версия формата : Version 4
Размер файла : 4,64 Гбайт
Продолжительность : 1 ч. 20 м.
Общий поток : 8 224 Кбит/сек
Дата кодирования : UTC 2021-04-26 20:34:34
Программа кодирования : mkvmerge v56.1.0 ('My Friend') 64-bit
Библиотека кодирования : libebml v1.4.2 + libmatroska v1.6.4
Видео
Идентификатор : 1
Формат : AVC
Формат/Информация : Advanced Video Codec
Профиль формата : High@L4
Настройки формата : CABAC / 2 Ref Frames
Параметр CABAC формата : Да
Параметр RefFrames формата : 2 кадра
Идентификатор кодека : V_MPEG4/ISO/AVC
Продолжительность : 1 ч. 20 м.
Битрейт : 7 838 Кбит/сек
Ширина : 1 920 пикселей
Высота : 1 080 пикселей
Соотношение сторон : 16:9
Режим частоты кадров : Постоянный
Частота кадров : 25,000 кадров/сек
Цветовое пространство : YUV
Субдискретизация насыщенности : 4:2:0
Битовая глубина : 8 бит
Тип развёртки : Прогрессивная
Бит/(Пиксели*Кадры) : 0.151
Размер потока : 4,43 Гбайт (95%)
Библиотека кодирования : x264 core 159 r2991 1771b55
Default : Да
Forced : Нет
Цветовой диапазон : Limited
Основные цвета : BT.709
Характеристики трансфера : BT.709
Коэффициенты матрицы : BT.709
Аудио
Идентификатор : 2
Формат : AC-3
Формат/Информация : Audio Coding 3
Коммерческое название : Dolby Digital
Идентификатор кодека : A_AC3
Продолжительность : 1 ч. 20 м.
Вид битрейта : Постоянный
Битрейт : 384 Кбит/сек
Каналы : 6 каналов
Channel layout : L R C LFE Ls Rs
Частота : 48,0 КГц
Частота кадров : 31,250 кадров/сек (1536 SPF)
Метод сжатия : С потерями
Размер потока : 222 Мбайт (5%)
Язык : Russian
Service kind : Complete Main
Default : Да
Forced : Нет
Меню
00:00:00.000 : Глава 1
00:08:45.200 : Глава 2
00:16:18.360 : Глава 3
00:23:59.840 : Глава 4
00:30:33.400 : Глава 5
00:37:29.080 : Глава 6
00:43:53.600 : Глава 7
00:49:18.640 : Глава 8
00:55:11.360 : Глава 9
01:01:45.840 : Глава 10
01:08:43.280 : Глава 11

Скриншоты


admin

Post 06-Jun-2021 22:23

[Quote]

Название: Чернобыль
Год выхода: 2021
Жанр: Драма, история
Режиссер: Данила Козловский
В ролях: Данила Козловский, Филипп Авдеев, Оксана Акиньшина, Николай Козак, Равшана Куркова, Игорь Черневич, Петр Терещенко, Артур Бесчастный, Андрей Арчаков, Самвел Тадевосян
О фильме: Алексей Карпушин — обычный молодой советский парень, пожарный в Припяти, который впервые начинает строить планы длиннее, чем на выходные или отпуск — он влюбляется в парикмахера Олю. В прошлом у них уже были отношения, но тогда Алексей упустил свой шанс. Теперь у Оли есть маленький сын Леша, но Алексей намерен никогда больше не повторять прежних ошибок: он признается Оле в своих чувствах, и все вместе они планируют переехать к морю.Авария на Чернобыльской АЭС ставит под угрозу мечту Алексея и жизни всех тех, кто ему дорог. Взрыв реактора грозит смертью не только тысячам людей, оказавшихся в зоне радиационного поражения: возможен второй взрыв, катастрофические последствия которого могут быть несоизмеримо больше. Алексей отправляется тушить пожар, а затем погружается под ядерный реактор, чтобы выпустить воду из резервуара и тем самым предотвратить еще один мощный взрыв.

Выпущено: Россия / Централ Партнершип, DK Entertainment, ГПМ КИТ, Нон-стоп Продакшн
Продолжительность: 02:15:24
Озвучивание: Оригинальное | Netflix
Формат: MKV
Качество: WEB-DL 1080p [Netflix version]
Видео: MPEG-4 AVC, 1920x800, 24.000 fps, 5110 Кb/s, 0.139 bit/pixel
Аудио #01: 48 kHz, AC3, 5.1, 640 Kbps | RUS |
Аудио #02: 48 kHz, E-AC3, 5.1, 640 Kbps | RUS |
Субтитры: Русские, английские

ОтчетМедиаИнфо

General
Unique ID : 188455205616374975750544472283090209070 (0x8DC7270189CFD576AFAA8A6A1FFB492E)
Complete name : F:Chernobyl.2021.WEB-DL.1080p.ExKinoRay.mkv
Format : Matroska
Format version : Version 4
File size : 6.05 GiB
Duration : 2 h 15 min
Overall bit rate : 6 389 kb/s
Movie name : Chernobyl 2021 from ExKinoRay
Encoded date : UTC 2021-06-05 16:02:57
Writing application : mkvmerge v7.3.0 ('Nouages') 64bit built on Oct 22 2014 18:53:34
Writing library : libebml v1.3.0 + libmatroska v1.4.1
Video
ID : 1
Format : AVC
Format/Info : Advanced Video Codec
Format profile : High@L4
Format settings : CABAC / 4 Ref Frames
Format settings, CABAC : Yes
Format settings, Reference : 4 frames
Codec ID : V_MPEG4/ISO/AVC
Duration : 2 h 15 min
Bit rate : 5 110 kb/s
Width : 1 920 pixels
Height : 800 pixels
Display aspect ratio : 2.40:1
Frame rate mode : Constant
Frame rate : 24.000 FPS
Color space : YUV
Chroma subsampling : 4:2:0
Bit depth : 8 bits
Scan type : Progressive
Bits/(Pixel*Frame) : 0.139
Stream size : 4.83 GiB (80%)
Language : Russian
Default : Yes
Forced : No
Audio #1
ID : 2
Format : AC-3
Format/Info : Audio Coding 3
Commercial name : Dolby Digital
Codec ID : A_AC3
Duration : 2 h 15 min
Bit rate mode : Constant
Bit rate : 640 kb/s
Channel(s) : 6 channels
Channel layout : L R C LFE Ls Rs
Sampling rate : 48.0 kHz
Frame rate : 31.250 FPS (1536 SPF)
Compression mode : Lossy
Delay relative to video : 5 ms
Stream size : 620 MiB (10%)
Title : netflix
Language : Russian
Service kind : Complete Main
Default : Yes
Forced : No
Audio #2
ID : 3
Format : E-AC-3
Format/Info : Enhanced AC-3
Commercial name : Dolby Digital Plus
Codec ID : A_EAC3
Duration : 2 h 15 min
Bit rate mode : Constant
Bit rate : 640 kb/s
Channel(s) : 6 channels
Channel layout : L R C LFE Ls Rs
Sampling rate : 48.0 kHz
Frame rate : 31.250 FPS (1536 SPF)
Compression mode : Lossy
Delay relative to video : 5 ms
Stream size : 620 MiB (10%)
Title : netflix
Language : Russian
Service kind : Complete Main
Default : No
Forced : No
Text #1
ID : 4
Format : UTF-8
Codec ID : S_TEXT/UTF8
Codec ID/Info : UTF-8 Plain Text
Duration : 2 h 15 min
Bit rate : 64 b/s
Count of elements : 1485
Stream size : 64.2 KiB (0%)
Title : SDH
Language : Russian
Default : No
Forced : No
Text #2
ID : 5
Format : UTF-8
Codec ID : S_TEXT/UTF8
Codec ID/Info : UTF-8 Plain Text
Duration : 2 h 8 min
Bit rate : 34 b/s
Count of elements : 1036
Stream size : 32.6 KiB (0%)
Title : SDH
Language : English
Default : No
Forced : No

Скриншоты

admin

Post 31-May-2021 15:19

[Quote]

Информация о фильме
Название: Я не сплю
Год выхода: 2020
Жанр: Ужасы
Режиссер: Павел Хвалеев
В ролях: Полина Давыдова, Евгений Гагарин, Оливия Индик, Дженнифер Робертс, Сергей Щегольский, Андрей Терещенко, Сергей Топков, Клаудия Цильке
О фильме:
За Милой кто-то пристально наблюдает. И однажды, придя домой, она становится жертвой похищения. Девушка оказывается запертой в некоем помещении, а похитители общаются с ней через рупор и выдвигают ей несколько условий: не спать и беспрекословно выполнять задания, которые они для неё приготовили. Кажется, что всё происходящее похоже на мрачное развлечение, но на самом деле это жестокий эксперимент.


Страна: Россия
Студия: Monomania Films
Продолжительность: 01:23:52
Перевод: Не требуется | Blu-ray GER | Лицензия
Файл
Качество: BDRip 1080p
Исходник: Sleepless.Beauty.Gefangen.Im.Albtraum.2020.DUAL.COMPLETE.BLURAY-ROCKEFELLER
Формат: MKV
Кодек: MPEG-4 AVC
Видео: 1920x804 (2.40:1), 24 fps, MPEG-4 AVC, 13.8 Mbps avg, 0.372 bit/pixel
Аудио: AC3, 48 kHz, 6 ch, ~640.00 kbps avg | русский | Blu-ray GER
Аудио: DTS, 48 kHz, 6 ch, ~1510.00 kbps avg | русский | Blu-ray GER
Субтитры: Отсутствуют

Инфо-файл

x264 [info]: frame I:620 Avg QP:15.60 size:201283
x264 [info]: frame P:20897 Avg QP:17.69 size:116383
x264 [info]: frame B:99247 Avg QP:19.85 size: 61639
*****************************************
Общее
Уникальный идентификатор : 313685049946799120101631115394804129082 (0xEBFD8B074908609EA516CEA00C089D3A)
Полное имя : Ya.ne.Splyu.2020.GER.1080p.BDRip.DTS.5.1.x264.MegaPeer.mkv
Формат : Matroska
Версия формата : Version 4
Размер файла : 9,34 Гбайт
Продолжительность : 1 ч. 23 м.
Общий поток : 15,9 Мбит/сек
Название фильма : Я не сплю (2020) от MegaPeer
Дата кодирования : UTC 2021-05-30 19:51:27
Программа кодирования : mkvmerge v47.0.0 ('Black Flag') 64-bit
Библиотека кодирования : libebml v1.3.10 + libmatroska v1.5.2
Обложка : Yes
Attachments : cover.jpg
Видео
Идентификатор : 1
Формат : AVC
Формат/Информация : Advanced Video Codec
Профиль формата : High@L4.1
Настройки формата : CABAC / 5 Ref Frames
Параметр CABAC формата : Да
Параметр RefFrames формата : 5 кадров
Идентификатор кодека : V_MPEG4/ISO/AVC
Продолжительность : 1 ч. 23 м.
Битрейт : 13,8 Мбит/сек
Ширина : 1 920 пикселей
Высота : 804 пикселя
Соотношение сторон : 2,40:1
Режим частоты кадров : Постоянный
Частота кадров : 24,000 кадра/сек
Цветовое пространство : YUV
Субдискретизация насыщенности : 4:2:0
Битовая глубина : 8 бит
Тип развёртки : Прогрессивная
Бит/(Пиксели*Кадры) : 0.372
Размер потока : 8,08 Гбайт (86%)
Заголовок : stillet@MegaPeer
Библиотека кодирования : x264 core 161 r3018 db0d417
Настройки программы : cabac=1 / ref=5 / deblock=1:-3:-3 / analyse=0x3:0x113 / me=umh / subme=11 / psy=1 / psy_rd=1.00:0.00 / mixed_ref=1 / me_range=48 / chroma_me=1 / trellis=2 / 8x8dct=1 / cqm=0 / deadzone=21,11 / fast_pskip=0 / chroma_qp_offset=-2 / threads=24 / lookahead_threads=6 / sliced_threads=0 / nr=0 / decimate=0 / interlaced=0 / bluray_compat=0 / constrained_intra=0 / bframes=12 / b_pyramid=2 / b_adapt=2 / b_bias=0 / direct=3 / weightb=1 / open_gop=0 / weightp=2 / keyint=240 / keyint_min=24 / scenecut=40 / intra_refresh=0 / rc_lookahead=40 / rc=2pass / mbtree=0 / bitrate=13800 / ratetol=1.0 / qcomp=0.60 / qpmin=0 / qpmax=69 / qpstep=4 / cplxblur=20.0 / qblur=0.5 / vbv_maxrate=50000 / vbv_bufsize=62500 / nal_hrd=none / filler=0 / ip_ratio=1.40 / pb_ratio=1.30 / aq=1:1.10
Язык : German
Default : Да
Forced : Нет
Аудио #1
Идентификатор : 2
Формат : AC-3
Формат/Информация : Audio Coding 3
Коммерческое название : Dolby Digital
Идентификатор кодека : A_AC3
Продолжительность : 1 ч. 23 м.
Вид битрейта : Постоянный
Битрейт : 640 Кбит/сек
Каналы : 6 каналов
Channel layout : L R C LFE Ls Rs
Частота : 48,0 КГц
Частота кадров : 31,250 кадров/сек (1536 SPF)
Метод сжатия : С потерями
Размер потока : 384 Мбайт (4%)
Заголовок : Blu-ray GER
Язык : Russian
Service kind : Complete Main
Default : Да
Forced : Нет
Аудио #2
Идентификатор : 3
Формат : DTS
Формат/Информация : Digital Theater Systems
Идентификатор кодека : A_DTS
Продолжительность : 1 ч. 23 м.
Вид битрейта : Постоянный
Битрейт : 1 510 Кбит/сек
Каналы : 6 каналов
Channel layout : C L R Ls Rs LFE
Частота : 48,0 КГц
Частота кадров : 93,750 кадра/сек (512 SPF)
Битовая глубина : 24 бит
Метод сжатия : С потерями
Размер потока : 906 Мбайт (9%)
Заголовок : Blu-ray GER
Язык : Russian
Default : Нет
Forced : Нет
Меню
00:00:00.000 : :ger: 01
00:08:13.000 : :ger: 02
00:18:47.000 : :ger: 03
00:23:38.415 : :ger: 04
00:30:59.000 : :ger: 05
00:38:16.416 : :ger: 06
00:47:22.208 : :ger: 07
00:59:17.000 : :ger: 08
01:10:20.207 : :ger: 09
01:20:17.000 : :ger: 10
01:23:51.791 : :ger: 11

Скриншоты

admin

Post 25-May-2021 04:48

[Quote]

Информация о фильме
Название: Турист
Год выхода: 2021
Жанр: Боевик
Режиссер: Андрей Батов
В ролях: Алексей Шевченков, Евгений Терских, Александр Барановский, Владимир Петров (VIII), Сергей Воробьёв (IV), Георгий Болонев, Глеб Темнов, Сергей Гарусов, Флавия-Гертруда Мбайабе, Уилфред Уильямс
О фильме: Декабрь 2020 года. Бывший сотрудник полиции Гриша Дмитриев в составе небольшой группы российских инструкторов прибывает в Центральноафриканскую Республику. Грише командировка не кажется сложной, ведь в задачи инструкторов входит только обучение солдат местной армии основам тактики и методам ведения боя. Однако все с самого начала идет не так. Несколько бандитских группировок идут на столицу, чтобы устроить в стране государственный переворот. Русские инструкторы совместно со своими подопечными дают отпор бандитам. Но для Гриши, никогда не принимавшего участие в военных действиях, эта командировка превращается в настоящий ад.

Выпущено: Россия / Производство ООО "Паритет Фильм"
Продолжительность: 01:39:09
Озвучивание: Оригинальное | iTunes
Файл
Формат: MKV
Качество: WEB-DL 1080p
Видео: MPEG-4 AVC, 4761 Kb/s, 1920x804
Аудио #1: Russian: 48 kHz, AC3 Dolby Digital, 2/0 (L, R) ch, ~192 Kbps | iTunes
Аудио #2: Russian: 48 kHz, Advanced Audio Codec, 2/0 (L, R) ch, ~126 Kbps | iTunes
Субтитры: Нет
Дополнительно: Сохранены оригинальные чаптеры.

MediaInfo:

Complete name: Turist.2021.WEB-DL.1080p.ELEKTRI4KA.UNIONGANG.mkv
Format: Matroska
Format version: Version 4
File size: 3.52 GiB
Duration: 1 h 39 min
Overall bit rate: 5 081 kb/s
Movie name: Turist.2021.WEB-DL.1080p.ELEKTRI4KA.UNIONGANG.
Encoded date: UTC 2021-05-24 10:51:05
Writing application: mkvmerge v8.3.0 ('Over the Horizon') 64bit
Writing library: libebml v1.3.1 + libmatroska v1.4.2
Video
ID: 1
Format: AVC
Format/Info: Advanced Video Codec
Format profile: High@L4
Format settings: CABAC / 5 Ref Frames
Format settings, CABAC: Yes
Format settings, Reference frames: 5 frames
Codec ID: V_MPEG4/ISO/AVC
Duration: 1 h 39 min
Bit rate: 4 761 kb/s
Width: 1 920 pixels
Height: 804 pixels
Display aspect ratio: 2.40:1
Frame rate mode: Constant
Frame rate: 24.000 FPS
Color space: YUV
Chroma subsampling: 4:2:0
Bit depth: 8 bits
Scan type: Progressive
Bits/(Pixel*Frame): 0.128
Stream size: 3.30 GiB (94%)
Language: English
Default: Yes
Forced: No
Color range: Limited
Color primaries: BT.709
Transfer characteristics: BT.709
Matrix coefficients: BT.709
Audio #1
ID: 2
Format: AC-3
Format/Info: Audio Coding 3
Commercial name: Dolby Digital
Codec ID: A_AC3
Duration: 1 h 39 min
Bit rate mode: Constant
Bit rate: 192 kb/s
Channel(s): 2 channels
Channel layout: L R
Sampling rate: 48.0 kHz
Frame rate: 31.250 FPS (1536 SPF)
Compression mode: Lossy
Stream size: 136 MiB (4%)
Title: Original AC3 (iTunes)
Language: Russian
Service kind: Complete Main
Default: Yes
Forced: Yes
Audio #2
ID: 3
Format: AAC LC
Format/Info: Advanced Audio Codec Low Complexity
Codec ID: A_AAC-2
Duration: 1 h 39 min
Bit rate: 126 kb/s
Channel(s): 2 channels
Channel layout: L R
Sampling rate: 48.0 kHz
Frame rate: 46.875 FPS (1024 SPF)
Compression mode: Lossy
Stream size: 89.4 MiB (2%)
Title: Original AAC (iTunes)
Language: Russian
Default: No
Forced: No
Menu
00:00:00.000: en:Глава 1
00:02:30.208: en:Глава 2
00:09:02.666: en:Глава 3
00:15:44.582: en:Глава 4
00:20:52.457: en:Глава 5
00:27:01.540: en:Глава 6
00:34:37.290: en:Глава 7
00:38:49.706: en:Глава 8
00:42:49.039: en:Глава 9
00:51:48.580: en:Глава 10
00:59:37.330: en:Глава 11
01:04:22.371: en:Глава 12
01:12:25.412: en:Глава 13
01:18:47.703: en:Глава 14
01:23:59.994: en:Глава 15
01:31:05.494: en:Глава 16
01:35:08.369: en:Глава 17

Скриншоты

admin

Post 25-May-2021 04:45

[Quote]

Информация о фильме
Название: Турист
Год выхода: 2021
Жанр: Боевик
Режиссер: Андрей Батов
В ролях: Алексей Шевченков, Евгений Терских, Александр Барановский, Владимир Петров (VIII), Сергей Воробьёв (IV), Георгий Болонев, Глеб Темнов, Сергей Гарусов, Флавия-Гертруда Мбайабе, Уилфред Уильямс
О фильме: Декабрь 2020 года. Бывший сотрудник полиции Гриша Дмитриев в составе небольшой группы российских инструкторов прибывает в Центральноафриканскую Республику. Грише командировка не кажется сложной, ведь в задачи инструкторов входит только обучение солдат местной армии основам тактики и методам ведения боя. Однако все с самого начала идет не так. Несколько бандитских группировок идут на столицу, чтобы устроить в стране государственный переворот. Русские инструкторы совместно со своими подопечными дают отпор бандитам. Но для Гриши, никогда не принимавшего участие в военных действиях, эта командировка превращается в настоящий ад.

Выпущено: Россия / Производство ООО "Паритет Фильм"
Продолжительность: 01:39:09
Озвучивание: Оригинальное | iTunes
Файл
Формат: MKV
Качество: WEB-DL 720p
Видео: MPEG-4 AVC, 3987 Kb/s, 1280x536
Аудио #1: Russian: 48 kHz, AC3 Dolby Digital, 2/0 (L, R) ch, ~192 Kbps | iTunes
Аудио #2: Russian: 48 kHz, Advanced Audio Codec, 2/0 (L, R) ch, ~126 Kbps | iTunes
Субтитры: Нет
Дополнительно: Сохранены оригинальные чаптеры.

MediaInfo:

Complete name : Turist.2021.WEB-DL.720p.ELEKTRI4KA.UNIONGANG.mkv
Format : Matroska
Format version : Version 4
File size : 2.98 GiB
Duration : 1 h 39 min
Overall bit rate : 4 308 kb/s
Movie name : Turist.2021.WEB-DL.720p.ELEKTRI4KA.UNIONGANG.
Encoded date : UTC 2021-05-24 11:22:54
Writing application : mkvmerge v8.3.0 ('Over the Horizon') 64bit
Writing library : libebml v1.3.1 + libmatroska v1.4.2
Video
ID : 1
Format : AVC
Format/Info : Advanced Video Codec
Format profile : Main@L3.1
Format settings : 2 Ref Frames
Format settings, CABAC : No
Format settings, Reference frames : 2 frames
Codec ID : V_MPEG4/ISO/AVC
Duration : 1 h 39 min
Bit rate : 3 987 kb/s
Width : 1 280 pixels
Height : 536 pixels
Display aspect ratio : 2.40:1
Frame rate mode : Constant
Frame rate : 24.000 FPS
Color space : YUV
Chroma subsampling : 4:2:0
Bit depth : 8 bits
Scan type : Progressive
Bits/(Pixel*Frame) : 0.242
Stream size : 2.76 GiB (93%)
Language : English
Default : Yes
Forced : No
Color range : Limited
Color primaries : BT.709
Transfer characteristics : BT.709
Matrix coefficients : BT.709
Audio #1
ID : 2
Format : AC-3
Format/Info : Audio Coding 3
Commercial name : Dolby Digital
Codec ID : A_AC3
Duration : 1 h 39 min
Bit rate mode : Constant
Bit rate : 192 kb/s
Channel(s) : 2 channels
Channel layout : L R
Sampling rate : 48.0 kHz
Frame rate : 31.250 FPS (1536 SPF)
Compression mode : Lossy
Stream size : 136 MiB (4%)
Title : Original AC3 (iTunes)
Language : Russian
Service kind : Complete Main
Default : Yes
Forced : Yes
Audio #2
ID : 3
Format : AAC LC
Format/Info : Advanced Audio Codec Low Complexity
Codec ID : A_AAC-2
Duration : 1 h 39 min
Bit rate : 126 kb/s
Channel(s) : 2 channels
Channel layout : L R
Sampling rate : 48.0 kHz
Frame rate : 46.875 FPS (1024 SPF)
Compression mode : Lossy
Stream size : 89.4 MiB (3%)
Title : Original AAC (iTunes)
Language : Russian
Default : No
Forced : No
Menu
00:00:00.000 : en:Глава 1
00:02:30.208 : en:Глава 2
00:09:02.666 : en:Глава 3
00:15:44.582 : en:Глава 4
00:20:52.457 : en:Глава 5
00:27:01.540 : en:Глава 6
00:34:37.290 : en:Глава 7
00:38:49.706 : en:Глава 8
00:42:49.039 : en:Глава 9
00:51:48.580 : en:Глава 10
00:59:37.330 : en:Глава 11
01:04:22.371 : en:Глава 12
01:12:25.412 : en:Глава 13
01:18:47.703 : en:Глава 14
01:23:59.994 : en:Глава 15
01:31:05.494 : en:Глава 16
01:35:08.369 : en:Глава 17

Скриншоты

admin

Post 22-May-2021 04:39

[Quote]

Информация о фильме
Название: Сахаров. Две жизни
Год выхода: 2021
Жанр: драма, биография
Режиссёр: Иван Проскуряков
В ролях: Алексей Усольцев, Чулпан Хаматова, Агата Супер
О фильме:
Его имя носят проспект, университет и даже астероид. Об академике Сахарове знают во всём мире: кто-то как о создателе водородной бомбы, кто-то – как о выдающемся общественном деятеле и правозащитнике. Всю жизнь Андрей Сахаров жил меж двух огней – наукой и гуманизмом – и этот дуализм лёг в основу документального фильма Романа Супера. Картина покажет учёного таким, каким себя видел он сам. Его диалоги с Совестью (Чулпан Хаматова) по-настоящему завораживают. Помимо документальных кадров на съёмках использовалась популярная в Голливуде ARFX-технология, когда задний фон реагирует на перемещение камеры и, достраивая нужное изображение, обеспечивает почти 100%-ую реалистичность и полное погружение.
Страна: Россия
Студия: Амурские волны
Продолжительность: 02:00:02
Перевод: Не требуется
Файл
Контейнер: MKV
Качество: WEBRip 1080p
Видео: MPEG-4 (AVC), 1920х1080 (16:9), 25 fps, ~ 6144 kbps, 0.119 bit/pixel
Аудио: AAC, 48 kHz, 2 ch, 128 Kbps

MediaInfo

General
Unique ID : 281001187021366968934202865090863050919 (0xD366DC2C308E383363349ED2281030A7)
Complete name : Sakharov.Dve.zhizni.2021.1080p.KION.WEB-DL.AAC2.0.H.264-EniaHD.mkv
Format : Matroska
Format version : Version 4
File size : 5.25 GiB
Duration : 2 h 0 min
Overall bit rate : 6 264 kb/s
Encoded date : UTC 2021-05-21 00:29:51
Writing application : mkvmerge v56.1.0 ('My Friend') 64-bit
Writing library : libebml v1.4.2 + libmatroska v1.6.4
Video
ID : 1
Format : AVC
Format/Info : Advanced Video Codec
Format profile : Baseline@L4
Format settings : 2 Ref Frames
Format settings, CABAC : No
Format settings, Reference frames : 2 frames
Format settings, GOP : M=1, N=25
Codec ID : V_MPEG4/ISO/AVC
Duration : 2 h 0 min
Bit rate mode : Constant
Bit rate : 6 144 kb/s
Width : 1 920 pixels
Height : 1 080 pixels
Display aspect ratio : 16:9
Frame rate mode : Constant
Frame rate : 25.000 FPS
Color space : YUV
Chroma subsampling : 4:2:0
Bit depth : 8 bits
Scan type : Progressive
Bits/(Pixel*Frame) : 0.119
Stream size : 5.14 GiB (98%)
Default : Yes
Forced : No
Audio
ID : 2
Format : AAC LC
Format/Info : Advanced Audio Codec Low Complexity
Codec ID : A_AAC-2
Duration : 2 h 0 min
Bit rate : 128 kb/s
Channel(s) : 2 channels
Channel layout : L R
Sampling rate : 48.0 kHz
Frame rate : 46.875 FPS (1024 SPF)
Compression mode : Lossy
Stream size : 110 MiB (2%)
Language : Russian
Default : Yes
Forced : No

Скриншоты


admin

Post 21-May-2021 05:24

[Quote]

Информация о фильме
Название: Sheena667
Год выхода: 2019
Жанр: драма
Режиссёр: Григорий Добрыгин
В ролях: Владимир Свирский, Юлия Пересильд, Джордан Роуз Фрай, Надежда Маркина, Юрий Кузнецов, Павел Ворожцов, Наталья Ноздрина, Инна Сухорецкая, Алексей Вертков, Владимир Коробейников, Стивен Томас Окснер
О фильме:
Город Вышний Волочёк: разбитые дороги, снега и туманы. Автосервис на окраине города, где живут, работают и любят друг друга Оля и Вадим. Обоим немного за тридцать, они люди простые и серьезные, делят радости и горести поровну, на двоих, пока в их жизнь не вторгается третий лишний — интернет.

Страна: Россия
Студия: Mind the Gap Films
Продолжительность: 01:36:41
Перевод: Не требуется
Файл
Контейнер: MKV
Качество: WEBRip 1080p | Premier
Видео: MPEG-4 (AVC), 1920х800 (2.40:1), 24 fps, ~ 4358 kbps, 0.118 bit/pixel
Аудио: AAC, 48 kHz, 2 ch, 192 Kbps
Субтитры: Русские (вшитые на английскую речь)

MediaInfo

General
Unique ID : 289254128914565707316066796074326224862 (0xD99C519F9762E55696CBB9EA12EAEFDE)
Complete name : Sheena667.2019.1080p.PRMR.WEB-DL.AAC2.0.H.264-EniaHD.mkv
Format : Matroska
Format version : Version 4
File size : 3.07 GiB
Duration : 1 h 36 min
Overall bit rate mode : Variable
Overall bit rate : 4 553 kb/s
Encoded date : UTC 2021-05-18 04:00:15
Writing application : mkvmerge v56.1.0 ('My Friend') 64-bit
Writing library : libebml v1.4.2 + libmatroska v1.6.4
Video
ID : 1
Format : AVC
Format/Info : Advanced Video Codec
Format profile : High@L4
Format settings : CABAC / 1 Ref Frames
Format settings, CABAC : Yes
Format settings, Reference frames : 1 frame
Format settings, GOP : M=1, N=48
Codec ID : V_MPEG4/ISO/AVC
Duration : 1 h 36 min
Bit rate mode : Variable
Bit rate : 4 358 kb/s
Maximum bit rate : 4 500 kb/s
Width : 1 920 pixels
Height : 800 pixels
Display aspect ratio : 2.40:1
Frame rate mode : Constant
Frame rate : 24.000 FPS
Color space : YUV
Chroma subsampling : 4:2:0
Bit depth : 8 bits
Scan type : Progressive
Bits/(Pixel*Frame) : 0.118
Stream size : 2.94 GiB (96%)
Default : Yes
Forced : No
Audio
ID : 2
Format : AAC LC
Format/Info : Advanced Audio Codec Low Complexity
Codec ID : A_AAC-2
Duration : 1 h 36 min
Bit rate : 192 kb/s
Channel(s) : 2 channels
Channel layout : L R
Sampling rate : 44.1 kHz
Frame rate : 43.066 FPS (1024 SPF)
Compression mode : Lossy
Stream size : 133 MiB (4%)
Language : Russian
Default : Yes
Forced : No

Скриншоты


admin

Post 20-May-2021 04:44

[Quote]

Информация о фильме
Название: Пальма
Год выхода: 2020
Жанр: семейный, приключения
Режиссёр: Александр Домогаров мл.
В ролях: Виктор Добронравов, Леонид Басов, Владимир Ильин, Валерия Федорович, Евгения Дмитриева, Игорь Хрипунов, Павел Майков, Владимир Симонов, Ян Цапник, Филипп Савинков, Дарья Лузина, Елена Анисимова, Михаил Богдасаров, Микаэл Джанибекян, Баин Бовальдинов, Илья Луцак, Александр Домогаров, Хироюки Ватанабе, Томоко Фудзита, Мицу Дан, Осаму Ямамото, Дзюн Такамацу, Дзюнко Абэ, Ёсикуни Дотин, Алина Загитова, Анастасия Шига
О фильме:
Овчарка по кличке Пальма вынужденно расстается с хозяином: тот улетает за границу, а верную собаку не берут на рейс и оставляют прямо на летном поле. Пальма прячется в аэропорту и каждый день встречает самолеты в надежде, что хозяин вернулся. Но время идет… 9-летний Коля — тоже новенький в аэропорту: он потерял маму и переехал к отцу-пилоту, которого почти не знает. Пальма становится для мальчика родственной душой и лучшим другом. А отцу Коли, летчику Лазареву, предстоит заслужить доверие и любовь сына, сделав нелегкий выбор между карьерой и семьей. И найти способ не разлучить друзей, когда за Пальмой однажды возвращается хозяин.

Страна: Россия, Япония
Студия: Телеканал «РОССИЯ 1», OKKO Studios, АМЕДИА, Марс Медиа Энтертейнмент
Продолжительность: 01:50:13
Перевод: Не требуется
Файл
Контейнер: MKV
Качество: WEB-DL 1080p | OKKO
Видео: MPEG-4 (AVC), 1920х800 (2.40:1), 24 fps, ~ 4957 kbps, 0.134 bit/pixel
Аудио: E-AC3, 48 kHz, 6 ch, 198 Kbps

MediaInfo

General
Unique ID : 21846970158905451263603805906050914623 (0x106F92CA7E8720A63887F705C40E993F)
Complete name : Palma.2020.1080p.OKKO.WEB-DL.DDP5.1.H.264-EniaHD.mkv
Format : Matroska
Format version : Version 4
File size : 3.97 GiB
Duration : 1 h 50 min
Overall bit rate : 5 157 kb/s
Encoded date : UTC 2021-05-18 22:22:13
Writing application : mkvmerge v56.1.0 ('My Friend') 64-bit
Writing library : libebml v1.4.2 + libmatroska v1.6.4
Video
ID : 1
Format : AVC
Format/Info : Advanced Video Codec
Format profile : High@L4
Format settings : CABAC / 1 Ref Frames
Format settings, CABAC : Yes
Format settings, Reference frames : 1 frame
Format settings, GOP : M=1, N=72
Codec ID : V_MPEG4/ISO/AVC
Duration : 1 h 50 min
Bit rate : 4 957 kb/s
Width : 1 920 pixels
Height : 800 pixels
Display aspect ratio : 2.40:1
Frame rate mode : Constant
Frame rate : 24.000 FPS
Color space : YUV
Chroma subsampling : 4:2:0
Bit depth : 8 bits
Scan type : Progressive
Bits/(Pixel*Frame) : 0.134
Stream size : 3.82 GiB (96%)
Default : Yes
Forced : No
Audio
ID : 2
Format : E-AC-3
Format/Info : Enhanced AC-3
Commercial name : Dolby Digital Plus
Codec ID : A_EAC3
Duration : 1 h 50 min
Bit rate mode : Constant
Bit rate : 198 kb/s
Channel(s) : 6 channels
Channel layout : L R C LFE Ls Rs
Sampling rate : 48.0 kHz
Frame rate : 31.250 FPS (1536 SPF)
Compression mode : Lossy
Stream size : 156 MiB (4%)
Language : Russian
Service kind : Complete Main
Default : Yes
Forced : No

Скриншоты


admin

Post 14-May-2021 04:58

[Quote]

Информация о фильме
Название: Будь моим Кириллом
Год выхода: 2021
Жанр: комедия
Режиссёр: Алла Елисеева
В ролях: Виталийс Семёновс, Анастасия Евграфова, Анна Антонова, Иван Мулин, Сергей Стёпин, Ирина Розанова, Сергей Годин, Екатерина Бычкова, Илья Фоменко
О фильме:
Неуверенная в себе девушка Саша врет семье, что встречается с красавчиком Кириллом, хотя он — всего лишь ее тренер по бегу, с которым она боится даже заговорить. Муж сестры Паша знает правду, но у него и своих проблем хватает — у них с женой уже год не было секса. Записавшись вместе на беготерапию, Саша и Паша решают, что смогут убежать от проблем вместе.

Страна: Россия
Студия: Good Story Media, ТНТ
Продолжительность: 01:35:08
Перевод: Не требуется
Файл
Контейнер: MKV
Качество: WEB-DL 1080p
Видео: MPEG-4 (AVC), 1920х1080 (16:9), 24 fps, ~ 4755 kbps, 0.096 bit/pixel
Аудио: AC3, 48 kHz, 6 ch, 384 Kbps

Скриншоты

admin

Post 14-May-2021 04:55

[Quote]

Информация о фильме
Название: Будь моим Кириллом
Год выхода: 2021
Жанр: Комедия
Режиссер: Алла Елисеева
В ролях: Виталийс Семёновс, Анастасия Евграфова, Анна Антонова, Иван Мулин, Сергей Стёпин, Ирина Розанова, Сергей Годин, Екатерина Бычкова, Илья Фоменко
О фильме:
Неуверенная в себе девушка Саша врет семье, что встречается с красавчиком Кириллом, хотя он — всего лишь ее тренер по бегу, с которым она боится даже заговорить. Муж сестры Паша знает правду, но у него и своих проблем хватает — у них с женой уже год не было секса. Записавшись вместе на беготерапию, Саша и Паша решают, что смогут убежать от проблем вместе.

Страна: Россия
Студия: Good Story Media, ТНТ
Продолжительность: 01:35:08
Язык: Русский | iTunes
Примечание: Без рекламы
Файл
Формат: MKV
Качество: WEB-DL 720p
Видео: MPEG-4 AVC, 3500 Кбит/с, 1280х538
Звук: AC3, 6 ch, 384 Кбит/с
Субтитры: Отсутствуют

Скриншоты

admin

Post 12-May-2021 06:12

[Quote]

Информация о фильме
Название: Отряд Таганок
Год выхода: 2021
Жанр: Комедия, приключения
Режиссер: Айнур Аскаров
В ролях: Ильдар Биккулов, Руслан Кадаев, Арслан Галиев, Ильяс Киньябулатов, Амина Якупова, Азат Зиганшин, Вакиль Юсупов, Гульшат Гайсина, Танзиля Хисамова, Айсылу Юмагулова, Ахат Хусаинов, Вилюра Исяндавлетова
О фильме:
По мотивам повести Мустая Карима. Вдохновлённые фильмом «Тимур и его команда» мальчишки из маленького аула создают отряд «Таганок», чтобы заселить рыбой озеро на вершине горы Кирамет и тем самым спасти гору. Труден путь на высокую гору, но ещё труднее испытания, которым подвергнутся дружба, сила воли и характеры членов отряда.
Страна: Россия
Продолжительность: 01:29:49
Перевод: Не требуется
Файл
Кодек: MPEG-4 AVC
Качество: WEB-DL 1080p
Видео: 1920х800 (2,40:1), 24 fps, AVC MPEG-4 (x264), High@L4.0 4833 kbps avg, 0.101 bit/pixel
Аудио: AC3, 2 ch, 192 Кбит/с
Язык: Русский

Скриншоты


admin

Post 09-May-2021 20:47

[Quote]

В бой идут одни «старики»Год выпуска: 1973
Жанр: Военный, драма, комедия, ВОВ
Выпущено: СССР, Киностудия им. А. Довженко
Продолжительность: 01:31:53
Режиссер: Леонид Быков
В ролях: Леонид Быков, Сергей Подгорный, Сергей Иванов, Рустам Сагдуллаев, Евгения Симонова, Ольга Матешко, Виктор Мирошниченко, Владимир Талашко, Алексей Смирнов (I), Алим Федоринский, Вано Янтбелидзе, Александр Немченко, Вилорий Пащенко, Юрий Саранцев, Валентин Макаров, Леонид Марченко, Борис Болдыревский, Григорий Гладий, Валентин Грудинин, Дмитрий Миргородский, Владимир Волков, Александр Милютин, Анатолий Юрченко, Владимир Алексеенко, Владимир Бродский, Анатолий Матешко, Фёдор Ищенко, Иван Бондарь, Виктор Степаненко
О фильме: Эта эскадрилья стала «поющей» — так капитан Титаренко подбирал себе новичков. Его «старикам» было не больше двадцати, но «желторотиков», пополнение из летных училищ ускоренного выпуска, в бой все равно, по возможности, не пускали. Им еще многое предстояло испытать — и жар боев, и радость первой победы над врагом, и величие братства, скрепленного кровью, и первую любовь, и горечь утраты… И настанет день, когда по команде «в бой идут одни старики» бывшие желторотики бросятся к своим самолетам.

Кодек: х264
Качество: BDRip 720p
Видео: MPEG-4 AVC, 10700 Кбит/с, 992x720, 24 fps
Аудио 1: Русский, AC-3, 48.0 KHz, 6ch, 448 Кбит/с
Аудио 2: Русский, AC-3, 48.0 KHz, 2ch, 256 Кбит/с
Аудио 3: Русский, AC-3, 48.0 KHz, 1ch, 256 Кбит/с
Субтитры: Русские, Английские
Главы: Есть

Награды

• Государственная премия Украинской ССР имени Т.Шевченко (1977, удостоен Л.Быков за фильмы "В бой идут одни "старики" и "Аты-баты, шли солдаты");
• Серебряная медаль им. А. Довженко «За произведения на героико-патриотическую тему» (1974, режиссер и актер Л.Быков);
• Первая премия за лучшую мужскую роль (Л.Быков) ВКФ-74 в Баку;
• Специальный приз жюри МКФ в Карловых Варах-74. «Хрустальная ваза» — специальный приз и Премия Центрального Комитета Союза чехосдовацко-советской дружбы на XIX МКФ в Карловых Варах (ЧССР, 1974)
• Главная премия МКФ "Фильмы за свободу" в Сопотце-74 (Югославия).
• Статуэтка «Свобода» — Главная премия III МКФ фильмов о свободе и революции в Сопоте (Польша, 1974)

Интересно

Леонид Быков поступал в летную школу в 1945 году, но малый рост не позволил ему стать летчиком.
Быков осуществил свою давнюю мечту и освоил управление самолетом во время съемок картины.
Поющая эскадрилья на самом деле существовала во время Великой Отечественной войны.
Студентка театрального института Евгения Симонова снималась во время учебы — на съемочную площадку ее привела мама.
Государственные чиновники долго не принимали сценарий фильма, вначале производства картины для съемок выделили всего один самолет. После того как сценарий фильма очень понравился одному из маршалов авиации — на площадке появилось ещё два самолета.
В роли «догорающего мессера», сбитого «Кузнечиком» был использован планер КАИ-12 «Приморец».
История Героя Советского Союза Надежды Поповой и Героя Советского Союза Семёна Харламова легла в основу любовной линии фильма.
Еще в 1967 году Леониду Быкову предложили поставить картину о летчиках по сценарию Владимира Кунина «Хроника пикирующего бомбардировщика». Однако он непременно хотел включить в нее песню Смуглянка, что было категорически отвергнуто Куниным. Свой замысел о летчиках, поющих «Смуглянку», Быков воплотил в ленте «В бой идут одни «старики».
Руководство Госкино запретило фильм, ссылаясь на то, что он на самом деле не о Войне. Однако когда сценарий показали командующему ВВС СССР Александру Покрышкину, он прямо на весь лист поставил резолюцию: «Вот это и есть война!».
Занимает по посещаемости 61-е место среди отечественных фильмов за всю историю советского кинопроката.
Изначально Леонид Быков хотел снимать фильм цветным. Но цветная пленка, которая лежала на студии Довженко, давалась только на соцреалистические фильмы. Быкову говорили: если будешь снимать под заказ фильм о трактористах — дадим цветную пленку. На фильм о войне дали только черно-белую.
Роль советских истребителей в фильме исполняют учебно-тренировочные самолёты Як-18, роль Мессершмитта — чехословацкий спортивно-пилотажный Злин Z-326 Акробат. Пилотированием занимались лётчики ДОСААФ. Настоящие истребители времён второй мировой появляются только на вставках с кинохроникой.

Инфо файл

x264 [info]: frame I:703 Avg QP:17.88 size:140299
x264 [info]: frame P:31670 Avg QP:19.54 size: 89470
x264 [info]: frame B:99939 Avg QP:21.18 size: 44450
Общее
Уникальный идентификатор : 178901324122723468514839744627694212510 (0x86972447E20E25258708E1AA8209959E)
Полное имя : H:СССРВ бой идут одни старики 1973_BDRip 720p_KORSAR.mkv
Формат : Matroska
Версия формата : Version 2
Размер файла : 7,49 Гбайт
Продолжительность : 1 ч. 31 м.
Общий поток : 11,7 Мбит/сек
Дата кодирования : UTC 2018-05-09 07:25:22
Программа кодирования : mkvmerge v5.8.0 ('No Sleep / Pillow') built on Sep 2 2012 15:37:04
Библиотека кодирования : libebml v1.2.3 + libmatroska v1.3.0
Видео
Идентификатор : 1
Формат : AVC
Формат/Информация : Advanced Video Codec
Профиль формата : High@L4.1
Настройки формата : CABAC / 11 Ref Frames
Параметр CABAC формата : Да
Параметр RefFrames формата : 11 кадров
Идентификатор кодека : V_MPEG4/ISO/AVC
Продолжительность : 1 ч. 31 м.
Битрейт : 10,7 Мбит/сек
Ширина : 992 пикселя
Высота : 720 пикселей
Соотношение сторон : 1,378
Режим частоты кадров : Постоянный
Частота кадров : 24,000 кадра/сек
Цветовое пространство : YUV
Субдискретизация насыщенности : 4:2:0
Битовая глубина : 8 бит
Тип развёртки : Прогрессивная
Бит/(Пиксели*Кадры) : 0.624
Размер потока : 6,72 Гбайт (90%)
Библиотека кодирования : x264 core 152 r2851kMod ba24899
Настройки программы : cabac=1 / ref=11 / deblock=1:-2:-2 / analyse=0x3:0x113 / me=umh / subme=11 / psy=1 / fade_compensate=0.00 / psy_rd=1.05:0.12 / mixed_ref=1 / me_range=48 / chroma_me=1 / trellis=2 / 8x8dct=1 / cqm=0 / deadzone=21,11 / fast_pskip=0 / chroma_qp_offset=-3 / threads=12 / lookahead_threads=3 / sliced_threads=0 / nr=0 / decimate=0 / interlaced=0 / bluray_compat=0 / constrained_intra=0 / bframes=14 / b_pyramid=2 / b_adapt=2 / b_bias=0 / direct=3 / weightb=1 / open_gop=0 / weightp=2 / keyint=240 / keyint_min=24 / scenecut=40 / intra_refresh=0 / rc_lookahead=40 / rc=2pass / mbtree=0 / bitrate=10700 / ratetol=1.0 / qcomp=0.60 / qpmin=0 / qpmax=39 / qpstep=4 / cplxblur=20.0 / qblur=0.5 / vbv_maxrate=50000 / vbv_bufsize=62500 / nal_hrd=none / filler=0 / ip_ratio=1.15 / pb_ratio=1.30 / aq=1:1.00
Язык : English
Default : Да
Forced : Нет
Цветовой диапазон : Limited
Основные цвета : BT.709
Характеристики трансфера : BT.709
Коэффициенты матрицы : BT.709
Аудио #1
Идентификатор : 2
Формат : AC-3
Формат/Информация : Audio Coding 3
Параметр Endianness формата : Big
Идентификатор кодека : A_AC3
Продолжительность : 1 ч. 31 м.
Вид битрейта : Постоянный
Битрейт : 448 Кбит/сек
Каналы : 6 каналов
Расположение каналов : Front: L C R, Side: L R, LFE
Частота : 48,0 КГц
Частота кадров : 31,250 кадров/сек (1536 SPF)
Битовая глубина : 16 бит
Метод сжатия : С потерями
Размер потока : 294 Мбайт (4%)
Язык : Russian
Default : Да
Forced : Нет
Аудио #2
Идентификатор : 3
Формат : AC-3
Формат/Информация : Audio Coding 3
Параметр Endianness формата : Big
Идентификатор кодека : A_AC3
Продолжительность : 1 ч. 31 м.
Вид битрейта : Постоянный
Битрейт : 256 Кбит/сек
Каналы : 2 канала
Расположение каналов : Front: L R
Частота : 48,0 КГц
Частота кадров : 31,250 кадров/сек (1536 SPF)
Битовая глубина : 16 бит
Метод сжатия : С потерями
Размер потока : 168 Мбайт (2%)
Язык : Russian
Default : Нет
Forced : Нет
Аудио #3
Идентификатор : 4
Формат : AC-3
Формат/Информация : Audio Coding 3
Параметр Endianness формата : Big
Идентификатор кодека : A_AC3
Продолжительность : 1 ч. 31 м.
Вид битрейта : Постоянный
Битрейт : 256 Кбит/сек
Каналы : 1 канал
Расположение каналов : Front: C
Частота : 48,0 КГц
Частота кадров : 31,250 кадров/сек (1536 SPF)
Битовая глубина : 16 бит
Метод сжатия : С потерями
Размер потока : 168 Мбайт (2%)
Язык : Russian
Default : Нет
Forced : Нет
Текст #1
Идентификатор : 5
Формат : UTF-8
Идентификатор кодека : S_TEXT/UTF8
Идентификатор кодека/Информация : UTF-8 Plain Text
Язык : English
Default : Нет
Forced : Нет
Текст #2
Идентификатор : 6
Формат : UTF-8
Идентификатор кодека : S_TEXT/UTF8
Идентификатор кодека/Информация : UTF-8 Plain Text
Язык : Russian
Default : Нет
Forced : Нет
Меню
00:00:00.000 : :Chapter 01
00:06:43.416 : :Chapter 02
00:11:12.541 : :Chapter 03
00:17:54.750 : :Chapter 04
00:23:14.791 : :Chapter 05
00:27:29.625 : :Chapter 06
00:34:38.916 : :Chapter 07
00:39:56.291 : :Chapter 08
00:44:48.333 : :Chapter 09
00:51:06.041 : :Chapter 10
00:56:38.583 : :Chapter 11
01:01:59.833 : :Chapter 12
01:08:12.708 : :Chapter 13
01:14:01.458 : :Chapter 14
01:19:57.541 : :Chapter 15
01:28:32.666 : :Chapter 16
01:31:52.916 : :Chapter 17

Скриншоты

admin

Post 09-May-2021 13:49

[Quote]

Информация о фильме
Название: В ожидании моря
Год выхода: 2012
Жанр: драма
Режиссер: Бахтиер Худойназаров
В ролях: Егор Бероев, Анастасия Микульчина, Димаш Ахимов, Арман Асенов, Детлев Бук, Саёра Сафари, Павел Прилучный, Динмухаммед Ахимов, Раджаб Гусейнов, Даулет Кекельбаев, Александр Работяга
О фильме:
Фильм об ушедшем море, о рыбаках, которые остались без воды. Марат, капитан рыболовецкого судна, попадает в тюрьму на десять лет. А когда он возвращается домой — аула уже нет, нет и моря, только голая степь.

Страна: Россия, Германия, Франция, Бельгия, Казахстан, Украина
Студия: Entre Chien et Loup, Казахфильм, La Direction de L'Audiovisual de Communaute Francaise de Belgique, National Production Center of the Republic of Kazakhstan, Pallas Film, Таджикфильм, ZDF/Arte
Продолжительность: 01:44:48
Перевод: Не требуется
Файл
Контейнер: MKV
Качество: WEB-DL 1080p | Amazon
Видео: MPEG-4 (AVC), 1920х1040 (1.85:1), 25 fps, ~ 12.6 Mbps, 0.252 bit/pixel
Аудио: E-AC3, 48 kHz, 2 ch, 224 Kbps
Субтитры: Русские, английские (Full, SDH)

Скриншоты


 

Current time is: 15-Jun 18:19

All times are UTC + 3