Search found 10 matches

Author Message

admin

Post 27-Mar-2018 04:40

[Quote]

Название : Мэри и ведьмин цветок
Оригинальное название: Meari to majo no hana
Год выпуска: 2017
Жанр: Аниме, мультфильм, приключения, фэнтези
Выпущено: Япония, Amuse, Chukyo TV
Продолжительность: 01:42:48
Перевод: Профессиональный многоголосый [AlexFilm]
Режиссер: Хиромаса Ёнэбаяси
В ролях: Хана Сугисаки, Рюносукэ Камики, Юки Амами, Фумиё Кохината, Хикари Мицусима, Дзиро Сато, Кэнъити Эндо, Эрико Ватанабэ, Синобу Отакэ, Луис Эшборн Серкис
О фильме:
Скучные каникулы в глухой деревне кажутся юной Мэри сущим наказанием. Но в последнюю неделю лета всё внезапно меняется. Нечаянная находка - дивный цветок - уносит Мэри в далёкое зачарованное царство, в мир, полный невероятных приключений и завораживающих чудес. И этому миру грозит опасность! Вместе с чёрным котом, соседским мальчиком-забиякой и маленькой волшебной метлой ей предстоит пройти через рискованные испытания, спасти жителей сказочной страны, узнать, что такое настоящая дружба и понять: мечты - даже самые необыкновенные - иногда сбываются!
Доп. инфо:
По мотивам романа Мэри Стюарт «Маленькая метла» (1971).

Качество: HDRip
Формат: avi
Видео: XviD, 1400 Кбит/с, 720x400
Аудио: Русский, японский (MP3, 2 ch, 128 Кбит/с)

Скриншоты

admin

Post 15-Feb-2018 07:05

[Quote]

Информация о фильме
Название: Повелитель
Оригинальное название: Overlord II
Год выхода: 2017
Жанр: фентези, магия
О фильме:
Редко удаётся найти отличную онлайн-игру, в которой тебя устраивало бы абсолютно всё. Но пользователям "Иггдрасиль” несказанно повезло. Правда счастье их длилось недолго, ведь разработчики надумали закрыть эту игру. Лидер одной из самых могущественных гильдий по имени Момонга не хотел, чтобы игру закрывали и решил сидеть там до самого конца. Его желание отчасти сбылось, в час прощания с онлайн-миром Момонгу перенесло в реальный мир "Иггдрасиль”. Играй, сколько влезет. И Момонга бросился изучать, чем же этот мир отличается от онлайн-игры.
Однажды, во время очередной миссии, одной из верных NPC Момонги по имени Шалтия промыли мозги, и она решила убить своего бывшего хозяина. Битва с ней далась ему крайне нелегко, но в итоге он сумел перехитрить Шалтию и уничтожить её. В своём замке он возрождает девушку обратно в NPC, и она вновь обретает ясность ума. Теперь нужно выяснить, что за злой умысел стоял за её действиями, и кто дёргал за ниточки марионетки, пытаясь устранить могущественного соперника?
Страна: Япония
Студия: Madhouse Studios
Продолжительность: 00:23:40
Перевод: Дубляж | StudioBand [Wakanim]
Файл
Кодек: MPEG4
Качество: WEBRip 1080p
Видео: 1920x1080, 3072 kb/s, 23,976 fps
Звук: Звук (Rus(int)): AC-3, 192 kbps, 48,0 KHz, 2 ch | [StudioBand]

Скриншоты

admin

Post 09-Feb-2018 05:57

[Quote]

Название: Годзилла: Планета чудовищ
Оригинальное название: Godzilla: Monster Planet
Страна: Япония
Жанр: фантастика, боевик
Продолжительность: 01:28:30
Год выхода: 2017
Студия: Polygon Pictures, Toho Company
Озвучание: Любительское (одноголосое закадровое)
Режиссер: Хироюки Сэсита, Сидзуно Кобун
В ролях: Кана Ханадзава, Кэнъю Хориути, Юки Кадзи, Кэнта Миякэ, Мамору Мияно, Кадзуя Накаи, Даисукэ Оно, Сакураи Такахиро, Томокадзу Сугита, Дзюнъити Сувабэ
Краткое содержание:
В последнее лето 20-го столетия люди узнали о том, что планета им больше не принадлежит. Гигантские чудовища — кайдзю — выбрались из земных недр, после чего начали уничтожать человеческие города и друг друга. Самым страшным из кайдзю был Годзилла. Непобедимый ящер с радиоактивным дыханием.
Человечество решает оставить Землю, и отправиться на поиски нового дома. Через 20 лет космического путешествия становится очевидно — вероятность найти пригодную для жизни планету ничтожно мала. Харуто было 4 года, когда он попал на корабль переселенцев, и теперь парень считает, что человечество позорно сдалось — нужно было всеми силами отстаивать Землю и сражаться с Годзиллой. Его идеи становятся популярны, и принято решение вернуться. Из-за использования технологии гиперскачка в пространстве переселенцы возвращаются на Землю через 20,000 лет после собственного бегства. От цивилизации не осталось и следа, миром правят чудовища, а на вершине пищевой цепочки восседает враг человечества — Годзилла.

Качество: WEBRip
Формат: .avi
Видео: Xvid, 720x400, 1990 kbps
Аудио (Russian): AC3, 2ch, 192 kbps
Субтитры: нет
Cпасибо QWS111 за дорожку. Рекламы нет!

Скриншоты

admin

Post 09-Feb-2018 05:54

[Quote]

Информация о фильме
Название: Годзилла: Планета чудовищ
Оригинальное название: Godzilla: Monster Planet
Год выхода: 2017
Жанр: боевик, фантастика
Режиссер: Хироюки Сэсита, Сидзуно Кобун
В ролях: Кана Ханадзава, Кэнъю Хориути, Юки Кадзи, Кэнта Миякэ, Мамору Мияно, Кадзуя Накаи, Даисукэ Оно, Сакураи Такахиро, Томокадзу Сугита, Дзюнъити Сувабэ
О фильме:
В последнее лето 20-го столетия люди узнали о том, что планета им больше не принадлежит. Гигантские чудовища — кайдзю — выбрались из земных недр, после чего начали уничтожать человеческие города и друг друга. Самым страшным из кайдзю был Годзилла. Непобедимый ящер с радиоактивным дыханием.
Человечество решает оставить Землю, и отправиться на поиски нового дома. Через 20 лет космического путешествия становится очевидно — вероятность найти пригодную для жизни планету ничтожно мала. Харуто было 4 года, когда он попал на корабль переселенцев, и теперь парень считает, что человечество позорно сдалось — нужно было всеми силами отстаивать Землю и сражаться с Годзиллой. Его идеи становятся популярны, и принято решение вернуться. Из-за использования технологии гиперскачка в пространстве переселенцы возвращаются на Землю через 20,000 лет после собственного бегства. От цивилизации не осталось и следа, миром правят чудовища, а на вершине пищевой цепочки восседает враг человечества — Годзилла.

Страна: Япония
Студия: Polygon Pictures, Toho Company
Продолжительность: 01:28:30
Перевод: любительский одноголосный, закадровый
Файл
Кодек: H.264
Качество: WEBRip 720p
Видео: AVC, 1280x720 (16:9), 24 fps ~ 1960 Kbps
Звук:
AC3, 48 KHz, 2 ch ~ 192 Kb/s (русский)
AC3, 48 KHz, 6 ch ~ 384 Kb/s (английский)
AC3, 48 KHz, 6 ch ~ 384 Kb/s (японский)
Субтитры: английские, немецкие, испанские и т.д (22)

MI:

Общее
Уникальный идентификатор : 207454686315536128356842412066019107897 (0x9C1251BA3A3961F089F345F1B4A26439)
Полное имя : Q:TorFGodzilla.Monster.Planet.2017.WEBRip.720p.mkv
Формат : Matroska
Версия формата : Version 2
Размер файла : 1,80 Гбайт
Продолжительность : 1 ч. 28 м.
Режим общего битрейта : Переменный
Общий поток : 2904 Кбит/сек
Дата кодирования : UTC 2018-01-23 06:03:59
Программа кодирования : mkvmerge v5.4.0 ('Piper') built on Mar 10 2012 13:34:39
Библиотека кодирования : libebml v1.2.3 + libmatroska v1.3.0
DURATION : 01:22:33.833000000
NUMBER_OF_FRAMES : 1040
NUMBER_OF_BYTES : 40036
_STATISTICS_WRITING_APP : mkvmerge v10.0.0 ('To Drown In You') 64bit
_STATISTICS_WRITING_DATE_UTC : 2018-01-18 16:25:15
_STATISTICS_TAGS : BPS DURATION NUMBER_OF_FRAMES NUMBER_OF_BYTES
Видео
Идентификатор : 1
Формат : AVC
Формат/Информация : Advanced Video Codec
Профиль формата : Main@L3.1
Параметр CABAC формата : Да
Параметр ReFrames формата : 3 кадра
Идентификатор кодека : V_MPEG4/ISO/AVC
Продолжительность : 1 ч. 28 м.
Вид битрейта : Переменный
Битрейт : 1960 Кбит/сек
Максимальный битрейт : 2940 Кбит/сек
Ширина : 1280 пикселей
Высота : 720 пикселей
Соотношение сторон : 16:9
Частота кадров : 24,000 кадра/сек
Цветовое пространство : YUV
Субдискретизация насыщенности : 4:2:0
Битовая глубина : 8 бит
Тип развёртки : Прогрессивная
Бит/(Пиксели*Кадры) : 0.089
Размер потока : 1,17 Гбайт (65%)
Библиотека кодирования : x264 core 148 r2714 2daf636
Настройки программы : cabac=1 / ref=3 / deblock=1:0:0 / analyse=0x1:0x111 / me=umh / subme=10 / psy=1 / psy_rd=1.00:0.00 / mixed_ref=1 / me_range=24 / chroma_me=1 / trellis=2 / 8x8dct=0 / cqm=0 / deadzone=21,11 / fast_pskip=1 / chroma_qp_offset=-2 / threads=8 / lookahead_threads=1 / sliced_threads=0 / nr=0 / decimate=1 / interlaced=0 / bluray_compat=0 / stitchable=1 / constrained_intra=0 / bframes=2 / b_pyramid=0 / b_adapt=2 / b_bias=0 / direct=3 / weightb=1 / open_gop=0 / weightp=2 / keyint=48 / keyint_min=25 / scenecut=0 / intra_refresh=0 / rc_lookahead=48 / rc=2pass / mbtree=1 / bitrate=1960 / ratetol=1.0 / qcomp=0.50 / qpmin=6 / qpmax=51 / qpstep=4 / cplxblur=20.0 / qblur=0.5 / vbv_maxrate=2940 / vbv_bufsize=3920 / nal_hrd=vbr / filler=0 / ip_ratio=1.40 / aq=1:1.00
Язык : English
Default : Да
Forced : Нет
Аудио #1
Идентификатор : 2
Формат : AC-3
Формат/Информация : Audio Coding 3
Расширение режима : CM (complete main)
Идентификатор кодека : A_AC3
Продолжительность : 1 ч. 28 м.
Вид битрейта : Постоянный
Битрейт : 192 Кбит/сек
Каналы : 2 канала
Расположение каналов : Front: L R
Частота : 48,0 КГц
Битовая глубина : 16 бит
Метод сжатия : С потерями
Размер потока : 122 Мбайт (7%)
Заголовок : VO
Язык : Russian
Default : Да
Forced : Нет
Аудио #2
Идентификатор : 3
Формат : AC-3
Формат/Информация : Audio Coding 3
Расширение режима : CM (complete main)
Идентификатор кодека : A_AC3
Продолжительность : 1 ч. 28 м.
Вид битрейта : Постоянный
Битрейт : 384 Кбит/сек
Каналы : 6 каналов
Расположение каналов : Front: L C R, Side: L R, LFE
Частота : 48,0 КГц
Битовая глубина : 16 бит
Метод сжатия : С потерями
Размер потока : 243 Мбайт (13%)
Язык : English
Default : Нет
Forced : Нет
Аудио #3
Идентификатор : 4
Формат : AC-3
Формат/Информация : Audio Coding 3
Расширение режима : CM (complete main)
Идентификатор кодека : A_AC3
Продолжительность : 1 ч. 28 м.
Вид битрейта : Постоянный
Битрейт : 384 Кбит/сек
Каналы : 6 каналов
Расположение каналов : Front: L C R, Side: L R, LFE
Частота : 48,0 КГц
Битовая глубина : 16 бит
Метод сжатия : С потерями
Размер потока : 243 Мбайт (13%)
Язык : Japanese
Default : Нет
Forced : Нет
Текст #1
Идентификатор : 5
Формат : UTF-8
Идентификатор кодека : S_TEXT/UTF8
Идентификатор кодека/Информация : UTF-8 Plain Text
Язык : English
Default : Да
Forced : Нет
Текст #2
Идентификатор : 6
Формат : UTF-8
Идентификатор кодека : S_TEXT/UTF8
Идентификатор кодека/Информация : UTF-8 Plain Text
Язык : Arabic
Default : Нет
Forced : Нет
Текст #3
Идентификатор : 7
Формат : UTF-8
Идентификатор кодека : S_TEXT/UTF8
Идентификатор кодека/Информация : UTF-8 Plain Text
Язык : Danish
Default : Нет
Forced : Нет
Текст #4
Идентификатор : 8
Формат : UTF-8
Идентификатор кодека : S_TEXT/UTF8
Идентификатор кодека/Информация : UTF-8 Plain Text
Язык : German
Default : Нет
Forced : Нет
Текст #5
Идентификатор : 9
Формат : UTF-8
Идентификатор кодека : S_TEXT/UTF8
Идентификатор кодека/Информация : UTF-8 Plain Text
Язык : Greek
Default : Нет
Forced : Нет
Текст #6
Идентификатор : 10
Формат : UTF-8
Идентификатор кодека : S_TEXT/UTF8
Идентификатор кодека/Информация : UTF-8 Plain Text
Язык : Spanish
Default : Нет
Forced : Нет
Текст #7
Идентификатор : 11
Формат : UTF-8
Идентификатор кодека : S_TEXT/UTF8
Идентификатор кодека/Информация : UTF-8 Plain Text
Заголовок : European
Язык : Spanish
Default : Нет
Forced : Нет
Текст #8
Идентификатор : 12
Формат : UTF-8
Идентификатор кодека : S_TEXT/UTF8
Идентификатор кодека/Информация : UTF-8 Plain Text
Язык : Finnish
Default : Нет
Forced : Нет
Текст #9
Идентификатор : 13
Формат : UTF-8
Идентификатор кодека : S_TEXT/UTF8
Идентификатор кодека/Информация : UTF-8 Plain Text
Язык : French
Default : Нет
Forced : Нет
Текст #10
Идентификатор : 14
Формат : UTF-8
Идентификатор кодека : S_TEXT/UTF8
Идентификатор кодека/Информация : UTF-8 Plain Text
Язык : Hebrew
Default : Нет
Forced : Нет
Текст #11
Идентификатор : 15
Формат : UTF-8
Идентификатор кодека : S_TEXT/UTF8
Идентификатор кодека/Информация : UTF-8 Plain Text
Язык : Italian
Default : Нет
Forced : Нет
Текст #12
Идентификатор : 16
Формат : UTF-8
Идентификатор кодека : S_TEXT/UTF8
Идентификатор кодека/Информация : UTF-8 Plain Text
Язык : Korean
Default : Нет
Forced : Нет
Текст #13
Идентификатор : 17
Формат : UTF-8
Идентификатор кодека : S_TEXT/UTF8
Идентификатор кодека/Информация : UTF-8 Plain Text
Язык : Norwegian Bokmal
Default : Нет
Forced : Нет
Текст #14
Идентификатор : 18
Формат : UTF-8
Идентификатор кодека : S_TEXT/UTF8
Идентификатор кодека/Информация : UTF-8 Plain Text
Язык : Dutch
Default : Нет
Forced : Нет
Текст #15
Идентификатор : 19
Формат : UTF-8
Идентификатор кодека : S_TEXT/UTF8
Идентификатор кодека/Информация : UTF-8 Plain Text
Язык : Polish
Default : Нет
Forced : Нет
Текст #16
Идентификатор : 20
Формат : UTF-8
Идентификатор кодека : S_TEXT/UTF8
Идентификатор кодека/Информация : UTF-8 Plain Text
Язык : Portuguese
Default : Нет
Forced : Нет
Текст #17
Идентификатор : 21
Формат : UTF-8
Идентификатор кодека : S_TEXT/UTF8
Идентификатор кодека/Информация : UTF-8 Plain Text
Заголовок : Brazilian
Язык : Portuguese
Default : Нет
Forced : Нет
Текст #18
Идентификатор : 22
Формат : UTF-8
Идентификатор кодека : S_TEXT/UTF8
Идентификатор кодека/Информация : UTF-8 Plain Text
Язык : Romanian
Default : Нет
Forced : Нет
Текст #19
Идентификатор : 23
Формат : UTF-8
Идентификатор кодека : S_TEXT/UTF8
Идентификатор кодека/Информация : UTF-8 Plain Text
Язык : Swedish
Default : Нет
Forced : Нет
Текст #20
Идентификатор : 24
Формат : UTF-8
Идентификатор кодека : S_TEXT/UTF8
Идентификатор кодека/Информация : UTF-8 Plain Text
Язык : Thai
Default : Нет
Forced : Нет
Текст #21
Идентификатор : 25
Формат : UTF-8
Идентификатор кодека : S_TEXT/UTF8
Идентификатор кодека/Информация : UTF-8 Plain Text
Язык : Turkish
Default : Нет
Forced : Нет
Текст #22
Идентификатор : 26
Формат : UTF-8
Идентификатор кодека : S_TEXT/UTF8
Идентификатор кодека/Информация : UTF-8 Plain Text
Заголовок : Simplified
Язык : Chinese
Default : Нет
Forced : Нет
Текст #23
Идентификатор : 27
Формат : UTF-8
Идентификатор кодека : S_TEXT/UTF8
Идентификатор кодека/Информация : UTF-8 Plain Text
Заголовок : Traditional
Язык : Chinese
Default : Нет
Forced : Нет
Семпл

Скриншоты

admin

Post 09-Feb-2018 05:53

[Quote]

Оригинальное название: Godzilla: Monster Planet
Русское название: Годзилла: Планета чудовищ
Страна: Япония
Жанр: фантастика, боевик
Продолжительность: 01:28:30
Год выхода: 2017
Студия: Polygon Pictures, Toho Company
Озвучание: Любительское (одноголосое закадровое)
Режиссер: Хироюки Сэсита, Сидзуно Кобун
В ролях: Кана Ханадзава, Кэнъю Хориути, Юки Кадзи, Кэнта Миякэ, Мамору Мияно, Кадзуя Накаи, Даисукэ Оно, Сакураи Такахиро, Томокадзу Сугита, Дзюнъити Сувабэ
Краткое содержание:
В последнее лето 20-го столетия люди узнали о том, что планета им больше не принадлежит. Гигантские чудовища — кайдзю — выбрались из земных недр, после чего начали уничтожать человеческие города и друг друга. Самым страшным из кайдзю был Годзилла. Непобедимый ящер с радиоактивным дыханием.
Человечество решает оставить Землю, и отправиться на поиски нового дома. Через 20 лет космического путешествия становится очевидно — вероятность найти пригодную для жизни планету ничтожно мала. Харуто было 4 года, когда он попал на корабль переселенцев, и теперь парень считает, что человечество позорно сдалось — нужно было всеми силами отстаивать Землю и сражаться с Годзиллой. Его идеи становятся популярны, и принято решение вернуться. Из-за использования технологии гиперскачка в пространстве переселенцы возвращаются на Землю через 20,000 лет после собственного бегства. От цивилизации не осталось и следа, миром правят чудовища, а на вершине пищевой цепочки восседает враг человечества — Годзилла.

Качество: WEBRip 1080p
Формат: .mkv
Видео: H264, 1920x1080, 5000 kbps
Аудио #1 (Русский): AC3, 2ch, 192 kbps
Аудио #2 (Японский): AC3, 6ch, 384 kbps
Аудио #3 (Английский): AC3, 6ch, 384 kbps
Субтитры: английские
Cпасибо QWS111 за дорожку. Рекламы нет!

Скриншоты

admin

Post 05-Nov-2017 01:39

[Quote]

Информация о фильме
Название: Кастлвания
Оригинальное название: Castlevania
Год выпуска: 2017
Жанр: мультфильм, ужасы, фэнтези, боевик, приключения
Режиссер: Дэвид Стрейтон, Мира Менон, Лин Оэдин, Роэл Рейне, Джеймс Родэй
В ролях: Тони Амендола, Ричард Армитедж, Джеймс Кэллис, Мэтт Фрюэр, Алехандра Рейносо, Грэм МакТавиш, Эмили Суоллоу
О фильме: Смелая девушка Лиза приходит прямиком в замок графа Дракулы, чтобы тот поделился с ней всеми доступными научными знаниями. У неё благородная цель — девушка хочет стать лучшим врачом и облегчить жизнь людей, но местные не оценили рвения, и уже через год Лизу сжигают на костре за колдовство. Взбешённый Дракула решает мстить за любимую — он даёт жителям города год, а затем насылает на них полчища демонов из ада.

Выпущено: США, 1984 Private Defense Contractors, Frederator Networks, Frederator Studios, NetFlix, Powerhouse Animation Studios
Продолжительность: 00:25:00
Перевод: Профессиональный многоголосый (IdeaFilm)
Файл
Кодек: XviD
Качество: WEBRip 1080p
Видео: MPEG-4 AVC, ~ 5000 Кбит/с, 1920x1080
Аудио: Русский, английский (AC3, 6 ch, 384 Кбит/с)
Внимание, присутствует реклама!

Скриншоты

MI

General
Unique ID : 216503585853742318939334823187459827211 (0xA2E112EB85D996ABA4768ECFB3A7660B)
Complete name : Castlevania.S01E01.WEBRip.1080p-IDEAFILM.mkv
Format : Matroska
Format version : Version 4 / Version 2
File size : 1.02 GiB
Duration : 25mn 37s
Overall bit rate : 5 706 Kbps
Encoded date : UTC 2017-07-10 11:09:08
Writing application : mkvmerge v12.0.0 ('Trust / Lust') 64bit
Writing library : libebml v1.3.4 + libmatroska v1.4.5
Video
ID : 1
Format : AVC
Format/Info : Advanced Video Codec
Format profile : Main@L4.1
Format settings, CABAC : Yes
Format settings, ReFrames : 3 frames
Codec ID : V_MPEG4/ISO/AVC
Duration : 25mn 37s
Width : 1 920 pixels
Height : 1 080 pixels
Display aspect ratio : 16:9
Frame rate mode : Constant
Frame rate : 23.976 fps
Standard : NTSC
Color space : YUV
Chroma subsampling : 4:2:0
Bit depth : 8 bits
Scan type : Progressive
Language : English
Default : Yes
Forced : No
Color primaries : BT.709
Transfer characteristics : BT.709
Matrix coefficients : BT.709
Audio #1
ID : 2
Format : AC-3
Format/Info : Audio Coding 3
Mode extension : CM (complete main)
Format settings, Endianness : Big
Codec ID : A_AC3
Duration : 25mn 37s
Bit rate mode : Constant
Bit rate : 384 Kbps
Channel(s) : 6 channels
Channel positions : Front: L C R, Side: L R, LFE
Sampling rate : 48.0 KHz
Bit depth : 16 bits
Compression mode : Lossy
Stream size : 70.4 MiB (7%)
Title : IDEAFILM
Language : Russian
Default : Yes
Forced : No
Audio #2
ID : 3
Format : AC-3
Format/Info : Audio Coding 3
Codec ID : A_AC3
Duration : 25mn 37s
Channel(s) : 6 channels
Sampling rate : 48.0 KHz
Compression mode : Lossy
Language : English
Default : No
Forced : No

admin

Post 24-Oct-2017 09:46

[Quote]

Информация о фильме
Название: Темный дворецкий: Книга Атлантики
Оригинальное название: Kuroshitsuji: Book of the Atlantic
Страна: Япония
Год выхода: 2017
Жанр: Приключения, мистика, полнометражный
Режиссер: Абэ Нориюки
Автор оригинала: Яна Тобосо
О фильме: В основу сюжета фильма ляжет арка «Роскошный лайнер» (11—14 тома манги), в которой герои оказываются на борту, собственно, роскошного лайнера под названием Campania, где творятся загадочные дела, связанные с воскрешением мертвецов.
Студия:

Продолжительность: 01:40:05
Перевод: Любительский (многоголосый закадровый)
Озвучка: GreenTalker, Nokinal, Ron, VieliS
Файл
Формат: mkv
Качество: BDRip (720p)
Видео: H.264; 1280x720; 2962 Kbps, 23.976fps; (8 bit)
Аудио 1: AAC 48000 Hz, 2.0, 320 kbps Язык Русский
Аудио 2: MP3 48000 Hz, 2.0, 256 kbps Язык Японский

Инфо-файл

Общее
Уникальный идентификатор : 213547869028392284743871654665045857730 (0xA0A7D2D450EB41C7AC7C159BA99AD5C2)
Полное имя : F:AnimeKuroshitsuji_Movie_Book of_the_Atlantic_[720P].mkv
Формат : Matroska
Версия формата : Version 2
Размер файла : 2,48 Гбайт
Продолжительность : 1 ч. 40 м.
Общий поток : 3541 Кбит/сек
Дата кодирования : UTC 2017-08-26 21:57:02
Программа кодирования : mkvmerge v5.7.0 ('The Whirlwind') built on Jul 29 2012 15:12:35
Библиотека кодирования : libebml v1.2.3 + libmatroska v1.3.0
Видео
Идентификатор : 1
Формат : AVC
Формат/Информация : Advanced Video Codec
Профиль формата : Main@L3.1
Параметр CABAC формата : Да
Параметр ReFrames формата : 2 кадра
Идентификатор кодека : V_MPEG4/ISO/AVC
Номинальный битрейт : 2935 Кбит/сек
Ширина : 1280 пикселей
Высота : 720 пикселей
Соотношение сторон : 16:9
Режим частоты кадров : Переменный
Цветовое пространство : YUV
Субдискретизация насыщенности : 4:2:0
Битовая глубина : 8 бит
Тип развёртки : Прогрессивная
Библиотека кодирования : x264 core 112 r1834 a51816a
Настройки программы : cabac=1 / ref=1 / deblock=1:0:0 / analyse=0x1:0 / me=dia / subme=2 / psy=1 / psy_rd=0.00:0.00 / mixed_ref=0 / me_range=16 / chroma_me=1 / trellis=0 / 8x8dct=0 / cqm=0 / deadzone=21,11 / fast_pskip=1 / chroma_qp_offset=0 / threads=4 / sliced_threads=0 / nr=0 / decimate=1 / interlaced=0 / constrained_intra=0 / bframes=3 / b_pyramid=0 / b_adapt=1 / b_bias=0 / direct=3 / weightb=0 / open_gop=0 / weightp=2 / keyint=250 / keyint_min=25 / scenecut=40 / intra_refresh=0 / rc_lookahead=40 / rc=abr / mbtree=1 / bitrate=2935 / ratetol=1.0 / qcomp=0.60 / qpmin=10 / qpmax=51 / qpstep=4 / ip_ratio=1.41 / aq=1:1.00
Default : Да
Forced : Нет
Аудио #1
Идентификатор : 2
Формат : AAC
Формат/Информация : Advanced Audio Codec
Профиль формата : LC
Идентификатор кодека : A_AAC
Продолжительность : 1 ч. 40 м.
Каналы : 2 канала
Расположение каналов : Front: L R
Частота : 48,0 КГц
Метод сжатия : С потерями
Заголовок : GreenTalker, Nokinal, Ron, VieliS
Язык : Russian
Default : Нет
Forced : Да
Аудио #2
Идентификатор : 3
Формат : MPEG Audio
Версия формата : Version 1
Профиль формата : Layer 3
Режим : Joint stereo
Расширение режима : MS Stereo
Идентификатор кодека : A_MPEG/L3
Идентификатор кодека/Подсказка : MP3
Продолжительность : 1 ч. 40 м.
Вид битрейта : Постоянный
Битрейт : 256 Кбит/сек
Каналы : 2 канала
Частота : 48,0 КГц
Метод сжатия : С потерями
Размер потока : 183 Мбайт (7%)
Библиотека кодирования : LAME3.98.4
Язык : Japanese
Default : Да
Forced : Нет

Скриншоты

admin

Post 16-Oct-2017 00:37

[Quote]


Информация о фильме
Название: Унесённые призраками
Оригинальное название: Sen to Chihiro no kamikakushi
Год выхода: 2001
Жанр: аниме, мультфильм, фэнтези, приключения, семейный
Режиссер: Хаяо Миядзаки
В ролях: Руми Хираги, Такаши Найто, Ясуко Савагучи, Ирино Мию, Бунта Сугавара, Мари Нацуки, Юми Тамаи, Тацуя Гасюин, Акио Накамура, Рюноскэ Камики
О фильме: Маленькая Тихиро вместе с мамой и папой переезжают в новый дом. Заблудившись по дороге, они оказываются в странном пустынном городе, где их ждет великолепный пир. Родители с жадностью набрасываются на еду и к ужасу девочки превращаются в свиней, став пленниками злой колдуньи Юбабы, властительницы таинственного мира древних богов и могущественных духов.
Теперь, оказавшись одна среди магических существ и загадочных видений, отважная Тихиро должна придумать, как избавить своих родителей от чар коварной старухи и спастись из пугающего царства призраков…

Выпущено: Studio Ghibli
Продолжительность: 02:04:32
Перевод: Дублированный (лицензия)
Файл
Кодек: x264
Качество: BDRip (источник: Blu-ray Disc)
Видео: 1280x690 (1,85:1), 23.976 fps, 2860 kbps
Аудио #1: AC-3, 6 ch, 448 kbps (Rus)
Аудио #2: AC-3, 6 ch, 448 kbps (Jpn)
Субтитры: Русские

Скриншоты

MI

Общее
Уникальный идентификатор : 194243476774524442017854243767181983968 (0x9221EECEBEFCEEA9B1EE8E76A05D40E0)
Полное имя : Sen.to.Chihiro.no.kamikakushi.2001.BDRip.720p.Rus.Jpn.mkv
Формат : Matroska
Версия формата : Version 2
Размер файла : 3,27 Гбайт
Продолжительность : 2 ч. 4 м.
Общий поток : 3757 Кбит/сек
Название фильма : Унесённые призраками / Sen to Chihiro no kamikakushi (2001)
Дата кодирования : UTC 2014-07-23 15:36:44
Программа кодирования : mkvmerge v5.8.0 ('No Sleep / Pillow') built on Sep 2 2012 15:37:04
Библиотека кодирования : libebml v1.2.3 + libmatroska v1.3.0
Видео
Идентификатор : 1
Формат : AVC
Формат/Информация : Advanced Video Codec
Профиль формата : High@L4.1
Параметр CABAC формата : Да
Параметр ReFrames формата : 9 кадров
Идентификатор кодека : V_MPEG4/ISO/AVC
Продолжительность : 2 ч. 4 м.
Битрейт : 2859 Кбит/сек
Ширина : 1280 пикселей
Высота : 690 пикселей
Соотношение сторон : 1,85:1
Режим частоты кадров : Постоянный
Частота кадров : 23,976 кадра/сек
Цветовое пространство : YUV
Субдискретизация насыщенности : 4:2:0
Битовая глубина : 8 бит
Тип развёртки : Прогрессивная
Бит/(Пиксели*Кадры) : 0.135
Размер потока : 2,42 Гбайт (74%)
Заголовок : Release by AlexKa
Библиотека кодирования : x264 core 142 r2431 ac76440
Настройки программы : cabac=1 / ref=9 / deblock=1:0:0 / analyse=0x3:0x133 / me=umh / subme=11 / psy=1 / psy_rd=1.00:0.00 / mixed_ref=1 / me_range=32 / chroma_me=1 / trellis=2 / 8x8dct=1 / cqm=0 / deadzone=21,11 / fast_pskip=0 / chroma_qp_offset=-2 / threads=12 / lookahead_threads=3 / sliced_threads=0 / nr=0 / decimate=1 / interlaced=0 / bluray_compat=0 / constrained_intra=0 / bframes=11 / b_pyramid=2 / b_adapt=2 / b_bias=0 / direct=3 / weightb=1 / open_gop=0 / weightp=2 / keyint=240 / keyint_min=23 / scenecut=40 / intra_refresh=0 / rc=2pass / mbtree=0 / bitrate=2859 / ratetol=1.0 / qcomp=0.60 / qpmin=0 / qpmax=69 / qpstep=4 / cplxblur=20.0 / qblur=0.5 / ip_ratio=1.40 / pb_ratio=1.30 / aq=1:1.00
Язык : Japanese
Аудио #1
Идентификатор : 2
Формат : AC-3
Формат/Информация : Audio Coding 3
Расширение режима : CM (complete main)
Параметр Endianness формата : Big
Идентификатор кодека : A_AC3
Продолжительность : 2 ч. 4 м.
Вид битрейта : Постоянный
Битрейт : 448 Кбит/сек
Каналы : 6 каналов
Расположение каналов : Front: L C R, Side: L R, LFE
Частота : 48,0 КГц
Битовая глубина : 16 бит
Метод сжатия : С потерями
Размер потока : 399 Мбайт (12%)
Заголовок : Rus
Язык : Russian
Аудио #2
Идентификатор : 3
Формат : AC-3
Формат/Информация : Audio Coding 3
Расширение режима : CM (complete main)
Параметр Endianness формата : Big
Идентификатор кодека : A_AC3
Продолжительность : 2 ч. 4 м.
Вид битрейта : Постоянный
Битрейт : 448 Кбит/сек
Каналы : 6 каналов
Расположение каналов : Front: L C R, Side: L R, LFE
Частота : 48,0 КГц
Битовая глубина : 16 бит
Метод сжатия : С потерями
Размер потока : 399 Мбайт (12%)
Заголовок : Jpn
Язык : Japanese
Текст
Идентификатор : 4
Формат : UTF-8
Идентификатор кодека : S_TEXT/UTF8
Идентификатор кодека/Информация : UTF-8 Plain Text
Заголовок : Rus
Язык : Russian
Меню
00:00:00.000 : :Chapter 01
00:01:39.098 : :Chapter 02
00:03:16.236 : :Chapter 03
00:07:23.526 : :Chapter 04
00:10:45.394 : :Chapter 05
00:17:03.021 : :Chapter 06
00:22:48.532 : :Chapter 07
00:28:36.047 : :Chapter 08
00:33:28.172 : :Chapter 09
00:38:21.674 : :Chapter 10
00:44:11.815 : :Chapter 11
00:48:26.820 : :Chapter 12
00:54:31.351 : :Chapter 13
01:02:09.016 : :Chapter 14
01:08:11.587 : :Chapter 15
01:14:36.847 : :Chapter 16
01:19:10.579 : :Chapter 17
01:25:39.759 : :Chapter 18
01:31:18.889 : :Chapter 19
01:37:33.805 : :Chapter 20
01:45:18.937 : :Chapter 21
01:50:25.118 : :Chapter 22
01:52:51.097 : :Chapter 23
01:55:14.198 : :Chapter 24
02:00:53.579 : :Chapter 25
02:04:31.255 : :Chapter 26

x264

x264 [info]: frame I:1401 Avg QP:14.19 size:184955
x264 [info]: frame P:39745 Avg QP:16.78 size: 35428
x264 [info]: frame B:138009 Avg QP:19.28 size: 7268
x264 [info]: consecutive B-frames: 2.9% 3.0% 9.3% 18.0% 17.8% 27.6% 12.2% 4.2% 2.3% 0.9% 0.8% 0.9%

admin

Post 13-Oct-2017 00:04

[Quote]


Информация о фильме
Название: Мастера Меча Онлайн: Фильм Порядковый ранг
Оригинальное название: Gekijouban Sword Art Online: Ordinal Scale
Страна: Япония
Год выхода: 2017
Жанр: Приключения, фэнтези, романтика, полнометражный
Режиссер: Ито Томохико / Ito Tomohiko / 伊藤智彦
Автор оригинала: Кавахара Рэки / Kawahara Reki / 川原礫
О фильме: Продолжение аниме-сериала «Мастера Меча Онлайн II.
2026 год, на смену «Амусферы» приходит «Augma» — устройство расширенной реальности, которая вместо функции «полного погружения», использует дополненную реальность, что делает процесс использования устройства безопаснее и удобнее. Благодаря этому новое устройство расширенной реальности получило большую популярность, а вместе с ней и «Ordinal Scale» — ARMMORPG, разработанная специально для «Augma», особенностью которой является OS — игровая функция, при которой все игроки получают ранг, основанный на их порядковом номере. Как и ожидалось, Кирито с друзьями начинают играть в «Ordinal Scale», но вскоре они узнают, что «Порядковый ранг» — это вовсе не веселье и игры...
Студия:

Продолжительность: 01:59:57
Перевод: Любительский (многоголосый закадровый)
Озвучка: EVA, Kalifor, Ron, Shachiburi, VieliS
Файл
Формат: mkv
Качество: WEBRip (720p)
Видео: H.264; 1280x720; 971 Kbps, 23.976fps; (8 bit)
Аудио 1: AAC 48000 Hz, 2.0, 128 kbps Язык Русский
Аудио 2: AAC 48000 Hz, 2.0, 190 kbps Язык Японский

Инфо-файл

Общее
Уникальный идентификатор : 219196424994718863852521047088461894048 (0xA4E7B223E17555F896F57ECBEF35D1A0)
Полное имя : F:AnimeSword_Art_Online Movie_Ordinal_Scale_[720P].mkv
Формат : Matroska
Версия формата : Version 2
Размер файла : 1,08 Гбайт
Продолжительность : 1 ч. 59 м.
Общий поток : 1292 Кбит/сек
Дата кодирования : UTC 2017-09-14 19:11:05
Программа кодирования : mkvmerge v5.7.0 ('The Whirlwind') built on Jul 29 2012 15:12:35
Библиотека кодирования : libebml v1.2.3 + libmatroska v1.3.0
Видео
Идентификатор : 1
Формат : AVC
Формат/Информация : Advanced Video Codec
Профиль формата : High@L4
Параметр CABAC формата : Да
Параметр ReFrames формата : 9 кадров
Идентификатор кодека : V_MPEG4/ISO/AVC
Продолжительность : 1 ч. 59 м.
Номинальный битрейт : 972 Кбит/сек
Ширина : 1280 пикселей
Высота : 720 пикселей
Соотношение сторон : 16:9
Режим частоты кадров : Постоянный
Частота кадров : 23,976 кадра/сек
Цветовое пространство : YUV
Субдискретизация насыщенности : 4:2:0
Битовая глубина : 8 бит
Тип развёртки : Прогрессивная
Бит/(Пиксели*Кадры) : 0.044
Библиотека кодирования : x264 core 150 r2833+58 090e24f t_mod_Custom [8-bit@all X86_64]
Настройки программы : cabac=1 / ref=9 / deblock=1:0:0 / analyse=0x3:0x133 / me=umh / subme=9 / psy=1 / fade_compensate=0.20 / psy_rd=0.40:0.00 / mixed_ref=1 / me_range=32 / chroma_me=1 / trellis=2 / 8x8dct=1 / cqm=2 / deadzone=21,11 / fast_pskip=0 / chroma_qp_offset=-2 / threads=12 / lookahead_threads=2 / sliced_threads=0 / nr=0 / decimate=0 / interlaced=0 / bluray_compat=0 / constrained_intra=0 / fgo=5 / bframes=8 / b_pyramid=2 / b_adapt=2 / b_bias=0 / direct=3 / weightb=1 / open_gop=0 / weightp=2 / keyint=240 / keyint_min=23 / scenecut=60 / intra_refresh=0 / rc_lookahead=50 / rc=2pass / mbtree=1 / bitrate=972 / ratetol=1.0 / qcomp=0.60 / qpmin=4:4:4 / qpmax=69:69:69 / qpstep=6 / cplxblur=20.0 / qblur=0.5 / vbv_maxrate=6000 / vbv_bufsize=6000 / nal_hrd=none / filler=0 / ip_ratio=1.40 / aq=3:0.80 / aq-sensitivity=10.00 / aq-factor=1.00:1.00:1.00 / aq2=0 / aq3=2:[0.30:0.30]:[0.30:0.30]:[0.30:0.30]:[0.30:0.30] / aq3-sensitivity=10.00 / aq3-factor=[1.00:1.00]:[1.00:1.00]:[1.00:1.00] / aq3-boundary=192:64:24
Default : Да
Forced : Нет
Цветовой диапазон : Limited
Основные цвета : BT.709
Характеристики трансфера : BT.709
Коэффициенты матрицы : BT.709
Аудио #1
Идентификатор : 2
Формат : AAC
Формат/Информация : Advanced Audio Codec
Профиль формата : LC
Идентификатор кодека : A_AAC
Продолжительность : 1 ч. 59 м.
Каналы : 2 канала
Расположение каналов : Front: L R
Частота : 48,0 КГц
Метод сжатия : С потерями
Задержка видео : -83 мс.
Заголовок : EVA, Kalifor, Ron, Shachiburi, VieliS
Язык : Russian
Default : Да
Forced : Да
Аудио #2
Идентификатор : 3
Формат : AAC
Формат/Информация : Advanced Audio Codec
Профиль формата : LC
Идентификатор кодека : A_AAC
Продолжительность : 1 ч. 59 м.
Каналы : 2 канала
Расположение каналов : Front: L R
Частота : 48,0 КГц
Метод сжатия : С потерями
Задержка видео : -83 мс.
Язык : Japanese
Default : Нет
Forced : Нет

Скриншоты

admin

Post 13-Oct-2017 00:00

[Quote]

Информация о фильме
Название: Твоё имя
Оригинальное название: Kimi no Na wa
Год выхода: 2016
Жанр: романтика, сверхъестественное
Режиссер: Макото Синкай
О фильме:
Мицуха Миямидзу — обычная девушка, уставшая от жизни в провинции и мечтающая о большом городе. Но строгий отец Миямидзу явно не намерен отпускать свою дочь из родного гнезда. Разочарованная в собственной судьбе Мицуха хотела бы стать парнем, ведь тогда отец не стал бы её удерживать.
Таки Татибана — увлекающийся архитектурой старшеклассник, вынужденный работать на полставки, чтобы обеспечивать свою жизнь в Токио. Изнурённый темпом большого города, Татибана мечтает о тихой беззаботной жизни.
И однажды, они просыпаются теле друг друга. Два совершенно разных подростка, чьи мечты исполнились. Но действительно ли это то, чего они хотели?

Страна: Япония
Студия: CoMix Wave Films
Продолжительность: 01:46:00
Перевод:
Любительский многоголосый (SHIZA)
Любительский многоголосый (LE-Production)
Любительский многоголосый (DeadLine)
Любительский многоголосый (Timecraft)
Профессиональный многоголосый закадровый (AlexFilm)
Любительский многоголосый (STEPonee)
Файл
Кодек: x265 HEVC
Качество: BDRip-HEVC 1080
Видео: 1920x1080, 820 kb/s, 23,976 fps
Звук:
Звук (Rus(int)): AAC, 192 kbps, 48,0 KHz, 2 ch | [SHIZA]
Звук (Rus(int)): AAC, 132 kbps, 48,0 KHz, 2 ch | [LE-Production]
Звук (Rus(int)): AAC, 163 kbps, 48,0 KHz, 2 ch | [DeadLine]
Звук (Rus(int)): AAC, 192 kbps, 44,1 KHz, 2 ch | [Timecraft]
Звук (Rus(int)): AC-3, 192 kbps, 48,0 KHz, 2 ch | [AlexFilm]
Звук (Rus(int)): AC-3, 192 kbps, 48,0 KHz, 2 ch | [STEPonee]
Звук (Japanese): AAC, 32,3 kbps, 48,0 Hz, 2 ch | [Original]
Субтитры: Субтитры (Russian): ASS, встроенные | полный перевод

Скриншоты

 

Current time is: 08-Dec 21:26

All times are UTC + 3