Search found 5 matches

Author Message

admin

Post 21-Jul-2021 05:17

[Quote]

Информация о фильме
Название: Гинтама: Финал
Оригинальное название: Gintama: The Final
Год выхода: 2021
Жанр: комедия, история, фантастика, драма
Режиссер: Тидзуру Мияваки
В ролях: Томокадзу Сугита, Риэ Кугимия, Дайсукэ Сакагути, Хидэаки Сорати
О фильме:
Заключительный фильм к аниме-сериалу Гинтама.

Страна: Япония
Студия: Bandai Namco Pictures
Продолжительность: 01:43:57
Перевод: Любительский многоголосый (Animaunt)
Файл
Кодек: mp42
Качество: WEBRip 1080p
Видео: 1920x1080, 8 184 kb/s, 23.976 FPS
Звук: Rus, AAC, 192 kb/s, 48.0 kHz, 2 ch| Animaunt

Скриншоты

Релиз от: Animaunt (Вся реклама вырезана и видеоряд заменен на 1080p)

admin

Post 15-Feb-2018 07:05

[Quote]

Информация о фильме
Название: Повелитель
Оригинальное название: Overlord II
Год выхода: 2017
Жанр: фентези, магия
О фильме:
Редко удаётся найти отличную онлайн-игру, в которой тебя устраивало бы абсолютно всё. Но пользователям "Иггдрасиль” несказанно повезло. Правда счастье их длилось недолго, ведь разработчики надумали закрыть эту игру. Лидер одной из самых могущественных гильдий по имени Момонга не хотел, чтобы игру закрывали и решил сидеть там до самого конца. Его желание отчасти сбылось, в час прощания с онлайн-миром Момонгу перенесло в реальный мир "Иггдрасиль”. Играй, сколько влезет. И Момонга бросился изучать, чем же этот мир отличается от онлайн-игры.
Однажды, во время очередной миссии, одной из верных NPC Момонги по имени Шалтия промыли мозги, и она решила убить своего бывшего хозяина. Битва с ней далась ему крайне нелегко, но в итоге он сумел перехитрить Шалтию и уничтожить её. В своём замке он возрождает девушку обратно в NPC, и она вновь обретает ясность ума. Теперь нужно выяснить, что за злой умысел стоял за её действиями, и кто дёргал за ниточки марионетки, пытаясь устранить могущественного соперника?
Страна: Япония
Студия: Madhouse Studios
Продолжительность: 00:23:40
Перевод: Дубляж | StudioBand [Wakanim]
Файл
Кодек: MPEG4
Качество: WEBRip 1080p
Видео: 1920x1080, 3072 kb/s, 23,976 fps
Звук: Звук (Rus(int)): AC-3, 192 kbps, 48,0 KHz, 2 ch | [StudioBand]

Скриншоты

admin

Post 09-Feb-2018 05:53

[Quote]

Оригинальное название: Godzilla: Monster Planet
Русское название: Годзилла: Планета чудовищ
Страна: Япония
Жанр: фантастика, боевик
Продолжительность: 01:28:30
Год выхода: 2017
Студия: Polygon Pictures, Toho Company
Озвучание: Любительское (одноголосое закадровое)
Режиссер: Хироюки Сэсита, Сидзуно Кобун
В ролях: Кана Ханадзава, Кэнъю Хориути, Юки Кадзи, Кэнта Миякэ, Мамору Мияно, Кадзуя Накаи, Даисукэ Оно, Сакураи Такахиро, Томокадзу Сугита, Дзюнъити Сувабэ
Краткое содержание:
В последнее лето 20-го столетия люди узнали о том, что планета им больше не принадлежит. Гигантские чудовища — кайдзю — выбрались из земных недр, после чего начали уничтожать человеческие города и друг друга. Самым страшным из кайдзю был Годзилла. Непобедимый ящер с радиоактивным дыханием.
Человечество решает оставить Землю, и отправиться на поиски нового дома. Через 20 лет космического путешествия становится очевидно — вероятность найти пригодную для жизни планету ничтожно мала. Харуто было 4 года, когда он попал на корабль переселенцев, и теперь парень считает, что человечество позорно сдалось — нужно было всеми силами отстаивать Землю и сражаться с Годзиллой. Его идеи становятся популярны, и принято решение вернуться. Из-за использования технологии гиперскачка в пространстве переселенцы возвращаются на Землю через 20,000 лет после собственного бегства. От цивилизации не осталось и следа, миром правят чудовища, а на вершине пищевой цепочки восседает враг человечества — Годзилла.

Качество: WEBRip 1080p
Формат: .mkv
Видео: H264, 1920x1080, 5000 kbps
Аудио #1 (Русский): AC3, 2ch, 192 kbps
Аудио #2 (Японский): AC3, 6ch, 384 kbps
Аудио #3 (Английский): AC3, 6ch, 384 kbps
Субтитры: английские
Cпасибо QWS111 за дорожку. Рекламы нет!

Скриншоты

admin

Post 05-Nov-2017 01:39

[Quote]

Информация о фильме
Название: Кастлвания
Оригинальное название: Castlevania
Год выпуска: 2017
Жанр: мультфильм, ужасы, фэнтези, боевик, приключения
Режиссер: Дэвид Стрейтон, Мира Менон, Лин Оэдин, Роэл Рейне, Джеймс Родэй
В ролях: Тони Амендола, Ричард Армитедж, Джеймс Кэллис, Мэтт Фрюэр, Алехандра Рейносо, Грэм МакТавиш, Эмили Суоллоу
О фильме: Смелая девушка Лиза приходит прямиком в замок графа Дракулы, чтобы тот поделился с ней всеми доступными научными знаниями. У неё благородная цель — девушка хочет стать лучшим врачом и облегчить жизнь людей, но местные не оценили рвения, и уже через год Лизу сжигают на костре за колдовство. Взбешённый Дракула решает мстить за любимую — он даёт жителям города год, а затем насылает на них полчища демонов из ада.

Выпущено: США, 1984 Private Defense Contractors, Frederator Networks, Frederator Studios, NetFlix, Powerhouse Animation Studios
Продолжительность: 00:25:00
Перевод: Профессиональный многоголосый (IdeaFilm)
Файл
Кодек: XviD
Качество: WEBRip 1080p
Видео: MPEG-4 AVC, ~ 5000 Кбит/с, 1920x1080
Аудио: Русский, английский (AC3, 6 ch, 384 Кбит/с)
Внимание, присутствует реклама!

Скриншоты

MI

General
Unique ID : 216503585853742318939334823187459827211 (0xA2E112EB85D996ABA4768ECFB3A7660B)
Complete name : Castlevania.S01E01.WEBRip.1080p-IDEAFILM.mkv
Format : Matroska
Format version : Version 4 / Version 2
File size : 1.02 GiB
Duration : 25mn 37s
Overall bit rate : 5 706 Kbps
Encoded date : UTC 2017-07-10 11:09:08
Writing application : mkvmerge v12.0.0 ('Trust / Lust') 64bit
Writing library : libebml v1.3.4 + libmatroska v1.4.5
Video
ID : 1
Format : AVC
Format/Info : Advanced Video Codec
Format profile : Main@L4.1
Format settings, CABAC : Yes
Format settings, ReFrames : 3 frames
Codec ID : V_MPEG4/ISO/AVC
Duration : 25mn 37s
Width : 1 920 pixels
Height : 1 080 pixels
Display aspect ratio : 16:9
Frame rate mode : Constant
Frame rate : 23.976 fps
Standard : NTSC
Color space : YUV
Chroma subsampling : 4:2:0
Bit depth : 8 bits
Scan type : Progressive
Language : English
Default : Yes
Forced : No
Color primaries : BT.709
Transfer characteristics : BT.709
Matrix coefficients : BT.709
Audio #1
ID : 2
Format : AC-3
Format/Info : Audio Coding 3
Mode extension : CM (complete main)
Format settings, Endianness : Big
Codec ID : A_AC3
Duration : 25mn 37s
Bit rate mode : Constant
Bit rate : 384 Kbps
Channel(s) : 6 channels
Channel positions : Front: L C R, Side: L R, LFE
Sampling rate : 48.0 KHz
Bit depth : 16 bits
Compression mode : Lossy
Stream size : 70.4 MiB (7%)
Title : IDEAFILM
Language : Russian
Default : Yes
Forced : No
Audio #2
ID : 3
Format : AC-3
Format/Info : Audio Coding 3
Codec ID : A_AC3
Duration : 25mn 37s
Channel(s) : 6 channels
Sampling rate : 48.0 KHz
Compression mode : Lossy
Language : English
Default : No
Forced : No

admin

Post 24-Oct-2017 09:46

[Quote]

Информация о фильме
Название: Темный дворецкий: Книга Атлантики
Оригинальное название: Kuroshitsuji: Book of the Atlantic
Страна: Япония
Год выхода: 2017
Жанр: Приключения, мистика, полнометражный
Режиссер: Абэ Нориюки
Автор оригинала: Яна Тобосо
О фильме: В основу сюжета фильма ляжет арка «Роскошный лайнер» (11—14 тома манги), в которой герои оказываются на борту, собственно, роскошного лайнера под названием Campania, где творятся загадочные дела, связанные с воскрешением мертвецов.
Студия:

Продолжительность: 01:40:05
Перевод: Любительский (многоголосый закадровый)
Озвучка: GreenTalker, Nokinal, Ron, VieliS
Файл
Формат: mkv
Качество: BDRip (720p)
Видео: H.264; 1280x720; 2962 Kbps, 23.976fps; (8 bit)
Аудио 1: AAC 48000 Hz, 2.0, 320 kbps Язык Русский
Аудио 2: MP3 48000 Hz, 2.0, 256 kbps Язык Японский

Инфо-файл

Общее
Уникальный идентификатор : 213547869028392284743871654665045857730 (0xA0A7D2D450EB41C7AC7C159BA99AD5C2)
Полное имя : F:AnimeKuroshitsuji_Movie_Book of_the_Atlantic_[720P].mkv
Формат : Matroska
Версия формата : Version 2
Размер файла : 2,48 Гбайт
Продолжительность : 1 ч. 40 м.
Общий поток : 3541 Кбит/сек
Дата кодирования : UTC 2017-08-26 21:57:02
Программа кодирования : mkvmerge v5.7.0 ('The Whirlwind') built on Jul 29 2012 15:12:35
Библиотека кодирования : libebml v1.2.3 + libmatroska v1.3.0
Видео
Идентификатор : 1
Формат : AVC
Формат/Информация : Advanced Video Codec
Профиль формата : Main@L3.1
Параметр CABAC формата : Да
Параметр ReFrames формата : 2 кадра
Идентификатор кодека : V_MPEG4/ISO/AVC
Номинальный битрейт : 2935 Кбит/сек
Ширина : 1280 пикселей
Высота : 720 пикселей
Соотношение сторон : 16:9
Режим частоты кадров : Переменный
Цветовое пространство : YUV
Субдискретизация насыщенности : 4:2:0
Битовая глубина : 8 бит
Тип развёртки : Прогрессивная
Библиотека кодирования : x264 core 112 r1834 a51816a
Настройки программы : cabac=1 / ref=1 / deblock=1:0:0 / analyse=0x1:0 / me=dia / subme=2 / psy=1 / psy_rd=0.00:0.00 / mixed_ref=0 / me_range=16 / chroma_me=1 / trellis=0 / 8x8dct=0 / cqm=0 / deadzone=21,11 / fast_pskip=1 / chroma_qp_offset=0 / threads=4 / sliced_threads=0 / nr=0 / decimate=1 / interlaced=0 / constrained_intra=0 / bframes=3 / b_pyramid=0 / b_adapt=1 / b_bias=0 / direct=3 / weightb=0 / open_gop=0 / weightp=2 / keyint=250 / keyint_min=25 / scenecut=40 / intra_refresh=0 / rc_lookahead=40 / rc=abr / mbtree=1 / bitrate=2935 / ratetol=1.0 / qcomp=0.60 / qpmin=10 / qpmax=51 / qpstep=4 / ip_ratio=1.41 / aq=1:1.00
Default : Да
Forced : Нет
Аудио #1
Идентификатор : 2
Формат : AAC
Формат/Информация : Advanced Audio Codec
Профиль формата : LC
Идентификатор кодека : A_AAC
Продолжительность : 1 ч. 40 м.
Каналы : 2 канала
Расположение каналов : Front: L R
Частота : 48,0 КГц
Метод сжатия : С потерями
Заголовок : GreenTalker, Nokinal, Ron, VieliS
Язык : Russian
Default : Нет
Forced : Да
Аудио #2
Идентификатор : 3
Формат : MPEG Audio
Версия формата : Version 1
Профиль формата : Layer 3
Режим : Joint stereo
Расширение режима : MS Stereo
Идентификатор кодека : A_MPEG/L3
Идентификатор кодека/Подсказка : MP3
Продолжительность : 1 ч. 40 м.
Вид битрейта : Постоянный
Битрейт : 256 Кбит/сек
Каналы : 2 канала
Частота : 48,0 КГц
Метод сжатия : С потерями
Размер потока : 183 Мбайт (7%)
Библиотека кодирования : LAME3.98.4
Язык : Japanese
Default : Да
Forced : Нет

Скриншоты

 

Current time is: 23-Jul 22:21

All times are UTC + 3