Search found 9 matches

Author Message

admin

Post 17-Feb-2022 05:47

[Quote]

Информация о фильме
Название: Магическая битва
Оригинальное название: Jujutsu Kaisen
Год выхода: 2020
Жанр: приключения, сверхъестественное, драма, сёнэн
Режиссер: Пак Сон Ху
В ролях: Юити Накамура, Дзюнъя Эноки, Асами Сэто, Юма Утида
О фильме:
Действие происходит в мире, где люди оказались вовсе не последним звеном в пищевой цепочке и любой ничего не подозревающий обыватель при известной доле невезения может оказаться съеденным демоном. Пускай люди в большинстве своём не знают о существовании демонов, те имеют уже давнюю историю, одним из эпизодов являются деяния легендарного демона Рёмэна Сукуны, которого с большим трудом удалось одолеть. Его тело было поделено на части, и оказались разбросаны по миру. Если найдётся демон, который поглотит все фрагменты его плоти, то он обретёт мощь, способную уничтожить человеческую цивилизацию.
Вот такая сложилась ситуация в мире, где в полном неведении о нависшей над человечеством угрозе проживает старшеклассник Юдзи Итадори. У Юдзи совершенно иные заботы. Он каждый день навещает в больнице дедушку и отбрыкивается от спортивных кружков, которые мечтают заполучить его из-за выдающейся физической силы и выносливости. Юдзи предпочёл вступить в клуб оккультных наук, с которого и начинаются все неприятности, когда в руки членов клуба попадает предмет, на который наложено проклятье. Не долго думая, школьники разбивают запечатывающее заклинание и выпускают на свет ужасные силы...
Страна: Япония
Студия: MAPPA
Продолжительность: 24 х ~ 00:24:00
Перевод: Любительское (двухголосое, закадровое)
Файл
Кодек: x265 HEVC
Качество: BDRip-HEVC 1080p
Видео: x265, 1920x1080, 1908 kbps, 23.97 fps
Звук: AAC, 192 kbps, 48,0 KHz, 2 ch - JAM CLUB (JAM & Trina_D)

Скриншоты

admin

Post 15-Feb-2022 06:24

[Quote]

Название: Истребитель демонов: Квартал красных фонарей (Клинок, рассекающий демонов)
Оригинальное название: Kimetsu no Yaiba: Yuukaku-hen (Demon Slayer: Kimetsu no Yaiba Entertainment District Arc)
Год выпуска: 2021-2022
Жанр: Приключения, фэнтези, сёнэн, мультсериал
Выпущено: Япония, Ufotable
Режиссер: Харуо Сотодзаки
В ролях: Нацуки Ханаэ, Акари Кито, Ёсицугу Мацуока, Такахиро Сакурай, Хиро Симоно, Кацуюки Кониси, Нобухико Окамото
О фильме: Продолжение приключений Тандзиро и его неизменных спутников: сестры-демона Нэдзуко, вечно ноющего Дзэницу и сорвиголовы Иносукэ. На этот раз «столп звука» Тэнгэн Удзуи берёт их с собой на задание в Квартал красных фонарей, где в последнее время стали пропадать люди. Причиной этого скорее всего служат демоны. Так кто же стоит за всеми исчезновениями, и смогут ли наши герои с ним справиться?

Продолжительность: 9 x ~ 00:24:00, 1 x 00:47:00, 1 x 00:32:25
Перевод: Дублированный
Файл
Качество: WEBRip 1080p
Видео: MPEG-4 AVC, ~ 8000 Кбит/с, 1920x1080
Аудио: Русский (AAC, 2 ch, 192 Кбит/с), японский (AAC, 2 ch, 128 Кбит/с)
Субтитры: Русские (софтсаб)

Список эпизодов

01. Звуковой столп, Тэнген Удзуй
02. Проникновение в квартал
03. Кто ты?
04. Этой ночью
05. Блестящий выход
06. Слои воспоминаний
07. Перемена
08. Сбор
09. DЧтобы победить молодую луну
10. Ни за что не сдамся
11. Сколько бы мы ни перерождались

Список

#1 Истребитель демонов [ТВ-1] - ТВ (26 эп.), адаптация манги, 2019
#2 Истребитель демонов (компиляция 1) - п/ф, киноверсия 1-5 эпизодов ТВ-сериала, 2019
#3 Истребитель демонов (компиляция 2) - п/ф, киноверсия 15-21 эпизодов ТВ-сериала, 2020
#4 Истребитель демонов (компиляция 3) - п/ф, киноверсия 22-26 эпизодов ТВ-сериала, 2020
#5 Истребитель демонов: Поезд «Бесконечный» (фильм) - п/ф, продолжение, 2020
#6 Истребитель демонов: Поезд «Бесконечный» [ТВ] - ТВ (7 эп.), телеверсия фильма, 2021
#7 Истребитель демонов [ТВ-2] - ТВ, адаптация манги, 2021

Скриншоты


admin

Post 10-Feb-2022 07:18

[Quote]

Информация о фильме
Название: Бегущий по лезвию: Чёрный лотос
Оригинальное название: Blade Runner: Black Lotus
Год выхода: 2021
Жанр: приключения, фантастика, боевик
Режиссеры: Синдзи Арамаки, Кэндзи Камияма
О фильме:
Лос-Анджелес, 2032 год. Девушка приходит в себя и ничего не может вспомнить, зато обнаруживает, что обладает смертоносными навыками, татуировкой в виде чёрного лотоса и странным устройством. Пытаясь вернуть воспоминания, она начинает поиски истины.

Страна: Япония, США
Продолжительность: ~ 00:22:30 (серия)
Перевод: Профессиональный (многоголосый, закадровый) | HDrezka Studio
Файл
Формат: MKV
Кодек: MPEG-4 AVC
Качество: BDRip 1080p
Видео: 1920x1080, ~ 4 100 kb/s, 23.976 FPS. 8 bits
Аудио #1: AAC LC, ~ 192 kb/s, 2 channels, 48.0 kHz | HDrezka Studio
Аудио #2: AAC LC, ~ 128 kb/s, 2 channels, 44.1 kHz | Original
Субтитры: Русские (полные, отключаемые)--

Скриншоты

-

MediaInfo

Общее
Уникальный идентификатор : 191586452949474533873652441281488496156 (0x9022356B3A98291E5C90BCB2FD10261C)
Полное имя : D:torBlade.Runner.Black.Lotos.WEBRip.1080p.by.VLDeshkaBlade Runner Black Lotos - 01.mkv
Формат : Matroska
Версия формата : Version 4
Размер файла : 678 Мбайт
Продолжительность : 22 м. 9 с.
Общий поток : 4 280 Кбит/сек
Дата кодирования : UTC 2021-11-15 20:16:01
Программа кодирования : mkvmerge v31.0.0 ('Dolores In A Shoestand') 64-bit
Библиотека кодирования : libebml v1.3.6 + libmatroska v1.4.9
Attachments : arial.ttf / trebuc.ttf / AdobeArabic-Bold.otf / times.ttf / comic.ttf / verdana.ttf / cour.ttf / tahoma.ttf
Видео
Идентификатор : 1
Формат : AVC
Формат/Информация : Advanced Video Codec
Профиль формата : High@L4
Настройки формата : CABAC / 4 Ref Frames
Параметр CABAC формата : Да
Параметр RefFrames формата : 4 кадра
Идентификатор кодека : V_MPEG4/ISO/AVC
Продолжительность : 22 м. 9 с.
Битрейт : 4 100 Кбит/сек
Ширина : 1 920 пикселей
Высота : 1 080 пикселей
Соотношение сторон : 16:9
Режим частоты кадров : Постоянный
Частота кадров : 23,976 (24000/1001) кадра/сек
Цветовое пространство : YUV
Субдискретизация насыщенности : 4:2:0
Битовая глубина : 8 бит
Тип развёртки : Прогрессивная
Бит/(Пиксели*Кадры) : 0.082
Размер потока : 624 Мбайт (92%)
Библиотека кодирования : x264 core 133 r2334 a3ac64b
Настройки программы : cabac=1 / ref=3 / deblock=1:0:0 / analyse=0x3:0x113 / me=hex / subme=7 / psy=1 / psy_rd=1.00:0.00 / mixed_ref=1 / me_range=16 / chroma_me=1 / trellis=1 / 8x8dct=1 / cqm=0 / deadzone=21,11 / fast_pskip=1 / chroma_qp_offset=-2 / threads=12 / lookahead_threads=2 / sliced_threads=0 / nr=0 / decimate=1 / interlaced=0 / bluray_compat=0 / constrained_intra=0 / bframes=3 / b_pyramid=2 / b_adapt=1 / b_bias=0 / direct=1 / weightb=1 / open_gop=0 / weightp=2 / keyint=250 / keyint_min=23 / scenecut=40 / intra_refresh=0 / rc_lookahead=40 / rc=abr / mbtree=1 / bitrate=4100 / ratetol=1.0 / qcomp=0.60 / qpmin=0 / qpmax=69 / qpstep=4 / ip_ratio=1.40 / aq=1:1.00
Язык : English
Default : Да
Forced : Нет
Аудио #1
Идентификатор : 2
Формат : AAC LC
Формат/Информация : Advanced Audio Codec Low Complexity
Идентификатор кодека : A_AAC-2
Продолжительность : 22 м. 9 с.
Битрейт : 192 Кбит/сек
Каналы : 2 канала
Channel layout : L R
Частота : 48,0 КГц
Частота кадров : 46,875 кадров/сек (1024 SPF)
Метод сжатия : С потерями
Размер потока : 30,0 Мбайт (4%)
Заголовок : HDRezka
Язык : Russian
Default : Да
Forced : Нет
Аудио #2
Идентификатор : 3
Формат : AAC LC
Формат/Информация : Advanced Audio Codec Low Complexity
Идентификатор кодека : A_AAC-2
Продолжительность : 22 м. 9 с.
Битрейт : 128 Кбит/сек
Каналы : 2 канала
Channel layout : L R
Частота : 44,1 КГц
Частота кадров : 43,066 кадра/сек (1024 SPF)
Метод сжатия : С потерями
Размер потока : 20,3 Мбайт (3%)
Язык : Japanese
Default : Нет
Forced : Нет
Текст
Идентификатор : 4
Формат : ASS
Идентификатор кодека : S_TEXT/ASS
Идентификатор кодека/Информация : Advanced Sub Station Alpha
Продолжительность : 22 м. 0 с.
Битрейт : 77 бит/сек
Count of elements : 193
Метод сжатия : Без потерь
Размер потока : 12,4 Кбайт (0%)
Язык : Russian
Default : Нет
Forced : Нет
-

admin

Post 10-Feb-2022 07:14

[Quote]

DOTA: Кровь дракона / DOTA: Dragon's Blood
Страна: США
Год выпуска: 2022
Жанр: Аниме, мультфильм, фэнтези, боевик
Продолжительность: 00:25:00
Перевод: Профессиональный (дублированный) | Невафильм
Режиссёр: Пан Ю-вон, Ким И-джон, Пак Со-ён / Pang Yoo-won, Kim Ee-jeong, Park So-yeong
Роли озвучивали: Юрий Ловенталь, Лара Пулвер, Ди Брэдли Бейкер, Фрея Тингли, Кристофер Бенкомо, Брайан Кирхоф, Элизабет Сатерлин, Кристин Риддик, Трой Бэйкер, Тони Тодд, Аликс Вилтон Риган, Кари Уолгрен, Джейби Бланк, Дэвид Шонесси, Мэттью Уотерсон
Описание: Прославленный драконий рыцарь Дэвион посвятил жизнь борьбе с бедами мира. После встречи с могущественным древним эльдвурмом и с благородной принцессой Мираной, у которой есть своя тайная миссия, Дэвион оказывается в эпицентре событий куда более масштабных, чем он мог себе представить.

Качество: WEB-DL 1080p
Контейнер: MKV
Видео: AVC, 1920x1080 (16:9), 24 fps, ~2791 kbps
Аудио №1: E-AC3, 48 kHz, 6 ch, 640 kbps
Аудио №2: E-AC3, 48 kHz, 6 ch, 640 kbps
Субтитры: Русские (Forced, Full), английские (SDH), иврит, румынские, украинские

Список серий

01. Связь ничего с ничем / Nothing with Nothing
02. Клинок и жизнь / My Sword, My Life
03. Владычица обстоятельств / The Lady of Situations
04. Безбрежное и пустынное море / Desolate and Empty the Sea
05. Похороны мертвеца / The Burial of the Dead
06. Гиацинтовая невеста / The Hyacinth Girl
07. Лиловый час / The Violet Hour
08. Призрачный город / Unreal City

MediaInfo

General
Unique ID : 143905759100800091147013610951354232916 (0x6C433DB6409C41A61A1299C551D23054)
Complete name : DOTA.Dragons.Blood.S02E01.Nothing.with.Nothing.1080p.NF.WEB-DL.DDP5.1.H.264-EniaHD.mkv
Format : Matroska
Format version : Version 4
File size : 742 MiB
Duration : 25 min 28 s
Overall bit rate mode : Variable
Overall bit rate : 4 072 kb/s
Movie name : DOTA: Dragon's Blood S02E01 [Nothing with Nothing] - EniaHD
Writing application : mkvmerge v53.0.0 ('Fool's Gold') 64-bit
Writing library : libebml v1.4.1 + libmatroska v1.6.2
Video
ID : 1
Format : AVC
Format/Info : Advanced Video Codec
Format profile : High@L4
Format settings : CABAC / 4 Ref Frames
Format settings, CABAC : Yes
Format settings, Reference fra : 4 frames
Codec ID : V_MPEG4/ISO/AVC
Duration : 25 min 27 s
Bit rate mode : Variable
Bit rate : 2 791 kb/s
Maximum bit rate : 20.0 Mb/s
Width : 1 920 pixels
Height : 1 080 pixels
Display aspect ratio : 16:9
Frame rate mode : Constant
Frame rate : 24.000 FPS
Color space : YUV
Chroma subsampling : 4:2:0
Bit depth : 8 bits
Scan type : Progressive
Bits/(Pixel*Frame) : 0.056
Stream size : 508 MiB (68%)
Writing library : x264 core 148 r2724 dbe0335
Encoding settings : cabac=1 / ref=4 / deblock=1:0:0 / analyse=0x3:0x111 / me=umh / subme=10 / psy=1 / psy_rd=1.00:0.00 / mixed_ref=1 / me_range=120 / chroma_me=1 / trellis=2 / 8x8dct=1 / cqm=0 / deadzone=21,11 / fast_pskip=1 / chroma_qp_offset=-2 / threads=6 / lookahead_threads=1 / sliced_threads=0 / nr=0 / decimate=1 / interlaced=0 / bluray_compat=0 / stitchable=1 / constrained_intra=0 / bframes=16 / b_pyramid=2 / b_adapt=2 / b_bias=0 / direct=3 / weightb=1 / open_gop=0 / weightp=2 / keyint=240 / keyint_min=121 / scenecut=0 / intra_refresh=0 / rc_lookahead=240 / rc=crf / mbtree=1 / crf=16.0 / qcomp=0.50 / qpmin=6 / qpmax=51 / qpstep=4 / vbv_maxrate=20000 / vbv_bufsize=25000 / crf_max=0.0 / nal_hrd=vbr / filler=0 / ip_ratio=1.40 / aq=1:0.80
Default : Yes
Forced : No
Audio #1
ID : 2
Format : E-AC-3
Format/Info : Enhanced AC-3
Commercial name : Dolby Digital Plus
Codec ID : A_EAC3
Duration : 25 min 28 s
Bit rate mode : Constant
Bit rate : 640 kb/s
Channel(s) : 6 channels
Channel layout : L R C LFE Ls Rs
Sampling rate : 48.0 kHz
Frame rate : 31.250 FPS (1536 SPF)
Compression mode : Lossy
Stream size : 117 MiB (16%)
Language : Russian
Service kind : Complete Main
Default : Yes
Forced : No
Audio #2
ID : 3
Format : E-AC-3
Format/Info : Enhanced AC-3
Commercial name : Dolby Digital Plus
Codec ID : A_EAC3
Duration : 25 min 28 s
Bit rate mode : Constant
Bit rate : 640 kb/s
Channel(s) : 6 channels
Channel layout : L R C LFE Ls Rs
Sampling rate : 48.0 kHz
Frame rate : 31.250 FPS (1536 SPF)
Compression mode : Lossy
Stream size : 117 MiB (16%)
Language : English
Service kind : Complete Main
Default : No
Forced : No
Text #1
ID : 4
Format : UTF-8
Codec ID : S_TEXT/UTF8
Codec ID/Info : UTF-8 Plain Text
Duration : 24 min 19 s
Bit rate : 1 b/s
Count of elements : 4
Stream size : 217 Bytes (0%)
Title : Forced
Language : Russian
Default : Yes
Forced : No
Text #2
ID : 5
Format : UTF-8
Codec ID : S_TEXT/UTF8
Codec ID/Info : UTF-8 Plain Text
Duration : 24 min 19 s
Bit rate : 91 b/s
Count of elements : 264
Stream size : 16.3 KiB (0%)
Language : Russian
Default : No
Forced : No
Text #3
ID : 6
Format : UTF-8
Codec ID : S_TEXT/UTF8
Codec ID/Info : UTF-8 Plain Text
Duration : 23 min 31 s
Bit rate : 67 b/s
Count of elements : 412
Stream size : 11.7 KiB (0%)
Title : SDH
Language : English
Default : No
Forced : No
Text #4
ID : 7
Format : UTF-8
Codec ID : S_TEXT/UTF8
Codec ID/Info : UTF-8 Plain Text
Duration : 24 min 19 s
Bit rate : 79 b/s
Count of elements : 264
Stream size : 14.1 KiB (0%)
Language : Hebrew
Default : No
Forced : No
Text #5
ID : 8
Format : UTF-8
Codec ID : S_TEXT/UTF8
Codec ID/Info : UTF-8 Plain Text
Duration : 24 min 19 s
Bit rate : 63 b/s
Count of elements : 264
Stream size : 11.3 KiB (0%)
Language : Romanian
Default : No
Forced : No
Text #6
ID : 9
Format : UTF-8
Codec ID : S_TEXT/UTF8
Codec ID/Info : UTF-8 Plain Text
Duration : 24 min 19 s
Bit rate : 84 b/s
Count of elements : 264
Stream size : 15.1 KiB (0%)
Language : Ukrainian
Default : No
Forced : No

Скриншоты

admin

Post 21-Jul-2021 05:17

[Quote]

Информация о фильме
Название: Гинтама: Финал
Оригинальное название: Gintama: The Final
Год выхода: 2021
Жанр: комедия, история, фантастика, драма
Режиссер: Тидзуру Мияваки
В ролях: Томокадзу Сугита, Риэ Кугимия, Дайсукэ Сакагути, Хидэаки Сорати
О фильме:
Заключительный фильм к аниме-сериалу Гинтама.

Страна: Япония
Студия: Bandai Namco Pictures
Продолжительность: 01:43:57
Перевод: Любительский многоголосый (Animaunt)
Файл
Кодек: mp42
Качество: WEBRip 1080p
Видео: 1920x1080, 8 184 kb/s, 23.976 FPS
Звук: Rus, AAC, 192 kb/s, 48.0 kHz, 2 ch| Animaunt

Скриншоты

Релиз от: Animaunt (Вся реклама вырезана и видеоряд заменен на 1080p)

admin

Post 15-Feb-2018 07:05

[Quote]

Информация о фильме
Название: Повелитель
Оригинальное название: Overlord II
Год выхода: 2017
Жанр: фентези, магия
О фильме:
Редко удаётся найти отличную онлайн-игру, в которой тебя устраивало бы абсолютно всё. Но пользователям "Иггдрасиль” несказанно повезло. Правда счастье их длилось недолго, ведь разработчики надумали закрыть эту игру. Лидер одной из самых могущественных гильдий по имени Момонга не хотел, чтобы игру закрывали и решил сидеть там до самого конца. Его желание отчасти сбылось, в час прощания с онлайн-миром Момонгу перенесло в реальный мир "Иггдрасиль”. Играй, сколько влезет. И Момонга бросился изучать, чем же этот мир отличается от онлайн-игры.
Однажды, во время очередной миссии, одной из верных NPC Момонги по имени Шалтия промыли мозги, и она решила убить своего бывшего хозяина. Битва с ней далась ему крайне нелегко, но в итоге он сумел перехитрить Шалтию и уничтожить её. В своём замке он возрождает девушку обратно в NPC, и она вновь обретает ясность ума. Теперь нужно выяснить, что за злой умысел стоял за её действиями, и кто дёргал за ниточки марионетки, пытаясь устранить могущественного соперника?
Страна: Япония
Студия: Madhouse Studios
Продолжительность: 00:23:40
Перевод: Дубляж | StudioBand [Wakanim]
Файл
Кодек: MPEG4
Качество: WEBRip 1080p
Видео: 1920x1080, 3072 kb/s, 23,976 fps
Звук: Звук (Rus(int)): AC-3, 192 kbps, 48,0 KHz, 2 ch | [StudioBand]

Скриншоты

admin

Post 09-Feb-2018 05:53

[Quote]

Оригинальное название: Godzilla: Monster Planet
Русское название: Годзилла: Планета чудовищ
Страна: Япония
Жанр: фантастика, боевик
Продолжительность: 01:28:30
Год выхода: 2017
Студия: Polygon Pictures, Toho Company
Озвучание: Любительское (одноголосое закадровое)
Режиссер: Хироюки Сэсита, Сидзуно Кобун
В ролях: Кана Ханадзава, Кэнъю Хориути, Юки Кадзи, Кэнта Миякэ, Мамору Мияно, Кадзуя Накаи, Даисукэ Оно, Сакураи Такахиро, Томокадзу Сугита, Дзюнъити Сувабэ
Краткое содержание:
В последнее лето 20-го столетия люди узнали о том, что планета им больше не принадлежит. Гигантские чудовища — кайдзю — выбрались из земных недр, после чего начали уничтожать человеческие города и друг друга. Самым страшным из кайдзю был Годзилла. Непобедимый ящер с радиоактивным дыханием.
Человечество решает оставить Землю, и отправиться на поиски нового дома. Через 20 лет космического путешествия становится очевидно — вероятность найти пригодную для жизни планету ничтожно мала. Харуто было 4 года, когда он попал на корабль переселенцев, и теперь парень считает, что человечество позорно сдалось — нужно было всеми силами отстаивать Землю и сражаться с Годзиллой. Его идеи становятся популярны, и принято решение вернуться. Из-за использования технологии гиперскачка в пространстве переселенцы возвращаются на Землю через 20,000 лет после собственного бегства. От цивилизации не осталось и следа, миром правят чудовища, а на вершине пищевой цепочки восседает враг человечества — Годзилла.

Качество: WEBRip 1080p
Формат: .mkv
Видео: H264, 1920x1080, 5000 kbps
Аудио #1 (Русский): AC3, 2ch, 192 kbps
Аудио #2 (Японский): AC3, 6ch, 384 kbps
Аудио #3 (Английский): AC3, 6ch, 384 kbps
Субтитры: английские
Cпасибо QWS111 за дорожку. Рекламы нет!

Скриншоты

admin

Post 05-Nov-2017 01:39

[Quote]

Информация о фильме
Название: Кастлвания
Оригинальное название: Castlevania
Год выпуска: 2017
Жанр: мультфильм, ужасы, фэнтези, боевик, приключения
Режиссер: Дэвид Стрейтон, Мира Менон, Лин Оэдин, Роэл Рейне, Джеймс Родэй
В ролях: Тони Амендола, Ричард Армитедж, Джеймс Кэллис, Мэтт Фрюэр, Алехандра Рейносо, Грэм МакТавиш, Эмили Суоллоу
О фильме: Смелая девушка Лиза приходит прямиком в замок графа Дракулы, чтобы тот поделился с ней всеми доступными научными знаниями. У неё благородная цель — девушка хочет стать лучшим врачом и облегчить жизнь людей, но местные не оценили рвения, и уже через год Лизу сжигают на костре за колдовство. Взбешённый Дракула решает мстить за любимую — он даёт жителям города год, а затем насылает на них полчища демонов из ада.

Выпущено: США, 1984 Private Defense Contractors, Frederator Networks, Frederator Studios, NetFlix, Powerhouse Animation Studios
Продолжительность: 00:25:00
Перевод: Профессиональный многоголосый (IdeaFilm)
Файл
Кодек: XviD
Качество: WEBRip 1080p
Видео: MPEG-4 AVC, ~ 5000 Кбит/с, 1920x1080
Аудио: Русский, английский (AC3, 6 ch, 384 Кбит/с)
Внимание, присутствует реклама!

Скриншоты

MI

General
Unique ID : 216503585853742318939334823187459827211 (0xA2E112EB85D996ABA4768ECFB3A7660B)
Complete name : Castlevania.S01E01.WEBRip.1080p-IDEAFILM.mkv
Format : Matroska
Format version : Version 4 / Version 2
File size : 1.02 GiB
Duration : 25mn 37s
Overall bit rate : 5 706 Kbps
Encoded date : UTC 2017-07-10 11:09:08
Writing application : mkvmerge v12.0.0 ('Trust / Lust') 64bit
Writing library : libebml v1.3.4 + libmatroska v1.4.5
Video
ID : 1
Format : AVC
Format/Info : Advanced Video Codec
Format profile : Main@L4.1
Format settings, CABAC : Yes
Format settings, ReFrames : 3 frames
Codec ID : V_MPEG4/ISO/AVC
Duration : 25mn 37s
Width : 1 920 pixels
Height : 1 080 pixels
Display aspect ratio : 16:9
Frame rate mode : Constant
Frame rate : 23.976 fps
Standard : NTSC
Color space : YUV
Chroma subsampling : 4:2:0
Bit depth : 8 bits
Scan type : Progressive
Language : English
Default : Yes
Forced : No
Color primaries : BT.709
Transfer characteristics : BT.709
Matrix coefficients : BT.709
Audio #1
ID : 2
Format : AC-3
Format/Info : Audio Coding 3
Mode extension : CM (complete main)
Format settings, Endianness : Big
Codec ID : A_AC3
Duration : 25mn 37s
Bit rate mode : Constant
Bit rate : 384 Kbps
Channel(s) : 6 channels
Channel positions : Front: L C R, Side: L R, LFE
Sampling rate : 48.0 KHz
Bit depth : 16 bits
Compression mode : Lossy
Stream size : 70.4 MiB (7%)
Title : IDEAFILM
Language : Russian
Default : Yes
Forced : No
Audio #2
ID : 3
Format : AC-3
Format/Info : Audio Coding 3
Codec ID : A_AC3
Duration : 25mn 37s
Channel(s) : 6 channels
Sampling rate : 48.0 KHz
Compression mode : Lossy
Language : English
Default : No
Forced : No

admin

Post 24-Oct-2017 09:46

[Quote]

Информация о фильме
Название: Темный дворецкий: Книга Атлантики
Оригинальное название: Kuroshitsuji: Book of the Atlantic
Страна: Япония
Год выхода: 2017
Жанр: Приключения, мистика, полнометражный
Режиссер: Абэ Нориюки
Автор оригинала: Яна Тобосо
О фильме: В основу сюжета фильма ляжет арка «Роскошный лайнер» (11—14 тома манги), в которой герои оказываются на борту, собственно, роскошного лайнера под названием Campania, где творятся загадочные дела, связанные с воскрешением мертвецов.
Студия:

Продолжительность: 01:40:05
Перевод: Любительский (многоголосый закадровый)
Озвучка: GreenTalker, Nokinal, Ron, VieliS
Файл
Формат: mkv
Качество: BDRip (720p)
Видео: H.264; 1280x720; 2962 Kbps, 23.976fps; (8 bit)
Аудио 1: AAC 48000 Hz, 2.0, 320 kbps Язык Русский
Аудио 2: MP3 48000 Hz, 2.0, 256 kbps Язык Японский

Инфо-файл

Общее
Уникальный идентификатор : 213547869028392284743871654665045857730 (0xA0A7D2D450EB41C7AC7C159BA99AD5C2)
Полное имя : F:AnimeKuroshitsuji_Movie_Book of_the_Atlantic_[720P].mkv
Формат : Matroska
Версия формата : Version 2
Размер файла : 2,48 Гбайт
Продолжительность : 1 ч. 40 м.
Общий поток : 3541 Кбит/сек
Дата кодирования : UTC 2017-08-26 21:57:02
Программа кодирования : mkvmerge v5.7.0 ('The Whirlwind') built on Jul 29 2012 15:12:35
Библиотека кодирования : libebml v1.2.3 + libmatroska v1.3.0
Видео
Идентификатор : 1
Формат : AVC
Формат/Информация : Advanced Video Codec
Профиль формата : Main@L3.1
Параметр CABAC формата : Да
Параметр ReFrames формата : 2 кадра
Идентификатор кодека : V_MPEG4/ISO/AVC
Номинальный битрейт : 2935 Кбит/сек
Ширина : 1280 пикселей
Высота : 720 пикселей
Соотношение сторон : 16:9
Режим частоты кадров : Переменный
Цветовое пространство : YUV
Субдискретизация насыщенности : 4:2:0
Битовая глубина : 8 бит
Тип развёртки : Прогрессивная
Библиотека кодирования : x264 core 112 r1834 a51816a
Настройки программы : cabac=1 / ref=1 / deblock=1:0:0 / analyse=0x1:0 / me=dia / subme=2 / psy=1 / psy_rd=0.00:0.00 / mixed_ref=0 / me_range=16 / chroma_me=1 / trellis=0 / 8x8dct=0 / cqm=0 / deadzone=21,11 / fast_pskip=1 / chroma_qp_offset=0 / threads=4 / sliced_threads=0 / nr=0 / decimate=1 / interlaced=0 / constrained_intra=0 / bframes=3 / b_pyramid=0 / b_adapt=1 / b_bias=0 / direct=3 / weightb=0 / open_gop=0 / weightp=2 / keyint=250 / keyint_min=25 / scenecut=40 / intra_refresh=0 / rc_lookahead=40 / rc=abr / mbtree=1 / bitrate=2935 / ratetol=1.0 / qcomp=0.60 / qpmin=10 / qpmax=51 / qpstep=4 / ip_ratio=1.41 / aq=1:1.00
Default : Да
Forced : Нет
Аудио #1
Идентификатор : 2
Формат : AAC
Формат/Информация : Advanced Audio Codec
Профиль формата : LC
Идентификатор кодека : A_AAC
Продолжительность : 1 ч. 40 м.
Каналы : 2 канала
Расположение каналов : Front: L R
Частота : 48,0 КГц
Метод сжатия : С потерями
Заголовок : GreenTalker, Nokinal, Ron, VieliS
Язык : Russian
Default : Нет
Forced : Да
Аудио #2
Идентификатор : 3
Формат : MPEG Audio
Версия формата : Version 1
Профиль формата : Layer 3
Режим : Joint stereo
Расширение режима : MS Stereo
Идентификатор кодека : A_MPEG/L3
Идентификатор кодека/Подсказка : MP3
Продолжительность : 1 ч. 40 м.
Вид битрейта : Постоянный
Битрейт : 256 Кбит/сек
Каналы : 2 канала
Частота : 48,0 КГц
Метод сжатия : С потерями
Размер потока : 183 Мбайт (7%)
Библиотека кодирования : LAME3.98.4
Язык : Japanese
Default : Да
Forced : Нет

Скриншоты

 

Current time is: 03-Jul 17:32

All times are UTC + 3