Search found 36 matches

Author Message

admin

Post 20-Dec-2019 21:02

[Quote]

Информация о фильме
Название: Первая любовь
Оригинальное название: First Love / Hatsukoi
Год выпуска: 2019
Жанр: Криминал, боевик
Режиссер: Такаси Миике
В ролях: Масатака Кубота, Сакурако Кониси, Нао Омори, Сёта Сомэтани, Сэиё Утино, Беки, Дзюн Мураками, Сансэй Сиоми
О фильме: Рео и Моника — боксер со смертельным диагнозом и проститутка-наркоманка, влипшая в долги… Любовь, первая любовь настигает их внезапно. Но их чувство и жизнь под угрозой: за парочкой гонятся якудза, продажный коп, киллерша, посланная китайской триадой, и даже призрак в белой простыне… Безумная ночь в безумном Токио.

Страна: Япония, Великобритания
Студия: Oriental Light and Magic, Recorded Picture Company
Продолжительность: 01:43:38
Перевод: Дублированный | iTunes
Файл
Качество: WEB-DL 1080p
Контейнер: MKV
Видео: MPEG-4 AVC, 1920x804, 4553 Kbps, 25.000 fps
Аудио: Russian: AC3, 6 ch, 48 kHz, 384 kbps - DUB, iTunes
Субтитры: Нет

Скриншоты


MediaInfo

General
Unique ID : 199674539242564397457812911574392395478 (0x9637EADC6C73FB1CB6F0A467ED1A56D6)
Complete name : Pervaya.lyubov.2019.WEB-DL.1080p.mkv
Format : Matroska
Format version : Version 4 / Version 2
File size : 3.58 GiB
Duration : 1 h 43 min
Overall bit rate : 4 939 kb/s
Encoded date : UTC 2019-12-19 21:25:14
Writing application : mkvmerge v7.8.0 ('River Man') 32bit built on Apr 3 2015 12:11:22
Writing library : libebml v1.3.1 + libmatroska v1.4.2
Video
ID : 1
Format : AVC
Format/Info : Advanced Video Codec
Format profile : High@L4
Format settings, CABAC : Yes
Format settings, RefFrames : 5 frames
Codec ID : V_MPEG4/ISO/AVC
Duration : 1 h 43 min
Bit rate : 4 553 kb/s
Width : 1 920 pixels
Height : 804 pixels
Display aspect ratio : 2.40:1
Frame rate mode : Constant
Frame rate : 25.000 FPS
Color space : YUV
Chroma subsampling : 4:2:0
Bit depth : 8 bits
Scan type : Progressive
Bits/(Pixel*Frame) : 0.118
Stream size : 3.30 GiB (92%)
Language : English
Default : Yes
Forced : No
Color range : Limited
Color primaries : BT.709
Transfer characteristics : BT.709
Matrix coefficients : BT.709
Audio
ID : 2
Format : AC-3
Format/Info : Audio Coding 3
Format settings, Endianness : Big
Codec ID : A_AC3
Duration : 1 h 43 min
Bit rate mode : Constant
Bit rate : 384 kb/s
Channel(s) : 6 channels
Channel positions : Front: L C R, Side: L R, LFE
Sampling rate : 48.0 kHz
Frame rate : 31.250 FPS (1536 SPF)
Bit depth : 16 bits
Compression mode : Lossy
Stream size : 285 MiB (8%)
Title : iTunes
Language : Russian
Service kind : Complete Main
Default : Yes
Forced : No
Menu
00:00:00.000 : en:Глава 1
00:08:43.640 : en:Глава 2
00:17:17.280 : en:Глава 3
00:25:23.159 : en:Глава 4
00:33:37.718 : en:Глава 5
00:42:49.477 : en:Глава 6
00:51:23.756 : en:Глава 7
01:00:23.915 : en:Глава 8
01:09:50.354 : en:Глава 9
01:17:56.433 : en:Глава 10
01:26:00.672 : en:Глава 11
01:34:09.232 : en:Глава 12

admin

Post 05-Dec-2019 04:27

[Quote]

Информация о фильме
Название: Царство
Оригинальное название: Kingdom
Год выхода: 2019
Жанр: Драма, боевик, военный, история
Режиссер: Синсуке Сато
В ролях: Рё Ёсидзава, Кэнто Ямадзаки, Масами Нагасава, Канна Хасимото, Масая Като, Каната Хонго, Синносукэ Мицусима, Масахиро Такасима, Джан Канаме, Такао Осава, Синносукэ Абэ, Мотоки Фуками, Дзюн Хасимото, Ватару Итиносэ, Рэндзи Исибаси
О фильме:
III век до н. э., период Сражающихся царств, когда на территории современного Китая было множество постоянно воевавших друг с другом небольших государств. Где-то на задворках одного из таких царств живут двое сирот и ежедневно тренируются, чтобы исполнить свою мечту стать великими генералами. Но один из друзей оказывается поразительно похож на правителя, и парня забирают во дворец в качестве его двойника.

Страна: Япония
Студия: East Japan Marketing & Communications Inc, KDDI Corporation
Продолжительность: 02:13:56
Перевод: Дублированный | Tunes
Файл
Кодек: x.264
Качество: BDRip 1080p | WiKi
Видео: MPEG-4 AVC, 13.2 Mбит/с, 1920x804, 23.976 кадр/с
Аудио #1: Русский (АС3, 6 ch, 384 Кбит/с, 48.0 KHz) Профессиональный (дублированный) Tunes
Аудио #2: Японский (DTS, 6 ch, 1509 Кбит/с, 48.0 KHz)
Субтитры: китайские (*ass)

MediaInfo

General
Unique ID : 293491281095802098330404298621904827440 (0xDCCC5D5AE016693E5379CB7417F93430)
Complete name : Царство.2019.Dub.1080p.BluRay.x264-WiKi.mkv
Format : Matroska
Format version : Version 4
File size : 12.4 GiB
Duration : 2 h 13 min
Overall bit rate : 13.2 Mb/s
Movie name : Kingdom [2019] [1080p] DUB
Encoded date : UTC 2019-11-10 04:52:26
Writing application : mkvmerge v40.0.0 ('Old Town Road + Pony') 32-bit
Writing library : libebml v1.3.9 + libmatroska v1.5.2
Attachments : poster.jpg / DFPHuaZongW5-B5 1.0.2005.12.28.ttf / 汉仪秀英体繁.ttf
DIRECTOR : Shinsuke Sato
GENRE : Action, History, War
IMDB : tt9099938
KEYWORDS :
Video
ID : 1
Format : AVC
Format/Info : Advanced Video Codec
Format profile : High@L4.1
Format settings : CABAC / 5 Ref Frames
Format settings, CABAC : Yes
Format settings, Reference fra : 5 frames
Codec ID : V_MPEG4/ISO/AVC
Duration : 2 h 13 min
Bit rate : 11.3 Mb/s
Width : 1 920 pixels
Height : 804 pixels
Display aspect ratio : 2.40:1
Frame rate mode : Constant
Frame rate : 23.976 (24000/1001) FPS
Color space : YUV
Chroma subsampling : 4:2:0
Bit depth : 8 bits
Scan type : Progressive
Bits/(Pixel*Frame) : 0.306
Stream size : 10.6 GiB (86%)
Writing library : x264 core 129 r2245+704+36 8e61944 tMod+MixAQ [8-bit@4:2:0 X86_64]
Encoding settings : cabac=1 / ref=5 / deblock=1:-3:-3 / analyse=0x3:0x133 / me=umh / subme=11 / psy=1 / fade_compensate=0.00 / psy_rd=1.05:0.10 / mixed_ref=1 / me_range=32 / chroma_me=1 / trellis=2 / 8x8dct=1 / cqm=0 / deadzone=21,11 / fast_pskip=0 / chroma_qp_offset=-3 / threads=18 / lookahead_threads=3 / sliced_threads=0 / nr=0 / decimate=0 / interlaced=0 / bluray_compat=0 / constrained_intra=0 / fgo=0 / bframes=10 / b_pyramid=2 / b_adapt=2 / b_bias=0 / direct=3 / weightb=1 / open_gop=0 / weightp=2 / keyint=250 / keyint_min=23 / scenecut=40 / intra_refresh=0 / rc=2pass / mbtree=0 / bitrate=11312 / ratetol=1.0 / qcomp=0.70 / qpmin=0 / qpmax=69 / qpstep=4 / cplxblur=20.0 / qblur=0.5 / ip_ratio=1.40 / pb_ratio=1.30 / aq=1 / aq-strength=0.85 / aq-sensitivity=10.00 / aq-ifactor=1.00 / aq-pfactor=1.00 / aq-bfactor=1.00 / aq2=0
Language : Japanese
Default : Yes
Forced : No
Audio #1
ID : 2
Format : AC-3
Format/Info : Audio Coding 3
Commercial name : Dolby Digital
Codec ID : A_AC3
Duration : 2 h 13 min
Bit rate mode : Constant
Bit rate : 384 kb/s
Channel(s) : 6 channels
Channel layout : L R C LFE Ls Rs
Sampling rate : 48.0 kHz
Frame rate : 31.250 FPS (1536 SPF)
Compression mode : Lossy
Stream size : 368 MiB (3%)
Title : Dub
Language : Russian
Service kind : Complete Main
Default : Yes
Forced : No
Audio #2
ID : 3
Format : DTS
Format/Info : Digital Theater Systems
Codec ID : A_DTS
Duration : 2 h 13 min
Bit rate mode : Constant
Bit rate : 1 509 kb/s
Channel(s) : 6 channels
Channel layout : C L R Ls Rs LFE
Sampling rate : 48.0 kHz
Frame rate : 93.750 FPS (512 SPF)
Bit depth : 24 bits
Compression mode : Lossy
Stream size : 1.41 GiB (11%)
Language : Japanese
Default : No
Forced : No
Text
ID : 4
Format : ASS
Codec ID : S_TEXT/ASS
Codec ID/Info : Advanced Sub Station Alpha
Duration : 2 h 13 min
Bit rate : 68 b/s
Count of elements : 1345
Compression mode : Lossless
Stream size : 66.6 KiB (0%)
Language : Chinese
Default : No
Forced : No
Menu
00:00:00.000 : en:第 01 章
00:05:57.273 : en:第 02 章
00:11:19.387 : en:第 03 章
00:23:25.278 : en:第 04 章
00:33:00.979 : en:第 05 章
00:41:31.530 : en:第 06 章
00:45:54.376 : en:第 07 章
00:50:44.249 : en:第 08 章
00:57:42.083 : en:第 09 章
01:00:00.847 : en:第 10 章
01:07:40.723 : en:第 11 章
01:23:37.595 : en:第 12 章
01:32:05.520 : en:第 13 章
01:40:57.509 : en:第 14 章
01:56:03.998 : en:第 15 章
02:07:35.606 : en:第 16 章

Скриншоты

admin

Post 09-Sep-2019 05:14

[Quote]

Информация о фильме
Название: 12 ребят, которые хотят умереть
Оригинальное название: 12 Suicidal Teens / Jyuni Nin no Shinitai Kodomotachi
Год выхода: 2019
Жанр: триллер, детектив
Режиссер: Юкихико Цуцуми
В ролях: Хана Сугисаки, Макэню Арата, Такуми Китамура, Махиро Такасуги, Юина Куросима, Канна Хасимото, Аи Ёсикава, Рику Хагивара, Юто Футино, Рёта Бандо
Описание: 12 парней и девушек, которые решили покончить с собой, собираются в заброшенном доме. Когда они находят тело и пытаются выяснить, кто убийца, всплывают причины каждого отважившегося на такой отчаянный шаг.

Страна: Япония
Продолжительность: 01:58:14
Перевод: любительский (двухголосый закадровый) XDUB DORAMA
Субтитры: английские, китайские, японские, русские & английские (форсированные на песню в титрах)
Оригинальная аудиодорожка: японский
Файл
Качество: BDRip 720p
Видео: AVC (x264), 1280x536 (2.40:1) at 23,976 fps, 4644 Кbps
Аудио 1: AC3; 192 Kbps; CBR; 2 ch; 48 khz | DVO - XDUB DORAMA |
Аудио 2: AC3; 640 Kbps; CBR; 6 ch; 48 khz | Японский |

Скриншоты

MediaInfo

General
Unique ID : 256787400719516309385147931384823696155 (0xC12F7456185D47C19199FA9E1C104B1B)
Complete name : 12 ребят, которые хотят умереть.2019.DVO.720p.BluRay.x264-WiKi.mkv
Format : Matroska
Format version : Version 4
File size : 4.57 GiB
Duration : 1 h 58 min
Overall bit rate : 5 530 kb/s
Movie name : 12 Suicidal Teens [2019] [720p] DVO
Encoded date : UTC 2019-09-03 23:45:20
Writing application : mkvmerge v37.0.0 ('Leave It') 32-bit
Writing library : libebml v1.3.9 + libmatroska v1.5.2
Attachments : poster.jpg
DIRECTOR : Yukihiko Tsutsumi
GENRE : Mystery, Thriller
IMDB : tt9214844
Video
ID : 1
Format : AVC
Format/Info : Advanced Video Codec
Format profile : High@L4.1
Format settings : CABAC / 12 Ref Frames
Format settings, CABAC : Yes
Format settings, Reference frames : 12 frames
Codec ID : V_MPEG4/ISO/AVC
Duration : 1 h 58 min
Bit rate : 4 644 kb/s
Width : 1 280 pixels
Height : 536 pixels
Display aspect ratio : 2.40:1
Frame rate mode : Constant
Frame rate : 23.976 (24000/1001) FPS
Color space : YUV
Chroma subsampling : 4:2:0
Bit depth : 8 bits
Scan type : Progressive
Bits/(Pixel*Frame) : 0.282
Stream size : 3.84 GiB (84%)
Writing library : x264 core 129 r2245+704+36 8e61944 tMod+MixAQ [8-bit@4:2:0 X86_64]
Encoding settings : cabac=1 / ref=12 / deblock=1:-3:-3 / analyse=0x3:0x133 / me=umh / subme=11 / psy=1 / fade_compensate=0.00 / psy_rd=1.05:0.10 / mixed_ref=1 / me_range=32 / chroma_me=1 / trellis=2 / 8x8dct=1 / cqm=0 / deadzone=21,11 / fast_pskip=0 / chroma_qp_offset=-3 / threads=18 / lookahead_threads=3 / sliced_threads=0 / nr=0 / decimate=0 / interlaced=0 / bluray_compat=0 / constrained_intra=0 / fgo=0 / bframes=10 / b_pyramid=2 / b_adapt=2 / b_bias=0 / direct=3 / weightb=1 / open_gop=0 / weightp=2 / keyint=250 / keyint_min=23 / scenecut=40 / intra_refresh=0 / rc=2pass / mbtree=0 / bitrate=4644 / ratetol=1.0 / qcomp=0.70 / qpmin=0 / qpmax=69 / qpstep=4 / cplxblur=20.0 / qblur=0.5 / ip_ratio=1.40 / pb_ratio=1.30 / aq=1 / aq-strength=0.90 / aq-sensitivity=10.00 / aq-ifactor=1.00 / aq-pfactor=1.00 / aq-bfactor=1.00 / aq2=0
Language : Japanese
Default : Yes
Forced : No
Audio #1
ID : 2
Format : AC-3
Format/Info : Audio Coding 3
Commercial name : Dolby Digital
Codec ID : A_AC3
Duration : 1 h 58 min
Bit rate mode : Constant
Bit rate : 192 kb/s
Channel(s) : 2 channels
Channel layout : L R
Sampling rate : 48.0 kHz
Frame rate : 31.250 FPS (1536 SPF)
Bit depth : 16 bits
Compression mode : Lossy
Stream size : 162 MiB (3%)
Title : DVO [XDUB DORAMA]
Language : Russian
Service kind : Complete Main
Default : Yes
Forced : No
Audio #2
ID : 3
Format : AC-3
Format/Info : Audio Coding 3
Commercial name : Dolby Digital
Codec ID : A_AC3
Duration : 1 h 58 min
Bit rate mode : Constant
Bit rate : 640 kb/s
Channel(s) : 6 channels
Channel layout : L R C LFE Ls Rs
Sampling rate : 48.0 kHz
Frame rate : 31.250 FPS (1536 SPF)
Bit depth : 16 bits
Compression mode : Lossy
Stream size : 541 MiB (12%)
Language : Japanese
Service kind : Complete Main
Default : No
Forced : No
Text #1
ID : 4
Format : UTF-8
Codec ID : S_TEXT/UTF8
Codec ID/Info : UTF-8 Plain Text
Duration : 4 min 4 s
Bit rate : 184 b/s
Count of elements : 53
Stream size : 5.51 KiB (0%)
Title : russian translation song forced
Language : Russian
Default : Yes
Forced : No
Text #2
ID : 5
Format : UTF-8
Codec ID : S_TEXT/UTF8
Codec ID/Info : UTF-8 Plain Text
Duration : 4 min 4 s
Bit rate : 106 b/s
Count of elements : 53
Stream size : 3.17 KiB (0%)
Title : english translation song forced
Language : English
Default : No
Forced : No
Text #3
ID : 6
Format : UTF-8
Codec ID : S_TEXT/UTF8
Codec ID/Info : UTF-8 Plain Text
Duration : 1 h 56 min
Bit rate : 40 b/s
Count of elements : 1259
Stream size : 34.6 KiB (0%)
Title : bluray + song
Language : English
Default : No
Forced : No
Text #4
ID : 7
Format : PGS
Muxing mode : zlib
Codec ID : S_HDMV/PGS
Codec ID/Info : Picture based subtitle format used on BDs/HD-DVDs
Duration : 1 h 56 min
Bit rate : 25.8 kb/s
Count of elements : 2412
Stream size : 21.4 MiB (0%)
Title : bluray
Language : English
Default : No
Forced : No
Text #5
ID : 8
Format : PGS
Muxing mode : zlib
Codec ID : S_HDMV/PGS
Codec ID/Info : Picture based subtitle format used on BDs/HD-DVDs
Duration : 1 h 56 min
Bit rate : 26.6 kb/s
Count of elements : 2422
Stream size : 22.1 MiB (0%)
Title : bluray
Language : Chinese
Default : No
Forced : No
Text #6
ID : 9
Format : PGS
Muxing mode : zlib
Codec ID : S_HDMV/PGS
Codec ID/Info : Picture based subtitle format used on BDs/HD-DVDs
Duration : 1 h 57 min
Bit rate : 75.1 kb/s
Count of elements : 4162
Stream size : 63.0 MiB (1%)
Title : bluray
Language : Japanese
Default : No
Forced : No
Menu
00:00:00.000 : en:第 01 章
00:00:27.027 : en:第 02 章
00:01:05.064 : en:第 03 章
00:13:04.909 : en:第 04 章
00:16:15.307 : en:第 05 章
00:20:59.174 : en:第 06 章
00:24:26.006 : en:第 07 章
00:28:38.508 : en:第 08 章
00:30:25.615 : en:第 09 章
00:32:44.003 : en:第 10 章
00:35:04.519 : en:第 11 章
00:36:01.158 : en:第 12 章
00:39:06.135 : en:第 13 章
00:42:58.993 : en:第 14 章
00:46:14.188 : en:第 15 章
00:53:50.060 : en:第 16 章
01:01:52.375 : en:第 17 章
01:07:20.369 : en:第 18 章
01:14:16.535 : en:第 19 章
01:25:28.164 : en:第 20 章
01:27:29.994 : en:第 21 章
01:38:56.347 : en:第 22 章
01:50:28.330 : en:第 23 章
01:53:34.808 : en:第 24 章

admin

Post 18-Jul-2019 05:49

[Quote]

Большой брат / Big Brother / Dai si hing
Страна: Гонконг
Производство: Mega-Vision Pictures (MVP), Bullet Films
Год выпуска: 2018
Жанр: боевик, комедия
Продолжительность: 01:41:07
Режиссер: Кам Ка-Вай
В ролях: Донни Йен, Джо Чэнь, Юй Кан, Том Касерто, Брахим Ачаббаке, Альфред Чун, Джей Дэй, Семиквавер Иафета, Ка Ва Лам, Билли Лау
Описание: Мистер Чэн приходит устраиваться учителем в обычную гонконгскую школу. Учебное заведение находится на грани закрытия, так как поступаемость в вузы у её выпускников почти нулевая. Но мистер Чэн, обладающий полезными знаниями, эффективными умениями и необычными методами преподавания, начинает бороться с неуспеваемостью и хромающей дисциплиной в классе...

Перевод: Профессиональный (многоголосый, закадровый) | HDRezka Studio
Субтитры: русские (forced), английские (full)-Качество: BDRip 1080p
Формат: MKV
Видео кодек: AVC
Аудио кодек: АС3
Видео: 1920x804 (2.40:1), 24.000 fps, MPEG-4 AVC ~11.5 Mbps avg
Аудио №1: 48.0 kHz, AC3 Dolby Digital, 2/0 (L,R) ch, ~192 kbps | RUS / MVO
Аудио №2: 48.0 kHz, AC3 Dolby Digital, 3/2 (L,C,R,l,r) + LFE ch, ~640 kbps | CHI
Формат субтитров: UTF-8 Plain Text
Дата премьеры (мир): 1 августа 2018

Media Info

General
Unique ID : 84912524032686954070572687331743861140 (0x3FE18EA92B1DADAC002ACD54E38D8994)
Complete name : Big.Brother.2018.BDRip.1080p.mkv
Format : Matroska
Format version : Version 4 / Version 2
File size : 8.68 GiB
Duration : 1 h 41 min
Overall bit rate : 12.3 Mb/s
Encoded date : UTC 2019-07-17 05:57:03
Writing application : mkvmerge v20.0.0 ('I Am The Sun') 64-bit
Writing library : libebml v1.3.5 + libmatroska v1.4.8
Video
ID : 1
Format : AVC
Format/Info : Advanced Video Codec
Format profile : High@L4.1
Format settings : CABAC / 5 Ref Frames
Format settings, CABAC : Yes
Format settings, RefFrames : 5 frames
Codec ID : V_MPEG4/ISO/AVC
Duration : 1 h 41 min
Bit rate : 11.5 Mb/s
Width : 1 920 pixels
Height : 804 pixels
Display aspect ratio : 2.40:1
Frame rate mode : Constant
Frame rate : 24.000 FPS
Color space : YUV
Chroma subsampling : 4:2:0
Bit depth : 8 bits
Scan type : Progressive
Bits/(Pixel*Frame) : 0.309
Stream size : 8.09 GiB (93%)
Writing library : x264 core 129 r2245 bc13772
Encoding settings : cabac=1 / ref=5 / deblock=1:-3:-3 / analyse=0x3:0x133 / me=umh / subme=11 / psy=1 / psy_rd=1.05:0.05 / mixed_ref=1 / me_range=64 / chroma_me=1 / trellis=2 / 8x8dct=1 / cqm=0 / deadzone=21,11 / fast_pskip=0 / chroma_qp_offset=-3 / threads=12 / lookahead_threads=2 / sliced_threads=0 / nr=0 / decimate=1 / interlaced=0 / bluray_compat=0 / constrained_intra=0 / bframes=8 / b_pyramid=2 / b_adapt=2 / b_bias=0 / direct=3 / weightb=1 / open_gop=0 / weightp=2 / keyint=250 / keyint_min=24 / scenecut=40 / intra_refresh=0 / rc_lookahead=60 / rc=2pass / mbtree=1 / bitrate=11459 / ratetol=1.0 / qcomp=0.60 / qpmin=0 / qpmax=69 / qpstep=4 / cplxblur=20.0 / qblur=0.5 / vbv_maxrate=40000 / vbv_bufsize=30000 / nal_hrd=none / ip_ratio=1.40 / aq=1:0.80
Language : English
Default : Yes
Forced : No
Audio #1
ID : 2
Format : AC-3
Format/Info : Audio Coding 3
Codec ID : A_AC3
Duration : 1 h 41 min
Bit rate mode : Constant
Bit rate : 192 kb/s
Channel(s) : 2 channels
Channel positions : Front: L R
Sampling rate : 48.0 kHz
Frame rate : 31.250 FPS (1536 SPF)
Bit depth : 16 bits
Compression mode : Lossy
Stream size : 139 MiB (2%)
Title : MVO HDRezka Studio
Language : Russian
Service kind : Complete Main
Default : Yes
Forced : No
Audio #2
ID : 3
Format : AC-3
Format/Info : Audio Coding 3
Codec ID : A_AC3
Duration : 1 h 41 min
Bit rate mode : Constant
Bit rate : 640 kb/s
Channel(s) : 6 channels
Channel positions : Front: L C R, Side: L R, LFE
Sampling rate : 48.0 kHz
Frame rate : 31.250 FPS (1536 SPF)
Bit depth : 16 bits
Compression mode : Lossy
Stream size : 463 MiB (5%)
Title : 国语
Language : Chinese
Service kind : Complete Main
Default : No
Forced : No
Text #1
ID : 4
Format : UTF-8
Codec ID : S_TEXT/UTF8
Codec ID/Info : UTF-8 Plain Text
Duration : 49 min 39 s
Bit rate : 0 b/s
Count of elements : 7
Stream size : 298 Bytes (0%)
Title : forced
Language : Russian
Default : Yes
Forced : Yes
Text #2
ID : 5
Format : UTF-8
Codec ID : S_TEXT/UTF8
Codec ID/Info : UTF-8 Plain Text
Duration : 1 h 36 min
Bit rate : 65 b/s
Count of elements : 1485
Stream size : 45.8 KiB (0%)
Language : English
Default : No
Forced : No

Скриншоты

admin

Post 13-Jul-2019 06:22

[Quote]

Информация о фильме
Название: Фурия
Оригинальное название: Hai Phuong
Год выхода: 2019
Жанр: Боевик, криминал
Режиссер: Ле-Ван Киэт
В ролях: Вероника Нго, Дженнифер Аликс, Фам Анх Хоа, Тхань Ньен Фан, Брианна Робертс, Элизабет Суит, Ким Лонг Тач, Хоа Чан
О фильме:
10 лет назад бывшая глава преступной группировки залегла на дно в сельской местности, родила девочку и наслаждается простым женским счастьем. Поскольку делать женщина ничего полезного не умеет, то занимается сбором долгов. Дочка Май из-за этого переживает и мечтает, что когда-нибудь они откроют рыбную ферму, и маме больше не нужно будет выполнять эту постыдную работу. Внезапно Май похищает международная организация торговцев людьми, и женщина превращается в смертоносную фурию — она пойдёт до конца, чтобы спасти дочь, а негодяям придется пожалеть о своем поступке...

Страна: Вьетнам
Студия: Studio 68, Netflix
Продолжительность: 01:37:19
Перевод: Профессиональный многоголосый | СВ Студия -ненормативная лексика
Файл
Качество: BDRip 1080p
Видео: AVC/H.264, 1920x804, 7830 Кbps, 24 fps
Звук:
Аудио 1: AC3, 6 ch, 640 Kbps - Русский
Аудио 2: DTS, 6 ch, 1509 Kbps - Bьетнамский
Субтитры: Английские (Full, SDH)

Mediainfo

Общее
Уникальный идентификатор : 139439466792003674988860868210789621598 (0x68E7107FF4052922E723BED6E8BA9F5E)
Полное имя : Hai Phuong.2019.BDRip.1080p.W.mkv
Формат : Matroska
Версия формата : Version 4
Размер файла : 6,79 Гбайт
Продолжительность : 1 ч. 37 м.
Общий поток : 9981 Кбит/сек
Название фильма : Hai Phuong / Furie.2019.BDRip.1080p.W
Дата кодирования : UTC 2019-07-12 08:31:04
Программа кодирования : mkvmerge v23.0.0 ('The Bride Said No') 64-bit
Библиотека кодирования : libebml v1.3.6 + libmatroska v1.4.9
Видео
Идентификатор : 1
Формат : AVC
Формат/Информация : Advanced Video Codec
Профиль формата : High@L4.1
Настройки формата : CABAC / 5 Ref Frames
Параметр CABAC формата : Да
Параметр RefFrames формата : 5 кадров
Идентификатор кодека : V_MPEG4/ISO/AVC
Продолжительность : 1 ч. 37 м.
Битрейт : 7830 Кбит/сек
Ширина : 1920 пикселей
Высота : 804 пикселя
Соотношение сторон : 2,40:1
Режим частоты кадров : Постоянный
Частота кадров : 24,000 кадра/сек
Цветовое пространство : YUV
Субдискретизация насыщенности : 4:2:0
Битовая глубина : 8 бит
Тип развёртки : Прогрессивная
Бит/(Пиксели*Кадры) : 0.211
Размер потока : 5,32 Гбайт (78%)
Заголовок : rip by -=walledol=-
Библиотека кодирования : x264 core 157 r2945 72db437
Настройки программы : cabac=1 / ref=5 / deblock=1:-3:-3 / analyse=0x3:0x133 / me=umh / subme=11 / psy=1 / psy_rd=1.00:0.00 / mixed_ref=1 / me_range=32 / chroma_me=1 / trellis=2 / 8x8dct=1 / cqm=0 / deadzone=21,11 / fast_pskip=0 / chroma_qp_offset=-2 / threads=12 / lookahead_threads=2 / sliced_threads=0 / nr=0 / decimate=1 / interlaced=0 / bluray_compat=0 / constrained_intra=0 / bframes=9 / b_pyramid=2 / b_adapt=2 / b_bias=0 / direct=3 / weightb=1 / open_gop=0 / weightp=2 / keyint=240 / keyint_min=24 / scenecut=40 / intra_refresh=0 / rc_lookahead=60 / rc=2pass / mbtree=1 / bitrate=7830 / ratetol=1.0 / qcomp=0.60 / qpmin=0 / qpmax=69 / qpstep=4 / cplxblur=20.0 / qblur=0.5 / vbv_maxrate=30000 / vbv_bufsize=33000 / nal_hrd=none / filler=0 / ip_ratio=1.40 / aq=3:0.80
Язык : Vietnamese
Default : Да
Forced : Нет
Аудио #1
Идентификатор : 2
Формат : AC-3
Формат/Информация : Audio Coding 3
Коммерческое название : Dolby Digital
Идентификатор кодека : A_AC3
Продолжительность : 1 ч. 37 м.
Вид битрейта : Постоянный
Битрейт : 640 Кбит/сек
Каналы : 6 каналов
ChannelLayout : L R C LFE Ls Rs
Частота : 48,0 КГц
Частота кадров : 31,250 кадров/сек (1536 SPF)
Битовая глубина : 16 бит
Метод сжатия : С потерями
Размер потока : 445 Мбайт (6%)
Заголовок : MVO | СВ Студия
Язык : Russian
ServiceKind : Complete Main
Default : Да
Forced : Нет
Аудио #2
Идентификатор : 3
Формат : DTS
Формат/Информация : Digital Theater Systems
Идентификатор кодека : A_DTS
Продолжительность : 1 ч. 37 м.
Вид битрейта : Постоянный
Битрейт : 1509 Кбит/сек
Каналы : 6 каналов
ChannelLayout : C L R Ls Rs LFE
Частота : 48,0 КГц
Частота кадров : 93,750 кадра/сек (512 SPF)
Битовая глубина : 16 бит
Метод сжатия : С потерями
Размер потока : 1,03 Гбайт (15%)
Язык : Vietnamese
Default : Нет
Forced : Нет
Текст #1
Идентификатор : 4
Формат : UTF-8
Идентификатор кодека : S_TEXT/UTF8
Идентификатор кодека/Информация : UTF-8 Plain Text
Продолжительность : 1 ч. 30 м.
Битрейт : 37 бит/сек
ElementCount : 849
Размер потока : 24,8 Кбайт (0%)
Заголовок : Full
Язык : English
Default : Нет
Forced : Нет
Текст #2
Идентификатор : 5
Формат : UTF-8
Идентификатор кодека : S_TEXT/UTF8
Идентификатор кодека/Информация : UTF-8 Plain Text
Продолжительность : 1 ч. 30 м.
Битрейт : 39 бит/сек
ElementCount : 921
Размер потока : 26,3 Кбайт (0%)
Заголовок : SDH
Язык : English
Default : Нет
Forced : Нет
Меню
00:00:00.000 : en:Chapter 1
00:07:58.083 : en:Chapter 2
00:18:37.750 : en:Chapter 3
00:25:33.375 : en:Chapter 4
00:34:46.750 : en:Chapter 5
00:45:30.500 : en:Chapter 6
00:54:38.791 : en:Chapter 7
01:02:59.416 : en:Chapter 8
01:09:26.125 : en:Chapter 9
01:13:43.541 : en:Chapter 10
01:23:34.208 : en:Chapter 11
01:32:52.708 : en:Chapter 12
01:37:18.458 : en:Chapter 13

Скриншоты

admin

Post 08-Jun-2019 02:02

[Quote]

Информация о фильме
Название: Плохой коп
Оригинальное название: Akjilgyeongchal / Jo Pil-ho: The Dawning Rage / Bad Police
Год выхода: 2019
Жанр: Боевик, криминал, детектив, триллер
Режиссер: Чжон Бом Ли
В ролях: Сон Гён Ли, Со Ни Чон, Хэ Чжун Пак, Ён Чан Сон, Бён Ын Пак, Хён Гук Им, Мин Чжэ Ким (I), Га Рам Чон, Хан Соль Квон, Ю Ён Ли (I), Хи Джун О
О фильме:
Беспринципный полицейский Чо Пиль-хо не гнушается грязными способами заработка - берёт взятки и даже работает в паре с грабителем. А когда к нему вплотную подбираются детективы из отдела внутренних расследований, Пиль-хо вынуждает своего криминального напарника обчистить полицейский склад вещдоков. Но во время ограбления происходит мощный взрыв и пожар - грабитель погибает, а сам Пиль-хо теряет сознание на месте преступления. Очнувшись в больнице, он узнаёт, что начальник в бешенстве, а отдел внутренних расследований радостно потирает руки, и теперь плохому копу придётся очень сильно постараться, чтобы выкрутиться из этой ситуации.

Страна: Корея Южная
Студия: Dice Film, Generation Blue Films, Sega Sammy Entertainment
Продолжительность: 02:07:48
Перевод: Любительский двухголосый | LakeFilms
Файл
Кодек: AVC
Качество: WEB-DL 1080p | Jo.Pil-ho.The.Dawning.Rage.2019.KOREAN.1080p.NF.WEBRip.DDP5.1.x264-NTG
Видео: MPEG-4 AVC, 4355 Kбит/с, 1920x1080, 23.976 кадр/с
Звук:Релиз без Рекламы!
Аудио #1: Русский (АС3, 2ch, 256 Кбит/с, 48.0 KHz) Любительский (двухголосый, закадровый) LakeFilms
Аудио #2: Корейский (E-АС3, 6ch, 640 Кбит/с, 48.0 KHz)
Субтитры: Русские, английские, испанские, французские, немецкие, итальянские, португальские, польские, турецкие, шведские, финские, норвежские, греческие, иврит, румынские, корейские, китайские | Нетфликс

MediaInfo

Источник: Jo.Pil-ho.The.Dawning.Rage.2019.KOREAN.1080p.NF.WEBRip.DDP5.1.x264-NTG
General
Unique ID : 187703926004601293897874665589633668824 (0x8D36760FB4564763B2435FF9A2E356D8)
Complete name : Bad.Police.2019.NF.WEB-DL.1080p.mkv
Format : Matroska
Format version : Version 4
File size : 4.69 GiB
Duration : 2 h 7 min
Overall bit rate mode : Variable
Overall bit rate : 5 254 kb/s
Encoded date : UTC 2019-06-07 07:10:10
Writing application : mkvmerge v7.1.0 ('Good Love') 64bit built on Jul 27 2014 13:06:55
Writing library : libebml v1.3.0 + libmatroska v1.4.1
Video
ID : 1
Format : AVC
Format/Info : Advanced Video Codec
Format profile : High@L4
Format settings : CABAC / 4 Ref Frames
Format settings, CABAC : Yes
Format settings, Reference fra : 4 frames
Codec ID : V_MPEG4/ISO/AVC
Duration : 2 h 7 min
Bit rate mode : Variable
Bit rate : 4 355 kb/s
Maximum bit rate : 20.0 Mb/s
Width : 1 920 pixels
Height : 1 080 pixels
Display aspect ratio : 16:9
Frame rate mode : Constant
Frame rate : 23.976 (24000/1001) FPS
Color space : YUV
Chroma subsampling : 4:2:0
Bit depth : 8 bits
Scan type : Progressive
Bits/(Pixel*Frame) : 0.088
Stream size : 3.89 GiB (83%)
Writing library : x264 core 148 r2715 7e75228
Encoding settings : cabac=1 / ref=4 / deblock=1:0:0 / analyse=0x3:0x111 / me=umh / subme=10 / psy=1 / psy_rd=1.00:0.00 / mixed_ref=1 / me_range=120 / chroma_me=1 / trellis=2 / 8x8dct=1 / cqm=0 / deadzone=21,11 / fast_pskip=1 / chroma_qp_offset=-2 / threads=8 / lookahead_threads=2 / sliced_threads=0 / nr=0 / decimate=1 / interlaced=0 / bluray_compat=0 / stitchable=1 / constrained_intra=0 / bframes=16 / b_pyramid=2 / b_adapt=2 / b_bias=0 / direct=3 / weightb=1 / open_gop=0 / weightp=2 / keyint=240 / keyint_min=121 / scenecut=0 / intra_refresh=0 / rc_lookahead=240 / rc=crf / mbtree=1 / crf=16.0 / qcomp=0.50 / qpmin=6 / qpmax=51 / qpstep=4 / vbv_maxrate=20000 / vbv_bufsize=25000 / crf_max=0.0 / nal_hrd=vbr / filler=0 / ip_ratio=1.40 / aq=1:0.80
Language : Korean
Default : Yes
Forced : No
Audio #1
ID : 2
Format : AC-3
Format/Info : Audio Coding 3
Commercial name : Dolby Digital
Codec ID : A_AC3
Duration : 2 h 7 min
Bit rate mode : Constant
Bit rate : 256 kb/s
Channel(s) : 2 channels
Channel layout : L R
Sampling rate : 48.0 kHz
Frame rate : 31.250 FPS (1536 SPF)
Bit depth : 16 bits
Compression mode : Lossy
Stream size : 234 MiB (5%)
Title : LakeFilms
Language : Russian
Service kind : Complete Main
Default : Yes
Forced : No
Audio #2
ID : 3
Format : E-AC-3
Format/Info : Enhanced AC-3
Commercial name : Dolby Digital Plus
Codec ID : A_EAC3
Duration : 2 h 7 min
Bit rate mode : Constant
Bit rate : 640 kb/s
Channel(s) : 6 channels
Channel layout : L R C LFE Ls Rs
Sampling rate : 48.0 kHz
Frame rate : 31.250 FPS (1536 SPF)
Compression mode : Lossy
Stream size : 585 MiB (12%)
Title : Korean
Language : Korean
Service kind : Complete Main
Default : No
Forced : No
Text #1
ID : 4
Format : UTF-8
Codec ID : S_TEXT/UTF8
Codec ID/Info : UTF-8 Plain Text
Duration : 2 h 1 min
Bit rate : 64 b/s
Count of elements : 1291
Stream size : 57.5 KiB (0%)
Language : Russian
Default : No
Forced : No
Text #2
ID : 5
Format : UTF-8
Codec ID : S_TEXT/UTF8
Codec ID/Info : UTF-8 Plain Text
Duration : 2 h 1 min
Bit rate : 41 b/s
Count of elements : 1285
Stream size : 37.0 KiB (0%)
Language : English
Default : No
Forced : No
Text #3
ID : 6
Format : UTF-8
Codec ID : S_TEXT/UTF8
Codec ID/Info : UTF-8 Plain Text
Duration : 2 h 1 min
Bit rate : 45 b/s
Count of elements : 1293
Stream size : 40.7 KiB (0%)
Language : German
Default : No
Forced : No
Text #4
ID : 7
Format : UTF-8
Codec ID : S_TEXT/UTF8
Codec ID/Info : UTF-8 Plain Text
Duration : 2 h 1 min
Bit rate : 44 b/s
Count of elements : 1292
Stream size : 39.7 KiB (0%)
Language : French
Default : No
Forced : No
Text #5
ID : 8
Format : UTF-8
Codec ID : S_TEXT/UTF8
Codec ID/Info : UTF-8 Plain Text
Duration : 2 h 1 min
Bit rate : 40 b/s
Count of elements : 1294
Stream size : 36.3 KiB (0%)
Language : Italian
Default : No
Forced : No
Text #6
ID : 9
Format : UTF-8
Codec ID : S_TEXT/UTF8
Codec ID/Info : UTF-8 Plain Text
Duration : 2 h 1 min
Bit rate : 43 b/s
Count of elements : 1290
Stream size : 38.7 KiB (0%)
Language : Portuguese
Default : No
Forced : No
Text #7
ID : 10
Format : UTF-8
Codec ID : S_TEXT/UTF8
Codec ID/Info : UTF-8 Plain Text
Duration : 2 h 1 min
Bit rate : 42 b/s
Count of elements : 1290
Stream size : 38.1 KiB (0%)
Title : European
Language : Spanish
Default : No
Forced : No
Text #8
ID : 11
Format : UTF-8
Codec ID : S_TEXT/UTF8
Codec ID/Info : UTF-8 Plain Text
Duration : 2 h 1 min
Bit rate : 50 b/s
Count of elements : 1723
Stream size : 44.9 KiB (0%)
Language : Czech
Default : No
Forced : No
Text #9
ID : 12
Format : UTF-8
Codec ID : S_TEXT/UTF8
Codec ID/Info : UTF-8 Plain Text
Duration : 2 h 1 min
Bit rate : 69 b/s
Count of elements : 1290
Stream size : 62.1 KiB (0%)
Language : Greek
Default : No
Forced : No
Text #10
ID : 13
Format : UTF-8
Codec ID : S_TEXT/UTF8
Codec ID/Info : UTF-8 Plain Text
Duration : 2 h 1 min
Bit rate : 40 b/s
Count of elements : 1290
Stream size : 35.8 KiB (0%)
Language : Finnish
Default : No
Forced : No
Text #11
ID : 14
Format : UTF-8
Codec ID : S_TEXT/UTF8
Codec ID/Info : UTF-8 Plain Text
Duration : 2 h 1 min
Bit rate : 60 b/s
Count of elements : 1294
Stream size : 53.6 KiB (0%)
Language : Hebrew
Default : No
Forced : No
Text #12
ID : 15
Format : UTF-8
Codec ID : S_TEXT/UTF8
Codec ID/Info : UTF-8 Plain Text
Duration : 2 h 1 min
Bit rate : 49 b/s
Count of elements : 1723
Stream size : 43.8 KiB (0%)
Language : Hungarian
Default : No
Forced : No
Text #13
ID : 16
Format : UTF-8
Codec ID : S_TEXT/UTF8
Codec ID/Info : UTF-8 Plain Text
Duration : 2 h 1 min
Bit rate : 49 b/s
Count of elements : 1723
Stream size : 44.4 KiB (0%)
Language : Indonesian
Default : No
Forced : No
Text #14
ID : 17
Format : UTF-8
Codec ID : S_TEXT/UTF8
Codec ID/Info : UTF-8 Plain Text
Duration : 2 h 1 min
Bit rate : 43 b/s
Count of elements : 1430
Stream size : 38.5 KiB (0%)
Language : Japanese
Default : No
Forced : No
Text #15
ID : 18
Format : UTF-8
Codec ID : S_TEXT/UTF8
Codec ID/Info : UTF-8 Plain Text
Duration : 2 h 0 min
Bit rate : 64 b/s
Count of elements : 1278
Stream size : 56.8 KiB (0%)
Language : Korean
Default : No
Forced : No
Text #16
ID : 19
Format : UTF-8
Codec ID : S_TEXT/UTF8
Codec ID/Info : UTF-8 Plain Text
Duration : 2 h 2 min
Bit rate : 68 b/s
Count of elements : 1449
Stream size : 61.7 KiB (0%)
Title : SDH
Language : Korean
Default : No
Forced : No
Text #17
ID : 20
Format : UTF-8
Codec ID : S_TEXT/UTF8
Codec ID/Info : UTF-8 Plain Text
Duration : 2 h 1 min
Bit rate : 40 b/s
Count of elements : 1291
Stream size : 35.9 KiB (0%)
Language : Norwegian Bokmal
Default : No
Forced : No
Text #18
ID : 21
Format : UTF-8
Codec ID : S_TEXT/UTF8
Codec ID/Info : UTF-8 Plain Text
Duration : 2 h 1 min
Bit rate : 38 b/s
Count of elements : 1279
Stream size : 34.4 KiB (0%)
Language : Polish
Default : No
Forced : No
Text #19
ID : 22
Format : UTF-8
Codec ID : S_TEXT/UTF8
Codec ID/Info : UTF-8 Plain Text
Duration : 2 h 1 min
Bit rate : 46 b/s
Count of elements : 1291
Stream size : 41.6 KiB (0%)
Language : Romanian
Default : No
Forced : No
Text #20
ID : 23
Format : UTF-8
Codec ID : S_TEXT/UTF8
Codec ID/Info : UTF-8 Plain Text
Duration : 2 h 1 min
Bit rate : 41 b/s
Count of elements : 1293
Stream size : 36.9 KiB (0%)
Language : Swedish
Default : No
Forced : No
Text #21
ID : 24
Format : UTF-8
Codec ID : S_TEXT/UTF8
Codec ID/Info : UTF-8 Plain Text
Duration : 2 h 1 min
Bit rate : 43 b/s
Count of elements : 1291
Stream size : 39.0 KiB (0%)
Language : Turkish
Default : No
Forced : No
Text #22
ID : 25
Format : UTF-8
Codec ID : S_TEXT/UTF8
Codec ID/Info : UTF-8 Plain Text
Duration : 2 h 1 min
Bit rate : 44 b/s
Count of elements : 1294
Stream size : 39.2 KiB (0%)
Title : Simplified
Language : Chinese
Default : No
Forced : No
Text #23
ID : 26
Format : UTF-8
Codec ID : S_TEXT/UTF8
Codec ID/Info : UTF-8 Plain Text
Duration : 2 h 1 min
Bit rate : 41 b/s
Count of elements : 1289
Stream size : 36.8 KiB (0%)
Title : Traditional
Language : Chinese
Default : No
Forced : No

Скриншоты

admin

Post 14-May-2019 08:24

[Quote]

Информация о фильме
Название: Детектив Ди: Четыре Небесных царя
Оригинальное название: Di Renjie: zhi si da tian wang / Detective Dee: The Four Heavenly Kings
Год выпуска: 2018
Жанр: Фэнтези, боевик, детектив, приключения
Режиссер: Харк Цуй
В ролях: Марк Чао, Карина Лау, Уилльям Фэн, Кенни Лин, Сандра Ма, Этан Жуань
О фильме: Третья часть саги о детективе Ди повествует о его новых невероятных приключениях. Получив в дар от императора могущественный артефакт, способный укрощать драконов, детектив не только обрел новые способности, но и попал под подозрение императрицы Ву — та забеспокоилась, что он может попытаться захватить власть, и пожелала любой ценой вернуть артефакт обратно. Теперь детективу Ди предстоит защитить свое имя и раскрыть таинственное дело, в котором тесно переплетаются дворцовые интриги и сверхъестественные события, охватившие город.

Выпущено: Китай, Гонконг, Huayi Brothers
Продолжительность: 02:12:04
Перевод: Профессиональный (многоголосый, закадровый) | HDrezka Studio
Файл
Качество: BDRip 1080p
Контейнер: MKV
Видео: MPEG-4 AVC, 13.7 Мбит/с, 1920x1040, 23.976 fps
Аудио 1: Russian: AC3, 2 ch, 192 Кбит/с - HDrezka Studio
Аудио 2: Chinese: DTS, 6 ch, 1509 Кбит/с - Original
Субтитры: Русские, английские

Скриншоты

MediaInfo

General
Unique ID : 189498654137178758584334220158630366442 (0x8E901CFD73FDDB89927B27B34BD00CEA)
Complete name : G:Detective.Dee.The.Four.Heavenly.Kings.2018.BDRip.1080p.mkv
Format : Matroska
Format version : Version 4 / Version 2
File size : 14.2 GiB
Duration : 2 h 12 min
Overall bit rate : 15.4 Mb/s
Encoded date : UTC 2019-05-13 08:43:43
Writing application : mkvmerge v20.0.0 ('I Am The Sun') 64-bit
Writing library : libebml v1.3.5 + libmatroska v1.4.8
Video
ID : 1
Format : AVC
Format/Info : Advanced Video Codec
Format profile : High@L4.1
Format settings : CABAC / 4 Ref Frames
Format settings, CABAC : Yes
Format settings, RefFrames : 4 frames
Codec ID : V_MPEG4/ISO/AVC
Duration : 2 h 12 min
Bit rate : 13.7 Mb/s
Width : 1 920 pixels
Height : 1 040 pixels
Display aspect ratio : 1.85:1
Frame rate mode : Constant
Frame rate : 23.976 (24000/1001) FPS
Color space : YUV
Chroma subsampling : 4:2:0
Bit depth : 8 bits
Scan type : Progressive
Bits/(Pixel*Frame) : 0.287
Stream size : 12.7 GiB (89%)
Writing library : x264 core 142 r2431+42 c69a006 tMod [8-bit@4:2:0 X86_64]
Encoding settings : cabac=1 / ref=4 / deblock=1:-3:-3 / analyse=0x3:0x113 / me=umh / subme=10 / psy=1 / fade_compensate=0.00 / psy_rd=1.00:0.05 / mixed_ref=1 / me_range=48 / chroma_me=1 / trellis=2 / 8x8dct=1 / cqm=0 / deadzone=21,11 / fast_pskip=0 / chroma_qp_offset=-2 / threads=48 / lookahead_threads=8 / sliced_threads=0 / nr=0 / decimate=1 / interlaced=0 / bluray_compat=0 / constrained_intra=0 / fgo=0 / bframes=8 / b_pyramid=2 / b_adapt=2 / b_bias=0 / direct=3 / weightb=1 / open_gop=0 / weightp=2 / keyint=250 / keyint_min=23 / scenecut=40 / intra_refresh=0 / rc_lookahead=40 / rc=crf / mbtree=0 / crf=19.0000 / qcomp=0.60 / qpmin=0:0:0 / qpmax=69:69:69 / qpstep=4 / vbv_maxrate=40000 / vbv_bufsize=30000 / crf_max=0.0 / nal_hrd=none / filler=0 / ip_ratio=1.40 / pb_ratio=1.30 / aq=3:0.80 / aq-sensitivity=10.00 / aq-factor=1.00:1.00:1.00 / aq2=0 / aq3=0
Language : Chinese
Default : Yes
Forced : No
Color range : Limited
Matrix coefficients : BT.709
Audio #1
ID : 2
Format : AC-3
Format/Info : Audio Coding 3
Codec ID : A_AC3
Duration : 2 h 12 min
Bit rate mode : Constant
Bit rate : 192 kb/s
Channel(s) : 2 channels
Channel positions : Front: L R
Sampling rate : 48.0 kHz
Frame rate : 31.250 FPS (1536 SPF)
Bit depth : 16 bits
Compression mode : Lossy
Stream size : 181 MiB (1%)
Title : MVO, HDrezka Studio
Language : Russian
Service kind : Complete Main
Default : Yes
Forced : No
Audio #2
ID : 3
Format : DTS
Format/Info : Digital Theater Systems
Codec ID : A_DTS
Duration : 2 h 12 min
Bit rate mode : Constant
Bit rate : 1 509 kb/s
Channel(s) : 6 channels
Channel positions : Front: L C R, Side: L R, LFE
Sampling rate : 48.0 kHz
Frame rate : 93.750 FPS (512 SPF)
Bit depth : 24 bits
Compression mode : Lossy
Stream size : 1.39 GiB (10%)
Language : Chinese
Default : No
Forced : No
Text #1
ID : 4
Format : UTF-8
Codec ID : S_TEXT/UTF8
Codec ID/Info : UTF-8 Plain Text
Duration : 2 h 7 min
Bit rate : 83 b/s
Count of elements : 1422
Stream size : 77.9 KiB (0%)
Language : Russian
Default : No
Forced : No
Text #2
ID : 5
Format : UTF-8
Codec ID : S_TEXT/UTF8
Codec ID/Info : UTF-8 Plain Text
Duration : 2 h 7 min
Bit rate : 46 b/s
Count of elements : 1421
Stream size : 43.0 KiB (0%)
Language : English
Default : No
Forced : No
Menu
00:00:00.000 : en:00:00:00.000
00:09:37.535 : en:00:09:37.535
00:20:46.912 : en:00:20:46.912
00:31:00.317 : en:00:31:00.317
00:40:30.970 : en:00:40:30.970
00:47:54.747 : en:00:47:54.747
01:00:14.486 : en:01:00:14.486
01:08:47.332 : en:01:08:47.332
01:22:26.567 : en:01:22:26.567
01:33:52.669 : en:01:33:52.669
01:42:48.871 : en:01:42:48.871
01:59:52.977 : en:01:59:52.977

admin

Post 07-May-2019 01:38

[Quote]

Информация о фильме
Название: Ведьма
Оригинальное название: Manyeo (The Witch: Part 1. The Subversion)
Год выпуска: 2018
Жанр: Боевик, триллер, фантастика
Режиссер: Хун Чжон Пак
В ролях: Да Ми Ким, Мин Су Чо, У Шик Чхве, Мин Си Го, Хи Сун Пак, Да Ын Чон, Чон У Чхве, Ми Хи О, Бён Ок Ким, Ки Ён Ли (I), Тхэ Вон Квон
О фильме: Обычная старшеклассница пережила потерю памяти, после чего девушку удочерила пожилая пара. Вроде бы, жизнь начала налаживаться, но однажды неподалеку от ее дома происходит убийство, а после героиня встречает человека, утверждающего, что убийство — ее рук дело. Обычная старшеклассница оказывается запрограммированной убийцей, результатом секретных экспериментов.

Выпущено: Южная Корея, Peppermint & Company
Продолжительность: 02:05:41
Перевод 1: Профессиональный (многоголосый, закадровый) | HDrezka Studio
Перевод 2: Любительский (одноголосый, закадровый) | Ворон
Файл
Качество: BDRip 1080p
Контейнер: MKV
Видео: MPEG-4 AVC, 10.9 Mбит/с, 1920x804
Аудио 1: Russian: АС3, 2 ch, 192 Кбит/с - HDrezka Studio
Аудио 2: Russian: AC3, 6 ch, 448 Кбит/с - Ворон
Аудио 3: Korean: DTS, 6 ch, 1509 Кбит/с - Original
Субтитры: Русские (форс, полные, ненормативная лексика), английские, китайские

Скриншоты


MediaInfo

General
Unique ID : 54274160405945085971052073160514050875 (0x28D4D2B4ED56EFF8953DB868A7319B3B)
Complete name : G:The.Witch.Part.1.The.Subversion.2018.BDRip.1080p.mkv
Format : Matroska
Format version : Version 4 / Version 2
File size : 11.4 GiB
Duration : 2 h 5 min
Overall bit rate : 13.0 Mb/s
Encoded date : UTC 2019-05-06 15:29:30
Writing application : mkvmerge v20.0.0 ('I Am The Sun') 64-bit
Writing library : libebml v1.3.5 + libmatroska v1.4.8
Video
ID : 1
Format : AVC
Format/Info : Advanced Video Codec
Format profile : High@L4.1
Format settings : CABAC / 5 Ref Frames
Format settings, CABAC : Yes
Format settings, RefFrames : 5 frames
Codec ID : V_MPEG4/ISO/AVC
Duration : 2 h 5 min
Bit rate : 10.9 Mb/s
Width : 1 920 pixels
Height : 804 pixels
Display aspect ratio : 2.40:1
Frame rate mode : Constant
Frame rate : 23.976 (24000/1001) FPS
Color space : YUV
Chroma subsampling : 4:2:0
Bit depth : 8 bits
Scan type : Progressive
Bits/(Pixel*Frame) : 0.294
Stream size : 9.55 GiB (83%)
Writing library : x264 core 155 r2867+82 a249126 t_mod_Custom_2 [8-bit@all X86_64]
Encoding settings : cabac=1 / ref=5 / deblock=1:-3:-3 / analyse=0x3:0x133 / me=umh / subme=10 / psy=1 / fade_compensate=0.00 / psy_rd=1.00:0.00 / mixed_ref=1 / me_range=48 / chroma_me=1 / trellis=2 / 8x8dct=1 / cqm=0 / deadzone=21,11 / fast_pskip=0 / chroma_qp_offset=-2 / threads=12 / lookahead_threads=1 / sliced_threads=0 / nr=0 / decimate=0 / interlaced=0 / bluray_compat=0 / constrained_intra=0 / fgo=0 / bframes=6 / b_pyramid=2 / b_adapt=2 / b_bias=0 / direct=3 / weightb=1 / open_gop=0 / weightp=2 / keyint=250 / keyint_min=23 / scenecut=40 / intra_refresh=0 / rc_lookahead=60 / rc=crf / mbtree=0 / crf=16.4000 / qcomp=0.65 / qpmin=0:0:0 / qpmax=69:69:69 / qpstep=4 / vbv_maxrate=62500 / vbv_bufsize=78125 / crf_max=0.0 / nal_hrd=none / filler=0 / ip_ratio=1.30 / pb_ratio=1.20 / aq=3:0.80 / aq-sensitivity=10.00 / aq-factor=1.00:1.00:1.00 / aq2=0 / aq3=0
Language : English
Default : Yes
Forced : No
Audio #1
ID : 2
Format : AC-3
Format/Info : Audio Coding 3
Codec ID : A_AC3
Duration : 2 h 5 min
Bit rate mode : Constant
Bit rate : 192 kb/s
Channel(s) : 2 channels
Channel positions : Front: L R
Sampling rate : 48.0 kHz
Frame rate : 31.250 FPS (1536 SPF)
Bit depth : 16 bits
Compression mode : Lossy
Stream size : 173 MiB (1%)
Title : MVO, HDrezka Studio
Language : Russian
Service kind : Complete Main
Default : Yes
Forced : No
Audio #2
ID : 3
Format : AC-3
Format/Info : Audio Coding 3
Codec ID : A_AC3
Duration : 2 h 5 min
Bit rate mode : Constant
Bit rate : 448 kb/s
Channel(s) : 6 channels
Channel positions : Front: L C R, Side: L R, LFE
Sampling rate : 48.0 kHz
Frame rate : 31.250 FPS (1536 SPF)
Bit depth : 16 bits
Compression mode : Lossy
Stream size : 403 MiB (3%)
Title : VO, Voron
Language : Russian
Service kind : Complete Main
Default : No
Forced : No
Audio #3
ID : 4
Format : DTS
Format/Info : Digital Theater Systems
Codec ID : A_DTS
Duration : 2 h 5 min
Bit rate mode : Constant
Bit rate : 1 509 kb/s
Channel(s) : 6 channels
Channel positions : Front: L C R, Side: L R, LFE
Sampling rate : 48.0 kHz
Frame rate : 93.750 FPS (512 SPF)
Bit depth : 24 bits
Compression mode : Lossy
Stream size : 1.32 GiB (12%)
Language : Korean
Default : No
Forced : No
Text #1
ID : 5
Format : UTF-8
Codec ID : S_TEXT/UTF8
Codec ID/Info : UTF-8 Plain Text
Duration : 2 h 2 min
Bit rate : 0 b/s
Count of elements : 11
Stream size : 710 Bytes (0%)
Title : forced
Language : Russian
Default : Yes
Forced : Yes
Text #2
ID : 6
Format : UTF-8
Codec ID : S_TEXT/UTF8
Codec ID/Info : UTF-8 Plain Text
Duration : 2 h 0 min
Bit rate : 62 b/s
Count of elements : 1192
Stream size : 55.3 KiB (0%)
Language : Russian
Default : No
Forced : No
Text #3
ID : 7
Format : UTF-8
Codec ID : S_TEXT/UTF8
Codec ID/Info : UTF-8 Plain Text
Duration : 2 h 2 min
Bit rate : 32 b/s
Count of elements : 1087
Stream size : 29.3 KiB (0%)
Language : English
Default : No
Forced : No
Text #4
ID : 8
Format : UTF-8
Codec ID : S_TEXT/UTF8
Codec ID/Info : UTF-8 Plain Text
Duration : 2 h 2 min
Bit rate : 34 b/s
Count of elements : 1314
Stream size : 30.6 KiB (0%)
Title : CHS
Language : Chinese
Default : No
Forced : No
Text #5
ID : 9
Format : UTF-8
Codec ID : S_TEXT/UTF8
Codec ID/Info : UTF-8 Plain Text
Duration : 2 h 2 min
Bit rate : 34 b/s
Count of elements : 1314
Stream size : 30.6 KiB (0%)
Title : CHT
Language : Chinese
Default : No
Forced : No
Menu
00:00:00.000 : en:00:00:00.000
00:10:41.558 : en:00:10:41.558
00:19:01.807 : en:00:19:01.807
00:28:10.147 : en:00:28:10.147
00:36:00.867 : en:00:36:00.867
00:43:33.110 : en:00:43:33.110
00:50:44.583 : en:00:50:44.583
00:55:10.349 : en:00:55:10.349
01:01:18.550 : en:01:01:18.550
01:08:49.375 : en:01:08:49.375
01:19:40.401 : en:01:19:40.401
01:29:09.719 : en:01:29:09.719
01:38:15.556 : en:01:38:15.556
01:45:25.277 : en:01:45:25.277
01:52:23.195 : en:01:52:23.195
01:59:22.781 : en:01:59:22.781

admin

Post 29-Mar-2019 10:20

[Quote]

Информация о фильме
Название: Тень
Оригинальное название: Ying / Shadow
Год выхода: 2018
Жанр: Драма, боевик
Режиссер: Имоу Чжан
В ролях: Чао Ден, Ли Сунь, Кай Чжэн, Цяньюань Ван, Цзинчунь Ван, Цзюнь Ху, Сяотун Гуань, Лэй У, Бай Фэн
О фильме:
Сюжет разворачивается в эпоху Троецарствия, в древнем Китае с 220 г. по 280 г, в эпоху борьбы и ожесточенного противостояния между тремя различными государствами Китая. Чтобы обезопасить себя от наемных убийц в условиях постоянных войн и внутренних распрей, императоры и чиновники находили себе двойников, так называемых Теней. Эти люди верно служили своим хозяевам многие годы, рискуя ради них своей жизнью. Эта история храброго мужчины, который еще в детстве стал Тенью, она начинается, когда жене главного командира царства Пэй приходится принять самое сложное решение в ее жизни.

Страна: Китай, Гонконг
Студия: Perfect Village Entertainment, LeVision Pictures, Shanghai Tencent Pictures Culture Media
Продолжительность: 01:55:47
Перевод: Дублированный | iTunes |, Профессиональный (многоголосый, закадровый) | HDRezka Studio
Файл
Качество: BDRip 1080р | D, P | iTunes
Видео: AVC/H.264, 1920x806, ~8305 Кbps, 24 fps
Звук:
Аудио 1: AC3, 6 ch, 384 Kbps - Русский (DUB)
Аудио 2: AC3, 2 ch, 192 Kbps - Русский (MVO)
Аудио 3: DTS, 6 ch, 1509 Kbps - Китайский
Субтитры: Русские, Английские

Mediainfo

Общее
Уникальный идентификатор : 240975172310136778824828523099824418251 (0xB54A214907A255710FEC8A6F715D6DCB)
Полное имя : Shadow.2018.BDRip.1080p.W.mkv
Формат : Matroska
Версия формата : Version 4
Размер файла : 8,40 Гбайт
Продолжительность : 1 ч. 55 м.
Общий поток : 10,4 Мбит/сек
Название фильма : Shadow.2018.BDRip.1080p.W
Дата кодирования : UTC 2019-03-28 15:51:29
Программа кодирования : mkvmerge v23.0.0 ('The Bride Said No') 64-bit
Библиотека кодирования : libebml v1.3.6 + libmatroska v1.4.9
Видео
Идентификатор : 1
Формат : AVC
Формат/Информация : Advanced Video Codec
Профиль формата : High@L4.1
Настройки формата : CABAC / 5 Ref Frames
Параметр CABAC формата : Да
Параметр RefFrames формата : 5 кадров
Идентификатор кодека : V_MPEG4/ISO/AVC
Продолжительность : 1 ч. 55 м.
Битрейт : 8305 Кбит/сек
Ширина : 1920 пикселей
Высота : 806 пикселей
Соотношение сторон : 2,40:1
Режим частоты кадров : Постоянный
Частота кадров : 24,000 кадра/сек
Цветовое пространство : YUV
Субдискретизация насыщенности : 4:2:0
Битовая глубина : 8 бит
Тип развёртки : Прогрессивная
Бит/(Пиксели*Кадры) : 0.224
Размер потока : 6,71 Гбайт (80%)
Заголовок : rip by -=walledol=-
Библиотека кодирования : x264 core 157 r2935 545de2f
Настройки программы : cabac=1 / ref=5 / deblock=1:-3:-3 / analyse=0x3:0x133 / me=umh / subme=11 / psy=1 / psy_rd=1.00:0.00 / mixed_ref=1 / me_range=32 / chroma_me=1 / trellis=2 / 8x8dct=1 / cqm=0 / deadzone=21,11 / fast_pskip=0 / chroma_qp_offset=-2 / threads=12 / lookahead_threads=3 / sliced_threads=0 / nr=0 / decimate=1 / interlaced=0 / bluray_compat=0 / constrained_intra=0 / bframes=10 / b_pyramid=2 / b_adapt=2 / b_bias=0 / direct=3 / weightb=1 / open_gop=0 / weightp=2 / keyint=240 / keyint_min=24 / scenecut=40 / intra_refresh=0 / rc_lookahead=60 / rc=2pass / mbtree=0 / bitrate=8305 / ratetol=1.0 / qcomp=0.60 / qpmin=0 / qpmax=69 / qpstep=4 / cplxblur=20.0 / qblur=0.5 / vbv_maxrate=30000 / vbv_bufsize=33000 / nal_hrd=none / filler=0 / ip_ratio=1.40 / pb_ratio=1.30 / aq=3:0.80
Язык : Chinese
Default : Да
Forced : Нет
Аудио #1
Идентификатор : 2
Формат : AC-3
Формат/Информация : Audio Coding 3
Коммерческое название : Dolby Digital
Идентификатор кодека : A_AC3
Продолжительность : 1 ч. 55 м.
Вид битрейта : Постоянный
Битрейт : 384 Кбит/сек
Каналы : 6 каналов
Channel layout : L R C LFE Ls Rs
Частота : 48,0 КГц
Частота кадров : 31,250 кадров/сек (1536 SPF)
Битовая глубина : 16 бит
Метод сжатия : С потерями
Размер потока : 318 Мбайт (4%)
Заголовок : DUB | iTunes
Язык : Russian
ServiceKind : Complete Main
Default : Да
Forced : Нет
Аудио #2
Идентификатор : 3
Формат : AC-3
Формат/Информация : Audio Coding 3
Коммерческое название : Dolby Digital
Идентификатор кодека : A_AC3
Продолжительность : 1 ч. 55 м.
Вид битрейта : Постоянный
Битрейт : 192 Кбит/сек
Каналы : 2 канала
Channel layout : L R
Частота : 48,0 КГц
Частота кадров : 31,250 кадров/сек (1536 SPF)
Битовая глубина : 16 бит
Метод сжатия : С потерями
Размер потока : 159 Мбайт (2%)
Заголовок : MVO | HDRezka Studio
Язык : Russian
ServiceKind : Complete Main
Default : Нет
Forced : Нет
Аудио #3
Идентификатор : 4
Формат : DTS
Формат/Информация : Digital Theater Systems
Идентификатор кодека : A_DTS
Продолжительность : 1 ч. 55 м.
Вид битрейта : Постоянный
Битрейт : 1509 Кбит/сек
Каналы : 6 каналов
Channel layout : C L R Ls Rs LFE
Частота : 48,0 КГц
Частота кадров : 93,750 кадра/сек (512 SPF)
Битовая глубина : 24 бит
Метод сжатия : С потерями
Размер потока : 1,22 Гбайт (15%)
Язык : Chinese
Default : Нет
Forced : Нет
Текст #1
Идентификатор : 5
Формат : UTF-8
Идентификатор кодека : S_TEXT/UTF8
Идентификатор кодека/Информация : UTF-8 Plain Text
Продолжительность : 1 ч. 45 м.
Битрейт : 52 бит/сек
ElementCount : 1050
Размер потока : 40,3 Кбайт (0%)
Язык : Russian
Default : Нет
Forced : Нет
Текст #2
Идентификатор : 6
Формат : UTF-8
Идентификатор кодека : S_TEXT/UTF8
Идентификатор кодека/Информация : UTF-8 Plain Text
Продолжительность : 1 ч. 44 м.
Битрейт : 28 бит/сек
ElementCount : 1072
Размер потока : 21,7 Кбайт (0%)
Язык : English
Default : Нет
Forced : Нет
Меню
00:00:00.000 : en:Chapter 01
00:12:27.250 : en:Chapter 02
00:19:40.958 : en:Chapter 03
00:30:19.875 : en:Chapter 04
00:41:09.958 : en:Chapter 05
00:48:45.125 : en:Chapter 06
00:54:49.875 : en:Chapter 07
01:02:35.125 : en:Chapter 08
01:10:27.083 : en:Chapter 09
01:20:40.208 : en:Chapter 10
01:28:10.250 : en:Chapter 11
01:38:00.333 : en:Chapter 12

Скриншоты

admin

Post 29-Mar-2019 10:20

[Quote]

Информация о фильме
Название: Тень
Оригинальное название: Ying / Shadow
Год выхода: 2018
Жанр: Драма, боевик
Режиссер: Имоу Чжан
В ролях: Чао Ден, Ли Сунь, Кай Чжэн, Цяньюань Ван, Цзинчунь Ван, Цзюнь Ху, Сяотун Гуань, Лэй У, Бай Фэн
О фильме:
Сюжет разворачивается в эпоху Троецарствия, в древнем Китае с 220 г. по 280 г, в эпоху борьбы и ожесточенного противостояния между тремя различными государствами Китая. Чтобы обезопасить себя от наемных убийц в условиях постоянных войн и внутренних распрей, императоры и чиновники находили себе двойников, так называемых Теней. Эти люди верно служили своим хозяевам многие годы, рискуя ради них своей жизнью. Эта история храброго мужчины, который еще в детстве стал Тенью, она начинается, когда жене главного командира царства Пэй приходится принять самое сложное решение в ее жизни.

Страна: Китай, Гонконг
Студия: Perfect Village Entertainment, LeVision Pictures, Shanghai Tencent Pictures Culture Media
Продолжительность: 01:55:47
Перевод: Дублированный | iTunes |, Профессиональный (многоголосый, закадровый) | HDRezka Studio
Файл
Качество: BDRip 720р | D, P | iTunes
Видео: AVC/H.264, 1280x536, ~4768 Кbps, 24 fps
Звук:
Аудио 1: AC3, 6 ch, 384 Kbps - Русский (DUB)
Аудио 2: AC3, 2 ch, 192 Kbps - Русский (MVO)
Аудио 3: DTS, 6 ch, 1509 Kbps - Китайский
Субтитры: Русские, Английские

Mediainfo

Общее
Уникальный идентификатор : 9924399257643273076387929917029143580 (0x7775EA950862CFDC0B4374E6B94D41C)
Полное имя : Shadow.2018.BDRip.720p.W.mkv
Формат : Matroska
Версия формата : Version 4
Размер файла : 5,54 Гбайт
Продолжительность : 1 ч. 55 м.
Общий поток : 6853 Кбит/сек
Название фильма : Shadow.2018.BDRip.720p.W
Дата кодирования : UTC 2019-03-28 15:49:20
Программа кодирования : mkvmerge v23.0.0 ('The Bride Said No') 64-bit
Библиотека кодирования : libebml v1.3.6 + libmatroska v1.4.9
Видео
Идентификатор : 1
Формат : AVC
Формат/Информация : Advanced Video Codec
Профиль формата : High@L4.1
Настройки формата : CABAC / 12 Ref Frames
Параметр CABAC формата : Да
Параметр RefFrames формата : 12 кадров
Идентификатор кодека : V_MPEG4/ISO/AVC
Продолжительность : 1 ч. 55 м.
Битрейт : 4768 Кбит/сек
Ширина : 1280 пикселей
Высота : 536 пикселей
Соотношение сторон : 2,40:1
Режим частоты кадров : Постоянный
Частота кадров : 24,000 кадра/сек
Цветовое пространство : YUV
Субдискретизация насыщенности : 4:2:0
Битовая глубина : 8 бит
Тип развёртки : Прогрессивная
Бит/(Пиксели*Кадры) : 0.290
Размер потока : 3,85 Гбайт (70%)
Заголовок : rip by -=walledol=-
Библиотека кодирования : x264 core 157 r2935 545de2f
Настройки программы : cabac=1 / ref=12 / deblock=1:-3:-3 / analyse=0x3:0x133 / me=umh / subme=11 / psy=1 / psy_rd=1.00:0.00 / mixed_ref=1 / me_range=32 / chroma_me=1 / trellis=2 / 8x8dct=1 / cqm=0 / deadzone=21,11 / fast_pskip=0 / chroma_qp_offset=-2 / threads=12 / lookahead_threads=3 / sliced_threads=0 / nr=0 / decimate=1 / interlaced=0 / bluray_compat=0 / constrained_intra=0 / bframes=10 / b_pyramid=2 / b_adapt=2 / b_bias=0 / direct=3 / weightb=1 / open_gop=0 / weightp=2 / keyint=240 / keyint_min=24 / scenecut=40 / intra_refresh=0 / rc_lookahead=60 / rc=2pass / mbtree=0 / bitrate=4768 / ratetol=1.0 / qcomp=0.60 / qpmin=0 / qpmax=69 / qpstep=4 / cplxblur=20.0 / qblur=0.5 / vbv_maxrate=30000 / vbv_bufsize=33000 / nal_hrd=none / filler=0 / ip_ratio=1.40 / pb_ratio=1.30 / aq=3:0.80
Язык : Chinese
Default : Да
Forced : Нет
Аудио #1
Идентификатор : 2
Формат : AC-3
Формат/Информация : Audio Coding 3
Коммерческое название : Dolby Digital
Идентификатор кодека : A_AC3
Продолжительность : 1 ч. 55 м.
Вид битрейта : Постоянный
Битрейт : 384 Кбит/сек
Каналы : 6 каналов
Channel layout : L R C LFE Ls Rs
Частота : 48,0 КГц
Частота кадров : 31,250 кадров/сек (1536 SPF)
Битовая глубина : 16 бит
Метод сжатия : С потерями
Размер потока : 318 Мбайт (6%)
Заголовок : DUB | iTunes
Язык : Russian
ServiceKind : Complete Main
Default : Да
Forced : Нет
Аудио #2
Идентификатор : 3
Формат : AC-3
Формат/Информация : Audio Coding 3
Коммерческое название : Dolby Digital
Идентификатор кодека : A_AC3
Продолжительность : 1 ч. 55 м.
Вид битрейта : Постоянный
Битрейт : 192 Кбит/сек
Каналы : 2 канала
Channel layout : L R
Частота : 48,0 КГц
Частота кадров : 31,250 кадров/сек (1536 SPF)
Битовая глубина : 16 бит
Метод сжатия : С потерями
Размер потока : 159 Мбайт (3%)
Заголовок : MVO | HDRezka Studio
Язык : Russian
ServiceKind : Complete Main
Default : Нет
Forced : Нет
Аудио #3
Идентификатор : 4
Формат : DTS
Формат/Информация : Digital Theater Systems
Идентификатор кодека : A_DTS
Продолжительность : 1 ч. 55 м.
Вид битрейта : Постоянный
Битрейт : 1509 Кбит/сек
Каналы : 6 каналов
Channel layout : C L R Ls Rs LFE
Частота : 48,0 КГц
Частота кадров : 93,750 кадра/сек (512 SPF)
Битовая глубина : 24 бит
Метод сжатия : С потерями
Размер потока : 1,22 Гбайт (22%)
Язык : Chinese
Default : Нет
Forced : Нет
Текст #1
Идентификатор : 5
Формат : UTF-8
Идентификатор кодека : S_TEXT/UTF8
Идентификатор кодека/Информация : UTF-8 Plain Text
Продолжительность : 1 ч. 45 м.
Битрейт : 52 бит/сек
ElementCount : 1050
Размер потока : 40,3 Кбайт (0%)
Язык : Russian
Default : Нет
Forced : Нет
Текст #2
Идентификатор : 6
Формат : UTF-8
Идентификатор кодека : S_TEXT/UTF8
Идентификатор кодека/Информация : UTF-8 Plain Text
Продолжительность : 1 ч. 44 м.
Битрейт : 28 бит/сек
ElementCount : 1072
Размер потока : 21,7 Кбайт (0%)
Язык : English
Default : Нет
Forced : Нет
Меню
00:00:00.000 : en:Chapter 01
00:12:27.250 : en:Chapter 02
00:19:40.958 : en:Chapter 03
00:30:19.875 : en:Chapter 04
00:41:09.958 : en:Chapter 05
00:48:45.125 : en:Chapter 06
00:54:49.875 : en:Chapter 07
01:02:35.125 : en:Chapter 08
01:10:27.083 : en:Chapter 09
01:20:40.208 : en:Chapter 10
01:28:10.250 : en:Chapter 11
01:38:00.333 : en:Chapter 12

Скриншоты

admin

Post 23-Mar-2019 04:45

[Quote]

Информация о фильме
Название: Тройная угроза
Оригинальное название: Triple Threat
Год выпуска: 2019
Жанр: Боевик, триллер, криминал
Режиссер: Джесси Джонсон
В ролях: Тони Джа, Ико Уайс, Тайгер Чэнь, Скотт Эдкинс, Селина Джейд, Майкл Джей Уайт, Доминик Ванденберг, Яанин Висмитананда, Майкл Вон, Дэниэл Уайт
О фильме: Международная преступная группировка посылает команду профессиональных киллеров убить дочь миллиардера, которая задумала положить конец их криминальной деятельности. Спасать девушку будут трое наёмников, в прошлом — успешных бойцов.

Страна: Таиланд, Китай, США
Студия: Aurora Alliance Films, Hamilton Entertainment, Kungfuman Culture Media, SC Films Thailand Co
Продолжительность: 01:35:51
Перевод: Дублированный | iTunes
Файл
Качество: WEB-DL 1080p
Контейнер: MKV
Видео: MPEG-4 AVC, 4416 Кбит/с, 1916x802
Аудио: AC3, 6 ch, 384 Кбит/с
Субтитры: Нет

Скриншоты


MediaInfo

General
Unique ID : 247939473963294976299015038493808599555 (0xBA8767DDEE69CB79BC9E0D9553372203)
Complete name : Triple.Threat.WEB-DL.1080p.ELEKTRI4KA.UNIONGANG.mkv
Format : Matroska
Format version : Version 2
File size : 3.28 GiB
Duration : 1 h 35 min
Overall bit rate : 4 898 kb/s
Movie name : Triple.Threat.WEB-DL.1080p.ELEKTRI4KA.UNIONGANG
Encoded date : UTC 2019-03-21 19:27:12
Writing application : mkvmerge v7.8.0 ('River Man') 32bit built on Apr 3 2015 12:11:22
Writing library : libebml v1.3.1 + libmatroska v1.4.2
Video
ID : 2
Format : AVC
Format/Info : Advanced Video Codec
Format profile : High@L4
Format settings, CABAC : Yes
Format settings, RefFrames : 5 frames
Codec ID : V_MPEG4/ISO/AVC
Duration : 1 h 35 min
Bit rate : 4 416 kb/s
Width : 1 916 pixels
Height : 802 pixels
Display aspect ratio : 2.40:1
Frame rate mode : Constant
Frame rate : 23.976 (24000/1001) FPS
Color space : YUV
Chroma subsampling : 4:2:0
Bit depth : 8 bits
Scan type : Progressive
Bits/(Pixel*Frame) : 0.120
Stream size : 2.96 GiB (90%)
Title : Triple.Threat.WEB-DL.1080p.ELEKTRI4KA.UNIONGANG
Language : English
Default : Yes
Forced : No
Color range : Limited
Color primaries : BT.709
Transfer characteristics : BT.709
Matrix coefficients : BT.709
Audio
ID : 1
Format : AC-3
Format/Info : Audio Coding 3
Format settings, Endianness : Big
Codec ID : A_AC3
Duration : 1 h 35 min
Bit rate mode : Constant
Bit rate : 384 kb/s
Channel(s) : 6 channels
Channel positions : Front: L C R, Side: L R, LFE
Sampling rate : 48.0 kHz
Frame rate : 31.250 FPS (1536 SPF)
Bit depth : 16 bits
Compression mode : Lossy
Stream size : 263 MiB (8%)
Language : Russian
Service kind : Complete Main
Default : Yes
Forced : No
Menu
00:00:00.000 : en:Глава 1
00:13:42.989 : en:Глава 2
00:21:05.806 : en:Глава 3
00:28:40.009 : en:Глава 4
00:35:23.578 : en:Глава 5
00:46:56.020 : en:Глава 6
00:54:11.163 : en:Глава 7
01:00:25.369 : en:Глава 8
01:08:35.191 : en:Глава 9
01:13:33.781 : en:Глава 10
01:29:59.933 : en:Глава 11

admin

Post 12-Mar-2019 02:55

[Quote]

Информация о фильме
Название: Чёрная магия
Оригинальное название: Santet
Год выпуска: 2018
Жанр: Ужасы
Режиссер: Хелфи Кардит
В ролях: Келли Брук, Джаз Окампо, Аю Диа Паша, Рэй Сахетапи
О фильме: Ренди вместе со своей супругой Лорой и двумя детьми возвращается в отчий дом. Здесь совсем недавно его отец Дхарма наложил на себя руки, и теперь любящий сын беспокоится о своей матери, а она ведет себя после произошедшего с ее мужем неадекватно. В женщину словно вселился злой дух, она стала одержима черной магией. Она ведет себя, как сумасшедшая, и явно не хочет видеть в своем доме своего сына с невесткой и внуками. Все это приводит Ренди в ужас и смятение.

Страна: Индонезия
Продолжительность: 01:25:39
Перевод: Профессиональный (многоголосый закадровый) | HDRezka Studio
Файл
Качество: WEB-DL 1080p
Видео: MPEG-4 AVC, 5811 Кбит/с, 1920x800, 23.976 Кадр/с
Аудио 1: Русский: AC3, 2 ch, 192 Кбит/с - HDRezka Studio
Аудио 2: Английский: E-AC3, 6 ch, 640 Кбит/с - Original
Субтитры: Английские

Скриншоты


MediaInfo

General
Unique ID : 159051309904492973618081012632333601550 (0x77A82B04ECEFEF81707920C27E184B0E)
Complete name :F:Santet.2018.1080p.AMZN.webdL.108Op.werecut.PROD.mkv
Format : Matroska
Format version : Version 4
File size : 3.98 GiB
Duration : 1 h 25 min
Overall bit rate : 6 645 kb/s
Movie name : Santet 2018 OT werecut PROD.
Encoded date : UTC 2019-03-10 18:32:20
Writing application : mkvmerge v28.0.0 ('Voice In My Head') 64-bit
Writing library : libebml v1.3.6 + libmatroska v1.4.9
Video
ID : 1
Format : AVC
Format/Info : Advanced Video Codec
Format profile : High@L4
Format settings : CABAC / 4 Ref Frames
Format settings, CABAC : Yes
Format settings, ReFrames : 4 frames
Codec ID : V_MPEG4/ISO/AVC
Duration : 1 h 25 min
Bit rate mode : Constant
Bit rate : 5 811 kb/s
Nominal bit rate : 10 000 kb/s
Width : 1 920 pixels
Height : 800 pixels
Display aspect ratio : 2.40:1
Frame rate mode : Constant
Frame rate : 23.976 (24000/1001) FPS
Color space : YUV
Chroma subsampling : 4:2:0
Bit depth : 8 bits
Scan type : Progressive
Bits/(Pixel*Frame) : 0.158
Stream size : 3.48 GiB (87%)
Language : English
Default : Yes
Forced : No
Color range : Limited
Color primaries : BT.709
Transfer characteristics : BT.709
Matrix coefficients : BT.709
Audio #1
ID : 2
Format : AC-3
Format/Info : Audio Coding 3
Commercial name : Dolby Digital
Codec ID : A_AC3
Duration : 1 h 25 min
Bit rate mode : Constant
Bit rate : 192 kb/s
Channel(s) : 2 channels
Channel layout : L R
Sampling rate : 48.0 kHz
Frame rate : 31.250 FPS (1536 SPF)
Bit depth : 16 bits
Compression mode : Lossy
Stream size : 118 MiB (3%)
Title : HDREZKA STUDIO
Language : Russian
Service kind : Complete Main
Default : Yes
Forced : No
Audio #2
ID : 3
Format : E-AC-3
Format/Info : Enhanced AC-3
Commercial name : Dolby Digital Plus
Codec ID : A_EAC3
Duration : 1 h 25 min
Bit rate mode : Constant
Bit rate : 640 kb/s
Channel(s) : 6 channels
Channel layout : L R C LFE Ls Rs
Sampling rate : 48.0 kHz
Frame rate : 31.250 FPS (1536 SPF)
Compression mode : Lossy
Stream size : 392 MiB (10%)
Language : English
Service kind : Complete Main
Default : No
Forced : No
Text
ID : 4
Format : UTF-8
Codec ID : S_TEXT/UTF8
Codec ID/Info : UTF-8 Plain Text
Duration : 1 h 24 min
Bit rate : 31 b/s
Count of elements : 917
Stream size : 19.1 KiB (0%)
Title : English [SDH]
Language : English
Default : No
Forced : No

admin

Post 18-Jan-2019 06:58

[Quote]

Информация о фильме
Название: Мститель
Оригинальное название: Revenger
Год выхода: 2019
Жанр: боевик, криминал
Режиссер: Шон-Вон Ли
В ролях: Брюс Хан, Пак Хи-сун, Юн Джин-со, Ким Ин-гвон, Пак Чхоль-мин
О фильме:
Чтобы отомстить за убийство семьи, мужчина едет на удаленный остров, где засел криминальный авторитет.

Страна: Сингапур
Студия: NETFLIX
Продолжительность: 01:42:52
Перевод: Любительский двухголосый (Horizon Studio) Присутствует ненормативная лексика
Файл
Кодек: AVC
Качество: WEBRip 720p
Видео: ~ 2800 Кбит/с, 1280x720, 23.976 fps
Звук: Русский / AC3 / 2.0 / 256kbs / 48 kHz
Присутствует реклама!

Скриншоты

admin

Post 26-Nov-2018 04:49

[Quote]

Информация о фильме
Название: Ночь идёт за нами
Оригинальное название: The Night Comes for Us
Год выхода: 2018
Жанр: боевик, триллер, криминал
Режиссер: Тимо Тьяджанто
В ролях: Джо Таслим, Ико Уайс, Джулия Эстелл, Зак Ли, Шарифа Дааниш, Санни Пан, Ханна аль Рашид, Диан Састровардойо, Салвита Декорте, Asha Kenyeri Bermudez
О фильме:
При выполнении очередного задания киллер триады нарушил правила — не смог заставить себя убрать последнюю свидетельницу. В спасении жизни девочки он увидел знак и шанс на искупление, но у такого поступка будут серьезные последствия, и теперь отступнику и его старым друзьям предстоит иметь дело со всей убийственной мощью этой преступной организации.

Страна: Индонезия, США
Студия: Screenplay Infinite Films, XYZ Films
Продолжительность: 02:00:48
Перевод: профессиональный многоголосный, закадровый [HDRezka Studio]
Файл
Кодек: H.264
Качество: WEBRip 720p
Видео: AVC, 1280x720 (16:9), 23.976 fps ~ 2150 Kbps
Звук:
AAC (LC), 48 KHz, 2 ch ~ 160 Kb/s (русский)
E-AC3, 48 KHz, 6 ch ~ 640 Kb/s (индонезийский)
Субтитры: русские, английские

MI:

Общее
Уникальный идентификатор : 206167872817245758191542161991293998864 (0x9B1A7CEC731C0CBC95F1277BF4281710)
Полное имя : Q:TorFThe.Night.Comes.For.Us.2018.WEBRip.720p.mkv
Формат : Matroska
Версия формата : Version 2
Размер файла : 2,52 Гбайт
Продолжительность : 2 ч. 0 м.
Режим общего битрейта : Переменный
Общий поток : 2984 Кбит/сек
Дата кодирования : UTC 2018-11-25 17:08:31
Программа кодирования : mkvmerge v5.4.0 ('Piper') built on Mar 10 2012 13:34:39
Библиотека кодирования : libebml v1.2.3 + libmatroska v1.3.0
DURATION : 01:48:41.098000000
NUMBER_OF_FRAMES : 448
NUMBER_OF_BYTES : 13243
_STATISTICS_WRITING_APP : mkvmerge v27.0.0 ('Metropolis') 64-bit
_STATISTICS_WRITING_DATE_UTC : 2018-10-19 07:32:26
_STATISTICS_TAGS : BPS DURATION NUMBER_OF_FRAMES NUMBER_OF_BYTES
Attachment : Yes / Yes / Yes / Yes
Видео
Идентификатор : 1
Формат : AVC
Формат/Информация : Advanced Video Codec
Профиль формата : Main@L3.1
Параметр CABAC формата : Да
Параметр ReFrames формата : 3 кадра
Идентификатор кодека : V_MPEG4/ISO/AVC
Продолжительность : 2 ч. 0 м.
Вид битрейта : Переменный
Номинальный битрейт : 2150 Кбит/сек
Максимальный битрейт : 3225 Кбит/сек
Ширина : 1280 пикселей
Высота : 720 пикселей
Соотношение сторон : 16:9
Частота кадров : 23,976 кадра/сек
Цветовое пространство : YUV
Субдискретизация насыщенности : 4:2:0
Битовая глубина : 8 бит
Тип развёртки : Прогрессивная
Бит/(Пиксели*Кадры) : 0.097
Библиотека кодирования : x264 core 148 r2715 7e75228
Настройки программы : cabac=1 / ref=3 / deblock=1:0:0 / analyse=0x1:0x111 / me=umh / subme=10 / psy=1 / psy_rd=1.00:0.00 / mixed_ref=1 / me_range=24 / chroma_me=1 / trellis=2 / 8x8dct=0 / cqm=0 / deadzone=21,11 / fast_pskip=1 / chroma_qp_offset=-2 / threads=8 / lookahead_threads=1 / sliced_threads=0 / nr=0 / decimate=1 / interlaced=0 / bluray_compat=0 / stitchable=1 / constrained_intra=0 / bframes=2 / b_pyramid=0 / b_adapt=2 / b_bias=0 / direct=3 / weightb=1 / open_gop=0 / weightp=2 / keyint=48 / keyint_min=25 / scenecut=0 / intra_refresh=0 / rc_lookahead=48 / rc=2pass / mbtree=1 / bitrate=2150 / ratetol=1.0 / qcomp=0.50 / qpmin=6 / qpmax=51 / qpstep=4 / cplxblur=20.0 / qblur=0.5 / vbv_maxrate=3225 / vbv_bufsize=4300 / nal_hrd=vbr / filler=0 / ip_ratio=1.40 / aq=1:1.00
Язык : Indonesian
Default : Да
Forced : Нет
DURATION : 02:00:48.032000000
NUMBER_OF_FRAMES : 226501
NUMBER_OF_BYTES : 579842560
_STATISTICS_WRITING_APP : mkvmerge v27.0.0 ('Metropolis') 64-bit
_STATISTICS_WRITING_DATE_UTC : 2018-10-19 07:32:26
_STATISTICS_TAGS : BPS DURATION NUMBER_OF_FRAMES NUMBER_OF_BYTES
Аудио #1
Идентификатор : 2
Формат : AAC
Формат/Информация : Advanced Audio Codec
Профиль формата : LC
Идентификатор кодека : A_AAC
Продолжительность : 2 ч. 0 м.
Каналы : 2 канала
Расположение каналов : Front: L R
Частота : 48,0 КГц
Метод сжатия : С потерями
Задержка видео : 19 мс.
Заголовок : hdrezka
Язык : Russian
Default : Да
Forced : Нет
Аудио #2
Идентификатор : 3
Формат : E-AC-3
Формат/Информация : Audio Coding 3
Идентификатор кодека : A_EAC3
Продолжительность : 2 ч. 0 м.
Вид битрейта : Постоянный
Битрейт : 640 Кбит/сек
Каналы : 6 каналов
Расположение каналов : Front: L C R, Side: L R, LFE
Частота : 48,0 КГц
Метод сжатия : С потерями
Размер потока : 553 Мбайт (21%)
Язык : Indonesian
Default : Нет
Forced : Нет
Текст #1
Идентификатор : 4
Формат : UTF-8
Идентификатор кодека : S_TEXT/UTF8
Идентификатор кодека/Информация : UTF-8 Plain Text
Заголовок : Russian
Язык : Russian
Default : Нет
Forced : Нет
Текст #2
Идентификатор : 5
Формат : UTF-8
Идентификатор кодека : S_TEXT/UTF8
Идентификатор кодека/Информация : UTF-8 Plain Text
Заголовок : English
Язык : English
Default : Нет
Forced : Нет
Семпл

Скриншоты

admin

Post 22-Nov-2018 07:25

[Quote]

Бомбардировка
Air Strike / The Bombing / Da hong zha
Страна: Китай
Жанр: боевик, драма, военный, история
Год выпуска: 2018
Продолжительность: 01:36:48
Перевод: Любительский (двухголосый, закадровый) [HiWay Grope]
Субтитры: русские (полные), английские (форсированные (на китайский, хардсаб), полные, SDH)
Оригинальная аудиодорожка: английский
Режиссер: Сяо Фэн / Xiao Feng
В ролях: Лю Е, Брюс Уиллис, Сон Сын-хон, Уильям Чан, Николас Тсе, Фань Вэй, Эдриан Броуди, Ева Хуан, Фань Бинбин, Ма Су, Джанин Чан, У Ган
Описание:
Февраль 1938 года, Вторая японо-китайская война. После вынужденного переноса китайской столицы в Чунцин японское командование принимает решение - стереть город с лица земли. Японцы готовились к войне на Тихом океане и надеялись принудить правительство Чан Кайши к скорейшему выходу из войны. Тысячи тонн снарядов обрушиваются на мирные кварталы Чунцина.

Без рекламы!
Сэмпл
Качество видео: WEB-DL 1080p [The.Bombing.2018.1080p.WEB-DL.DD5.1.H264-CMRG]
Формат видео: MKV
Видео кодек: AVC
Аудио кодек: AC3
Видео: AVC, 4513 Кбит/сек, 1908x792 (2.40:1), 23,976 кадр/сек
Аудио №1: AC3, 384 Кбит/сек, 48 КГц, 5.1 - русский
Аудио №2: AC3, 384 Кбит/сек, 48 КГц, 5.1 - английский

MediaInfo

Общее
Уникальный идентификатор : 230146688347343197822968771141448889420 (0xAD24A3CE73EE1A56B157C0E965EDF44C)
Полное имя : O:TempAir StrikeThe.Bombing.2018.WEB-DL.1080p.Rus.Eng.stalkerok.New-Team.mkv
Формат : Matroska
Версия формата : Version 4 / Version 2
Размер файла : 3,57 Гбайт
Продолжительность : 1 ч. 36 м.
Общий поток : 5284 Кбит/сек
Название фильма : Air Strike (The Bombing) (2018) | release by stalkerok
Дата кодирования : UTC 2018-11-20 18:41:19
Программа кодирования : mkvmerge v28.2.0 ('The Awakening') 64-bit
Библиотека кодирования : libebml v1.3.6 + libmatroska v1.4.9
Видео
Идентификатор : 1
Формат : AVC
Формат/Информация : Advanced Video Codec
Профиль формата : High@L4
Параметр CABAC формата : Да
Параметр ReFrames формата : 5 кадров
Идентификатор кодека : V_MPEG4/ISO/AVC
Продолжительность : 1 ч. 36 м.
Битрейт : 4514 Кбит/сек
Ширина : 1908 пикселей
Высота : 792 пикселя
Соотношение сторон : 2,40:1
Режим частоты кадров : Постоянный
Частота кадров : 23,976 (24000/1001) кадра/сек
Цветовое пространство : YUV
Субдискретизация насыщенности : 4:2:0
Битовая глубина : 8 бит
Тип развёртки : Прогрессивная
Бит/(Пиксели*Кадры) : 0.125
Размер потока : 3,05 Гбайт (85%)
Заголовок : The.Bombing.2018.1080p.WEB-DL.DD5.1.H264-CMRG
Default : Да
Forced : Нет
Цветовой диапазон : Limited
Основные цвета : BT.709
Характеристики трансфера : BT.709
Коэффициенты матрицы : BT.709
Аудио #1
Идентификатор : 2
Формат : AC-3
Формат/Информация : Audio Coding 3
Расширение режима : CM (complete main)
Параметр Endianness формата : Big
Идентификатор кодека : A_AC3
Продолжительность : 1 ч. 36 м.
Вид битрейта : Постоянный
Битрейт : 384 Кбит/сек
Каналы : 6 каналов
Расположение каналов : Front: L C R, Side: L R, LFE
Частота : 48,0 КГц
Частота кадров : 31,250 кадров/сек (1536 spf)
Метод сжатия : С потерями
Размер потока : 266 Мбайт (7%)
Заголовок : HiWayGrope
Язык : Russian
Default : Да
Forced : Нет
Аудио #2
Идентификатор : 3
Формат : AC-3
Формат/Информация : Audio Coding 3
Расширение режима : CM (complete main)
Параметр Endianness формата : Big
Идентификатор кодека : A_AC3
Продолжительность : 1 ч. 36 м.
Вид битрейта : Постоянный
Битрейт : 384 Кбит/сек
Каналы : 6 каналов
Расположение каналов : Front: L C R, Side: L R, LFE
Частота : 48,0 КГц
Частота кадров : 31,250 кадров/сек (1536 spf)
Метод сжатия : С потерями
Размер потока : 266 Мбайт (7%)
Язык : English
Default : Нет
Forced : Нет
Текст #1
Идентификатор : 4
Формат : UTF-8
Идентификатор кодека : S_TEXT/UTF8
Идентификатор кодека/Информация : UTF-8 Plain Text
Продолжительность : 1 ч. 26 м.
Битрейт : 51 бит/сек
Count of elements : 769
Размер потока : 32,7 Кбайт (0%)
Язык : Russian
Default : Нет
Forced : Нет
Текст #2
Идентификатор : 5
Формат : UTF-8
Идентификатор кодека : S_TEXT/UTF8
Идентификатор кодека/Информация : UTF-8 Plain Text
Продолжительность : 1 ч. 26 м.
Битрейт : 38 бит/сек
Count of elements : 860
Размер потока : 24,6 Кбайт (0%)
Язык : English
Default : Нет
Forced : Нет
Текст #3
Идентификатор : 6
Формат : UTF-8
Идентификатор кодека : S_TEXT/UTF8
Идентификатор кодека/Информация : UTF-8 Plain Text
Продолжительность : 1 ч. 26 м.
Битрейт : 43 бит/сек
Count of elements : 1028
Размер потока : 27,4 Кбайт (0%)
Заголовок : SDH
Язык : English
Default : Нет
Forced : Нет

Скриншоты

 

Current time is: 21-Sep 02:32

All times are UTC + 3