Search found 63 matches

Author Message

admin

Post 05-Dec-2019 04:27

[Quote]

Информация о фильме
Название: Царство
Оригинальное название: Kingdom
Год выхода: 2019
Жанр: Драма, боевик, военный, история
Режиссер: Синсуке Сато
В ролях: Рё Ёсидзава, Кэнто Ямадзаки, Масами Нагасава, Канна Хасимото, Масая Като, Каната Хонго, Синносукэ Мицусима, Масахиро Такасима, Джан Канаме, Такао Осава, Синносукэ Абэ, Мотоки Фуками, Дзюн Хасимото, Ватару Итиносэ, Рэндзи Исибаси
О фильме:
III век до н. э., период Сражающихся царств, когда на территории современного Китая было множество постоянно воевавших друг с другом небольших государств. Где-то на задворках одного из таких царств живут двое сирот и ежедневно тренируются, чтобы исполнить свою мечту стать великими генералами. Но один из друзей оказывается поразительно похож на правителя, и парня забирают во дворец в качестве его двойника.

Страна: Япония
Студия: East Japan Marketing & Communications Inc, KDDI Corporation
Продолжительность: 02:13:56
Перевод: Дублированный | Tunes
Файл
Кодек: x.264
Качество: BDRip 1080p | WiKi
Видео: MPEG-4 AVC, 13.2 Mбит/с, 1920x804, 23.976 кадр/с
Аудио #1: Русский (АС3, 6 ch, 384 Кбит/с, 48.0 KHz) Профессиональный (дублированный) Tunes
Аудио #2: Японский (DTS, 6 ch, 1509 Кбит/с, 48.0 KHz)
Субтитры: китайские (*ass)

MediaInfo

General
Unique ID : 293491281095802098330404298621904827440 (0xDCCC5D5AE016693E5379CB7417F93430)
Complete name : Царство.2019.Dub.1080p.BluRay.x264-WiKi.mkv
Format : Matroska
Format version : Version 4
File size : 12.4 GiB
Duration : 2 h 13 min
Overall bit rate : 13.2 Mb/s
Movie name : Kingdom [2019] [1080p] DUB
Encoded date : UTC 2019-11-10 04:52:26
Writing application : mkvmerge v40.0.0 ('Old Town Road + Pony') 32-bit
Writing library : libebml v1.3.9 + libmatroska v1.5.2
Attachments : poster.jpg / DFPHuaZongW5-B5 1.0.2005.12.28.ttf / 汉仪秀英体繁.ttf
DIRECTOR : Shinsuke Sato
GENRE : Action, History, War
IMDB : tt9099938
KEYWORDS :
Video
ID : 1
Format : AVC
Format/Info : Advanced Video Codec
Format profile : High@L4.1
Format settings : CABAC / 5 Ref Frames
Format settings, CABAC : Yes
Format settings, Reference fra : 5 frames
Codec ID : V_MPEG4/ISO/AVC
Duration : 2 h 13 min
Bit rate : 11.3 Mb/s
Width : 1 920 pixels
Height : 804 pixels
Display aspect ratio : 2.40:1
Frame rate mode : Constant
Frame rate : 23.976 (24000/1001) FPS
Color space : YUV
Chroma subsampling : 4:2:0
Bit depth : 8 bits
Scan type : Progressive
Bits/(Pixel*Frame) : 0.306
Stream size : 10.6 GiB (86%)
Writing library : x264 core 129 r2245+704+36 8e61944 tMod+MixAQ [8-bit@4:2:0 X86_64]
Encoding settings : cabac=1 / ref=5 / deblock=1:-3:-3 / analyse=0x3:0x133 / me=umh / subme=11 / psy=1 / fade_compensate=0.00 / psy_rd=1.05:0.10 / mixed_ref=1 / me_range=32 / chroma_me=1 / trellis=2 / 8x8dct=1 / cqm=0 / deadzone=21,11 / fast_pskip=0 / chroma_qp_offset=-3 / threads=18 / lookahead_threads=3 / sliced_threads=0 / nr=0 / decimate=0 / interlaced=0 / bluray_compat=0 / constrained_intra=0 / fgo=0 / bframes=10 / b_pyramid=2 / b_adapt=2 / b_bias=0 / direct=3 / weightb=1 / open_gop=0 / weightp=2 / keyint=250 / keyint_min=23 / scenecut=40 / intra_refresh=0 / rc=2pass / mbtree=0 / bitrate=11312 / ratetol=1.0 / qcomp=0.70 / qpmin=0 / qpmax=69 / qpstep=4 / cplxblur=20.0 / qblur=0.5 / ip_ratio=1.40 / pb_ratio=1.30 / aq=1 / aq-strength=0.85 / aq-sensitivity=10.00 / aq-ifactor=1.00 / aq-pfactor=1.00 / aq-bfactor=1.00 / aq2=0
Language : Japanese
Default : Yes
Forced : No
Audio #1
ID : 2
Format : AC-3
Format/Info : Audio Coding 3
Commercial name : Dolby Digital
Codec ID : A_AC3
Duration : 2 h 13 min
Bit rate mode : Constant
Bit rate : 384 kb/s
Channel(s) : 6 channels
Channel layout : L R C LFE Ls Rs
Sampling rate : 48.0 kHz
Frame rate : 31.250 FPS (1536 SPF)
Compression mode : Lossy
Stream size : 368 MiB (3%)
Title : Dub
Language : Russian
Service kind : Complete Main
Default : Yes
Forced : No
Audio #2
ID : 3
Format : DTS
Format/Info : Digital Theater Systems
Codec ID : A_DTS
Duration : 2 h 13 min
Bit rate mode : Constant
Bit rate : 1 509 kb/s
Channel(s) : 6 channels
Channel layout : C L R Ls Rs LFE
Sampling rate : 48.0 kHz
Frame rate : 93.750 FPS (512 SPF)
Bit depth : 24 bits
Compression mode : Lossy
Stream size : 1.41 GiB (11%)
Language : Japanese
Default : No
Forced : No
Text
ID : 4
Format : ASS
Codec ID : S_TEXT/ASS
Codec ID/Info : Advanced Sub Station Alpha
Duration : 2 h 13 min
Bit rate : 68 b/s
Count of elements : 1345
Compression mode : Lossless
Stream size : 66.6 KiB (0%)
Language : Chinese
Default : No
Forced : No
Menu
00:00:00.000 : en:第 01 章
00:05:57.273 : en:第 02 章
00:11:19.387 : en:第 03 章
00:23:25.278 : en:第 04 章
00:33:00.979 : en:第 05 章
00:41:31.530 : en:第 06 章
00:45:54.376 : en:第 07 章
00:50:44.249 : en:第 08 章
00:57:42.083 : en:第 09 章
01:00:00.847 : en:第 10 章
01:07:40.723 : en:第 11 章
01:23:37.595 : en:第 12 章
01:32:05.520 : en:第 13 章
01:40:57.509 : en:第 14 章
01:56:03.998 : en:第 15 章
02:07:35.606 : en:第 16 章

Скриншоты

admin

Post 30-Nov-2019 21:37

[Quote]

Информация о фильме
Название: Паразиты
Оригинальное название: Gisaengchung
Год выхода: 2019
Жанр: Триллер, комедия, драма
Режиссер: Чжун Хо Пон
В ролях: Кан Хо Сон, Сон Гён Ли, Ё Чжон Чо, У Шик Чхве, Со Дам Пак, Хе Джин Чан, Джи Со Чон, Хён Джун Чон, Джон Ын Ли, Со Чжун Пак
О фильме:
Обычное корейское семейство жизнь не балует. Приходится жить в сыром грязном полуподвале, воровать интернет у соседей и перебиваться случайными подработками. Однажды друг сына семейства, уезжая на стажировку за границу, предлагает тому заменить его и поработать репетитором у старшеклассницы в богатой семье Пак. Подделав диплом о высшем образовании, парень отправляется в шикарный дизайнерский особняк и производит на хозяйку дома хорошее впечатление. Тут же ему в голову приходит необычный план по трудоустройству сестры.

Страна: Корея Южная
Студия: Barunson E&A, CJ E&M Film Financing & Investment Entertainment & Comics, CJ Entertainment
Продолжительность: 02:12:00
Перевод: Дублированный [iTunes], Профессиональный (многоголосый, закадровый) [HDRezka Studio], авторский одноголосый [Ю. Сербин]
Файл
Качество: BDRip 1080p
Видео: AVC/H.264, 1920x804, 7985 Кbps, 23,976 fps
Звук:
Аудио 1: AC3, 6 ch, 384 Kbps - Русский (DUB)
Аудио 2: AC3, 2 ch, 192 Kbps - Русский (MVO HDRezka Studio)
Аудио 3: AC3, 2 ch, 384 Kbps - Русский (AVO Сербин)
Аудио 4: AC3, 6 ch, 640 Kbps - Корейский
Субтитры: русские (форс, полные), английские (полные)

x264 log & MediaInfo

x264 [info]: frame I:1103 Avg QP:14.92 size:239354
x264 [info]: frame P:41066 Avg QP:17.70 size: 82243
x264 [info]: frame B:147739 Avg QP:18.76 size: 28851
x264 [info]: consecutive B-frames: 1.9% 2.4% 7.6% 20.9% 17.8% 37.1% 7.7% 2.4% 1.3% 1.0%
Общее
Уникальный идентификатор : 260123783564691894589966865977852283997 (0xC3B204B5F52D08BED5A1D8F3FA1FCC5D)
Полное имя : Gisaengchung (Parasite).2019.BDRip.1080p.W.mkv
Формат : Matroska
Версия формата : Version 4
Размер файла : 8,84 Гбайт
Продолжительность : 2 ч. 12 м.
Общий поток : 9585 Кбит/сек
Название фильма : Gisaengchung (Parasite).2019.BDRip.1080p.W
Дата кодирования : UTC 2019-11-29 20:25:35
Программа кодирования : mkvmerge v23.0.0 ('The Bride Said No') 64-bit
Библиотека кодирования : libebml v1.3.6 + libmatroska v1.4.9
Обложка : Yes
Attachments : cover_land.jpg / small_cover.jpg / small_cover_land.jpg / cover.jpg
Видео
Идентификатор : 1
Формат : AVC
Формат/Информация : Advanced Video Codec
Профиль формата : High@L4.1
Настройки формата : CABAC / 5 Ref Frames
Параметр CABAC формата : Да
Параметр RefFrames формата : 5 кадров
Идентификатор кодека : V_MPEG4/ISO/AVC
Продолжительность : 2 ч. 12 м.
Битрейт : 7985 Кбит/сек
Ширина : 1920 пикселей
Высота : 804 пикселя
Соотношение сторон : 2,40:1
Режим частоты кадров : Постоянный
Частота кадров : 23,976 (23976/1000) кадра/сек
Цветовое пространство : YUV
Субдискретизация насыщенности : 4:2:0
Битовая глубина : 8 бит
Тип развёртки : Прогрессивная
Бит/(Пиксели*Кадры) : 0.216
Размер потока : 7,36 Гбайт (83%)
Заголовок : rip by -=walledol=-
Библиотека кодирования : x264 core 158 r2988 7817004
Настройки программы : cabac=1 / ref=5 / deblock=1:-3:-3 / analyse=0x3:0x133 / me=umh / subme=11 / psy=1 / psy_rd=1.00:0.10 / mixed_ref=1 / me_range=32 / chroma_me=1 / trellis=2 / 8x8dct=1 / cqm=0 / deadzone=21,11 / fast_pskip=0 / chroma_qp_offset=-3 / threads=12 / lookahead_threads=2 / sliced_threads=0 / nr=0 / decimate=1 / interlaced=0 / bluray_compat=0 / constrained_intra=0 / bframes=9 / b_pyramid=2 / b_adapt=2 / b_bias=0 / direct=3 / weightb=1 / open_gop=0 / weightp=2 / keyint=240 / keyint_min=23 / scenecut=40 / intra_refresh=0 / rc_lookahead=60 / rc=2pass / mbtree=0 / bitrate=7985 / ratetol=1.0 / qcomp=0.60 / qpmin=0 / qpmax=69 / qpstep=4 / cplxblur=20.0 / qblur=0.5 / vbv_maxrate=30000 / vbv_bufsize=33000 / nal_hrd=none / filler=0 / ip_ratio=1.40 / pb_ratio=1.30 / aq=3:0.80 / zones=182702,189908,q=40
Язык : Korean
Default : Да
Forced : Нет
Аудио #1
Идентификатор : 2
Формат : AC-3
Формат/Информация : Audio Coding 3
Коммерческое название : Dolby Digital
Идентификатор кодека : A_AC3
Продолжительность : 2 ч. 11 м.
Вид битрейта : Постоянный
Битрейт : 384 Кбит/сек
Каналы : 6 каналов
ChannelLayout : L R C LFE Ls Rs
Частота : 48,0 КГц
Частота кадров : 31,250 кадров/сек (1536 SPF)
Метод сжатия : С потерями
Размер потока : 362 Мбайт (4%)
Заголовок : DUB | iTunes
Язык : Russian
ServiceKind : Complete Main
Default : Да
Forced : Нет
Аудио #2
Идентификатор : 3
Формат : AC-3
Формат/Информация : Audio Coding 3
Коммерческое название : Dolby Digital
Идентификатор кодека : A_AC3
Продолжительность : 2 ч. 11 м.
Вид битрейта : Постоянный
Битрейт : 192 Кбит/сек
Каналы : 2 канала
ChannelLayout : L R
Частота : 48,0 КГц
Частота кадров : 31,250 кадров/сек (1536 SPF)
Метод сжатия : С потерями
Размер потока : 181 Мбайт (2%)
Заголовок : MVO (HDRezka Studio)
Язык : Russian
ServiceKind : Complete Main
Default : Нет
Forced : Нет
Аудио #3
Идентификатор : 4
Формат : AC-3
Формат/Информация : Audio Coding 3
Коммерческое название : Dolby Digital
Идентификатор кодека : A_AC3
Продолжительность : 2 ч. 11 м.
Вид битрейта : Постоянный
Битрейт : 384 Кбит/сек
Каналы : 2 канала
ChannelLayout : L R
Частота : 48,0 КГц
Частота кадров : 31,250 кадров/сек (1536 SPF)
Метод сжатия : С потерями
Размер потока : 362 Мбайт (4%)
Заголовок : AVO (Сербин)
Язык : Russian
ServiceKind : Complete Main
Default : Нет
Forced : Нет
Аудио #4
Идентификатор : 5
Формат : AC-3
Формат/Информация : Audio Coding 3
Коммерческое название : Dolby Digital
Идентификатор кодека : A_AC3
Продолжительность : 2 ч. 12 м.
Вид битрейта : Постоянный
Битрейт : 640 Кбит/сек
Каналы : 6 каналов
ChannelLayout : L R C LFE Ls Rs
Частота : 48,0 КГц
Частота кадров : 31,250 кадров/сек (1536 SPF)
Метод сжатия : С потерями
Размер потока : 604 Мбайт (7%)
Язык : Korean
ServiceKind : Complete Main
Default : Нет
Forced : Нет
Текст #1
Идентификатор : 6
Формат : UTF-8
Идентификатор кодека : S_TEXT/UTF8
Идентификатор кодека/Информация : UTF-8 Plain Text
Продолжительность : 1 ч. 51 м.
Битрейт : 0 бит/сек
ElementCount : 6
Размер потока : 458 байт (0%)
Заголовок : Forced
Язык : Russian
Default : Да
Forced : Нет
Текст #2
Идентификатор : 7
Формат : UTF-8
Идентификатор кодека : S_TEXT/UTF8
Идентификатор кодека/Информация : UTF-8 Plain Text
Продолжительность : 2 ч. 5 м.
Битрейт : 87 бит/сек
ElementCount : 1637
Размер потока : 80,4 Кбайт (0%)
Заголовок : Full (Focs)
Язык : Russian
Default : Нет
Forced : Нет
Текст #3
Идентификатор : 8
Формат : UTF-8
Идентификатор кодека : S_TEXT/UTF8
Идентификатор кодека/Информация : UTF-8 Plain Text
Продолжительность : 2 ч. 5 м.
Битрейт : 91 бит/сек
ElementCount : 1637
Размер потока : 83,9 Кбайт (0%)
Заголовок : Full (kornickolay)
Язык : Russian
Default : Нет
Forced : Нет
Текст #4
Идентификатор : 9
Формат : UTF-8
Идентификатор кодека : S_TEXT/UTF8
Идентификатор кодека/Информация : UTF-8 Plain Text
Продолжительность : 2 ч. 5 м.
Битрейт : 53 бит/сек
ElementCount : 1647
Размер потока : 49,3 Кбайт (0%)
Заголовок : Full
Язык : English
Default : Нет
Forced : Нет
Меню
00:00:00.000 : en:Chapter 1
00:05:44.802 : en:Chapter 2
00:12:16.610 : en:Chapter 3
00:20:35.484 : en:Chapter 4
00:29:21.926 : en:Chapter 5
00:37:05.348 : en:Chapter 6
00:46:19.943 : en:Chapter 7
00:53:52.979 : en:Chapter 8
01:02:55.646 : en:Chapter 9
01:12:10.242 : en:Chapter 10
01:23:25.834 : en:Chapter 11
01:32:19.659 : en:Chapter 12
01:41:22.284 : en:Chapter 13
01:48:21.912 : en:Chapter 14
01:56:07.502 : en:Chapter 15
02:07:06.744 : en:Chapter 16

Скриншоты

admin

Post 30-Nov-2019 21:35

[Quote]

Информация о фильме
Название: Паразиты
Оригинальное название: Gisaengchung
Год выхода: 2019
Жанр: Триллер, комедия, драма
Режиссер: Чжун Хо Пон
В ролях: Кан Хо Сон, Сон Гён Ли, Ё Чжон Чо, У Шик Чхве, Со Дам Пак, Хе Джин Чан, Джи Со Чон, Хён Джун Чон, Джон Ын Ли, Со Чжун Пак
О фильме:
Обычное корейское семейство жизнь не балует. Приходится жить в сыром грязном полуподвале, воровать интернет у соседей и перебиваться случайными подработками. Однажды друг сына семейства, уезжая на стажировку за границу, предлагает тому заменить его и поработать репетитором у старшеклассницы в богатой семье Пак. Подделав диплом о высшем образовании, парень отправляется в шикарный дизайнерский особняк и производит на хозяйку дома хорошее впечатление. Тут же ему в голову приходит необычный план по трудоустройству сестры.

Страна: Корея Южная
Студия: Barunson E&A, CJ E&M Film Financing & Investment Entertainment & Comics, CJ Entertainment
Продолжительность: 02:12:00
Перевод: Дублированный [iTunes], Профессиональный (многоголосый, закадровый) [HDRezka Studio], авторский одноголосый [Ю. Сербин]
Файл
Качество: BDRip 720p
Видео: AVC/H.264, 1280x536, 4100 Кbps, 23,976 fps
Звук:
Аудио 1: AC3, 6 ch, 384 Kbps - Русский (DUB)
Аудио 2: AC3, 2 ch, 192 Kbps - Русский (MVO HDRezka Studio)
Аудио 3: AC3, 2 ch, 384 Kbps - Русский (AVO Сербин)
Аудио 4: AC3, 6 ch, 640 Kbps - Корейский
Субтитры: русские (форс, полные), английские (полные)

x264 log & MediaInfo

x264 [info]: frame I:1158 Avg QP:13.09 size:137396
x264 [info]: frame P:39090 Avg QP:15.95 size: 44852
x264 [info]: frame B:149660 Avg QP:17.23 size: 14341
x264 [info]: consecutive B-frames: 1.7% 2.0% 5.7% 19.8% 17.7% 34.1% 9.4% 4.8% 1.9% 1.3% 1.5%
Общее
Уникальный идентификатор : 110022250053868194560935355473310671971 (0x52C583BC59E5134544064A9A31666463)
Полное имя : Gisaengchung (Parasite).2019.BDRip.720p.W.mkv
Формат : Matroska
Версия формата : Version 4
Размер файла : 5,26 Гбайт
Продолжительность : 2 ч. 12 м.
Общий поток : 5701 Кбит/сек
Название фильма : Gisaengchung (Parasite).2019.BDRip.720p.W
Дата кодирования : UTC 2019-11-30 04:55:49
Программа кодирования : mkvmerge v23.0.0 ('The Bride Said No') 64-bit
Библиотека кодирования : libebml v1.3.6 + libmatroska v1.4.9
Обложка : Yes
Attachments : cover_land.jpg / small_cover.jpg / small_cover_land.jpg / cover.jpg
Видео
Идентификатор : 1
Формат : AVC
Формат/Информация : Advanced Video Codec
Профиль формата : High@L4.1
Настройки формата : CABAC / 12 Ref Frames
Параметр CABAC формата : Да
Параметр RefFrames формата : 12 кадров
Идентификатор кодека : V_MPEG4/ISO/AVC
Продолжительность : 2 ч. 12 м.
Битрейт : 4100 Кбит/сек
Ширина : 1280 пикселей
Высота : 536 пикселей
Соотношение сторон : 2,40:1
Режим частоты кадров : Постоянный
Частота кадров : 23,976 (23976/1000) кадра/сек
Цветовое пространство : YUV
Субдискретизация насыщенности : 4:2:0
Битовая глубина : 8 бит
Тип развёртки : Прогрессивная
Бит/(Пиксели*Кадры) : 0.249
Размер потока : 3,78 Гбайт (72%)
Заголовок : rip by -=walledol=-
Библиотека кодирования : x264 core 158 r2988 7817004
Настройки программы : cabac=1 / ref=12 / deblock=1:-3:-3 / analyse=0x3:0x133 / me=umh / subme=11 / psy=1 / psy_rd=1.00:0.10 / mixed_ref=1 / me_range=32 / chroma_me=1 / trellis=2 / 8x8dct=1 / cqm=0 / deadzone=21,11 / fast_pskip=0 / chroma_qp_offset=-3 / threads=12 / lookahead_threads=3 / sliced_threads=0 / nr=0 / decimate=1 / interlaced=0 / bluray_compat=0 / constrained_intra=0 / bframes=10 / b_pyramid=2 / b_adapt=2 / b_bias=0 / direct=3 / weightb=1 / open_gop=0 / weightp=2 / keyint=240 / keyint_min=23 / scenecut=40 / intra_refresh=0 / rc_lookahead=60 / rc=2pass / mbtree=0 / bitrate=4100 / ratetol=1.0 / qcomp=0.60 / qpmin=0 / qpmax=69 / qpstep=4 / cplxblur=20.0 / qblur=0.5 / vbv_maxrate=30000 / vbv_bufsize=33000 / nal_hrd=none / filler=0 / ip_ratio=1.40 / pb_ratio=1.30 / aq=3:0.80 / zones=182702,189908,q=40
Язык : Korean
Default : Да
Forced : Нет
Аудио #1
Идентификатор : 2
Формат : AC-3
Формат/Информация : Audio Coding 3
Коммерческое название : Dolby Digital
Идентификатор кодека : A_AC3
Продолжительность : 2 ч. 11 м.
Вид битрейта : Постоянный
Битрейт : 384 Кбит/сек
Каналы : 6 каналов
ChannelLayout : L R C LFE Ls Rs
Частота : 48,0 КГц
Частота кадров : 31,250 кадров/сек (1536 SPF)
Метод сжатия : С потерями
Размер потока : 362 Мбайт (7%)
Заголовок : DUB | iTunes
Язык : Russian
ServiceKind : Complete Main
Default : Да
Forced : Нет
Аудио #2
Идентификатор : 3
Формат : AC-3
Формат/Информация : Audio Coding 3
Коммерческое название : Dolby Digital
Идентификатор кодека : A_AC3
Продолжительность : 2 ч. 11 м.
Вид битрейта : Постоянный
Битрейт : 192 Кбит/сек
Каналы : 2 канала
ChannelLayout : L R
Частота : 48,0 КГц
Частота кадров : 31,250 кадров/сек (1536 SPF)
Метод сжатия : С потерями
Размер потока : 181 Мбайт (3%)
Заголовок : MVO (HDRezka Studio)
Язык : Russian
ServiceKind : Complete Main
Default : Нет
Forced : Нет
Аудио #3
Идентификатор : 4
Формат : AC-3
Формат/Информация : Audio Coding 3
Коммерческое название : Dolby Digital
Идентификатор кодека : A_AC3
Продолжительность : 2 ч. 11 м.
Вид битрейта : Постоянный
Битрейт : 384 Кбит/сек
Каналы : 2 канала
ChannelLayout : L R
Частота : 48,0 КГц
Частота кадров : 31,250 кадров/сек (1536 SPF)
Метод сжатия : С потерями
Размер потока : 362 Мбайт (7%)
Заголовок : AVO (Сербин)
Язык : Russian
ServiceKind : Complete Main
Default : Нет
Forced : Нет
Аудио #4
Идентификатор : 5
Формат : AC-3
Формат/Информация : Audio Coding 3
Коммерческое название : Dolby Digital
Идентификатор кодека : A_AC3
Продолжительность : 2 ч. 12 м.
Вид битрейта : Постоянный
Битрейт : 640 Кбит/сек
Каналы : 6 каналов
ChannelLayout : L R C LFE Ls Rs
Частота : 48,0 КГц
Частота кадров : 31,250 кадров/сек (1536 SPF)
Метод сжатия : С потерями
Размер потока : 604 Мбайт (11%)
Язык : Korean
ServiceKind : Complete Main
Default : Нет
Forced : Нет
Текст #1
Идентификатор : 6
Формат : UTF-8
Идентификатор кодека : S_TEXT/UTF8
Идентификатор кодека/Информация : UTF-8 Plain Text
Продолжительность : 1 ч. 51 м.
Битрейт : 0 бит/сек
ElementCount : 6
Размер потока : 458 байт (0%)
Заголовок : Forced
Язык : Russian
Default : Да
Forced : Нет
Текст #2
Идентификатор : 7
Формат : UTF-8
Идентификатор кодека : S_TEXT/UTF8
Идентификатор кодека/Информация : UTF-8 Plain Text
Продолжительность : 2 ч. 5 м.
Битрейт : 87 бит/сек
ElementCount : 1637
Размер потока : 80,4 Кбайт (0%)
Заголовок : Full (Focs)
Язык : Russian
Default : Нет
Forced : Нет
Текст #3
Идентификатор : 8
Формат : UTF-8
Идентификатор кодека : S_TEXT/UTF8
Идентификатор кодека/Информация : UTF-8 Plain Text
Продолжительность : 2 ч. 5 м.
Битрейт : 91 бит/сек
ElementCount : 1637
Размер потока : 83,9 Кбайт (0%)
Заголовок : Full (kornickolay)
Язык : Russian
Default : Нет
Forced : Нет
Текст #4
Идентификатор : 9
Формат : UTF-8
Идентификатор кодека : S_TEXT/UTF8
Идентификатор кодека/Информация : UTF-8 Plain Text
Продолжительность : 2 ч. 5 м.
Битрейт : 53 бит/сек
ElementCount : 1647
Размер потока : 49,3 Кбайт (0%)
Заголовок : Full
Язык : English
Default : Нет
Forced : Нет
Меню
00:00:00.000 : en:Chapter 1
00:05:44.802 : en:Chapter 2
00:12:16.610 : en:Chapter 3
00:20:35.484 : en:Chapter 4
00:29:21.926 : en:Chapter 5
00:37:05.348 : en:Chapter 6
00:46:19.943 : en:Chapter 7
00:53:52.979 : en:Chapter 8
01:02:55.646 : en:Chapter 9
01:12:10.242 : en:Chapter 10
01:23:25.834 : en:Chapter 11
01:32:19.659 : en:Chapter 12
01:41:22.284 : en:Chapter 13
01:48:21.912 : en:Chapter 14
01:56:07.502 : en:Chapter 15
02:07:06.744 : en:Chapter 16

Скриншоты

admin

Post 05-Nov-2019 01:14

[Quote]

Информация о фильме
Название: Царство
Оригинальное название: Kingdom
Год выхода: 2019
Жанр: Драма, боевик, военный, история
Режиссер: Синсуке Сато
В ролях: Рё Ёсидзава, Кэнто Ямадзаки, Масами Нагасава, Канна Хасимото, Масая Като, Каната Хонго, Синносукэ Мицусима, Масахиро Такасима, Джан Канаме, Такао Осава, Синносукэ Абэ, Мотоки Фуками, Дзюн Хасимото, Ватару Итиносэ, Рэндзи Исибаси
О фильме:
III век до н. э., период Сражающихся царств, когда на территории современного Китая было множество постоянно воевавших друг с другом небольших государств. Где-то на задворках одного из таких царств живут двое сирот и ежедневно тренируются, чтобы исполнить свою мечту стать великими генералами. Но один из друзей оказывается поразительно похож на правителя, и парня забирают во дворец в качестве его двойника.

Страна: Япония
Студия: East Japan Marketing & Communications Inc, KDDI Corporation
Продолжительность: 02:13:54
Перевод: Дублированный | Tunes
Файл
Кодек: AVC
Качество: WEB-DL 720p | TeamHD
Видео: MPEG-4 AVC, 3950 Кбит/с, 1280x536, 24.000 кадр/с
Звук: Аудио #1: Русский (АС3, 6 ch, 384 Кбит/с, 48.0 KHz) Профессиональный (дублированный) Tunes
Субтитры: нет

MediaInfo

Источник: Kingdom.2019.720p.WEB-DL.Rus.TeamHD
General
Unique ID : 3863762644062860868270864468880120398 (0x2E82234C0536C4FAD8AB595306FDA4E)
Complete name : Kingdom.2019.720p.WEB-DL.Rus.TeamHD.mkv
Format : Matroska
Format version : Version 4
File size : 4.14 GiB
Duration : 2 h 13 min
Overall bit rate : 4 422 kb/s
Encoded date : UTC 2019-11-03 19:27:33
Writing application : mkvmerge v8.5.1 ('Where you lead I will follow') 64bit
Writing library : libebml v1.3.3 + libmatroska v1.4.4
Video
ID : 1
Format : AVC
Format/Info : Advanced Video Codec
Format profile : Main@L3.1
Format settings : 2 Ref Frames
Format settings, CABAC : No
Format settings, Reference fra : 2 frames
Codec ID : V_MPEG4/ISO/AVC
Duration : 2 h 13 min
Bit rate : 3 950 kb/s
Width : 1 280 pixels
Height : 536 pixels
Display aspect ratio : 2.40:1
Frame rate mode : Constant
Frame rate : 24.000 FPS
Color space : YUV
Chroma subsampling : 4:2:0
Bit depth : 8 bits
Scan type : Progressive
Bits/(Pixel*Frame) : 0.240
Stream size : 3.69 GiB (89%)
Title : Main Program
Language : Japanese
Default : Yes
Forced : No
Color range : Limited
Color primaries : BT.709
Transfer characteristics : BT.709
Matrix coefficients : BT.709
Audio
ID : 2
Format : AC-3
Format/Info : Audio Coding 3
Commercial name : Dolby Digital
Codec ID : A_AC3
Duration : 2 h 13 min
Bit rate mode : Constant
Bit rate : 384 kb/s
Channel(s) : 6 channels
Channel layout : L R C LFE Ls Rs
Sampling rate : 48.0 kHz
Frame rate : 31.250 FPS (1536 SPF)
Bit depth : 16 bits
Compression mode : Lossy
Stream size : 368 MiB (9%)
Title : Russian DUB from iTunes Russia DD 5.1
Language : Russian
Service kind : Complete Main
Default : Yes
Forced : No
Menu
00:00:00.000 : en:Глава 1
00:04:03.000 : en:Глава 2
00:11:26.958 : en:Глава 3
00:14:59.333 : en:Глава 4
00:23:31.499 : en:Глава 5
00:33:07.249 : en:Глава 6
00:41:36.790 : en:Глава 7
00:45:59.373 : en:Глава 8
00:55:08.081 : en:Глава 9
01:01:35.081 : en:Глава 10
01:07:42.164 : en:Глава 11
01:11:38.080 : en:Глава 12
01:21:32.705 : en:Глава 13
01:30:42.496 : en:Глава 14
01:40:59.704 : en:Глава 15
01:52:25.454 : en:Глава 16
01:57:54.412 : en:Глава 17
02:07:36.203 : en:Глава 18

Скриншоты

admin

Post 09-Sep-2019 05:14

[Quote]

Информация о фильме
Название: 12 ребят, которые хотят умереть
Оригинальное название: 12 Suicidal Teens / Jyuni Nin no Shinitai Kodomotachi
Год выхода: 2019
Жанр: триллер, детектив
Режиссер: Юкихико Цуцуми
В ролях: Хана Сугисаки, Макэню Арата, Такуми Китамура, Махиро Такасуги, Юина Куросима, Канна Хасимото, Аи Ёсикава, Рику Хагивара, Юто Футино, Рёта Бандо
Описание: 12 парней и девушек, которые решили покончить с собой, собираются в заброшенном доме. Когда они находят тело и пытаются выяснить, кто убийца, всплывают причины каждого отважившегося на такой отчаянный шаг.

Страна: Япония
Продолжительность: 01:58:14
Перевод: любительский (двухголосый закадровый) XDUB DORAMA
Субтитры: английские, китайские, японские, русские & английские (форсированные на песню в титрах)
Оригинальная аудиодорожка: японский
Файл
Качество: BDRip 720p
Видео: AVC (x264), 1280x536 (2.40:1) at 23,976 fps, 4644 Кbps
Аудио 1: AC3; 192 Kbps; CBR; 2 ch; 48 khz | DVO - XDUB DORAMA |
Аудио 2: AC3; 640 Kbps; CBR; 6 ch; 48 khz | Японский |

Скриншоты

MediaInfo

General
Unique ID : 256787400719516309385147931384823696155 (0xC12F7456185D47C19199FA9E1C104B1B)
Complete name : 12 ребят, которые хотят умереть.2019.DVO.720p.BluRay.x264-WiKi.mkv
Format : Matroska
Format version : Version 4
File size : 4.57 GiB
Duration : 1 h 58 min
Overall bit rate : 5 530 kb/s
Movie name : 12 Suicidal Teens [2019] [720p] DVO
Encoded date : UTC 2019-09-03 23:45:20
Writing application : mkvmerge v37.0.0 ('Leave It') 32-bit
Writing library : libebml v1.3.9 + libmatroska v1.5.2
Attachments : poster.jpg
DIRECTOR : Yukihiko Tsutsumi
GENRE : Mystery, Thriller
IMDB : tt9214844
Video
ID : 1
Format : AVC
Format/Info : Advanced Video Codec
Format profile : High@L4.1
Format settings : CABAC / 12 Ref Frames
Format settings, CABAC : Yes
Format settings, Reference frames : 12 frames
Codec ID : V_MPEG4/ISO/AVC
Duration : 1 h 58 min
Bit rate : 4 644 kb/s
Width : 1 280 pixels
Height : 536 pixels
Display aspect ratio : 2.40:1
Frame rate mode : Constant
Frame rate : 23.976 (24000/1001) FPS
Color space : YUV
Chroma subsampling : 4:2:0
Bit depth : 8 bits
Scan type : Progressive
Bits/(Pixel*Frame) : 0.282
Stream size : 3.84 GiB (84%)
Writing library : x264 core 129 r2245+704+36 8e61944 tMod+MixAQ [8-bit@4:2:0 X86_64]
Encoding settings : cabac=1 / ref=12 / deblock=1:-3:-3 / analyse=0x3:0x133 / me=umh / subme=11 / psy=1 / fade_compensate=0.00 / psy_rd=1.05:0.10 / mixed_ref=1 / me_range=32 / chroma_me=1 / trellis=2 / 8x8dct=1 / cqm=0 / deadzone=21,11 / fast_pskip=0 / chroma_qp_offset=-3 / threads=18 / lookahead_threads=3 / sliced_threads=0 / nr=0 / decimate=0 / interlaced=0 / bluray_compat=0 / constrained_intra=0 / fgo=0 / bframes=10 / b_pyramid=2 / b_adapt=2 / b_bias=0 / direct=3 / weightb=1 / open_gop=0 / weightp=2 / keyint=250 / keyint_min=23 / scenecut=40 / intra_refresh=0 / rc=2pass / mbtree=0 / bitrate=4644 / ratetol=1.0 / qcomp=0.70 / qpmin=0 / qpmax=69 / qpstep=4 / cplxblur=20.0 / qblur=0.5 / ip_ratio=1.40 / pb_ratio=1.30 / aq=1 / aq-strength=0.90 / aq-sensitivity=10.00 / aq-ifactor=1.00 / aq-pfactor=1.00 / aq-bfactor=1.00 / aq2=0
Language : Japanese
Default : Yes
Forced : No
Audio #1
ID : 2
Format : AC-3
Format/Info : Audio Coding 3
Commercial name : Dolby Digital
Codec ID : A_AC3
Duration : 1 h 58 min
Bit rate mode : Constant
Bit rate : 192 kb/s
Channel(s) : 2 channels
Channel layout : L R
Sampling rate : 48.0 kHz
Frame rate : 31.250 FPS (1536 SPF)
Bit depth : 16 bits
Compression mode : Lossy
Stream size : 162 MiB (3%)
Title : DVO [XDUB DORAMA]
Language : Russian
Service kind : Complete Main
Default : Yes
Forced : No
Audio #2
ID : 3
Format : AC-3
Format/Info : Audio Coding 3
Commercial name : Dolby Digital
Codec ID : A_AC3
Duration : 1 h 58 min
Bit rate mode : Constant
Bit rate : 640 kb/s
Channel(s) : 6 channels
Channel layout : L R C LFE Ls Rs
Sampling rate : 48.0 kHz
Frame rate : 31.250 FPS (1536 SPF)
Bit depth : 16 bits
Compression mode : Lossy
Stream size : 541 MiB (12%)
Language : Japanese
Service kind : Complete Main
Default : No
Forced : No
Text #1
ID : 4
Format : UTF-8
Codec ID : S_TEXT/UTF8
Codec ID/Info : UTF-8 Plain Text
Duration : 4 min 4 s
Bit rate : 184 b/s
Count of elements : 53
Stream size : 5.51 KiB (0%)
Title : russian translation song forced
Language : Russian
Default : Yes
Forced : No
Text #2
ID : 5
Format : UTF-8
Codec ID : S_TEXT/UTF8
Codec ID/Info : UTF-8 Plain Text
Duration : 4 min 4 s
Bit rate : 106 b/s
Count of elements : 53
Stream size : 3.17 KiB (0%)
Title : english translation song forced
Language : English
Default : No
Forced : No
Text #3
ID : 6
Format : UTF-8
Codec ID : S_TEXT/UTF8
Codec ID/Info : UTF-8 Plain Text
Duration : 1 h 56 min
Bit rate : 40 b/s
Count of elements : 1259
Stream size : 34.6 KiB (0%)
Title : bluray + song
Language : English
Default : No
Forced : No
Text #4
ID : 7
Format : PGS
Muxing mode : zlib
Codec ID : S_HDMV/PGS
Codec ID/Info : Picture based subtitle format used on BDs/HD-DVDs
Duration : 1 h 56 min
Bit rate : 25.8 kb/s
Count of elements : 2412
Stream size : 21.4 MiB (0%)
Title : bluray
Language : English
Default : No
Forced : No
Text #5
ID : 8
Format : PGS
Muxing mode : zlib
Codec ID : S_HDMV/PGS
Codec ID/Info : Picture based subtitle format used on BDs/HD-DVDs
Duration : 1 h 56 min
Bit rate : 26.6 kb/s
Count of elements : 2422
Stream size : 22.1 MiB (0%)
Title : bluray
Language : Chinese
Default : No
Forced : No
Text #6
ID : 9
Format : PGS
Muxing mode : zlib
Codec ID : S_HDMV/PGS
Codec ID/Info : Picture based subtitle format used on BDs/HD-DVDs
Duration : 1 h 57 min
Bit rate : 75.1 kb/s
Count of elements : 4162
Stream size : 63.0 MiB (1%)
Title : bluray
Language : Japanese
Default : No
Forced : No
Menu
00:00:00.000 : en:第 01 章
00:00:27.027 : en:第 02 章
00:01:05.064 : en:第 03 章
00:13:04.909 : en:第 04 章
00:16:15.307 : en:第 05 章
00:20:59.174 : en:第 06 章
00:24:26.006 : en:第 07 章
00:28:38.508 : en:第 08 章
00:30:25.615 : en:第 09 章
00:32:44.003 : en:第 10 章
00:35:04.519 : en:第 11 章
00:36:01.158 : en:第 12 章
00:39:06.135 : en:第 13 章
00:42:58.993 : en:第 14 章
00:46:14.188 : en:第 15 章
00:53:50.060 : en:第 16 章
01:01:52.375 : en:第 17 章
01:07:20.369 : en:第 18 章
01:14:16.535 : en:第 19 章
01:25:28.164 : en:第 20 章
01:27:29.994 : en:第 21 章
01:38:56.347 : en:第 22 章
01:50:28.330 : en:第 23 章
01:53:34.808 : en:第 24 章

admin

Post 14-Aug-2019 01:56

[Quote]

Информация о фильме
Название: Человек из ниоткуда
Оригинальное название: Ajeossi / The Man from Nowhere
Год выхода: 2010
Жанр: Боевик, триллер, криминал
Режиссер: Ли Чжон Бом
В ролях: Вон Бин, Ким Сэ Рон, Ким Хе Со, Ким Хый Вон, Ким Тхэ Хун, Ким Сон О, Танайонг Вонгтракул, Сон Юн Чан, Чо Сок Хен
О фильме:
Чха Тхэ Сик - скромный владелец ломбарда. Девочка Чон Соме его соседка и дочь матери-одиночки, которая работает в баре танцовщицей и не столько увлекается воспитанием ребенка, сколько ищет острых ощущений на свою и без того повидавшую виды, неудавшуюся жизнь. И вот однажды мать Соме вместе со своим парнем решает обокрасть наркокурьера, который регулярно появляется в заведении, где она выступает…

Выпущено: Южная Корея / Cinema Service, Opus Pictures, United Pictures
Продолжительность: 01:59:18
Перевод: Авторский (одноголосый закадровый), профессиональный (двухголосый закадровый)
Файл
Кодек: MPEG-4 AVC
Качество: BDRip 720p
Видео: AVC, 1280x546 (2.35:1), 23.976 fps, 3965 kbps
Аудио #1: AC3, 48 kHz, 6 ch, 448 kbps - AVO Е.Гаевский
Аудио #2: AC3, 48 kHz, 6 ch, 448 kbps - AVO Ю.Сербин
Аудио #3: AC3, 48 kHz, 6 ch, 384 kbps - DVO НТВ
Субтитры: Russian, English

x264 & MI

x264 [info]: frame I:1406 Avg QP:16.43 size: 97156 PSNR Mean Y:46.54 U:48.74 V:49.96 Avg:47.26 Global:46.30
x264 [info]: frame P:38274 Avg QP:19.27 size: 41196 PSNR Mean Y:44.84 U:47.18 V:48.94 Avg:45.62 Global:44.51
x264 [info]: frame B:131977 Avg QP:21.25 size: 13880 PSNR Mean Y:44.02 U:46.29 V:48.65 Avg:44.83 Global:43.58
Полное имя : D:ФИЛЬМЫЧеловек из ниоткуда.2010 (Ю.Корея).mkv
Формат : Matroska
Версия формата : Version 2
Размер файла : 4,37 Гбайт
Продолжительность : 1 ч. 59 м.
Общий поток : 5243 Кбит/сек
Дата кодирования : UTC 2019-08-13 02:24:32
Программа кодирования : mkvmerge v5.3.0 ('I could have danced') built on Feb 9 2012 10:38:07
Библиотека кодирования : libebml v1.2.3 + libmatroska v1.3.0
Обложка : Yes
Attachments : cover (2).jpg
Видео
Идентификатор : 1
Формат : AVC
Формат/Информация : Advanced Video Codec
Профиль формата : High@L4.1
Настройки формата : CABAC / 11 Ref Frames
Параметр CABAC формата : Да
Параметр RefFrames формата : 11 кадров
Идентификатор кодека : V_MPEG4/ISO/AVC
Продолжительность : 1 ч. 59 м.
Битрейт : 3965 Кбит/сек
Ширина : 1280 пикселей
Высота : 546 пикселей
Соотношение сторон : 2,35:1
Режим частоты кадров : Постоянный
Частота кадров : 23,976 (24000/1001) кадра/сек
Цветовое пространство : YUV
Субдискретизация насыщенности : 4:2:0
Битовая глубина : 8 бит
Тип развёртки : Прогрессивная
Бит/(Пиксели*Кадры) : 0.237
Размер потока : 3,22 Гбайт (74%)
Библиотека кодирования : x264 core 157 r2945 72db437
Настройки программы : cabac=1 / ref=11 / deblock=1:-3:-3 / analyse=0x3:0x133 / me=umh / subme=11 / psy=1 / psy_rd=1.00:0.15 / mixed_ref=1 / me_range=32 / chroma_me=1 / trellis=2 / 8x8dct=1 / cqm=0 / deadzone=21,11 / fast_pskip=0 / chroma_qp_offset=-3 / threads=12 / lookahead_threads=3 / sliced_threads=0 / nr=0 / decimate=0 / interlaced=0 / bluray_compat=0 / constrained_intra=0 / bframes=12 / b_pyramid=2 / b_adapt=2 / b_bias=0 / direct=3 / weightb=1 / open_gop=0 / weightp=2 / keyint=240 / keyint_min=23 / scenecut=40 / intra_refresh=0 / rc=2pass / mbtree=0 / bitrate=3965 / ratetol=1.0 / qcomp=0.75 / qpmin=0 / qpmax=69 / qpstep=4 / cplxblur=20.0 / qblur=0.5 / ip_ratio=1.30 / pb_ratio=1.30 / aq=3:0.90
Язык : English
Default : Да
Forced : Нет
Цветовой диапазон : Limited
Основные цвета : BT.709
Характеристики трансфера : BT.709
Коэффициенты матрицы : BT.709
Аудио #1
Идентификатор : 2
Формат : AC-3
Формат/Информация : Audio Coding 3
Коммерческое название : Dolby Digital
Идентификатор кодека : A_AC3
Продолжительность : 1 ч. 59 м.
Вид битрейта : Постоянный
Битрейт : 448 Кбит/сек
Каналы : 6 каналов
ChannelLayout : L R C LFE Ls Rs
Частота : 48,0 КГц
Частота кадров : 31,250 кадров/сек (1536 SPF)
Битовая глубина : 16 бит
Метод сжатия : С потерями
Размер потока : 382 Мбайт (9%)
Заголовок : AVO Е.Гаевский
Язык : Russian
ServiceKind/String : Complete Main
Default : Да
Forced : Нет
Аудио #2
Идентификатор : 3
Формат : AC-3
Формат/Информация : Audio Coding 3
Коммерческое название : Dolby Digital
Идентификатор кодека : A_AC3
Продолжительность : 1 ч. 59 м.
Вид битрейта : Постоянный
Битрейт : 448 Кбит/сек
Каналы : 6 каналов
ChannelLayout : L R C LFE Ls Rs
Частота : 48,0 КГц
Частота кадров : 31,250 кадров/сек (1536 SPF)
Битовая глубина : 16 бит
Метод сжатия : С потерями
Размер потока : 382 Мбайт (9%)
Заголовок : AVO Ю.Сербин
Язык : Russian
ServiceKind/String : Complete Main
Default : Нет
Forced : Нет
Аудио #3
Идентификатор : 4
Формат : AC-3
Формат/Информация : Audio Coding 3
Коммерческое название : Dolby Digital
Идентификатор кодека : A_AC3
Продолжительность : 1 ч. 59 м.
Вид битрейта : Постоянный
Битрейт : 384 Кбит/сек
Каналы : 6 каналов
ChannelLayout : L R C LFE Ls Rs
Частота : 48,0 КГц
Частота кадров : 31,250 кадров/сек (1536 SPF)
Битовая глубина : 16 бит
Метод сжатия : С потерями
Размер потока : 328 Мбайт (7%)
Заголовок : DVO НТВ
Язык : Russian
ServiceKind/String : Complete Main
Default : Нет
Forced : Нет
Текст #1
Идентификатор : 5
Формат : UTF-8
Идентификатор кодека : S_TEXT/UTF8
Идентификатор кодека/Информация : UTF-8 Plain Text
Язык : Russian
Default : Нет
Forced : Нет
Текст #2
Идентификатор : 6
Формат : UTF-8
Идентификатор кодека : S_TEXT/UTF8
Идентификатор кодека/Информация : UTF-8 Plain Text
Язык : English
Default : Нет
Forced : Нет

Скриншоты


admin

Post 18-Jul-2019 05:49

[Quote]

Большой брат / Big Brother / Dai si hing
Страна: Гонконг
Производство: Mega-Vision Pictures (MVP), Bullet Films
Год выпуска: 2018
Жанр: боевик, комедия
Продолжительность: 01:41:07
Режиссер: Кам Ка-Вай
В ролях: Донни Йен, Джо Чэнь, Юй Кан, Том Касерто, Брахим Ачаббаке, Альфред Чун, Джей Дэй, Семиквавер Иафета, Ка Ва Лам, Билли Лау
Описание: Мистер Чэн приходит устраиваться учителем в обычную гонконгскую школу. Учебное заведение находится на грани закрытия, так как поступаемость в вузы у её выпускников почти нулевая. Но мистер Чэн, обладающий полезными знаниями, эффективными умениями и необычными методами преподавания, начинает бороться с неуспеваемостью и хромающей дисциплиной в классе...

Перевод: Профессиональный (многоголосый, закадровый) | HDRezka Studio
Субтитры: русские (forced), английские (full)-Качество: BDRip 1080p
Формат: MKV
Видео кодек: AVC
Аудио кодек: АС3
Видео: 1920x804 (2.40:1), 24.000 fps, MPEG-4 AVC ~11.5 Mbps avg
Аудио №1: 48.0 kHz, AC3 Dolby Digital, 2/0 (L,R) ch, ~192 kbps | RUS / MVO
Аудио №2: 48.0 kHz, AC3 Dolby Digital, 3/2 (L,C,R,l,r) + LFE ch, ~640 kbps | CHI
Формат субтитров: UTF-8 Plain Text
Дата премьеры (мир): 1 августа 2018

Media Info

General
Unique ID : 84912524032686954070572687331743861140 (0x3FE18EA92B1DADAC002ACD54E38D8994)
Complete name : Big.Brother.2018.BDRip.1080p.mkv
Format : Matroska
Format version : Version 4 / Version 2
File size : 8.68 GiB
Duration : 1 h 41 min
Overall bit rate : 12.3 Mb/s
Encoded date : UTC 2019-07-17 05:57:03
Writing application : mkvmerge v20.0.0 ('I Am The Sun') 64-bit
Writing library : libebml v1.3.5 + libmatroska v1.4.8
Video
ID : 1
Format : AVC
Format/Info : Advanced Video Codec
Format profile : High@L4.1
Format settings : CABAC / 5 Ref Frames
Format settings, CABAC : Yes
Format settings, RefFrames : 5 frames
Codec ID : V_MPEG4/ISO/AVC
Duration : 1 h 41 min
Bit rate : 11.5 Mb/s
Width : 1 920 pixels
Height : 804 pixels
Display aspect ratio : 2.40:1
Frame rate mode : Constant
Frame rate : 24.000 FPS
Color space : YUV
Chroma subsampling : 4:2:0
Bit depth : 8 bits
Scan type : Progressive
Bits/(Pixel*Frame) : 0.309
Stream size : 8.09 GiB (93%)
Writing library : x264 core 129 r2245 bc13772
Encoding settings : cabac=1 / ref=5 / deblock=1:-3:-3 / analyse=0x3:0x133 / me=umh / subme=11 / psy=1 / psy_rd=1.05:0.05 / mixed_ref=1 / me_range=64 / chroma_me=1 / trellis=2 / 8x8dct=1 / cqm=0 / deadzone=21,11 / fast_pskip=0 / chroma_qp_offset=-3 / threads=12 / lookahead_threads=2 / sliced_threads=0 / nr=0 / decimate=1 / interlaced=0 / bluray_compat=0 / constrained_intra=0 / bframes=8 / b_pyramid=2 / b_adapt=2 / b_bias=0 / direct=3 / weightb=1 / open_gop=0 / weightp=2 / keyint=250 / keyint_min=24 / scenecut=40 / intra_refresh=0 / rc_lookahead=60 / rc=2pass / mbtree=1 / bitrate=11459 / ratetol=1.0 / qcomp=0.60 / qpmin=0 / qpmax=69 / qpstep=4 / cplxblur=20.0 / qblur=0.5 / vbv_maxrate=40000 / vbv_bufsize=30000 / nal_hrd=none / ip_ratio=1.40 / aq=1:0.80
Language : English
Default : Yes
Forced : No
Audio #1
ID : 2
Format : AC-3
Format/Info : Audio Coding 3
Codec ID : A_AC3
Duration : 1 h 41 min
Bit rate mode : Constant
Bit rate : 192 kb/s
Channel(s) : 2 channels
Channel positions : Front: L R
Sampling rate : 48.0 kHz
Frame rate : 31.250 FPS (1536 SPF)
Bit depth : 16 bits
Compression mode : Lossy
Stream size : 139 MiB (2%)
Title : MVO HDRezka Studio
Language : Russian
Service kind : Complete Main
Default : Yes
Forced : No
Audio #2
ID : 3
Format : AC-3
Format/Info : Audio Coding 3
Codec ID : A_AC3
Duration : 1 h 41 min
Bit rate mode : Constant
Bit rate : 640 kb/s
Channel(s) : 6 channels
Channel positions : Front: L C R, Side: L R, LFE
Sampling rate : 48.0 kHz
Frame rate : 31.250 FPS (1536 SPF)
Bit depth : 16 bits
Compression mode : Lossy
Stream size : 463 MiB (5%)
Title : 国语
Language : Chinese
Service kind : Complete Main
Default : No
Forced : No
Text #1
ID : 4
Format : UTF-8
Codec ID : S_TEXT/UTF8
Codec ID/Info : UTF-8 Plain Text
Duration : 49 min 39 s
Bit rate : 0 b/s
Count of elements : 7
Stream size : 298 Bytes (0%)
Title : forced
Language : Russian
Default : Yes
Forced : Yes
Text #2
ID : 5
Format : UTF-8
Codec ID : S_TEXT/UTF8
Codec ID/Info : UTF-8 Plain Text
Duration : 1 h 36 min
Bit rate : 65 b/s
Count of elements : 1485
Stream size : 45.8 KiB (0%)
Language : English
Default : No
Forced : No

Скриншоты

admin

Post 15-Jul-2019 05:03

[Quote]

Информация о фильме
Название: Мисс и миссис Коп / Девушки-копы / Копы в юбках
Оригинальное название: Girl Cops / Miss & Mrs. Cops / Geolkapseu
Год выхода: 2019
Жанр: боевик, комедия, криминал
Режиссер: Чон Да-вон
В ролях: Ра Ми-ран, Ли Сон-гён, Юн Сан-хён, Чхве Су-ён, Ём Хе-ран, Ви Ха-джун, Чу У-джэ, Кан Хон-сок, Ким До-ван, Ан Чхан-хван и др.
Описание: Когда-то давно Ми-ён была легендарным детективом, но вышла замуж и стала работать в центре обслуживания населения в полицейском участке. Там она встречается с новенькой Чи-хе, которую сослали на эту работу в качестве наказания. Судьба даёт обеим шанс проявить себя, и женщины берутся за расследование уголовного преступления.

Страна: Южная Корея
Продолжительность: 01:47:36
Перевод: любительский (многоголосый закадровый) STEPonee // перевод: ФСГ 'Зиппер'
Субтитры: русские, корейский хардсаб на другие языки
Оригинальная аудиодорожка: корейский
Файл
Качество: WEB-DL 1080p
Видео: AVC (x264), 1920x1080 (16:9) at 23,976 fps, 5124 kbps
Аудио 1: AAC; 193 kbps; VBR; 2 ch; 48 khz | STEPonee |
Аудио 2: AAC; 321 kbps; VBR; 2 ch; 48 khz | Корейский |

Скриншоты

MediaInfo

General
Unique ID : 252890293489191082461351072082769779035 (0xBE40E61D7EF006A6B42D285A4560995B)
Complete name : Мисс и миссис Коп.2019.MVO.1080p.WEB-DL.x264-NonDRM.mkv
Format : Matroska
Format version : Version 4
File size : 4.24 GiB
Duration : 1 h 47 min
Overall bit rate : 5 640 kb/s
Movie name : Miss & Mrs. Cops [2019] [1080p] MVO, RUSSUB
Encoded date : UTC 2019-07-11 08:53:16
Writing application : mkvmerge v7.8.0 ('River Man') 32bit built on Mar 27 2015 16:18:02
Writing library : libebml v1.3.1 + libmatroska v1.4.2
DIRECTOR : Jung Da-Won
GENRE : Comedy, Crime
IMDB : tt10161238
KEYWORDS : RG Orient Extreme Films , profile.php?mode=viewprofile&u=22488948
Video
ID : 1
Format : AVC
Format/Info : Advanced Video Codec
Format profile : High@L4
Format settings : CABAC / 4 Ref Frames
Format settings, CABAC : Yes
Format settings, Reference frames : 4 frames
Format settings, GOP : M=4, N=23
Codec ID : V_MPEG4/ISO/AVC
Duration : 1 h 47 min
Nominal bit rate : 5 120 kb/s
Width : 1 920 pixels
Height : 1 080 pixels
Display aspect ratio : 16:9
Frame rate mode : Constant
Frame rate : 23.976 (24000/1001) FPS
Color space : YUV
Chroma subsampling : 4:2:0
Bit depth : 8 bits
Scan type : Progressive
Bits/(Pixel*Frame) : 0.103
Writing library : x264 core 148 r2768 d32d7bf
Encoding settings : cabac=1 / ref=3 / deblock=1:0:0 / analyse=0x3:0x113 / me=hex / subme=8 / psy=1 / psy_rd=1.00:0.00 / mixed_ref=1 / me_range=16 / chroma_me=1 / trellis=2 / 8x8dct=1 / cqm=0 / deadzone=21,11 / fast_pskip=1 / chroma_qp_offset=-2 / threads=24 / lookahead_threads=4 / sliced_threads=0 / nr=0 / decimate=1 / interlaced=0 / bluray_compat=0 / stitchable=1 / constrained_intra=0 / bframes=3 / b_pyramid=2 / b_adapt=1 / b_bias=0 / direct=3 / weightb=1 / open_gop=0 / weightp=2 / keyint=23 / keyint_min=12 / scenecut=40 / intra_refresh=0 / rc_lookahead=23 / rc=2pass / mbtree=1 / bitrate=5120 / ratetol=1.0 / qcomp=0.60 / qpmin=0 / qpmax=69 / qpstep=4 / cplxblur=20.0 / qblur=0.5 / ip_ratio=1.40 / aq=1:1.00
Language : Korean
Default : Yes
Forced : No
Audio #1
ID : 2
Format : AAC LC
Format/Info : Advanced Audio Codec Low Complexity
Codec ID : A_AAC-2
Duration : 1 h 47 min
Channel(s) : 2 channels
Channel layout : L R
Sampling rate : 48.0 kHz
Frame rate : 46.875 FPS (1024 SPF)
Compression mode : Lossy
Title : MVO [STEPonee]
Language : Russian
Default : Yes
Forced : No
Audio #2
ID : 3
Format : AAC LC
Format/Info : Advanced Audio Codec Low Complexity
Codec ID : A_AAC-2
Duration : 1 h 47 min
Channel(s) : 2 channels
Channel layout : L R
Sampling rate : 48.0 kHz
Frame rate : 46.875 FPS (1024 SPF)
Compression mode : Lossy
Language : Korean
Default : No
Forced : No
Text
ID : 4
Format : UTF-8
Codec ID : S_TEXT/UTF8
Codec ID/Info : UTF-8 Plain Text
Title : [не оригинальный] ФСГ 'zipper'
Language : Russian
Default : No
Forced : No
ЦитатаКто-то писал:
ВНИМАНИЕ: ФИЛЬМ СОДЕРЖИТ НЕЦЕНЗУРНУЮ ЛЕКСИКУ!
■ STEPonee - над озвучкой работали:
роли озвучивали: Кирилл Адылшин, Ирина Пометнёва, Дарья Горбушина; перевод: ФСГ 'Зиппер';
обработка звука и монтаж: Ирина Пометнёва; тайминг: Кирилл Адылшин
√ Русские субтитры распознаны с хардсаба. За хардсаб огромное спасибо: ФСГ 'Зиппер'
√ Источник WEB-DL - магазин Naver nstore

admin

Post 13-Jul-2019 06:22

[Quote]

Информация о фильме
Название: Фурия
Оригинальное название: Hai Phuong
Год выхода: 2019
Жанр: Боевик, криминал
Режиссер: Ле-Ван Киэт
В ролях: Вероника Нго, Дженнифер Аликс, Фам Анх Хоа, Тхань Ньен Фан, Брианна Робертс, Элизабет Суит, Ким Лонг Тач, Хоа Чан
О фильме:
10 лет назад бывшая глава преступной группировки залегла на дно в сельской местности, родила девочку и наслаждается простым женским счастьем. Поскольку делать женщина ничего полезного не умеет, то занимается сбором долгов. Дочка Май из-за этого переживает и мечтает, что когда-нибудь они откроют рыбную ферму, и маме больше не нужно будет выполнять эту постыдную работу. Внезапно Май похищает международная организация торговцев людьми, и женщина превращается в смертоносную фурию — она пойдёт до конца, чтобы спасти дочь, а негодяям придется пожалеть о своем поступке...

Страна: Вьетнам
Студия: Studio 68, Netflix
Продолжительность: 01:37:19
Перевод: Профессиональный многоголосый | СВ Студия -ненормативная лексика
Файл
Качество: BDRip 1080p
Видео: AVC/H.264, 1920x804, 7830 Кbps, 24 fps
Звук:
Аудио 1: AC3, 6 ch, 640 Kbps - Русский
Аудио 2: DTS, 6 ch, 1509 Kbps - Bьетнамский
Субтитры: Английские (Full, SDH)

Mediainfo

Общее
Уникальный идентификатор : 139439466792003674988860868210789621598 (0x68E7107FF4052922E723BED6E8BA9F5E)
Полное имя : Hai Phuong.2019.BDRip.1080p.W.mkv
Формат : Matroska
Версия формата : Version 4
Размер файла : 6,79 Гбайт
Продолжительность : 1 ч. 37 м.
Общий поток : 9981 Кбит/сек
Название фильма : Hai Phuong / Furie.2019.BDRip.1080p.W
Дата кодирования : UTC 2019-07-12 08:31:04
Программа кодирования : mkvmerge v23.0.0 ('The Bride Said No') 64-bit
Библиотека кодирования : libebml v1.3.6 + libmatroska v1.4.9
Видео
Идентификатор : 1
Формат : AVC
Формат/Информация : Advanced Video Codec
Профиль формата : High@L4.1
Настройки формата : CABAC / 5 Ref Frames
Параметр CABAC формата : Да
Параметр RefFrames формата : 5 кадров
Идентификатор кодека : V_MPEG4/ISO/AVC
Продолжительность : 1 ч. 37 м.
Битрейт : 7830 Кбит/сек
Ширина : 1920 пикселей
Высота : 804 пикселя
Соотношение сторон : 2,40:1
Режим частоты кадров : Постоянный
Частота кадров : 24,000 кадра/сек
Цветовое пространство : YUV
Субдискретизация насыщенности : 4:2:0
Битовая глубина : 8 бит
Тип развёртки : Прогрессивная
Бит/(Пиксели*Кадры) : 0.211
Размер потока : 5,32 Гбайт (78%)
Заголовок : rip by -=walledol=-
Библиотека кодирования : x264 core 157 r2945 72db437
Настройки программы : cabac=1 / ref=5 / deblock=1:-3:-3 / analyse=0x3:0x133 / me=umh / subme=11 / psy=1 / psy_rd=1.00:0.00 / mixed_ref=1 / me_range=32 / chroma_me=1 / trellis=2 / 8x8dct=1 / cqm=0 / deadzone=21,11 / fast_pskip=0 / chroma_qp_offset=-2 / threads=12 / lookahead_threads=2 / sliced_threads=0 / nr=0 / decimate=1 / interlaced=0 / bluray_compat=0 / constrained_intra=0 / bframes=9 / b_pyramid=2 / b_adapt=2 / b_bias=0 / direct=3 / weightb=1 / open_gop=0 / weightp=2 / keyint=240 / keyint_min=24 / scenecut=40 / intra_refresh=0 / rc_lookahead=60 / rc=2pass / mbtree=1 / bitrate=7830 / ratetol=1.0 / qcomp=0.60 / qpmin=0 / qpmax=69 / qpstep=4 / cplxblur=20.0 / qblur=0.5 / vbv_maxrate=30000 / vbv_bufsize=33000 / nal_hrd=none / filler=0 / ip_ratio=1.40 / aq=3:0.80
Язык : Vietnamese
Default : Да
Forced : Нет
Аудио #1
Идентификатор : 2
Формат : AC-3
Формат/Информация : Audio Coding 3
Коммерческое название : Dolby Digital
Идентификатор кодека : A_AC3
Продолжительность : 1 ч. 37 м.
Вид битрейта : Постоянный
Битрейт : 640 Кбит/сек
Каналы : 6 каналов
ChannelLayout : L R C LFE Ls Rs
Частота : 48,0 КГц
Частота кадров : 31,250 кадров/сек (1536 SPF)
Битовая глубина : 16 бит
Метод сжатия : С потерями
Размер потока : 445 Мбайт (6%)
Заголовок : MVO | СВ Студия
Язык : Russian
ServiceKind : Complete Main
Default : Да
Forced : Нет
Аудио #2
Идентификатор : 3
Формат : DTS
Формат/Информация : Digital Theater Systems
Идентификатор кодека : A_DTS
Продолжительность : 1 ч. 37 м.
Вид битрейта : Постоянный
Битрейт : 1509 Кбит/сек
Каналы : 6 каналов
ChannelLayout : C L R Ls Rs LFE
Частота : 48,0 КГц
Частота кадров : 93,750 кадра/сек (512 SPF)
Битовая глубина : 16 бит
Метод сжатия : С потерями
Размер потока : 1,03 Гбайт (15%)
Язык : Vietnamese
Default : Нет
Forced : Нет
Текст #1
Идентификатор : 4
Формат : UTF-8
Идентификатор кодека : S_TEXT/UTF8
Идентификатор кодека/Информация : UTF-8 Plain Text
Продолжительность : 1 ч. 30 м.
Битрейт : 37 бит/сек
ElementCount : 849
Размер потока : 24,8 Кбайт (0%)
Заголовок : Full
Язык : English
Default : Нет
Forced : Нет
Текст #2
Идентификатор : 5
Формат : UTF-8
Идентификатор кодека : S_TEXT/UTF8
Идентификатор кодека/Информация : UTF-8 Plain Text
Продолжительность : 1 ч. 30 м.
Битрейт : 39 бит/сек
ElementCount : 921
Размер потока : 26,3 Кбайт (0%)
Заголовок : SDH
Язык : English
Default : Нет
Forced : Нет
Меню
00:00:00.000 : en:Chapter 1
00:07:58.083 : en:Chapter 2
00:18:37.750 : en:Chapter 3
00:25:33.375 : en:Chapter 4
00:34:46.750 : en:Chapter 5
00:45:30.500 : en:Chapter 6
00:54:38.791 : en:Chapter 7
01:02:59.416 : en:Chapter 8
01:09:26.125 : en:Chapter 9
01:13:43.541 : en:Chapter 10
01:23:34.208 : en:Chapter 11
01:32:52.708 : en:Chapter 12
01:37:18.458 : en:Chapter 13

Скриншоты

admin

Post 23-Jun-2019 20:27

[Quote]

Информация о фильме
Название: Проект «Гутенберг»
Оригинальное название: Wu shuang (Project Gutenberg)
Год выхода: 2018
Жанр: боевик, криминал, детектив
Режиссер: Феликс Чон
В ролях: Юнь-Фат Чоу, Аарон Квок, Цзинчу Чжан, Кэтрин Чау, Дэвид Ван, Лиу Кай-Чи, Джастин Чунг, Джойс Фэн, Алекс Фун
О фильме: Сидящего в тюрьме мошенника Ли Маня вызывают на допрос в полицию. Его бывшая подруга Юэнь, а ныне — всемирно признанная художница, хочет внести за него залог, и теперь полиция пытается выяснить всё, что тот знает о своём бывшем подельнике по кличке Художник. Некоторое время назад Ли Мань жил в Канаде и безуспешно пытался стать настоящим артистом, но арт-агенты хотели выставлять только работы Юэнь. Парень уже почти отчаялся, когда на него вышел Художник и предложил вместе с командой профессионалов создать супердоллары — неотличимые от настоящих подделки.

Страна: Китай, Гонконг
Продолжительность: 02:10:41
Перевод: Любительский (двухголосый, закадровый) | HiWayGrope
Файл
Кодек: x.264
Качество: BDRip 1080p (Project.Gutenberg.2018.CHINESE.1080p.BluRay.x264-WiKi)
Видео: AVC, 1920x804 (2.40:1), 24.000 fps, 18.5 Mb/s
Аудио #1: AC3, 48.0 KHz, 2 ch, 192 Kbps | RUS
Аудио #2: AC3, 48.0 KHz, 6 ch, 640 Kbps | CHN
Субтитры: Английские, китайские
Сэмпл

MI

General
Unique ID : 188701609234812324639889612205406760886 (0x8DF69BA471321F62BD30D03DF43B2FB6)
Complete name : Project.Gutenberg.2018.1080p.BDRip.mkv
Format : Matroska
Format version : Version 4
File size : 17.6 GiB
Duration : 2 h 10 min
Overall bit rate : 19.3 Mb/s
Encoded date : UTC 2019-06-23 12:19:51
Writing application : mkvmerge v8.3.0 ('Over the Horizon') 64bit
Writing library : libebml v1.3.1 + libmatroska v1.4.2
Video
ID : 1
Format : AVC
Format/Info : Advanced Video Codec
Format profile : High@L4.1
Format settings : CABAC / 5 Ref Frames
Format settings, CABAC : Yes
Format settings, ReFrames : 5 frames
Codec ID : V_MPEG4/ISO/AVC
Duration : 2 h 10 min
Bit rate : 18.5 Mb/s
Width : 1 920 pixels
Height : 804 pixels
Display aspect ratio : 2.40:1
Frame rate mode : Constant
Frame rate : 24.000 FPS
Color space : YUV
Chroma subsampling : 4:2:0
Bit depth : 8 bits
Scan type : Progressive
Bits/(Pixel*Frame) : 0.499
Stream size : 16.8 GiB (96%)
Writing library : x264 core 155 r2867+82 a249126 t_mod_Custom_2 [8-bit@all X86_64]
Encoding settings : cabac=1 / ref=5 / deblock=1:-3:-3 / analyse=0x3:0x133 / me=umh / subme=10 / psy=1 / fade_compensate=0.00 / psy_rd=1.05:0.00 / mixed_ref=1 / me_range=32 / chroma_me=1 / trellis=2 / 8x8dct=1 / cqm=0 / deadzone=21,11 / fast_pskip=0 / chroma_qp_offset=-2 / threads=24 / lookahead_threads=4 / sliced_threads=0 / nr=0 / decimate=0 / interlaced=0 / bluray_compat=0 / constrained_intra=0 / fgo=0 / bframes=7 / b_pyramid=2 / b_adapt=2 / b_bias=0 / direct=3 / weightb=1 / open_gop=0 / weightp=2 / keyint=250 / keyint_min=24 / scenecut=40 / intra_refresh=0 / rc_lookahead=60 / rc=2pass / mbtree=0 / bitrate=18500 / ratetol=1.0 / qcomp=0.60 / qpmin=0:0:0 / qpmax=69:69:69 / qpstep=4 / cplxblur=20.0 / qblur=0.5 / vbv_maxrate=62500 / vbv_bufsize=78125 / nal_hrd=none / filler=0 / ip_ratio=1.20 / pb_ratio=1.15 / aq=1:0.80 / aq-sensitivity=10.00 / aq-factor=1.00:1.00:1.00 / aq2=0 / aq3=0 / zones=2077,2408,b=2/86353,88927,b=2
Language : English
Default : Yes
Forced : No
Audio #1
ID : 2
Format : AC-3
Format/Info : Audio Coding 3
Commercial name : Dolby Digital
Codec ID : A_AC3
Duration : 2 h 10 min
Bit rate mode : Constant
Bit rate : 192 kb/s
Channel(s) : 2 channels
Channel layout : L R
Sampling rate : 48.0 kHz
Frame rate : 31.250 FPS (1536 SPF)
Bit depth : 16 bits
Compression mode : Lossy
Stream size : 179 MiB (1%)
Title : HiWayGrope
Language : Russian
Default : Yes
Forced : No
Audio #2
ID : 3
Format : AC-3
Format/Info : Audio Coding 3
Commercial name : Dolby Digital
Codec ID : A_AC3
Duration : 2 h 10 min
Bit rate mode : Constant
Bit rate : 640 kb/s
Channel(s) : 6 channels
Channel layout : L R C LFE Ls Rs
Sampling rate : 48.0 kHz
Frame rate : 31.250 FPS (1536 SPF)
Bit depth : 16 bits
Compression mode : Lossy
Stream size : 598 MiB (3%)
Language : Chinese
Default : No
Forced : No
Text #1
ID : 4
Format : UTF-8
Codec ID : S_TEXT/UTF8
Codec ID/Info : UTF-8 Plain Text
Duration : 2 h 3 min
Bit rate : 38 b/s
Count of elements : 1417
Stream size : 35.0 KiB (0%)
Title : Full
Language : English
Default : No
Forced : No
Text #2
ID : 5
Format : UTF-8
Codec ID : S_TEXT/UTF8
Codec ID/Info : UTF-8 Plain Text
Duration : 2 h 3 min
Bit rate : 30 b/s
Count of elements : 1385
Stream size : 27.6 KiB (0%)
Title : CHS_R3
Language : Chinese
Default : No
Forced : No
Text #3
ID : 6
Format : UTF-8
Codec ID : S_TEXT/UTF8
Codec ID/Info : UTF-8 Plain Text
Duration : 2 h 3 min
Bit rate : 30 b/s
Count of elements : 1385
Stream size : 27.6 KiB (0%)
Title : CHT_R3
Language : Chinese
Default : No
Forced : No
Menu
00:00:00.000 : en:00:00:00.000
00:05:30.875 : en:00:05:30.875
00:10:19.583 : en:00:10:19.583
00:15:24.000 : en:00:15:24.000
00:21:28.458 : en:00:21:28.458
00:29:20.583 : en:00:29:20.583
00:34:57.333 : en:00:34:57.333
00:44:10.875 : en:00:44:10.875
00:55:46.583 : en:00:55:46.583
01:03:40.708 : en:01:03:40.708
01:11:23.750 : en:01:11:23.750
01:20:25.833 : en:01:20:25.833
01:25:26.042 : en:01:25:26.042
01:30:21.167 : en:01:30:21.167
01:34:57.250 : en:01:34:57.250
01:43:10.792 : en:01:43:10.792
01:49:39.125 : en:01:49:39.125
01:55:43.208 : en:01:55:43.208
01:58:50.417 : en:01:58:50.417
02:06:48.250 : en:02:06:48.250

Скриншоты

admin

Post 08-Jun-2019 02:02

[Quote]

Информация о фильме
Название: Плохой коп
Оригинальное название: Akjilgyeongchal / Jo Pil-ho: The Dawning Rage / Bad Police
Год выхода: 2019
Жанр: Боевик, криминал, детектив, триллер
Режиссер: Чжон Бом Ли
В ролях: Сон Гён Ли, Со Ни Чон, Хэ Чжун Пак, Ён Чан Сон, Бён Ын Пак, Хён Гук Им, Мин Чжэ Ким (I), Га Рам Чон, Хан Соль Квон, Ю Ён Ли (I), Хи Джун О
О фильме:
Беспринципный полицейский Чо Пиль-хо не гнушается грязными способами заработка - берёт взятки и даже работает в паре с грабителем. А когда к нему вплотную подбираются детективы из отдела внутренних расследований, Пиль-хо вынуждает своего криминального напарника обчистить полицейский склад вещдоков. Но во время ограбления происходит мощный взрыв и пожар - грабитель погибает, а сам Пиль-хо теряет сознание на месте преступления. Очнувшись в больнице, он узнаёт, что начальник в бешенстве, а отдел внутренних расследований радостно потирает руки, и теперь плохому копу придётся очень сильно постараться, чтобы выкрутиться из этой ситуации.

Страна: Корея Южная
Студия: Dice Film, Generation Blue Films, Sega Sammy Entertainment
Продолжительность: 02:07:48
Перевод: Любительский двухголосый | LakeFilms
Файл
Кодек: AVC
Качество: WEB-DL 1080p | Jo.Pil-ho.The.Dawning.Rage.2019.KOREAN.1080p.NF.WEBRip.DDP5.1.x264-NTG
Видео: MPEG-4 AVC, 4355 Kбит/с, 1920x1080, 23.976 кадр/с
Звук: Релиз без Рекламы!
Аудио #1: Русский (АС3, 2ch, 256 Кбит/с, 48.0 KHz) Любительский (двухголосый, закадровый) LakeFilms
Аудио #2: Корейский (E-АС3, 6ch, 640 Кбит/с, 48.0 KHz)
Субтитры: Русские, английские, испанские, французские, немецкие, итальянские, португальские, польские, турецкие, шведские, финские, норвежские, греческие, иврит, румынские, корейские, китайские | Нетфликс

MediaInfo

Источник: Jo.Pil-ho.The.Dawning.Rage.2019.KOREAN.1080p.NF.WEBRip.DDP5.1.x264-NTG
General
Unique ID : 187703926004601293897874665589633668824 (0x8D36760FB4564763B2435FF9A2E356D8)
Complete name : Bad.Police.2019.NF.WEB-DL.1080p.mkv
Format : Matroska
Format version : Version 4
File size : 4.69 GiB
Duration : 2 h 7 min
Overall bit rate mode : Variable
Overall bit rate : 5 254 kb/s
Encoded date : UTC 2019-06-07 07:10:10
Writing application : mkvmerge v7.1.0 ('Good Love') 64bit built on Jul 27 2014 13:06:55
Writing library : libebml v1.3.0 + libmatroska v1.4.1
Video
ID : 1
Format : AVC
Format/Info : Advanced Video Codec
Format profile : High@L4
Format settings : CABAC / 4 Ref Frames
Format settings, CABAC : Yes
Format settings, Reference fra : 4 frames
Codec ID : V_MPEG4/ISO/AVC
Duration : 2 h 7 min
Bit rate mode : Variable
Bit rate : 4 355 kb/s
Maximum bit rate : 20.0 Mb/s
Width : 1 920 pixels
Height : 1 080 pixels
Display aspect ratio : 16:9
Frame rate mode : Constant
Frame rate : 23.976 (24000/1001) FPS
Color space : YUV
Chroma subsampling : 4:2:0
Bit depth : 8 bits
Scan type : Progressive
Bits/(Pixel*Frame) : 0.088
Stream size : 3.89 GiB (83%)
Writing library : x264 core 148 r2715 7e75228
Encoding settings : cabac=1 / ref=4 / deblock=1:0:0 / analyse=0x3:0x111 / me=umh / subme=10 / psy=1 / psy_rd=1.00:0.00 / mixed_ref=1 / me_range=120 / chroma_me=1 / trellis=2 / 8x8dct=1 / cqm=0 / deadzone=21,11 / fast_pskip=1 / chroma_qp_offset=-2 / threads=8 / lookahead_threads=2 / sliced_threads=0 / nr=0 / decimate=1 / interlaced=0 / bluray_compat=0 / stitchable=1 / constrained_intra=0 / bframes=16 / b_pyramid=2 / b_adapt=2 / b_bias=0 / direct=3 / weightb=1 / open_gop=0 / weightp=2 / keyint=240 / keyint_min=121 / scenecut=0 / intra_refresh=0 / rc_lookahead=240 / rc=crf / mbtree=1 / crf=16.0 / qcomp=0.50 / qpmin=6 / qpmax=51 / qpstep=4 / vbv_maxrate=20000 / vbv_bufsize=25000 / crf_max=0.0 / nal_hrd=vbr / filler=0 / ip_ratio=1.40 / aq=1:0.80
Language : Korean
Default : Yes
Forced : No
Audio #1
ID : 2
Format : AC-3
Format/Info : Audio Coding 3
Commercial name : Dolby Digital
Codec ID : A_AC3
Duration : 2 h 7 min
Bit rate mode : Constant
Bit rate : 256 kb/s
Channel(s) : 2 channels
Channel layout : L R
Sampling rate : 48.0 kHz
Frame rate : 31.250 FPS (1536 SPF)
Bit depth : 16 bits
Compression mode : Lossy
Stream size : 234 MiB (5%)
Title : LakeFilms
Language : Russian
Service kind : Complete Main
Default : Yes
Forced : No
Audio #2
ID : 3
Format : E-AC-3
Format/Info : Enhanced AC-3
Commercial name : Dolby Digital Plus
Codec ID : A_EAC3
Duration : 2 h 7 min
Bit rate mode : Constant
Bit rate : 640 kb/s
Channel(s) : 6 channels
Channel layout : L R C LFE Ls Rs
Sampling rate : 48.0 kHz
Frame rate : 31.250 FPS (1536 SPF)
Compression mode : Lossy
Stream size : 585 MiB (12%)
Title : Korean
Language : Korean
Service kind : Complete Main
Default : No
Forced : No
Text #1
ID : 4
Format : UTF-8
Codec ID : S_TEXT/UTF8
Codec ID/Info : UTF-8 Plain Text
Duration : 2 h 1 min
Bit rate : 64 b/s
Count of elements : 1291
Stream size : 57.5 KiB (0%)
Language : Russian
Default : No
Forced : No
Text #2
ID : 5
Format : UTF-8
Codec ID : S_TEXT/UTF8
Codec ID/Info : UTF-8 Plain Text
Duration : 2 h 1 min
Bit rate : 41 b/s
Count of elements : 1285
Stream size : 37.0 KiB (0%)
Language : English
Default : No
Forced : No
Text #3
ID : 6
Format : UTF-8
Codec ID : S_TEXT/UTF8
Codec ID/Info : UTF-8 Plain Text
Duration : 2 h 1 min
Bit rate : 45 b/s
Count of elements : 1293
Stream size : 40.7 KiB (0%)
Language : German
Default : No
Forced : No
Text #4
ID : 7
Format : UTF-8
Codec ID : S_TEXT/UTF8
Codec ID/Info : UTF-8 Plain Text
Duration : 2 h 1 min
Bit rate : 44 b/s
Count of elements : 1292
Stream size : 39.7 KiB (0%)
Language : French
Default : No
Forced : No
Text #5
ID : 8
Format : UTF-8
Codec ID : S_TEXT/UTF8
Codec ID/Info : UTF-8 Plain Text
Duration : 2 h 1 min
Bit rate : 40 b/s
Count of elements : 1294
Stream size : 36.3 KiB (0%)
Language : Italian
Default : No
Forced : No
Text #6
ID : 9
Format : UTF-8
Codec ID : S_TEXT/UTF8
Codec ID/Info : UTF-8 Plain Text
Duration : 2 h 1 min
Bit rate : 43 b/s
Count of elements : 1290
Stream size : 38.7 KiB (0%)
Language : Portuguese
Default : No
Forced : No
Text #7
ID : 10
Format : UTF-8
Codec ID : S_TEXT/UTF8
Codec ID/Info : UTF-8 Plain Text
Duration : 2 h 1 min
Bit rate : 42 b/s
Count of elements : 1290
Stream size : 38.1 KiB (0%)
Title : European
Language : Spanish
Default : No
Forced : No
Text #8
ID : 11
Format : UTF-8
Codec ID : S_TEXT/UTF8
Codec ID/Info : UTF-8 Plain Text
Duration : 2 h 1 min
Bit rate : 50 b/s
Count of elements : 1723
Stream size : 44.9 KiB (0%)
Language : Czech
Default : No
Forced : No
Text #9
ID : 12
Format : UTF-8
Codec ID : S_TEXT/UTF8
Codec ID/Info : UTF-8 Plain Text
Duration : 2 h 1 min
Bit rate : 69 b/s
Count of elements : 1290
Stream size : 62.1 KiB (0%)
Language : Greek
Default : No
Forced : No
Text #10
ID : 13
Format : UTF-8
Codec ID : S_TEXT/UTF8
Codec ID/Info : UTF-8 Plain Text
Duration : 2 h 1 min
Bit rate : 40 b/s
Count of elements : 1290
Stream size : 35.8 KiB (0%)
Language : Finnish
Default : No
Forced : No
Text #11
ID : 14
Format : UTF-8
Codec ID : S_TEXT/UTF8
Codec ID/Info : UTF-8 Plain Text
Duration : 2 h 1 min
Bit rate : 60 b/s
Count of elements : 1294
Stream size : 53.6 KiB (0%)
Language : Hebrew
Default : No
Forced : No
Text #12
ID : 15
Format : UTF-8
Codec ID : S_TEXT/UTF8
Codec ID/Info : UTF-8 Plain Text
Duration : 2 h 1 min
Bit rate : 49 b/s
Count of elements : 1723
Stream size : 43.8 KiB (0%)
Language : Hungarian
Default : No
Forced : No
Text #13
ID : 16
Format : UTF-8
Codec ID : S_TEXT/UTF8
Codec ID/Info : UTF-8 Plain Text
Duration : 2 h 1 min
Bit rate : 49 b/s
Count of elements : 1723
Stream size : 44.4 KiB (0%)
Language : Indonesian
Default : No
Forced : No
Text #14
ID : 17
Format : UTF-8
Codec ID : S_TEXT/UTF8
Codec ID/Info : UTF-8 Plain Text
Duration : 2 h 1 min
Bit rate : 43 b/s
Count of elements : 1430
Stream size : 38.5 KiB (0%)
Language : Japanese
Default : No
Forced : No
Text #15
ID : 18
Format : UTF-8
Codec ID : S_TEXT/UTF8
Codec ID/Info : UTF-8 Plain Text
Duration : 2 h 0 min
Bit rate : 64 b/s
Count of elements : 1278
Stream size : 56.8 KiB (0%)
Language : Korean
Default : No
Forced : No
Text #16
ID : 19
Format : UTF-8
Codec ID : S_TEXT/UTF8
Codec ID/Info : UTF-8 Plain Text
Duration : 2 h 2 min
Bit rate : 68 b/s
Count of elements : 1449
Stream size : 61.7 KiB (0%)
Title : SDH
Language : Korean
Default : No
Forced : No
Text #17
ID : 20
Format : UTF-8
Codec ID : S_TEXT/UTF8
Codec ID/Info : UTF-8 Plain Text
Duration : 2 h 1 min
Bit rate : 40 b/s
Count of elements : 1291
Stream size : 35.9 KiB (0%)
Language : Norwegian Bokmal
Default : No
Forced : No
Text #18
ID : 21
Format : UTF-8
Codec ID : S_TEXT/UTF8
Codec ID/Info : UTF-8 Plain Text
Duration : 2 h 1 min
Bit rate : 38 b/s
Count of elements : 1279
Stream size : 34.4 KiB (0%)
Language : Polish
Default : No
Forced : No
Text #19
ID : 22
Format : UTF-8
Codec ID : S_TEXT/UTF8
Codec ID/Info : UTF-8 Plain Text
Duration : 2 h 1 min
Bit rate : 46 b/s
Count of elements : 1291
Stream size : 41.6 KiB (0%)
Language : Romanian
Default : No
Forced : No
Text #20
ID : 23
Format : UTF-8
Codec ID : S_TEXT/UTF8
Codec ID/Info : UTF-8 Plain Text
Duration : 2 h 1 min
Bit rate : 41 b/s
Count of elements : 1293
Stream size : 36.9 KiB (0%)
Language : Swedish
Default : No
Forced : No
Text #21
ID : 24
Format : UTF-8
Codec ID : S_TEXT/UTF8
Codec ID/Info : UTF-8 Plain Text
Duration : 2 h 1 min
Bit rate : 43 b/s
Count of elements : 1291
Stream size : 39.0 KiB (0%)
Language : Turkish
Default : No
Forced : No
Text #22
ID : 25
Format : UTF-8
Codec ID : S_TEXT/UTF8
Codec ID/Info : UTF-8 Plain Text
Duration : 2 h 1 min
Bit rate : 44 b/s
Count of elements : 1294
Stream size : 39.2 KiB (0%)
Title : Simplified
Language : Chinese
Default : No
Forced : No
Text #23
ID : 26
Format : UTF-8
Codec ID : S_TEXT/UTF8
Codec ID/Info : UTF-8 Plain Text
Duration : 2 h 1 min
Bit rate : 41 b/s
Count of elements : 1289
Stream size : 36.8 KiB (0%)
Title : Traditional
Language : Chinese
Default : No
Forced : No

Скриншоты

admin

Post 05-Jun-2019 01:09

[Quote]

Информация о фильме
Название: Блуждающая Земля
Оригинальное название: Liu lang di qiu / The Wandering Earth
Год выхода: 2019
Жанр: Фантастика, боевик
Режиссер: Франт Гво
В ролях: Джеки Ву, Цюй Чусяо, Ли Гуанцзе, Нг Ман-Тат, Чжао Цзиньмай, Цюй Цзинцзин, Чжан Ичи, Ян Хаоюй, Аркадий Шароградский, Ли Хунчэнь, Цзян Чжиган, Чжан Хуань, Лэй Цзяинь, Нин Хао, Ван Чжи
О фильме:
В ближайшем будущем становится известно, что Солнце скоро погаснет, и Солнечная система будет разрушена. Тогда человечество запускает масштабный проект под названием «Блуждающая Земля», цель которого — с помощью огромных двигателей по всему миру сдвинуть Землю и полететь искать новое пристанище. Через 17 лет путешествия земляне приближаются к Юпитеру. Гравитация гигантской планеты меняет траекторию Земли, вызывает глобальные землетрясения и ставит под угрозу весь проект по выживанию человечества.

Страна: Китай
Студия: Beijing Culture, China Film Company Limited., United Entertainment Partners
Продолжительность: 02:05:30
Перевод: Профессиональный (многоголосый, закадровый) | HDrezka Studio
Файл
Качество: WEB-Rip 1080p | HDRezka Studio
Видео: AVC/H.264, 1920x1080, ~7500 Кbps, 24 fps
Звук:
Аудио 1: AC3, 2 ch, 192 Kbps - Русский
Аудио 2: E-AC3+Atmos, 6ch, 768 Kbps - Китайский
Субтитры: Русские (форс, полные), английские (полные, SDH)

Mediainfo

Общее
Уникальный идентификатор : 232170155890896732719124272619194738380 (0xAEAA5875765BE2D68CED41106DC4E6CC)
Полное имя : The Wandering Earth.2019.WEB-Rip.1080p.mkv
Формат : Matroska
Версия формата : Version 4
Размер файла : 7,18 Гбайт
Продолжительность : 2 ч. 5 м.
Режим общего битрейта : Переменный
Общий поток : 8189 Кбит/сек
Название фильма : The Wandering Earth.2019.WEB-Rip.1080p
Дата кодирования : UTC 2019-06-03 17:18:38
Программа кодирования : mkvmerge v23.0.0 ('The Bride Said No') 64-bit
Библиотека кодирования : libebml v1.3.6 + libmatroska v1.4.9
Видео
Идентификатор : 1
Формат : AVC
Формат/Информация : Advanced Video Codec
Профиль формата : Main@L4
Настройки формата : CABAC / 3 Ref Frames
Параметр CABAC формата : Да
Параметр RefFrames формата : 3 кадра
Идентификатор кодека : V_MPEG4/ISO/AVC
Продолжительность : 2 ч. 5 м.
Вид битрейта : Переменный
Битрейт : 7500 Кбит/сек
Максимальный битрейт : 11,2 Мбит/сек
Ширина : 1920 пикселей
Высота : 1080 пикселей
Соотношение сторон : 16:9
Режим частоты кадров : Постоянный
Частота кадров : 24,000 кадра/сек
Цветовое пространство : YUV
Субдискретизация насыщенности : 4:2:0
Битовая глубина : 8 бит
Тип развёртки : Прогрессивная
Бит/(Пиксели*Кадры) : 0.151
Размер потока : 6,33 Гбайт (88%)
Библиотека кодирования : x264 core 148 r2715 7e75228
Настройки программы : cabac=1 / ref=3 / deblock=1:0:0 / analyse=0x1:0x111 / me=umh / subme=10 / psy=1 / psy_rd=1.00:0.00 / mixed_ref=1 / me_range=24 / chroma_me=1 / trellis=2 / 8x8dct=0 / cqm=0 / deadzone=21,11 / fast_pskip=1 / chroma_qp_offset=-2 / threads=8 / lookahead_threads=1 / sliced_threads=0 / nr=0 / decimate=1 / interlaced=0 / bluray_compat=0 / stitchable=1 / constrained_intra=0 / bframes=2 / b_pyramid=0 / b_adapt=2 / b_bias=0 / direct=3 / weightb=1 / open_gop=0 / weightp=2 / keyint=48 / keyint_min=25 / scenecut=0 / intra_refresh=0 / rc_lookahead=48 / rc=2pass / mbtree=1 / bitrate=7500 / ratetol=1.0 / qcomp=0.50 / qpmin=6 / qpmax=51 / qpstep=4 / cplxblur=20.0 / qblur=0.5 / vbv_maxrate=11250 / vbv_bufsize=15000 / nal_hrd=vbr / filler=0 / ip_ratio=1.40 / aq=1:1.00
Язык : Chinese
Default : Да
Forced : Нет
Аудио #1
Идентификатор : 2
Формат : AC-3
Формат/Информация : Audio Coding 3
Коммерческое название : Dolby Digital
Идентификатор кодека : A_AC3
Продолжительность : 2 ч. 5 м.
Вид битрейта : Постоянный
Битрейт : 192 Кбит/сек
Каналы : 2 канала
ChannelLayout : L R
Частота : 48,0 КГц
Частота кадров : 31,250 кадров/сек (1536 SPF)
Битовая глубина : 16 бит
Метод сжатия : С потерями
Размер потока : 172 Мбайт (2%)
Заголовок : MVO | HDRezka Studio
Язык : Russian
ServiceKind : Complete Main
Default : Да
Forced : Нет
Аудио #2
Идентификатор : 3
Формат : E-AC-3 JOC
Формат/Информация : Enhanced AC-3 with Joint Object Coding
Коммерческое название : Dolby Digital Plus with Dolby Atmos
Идентификатор кодека : A_EAC3
Продолжительность : 2 ч. 5 м.
Вид битрейта : Постоянный
Битрейт : 768 Кбит/сек
Каналы : 6 каналов
ChannelLayout : L R C LFE Ls Rs
Частота : 48,0 КГц
Частота кадров : 31,250 кадров/сек (1536 SPF)
Метод сжатия : С потерями
Размер потока : 689 Мбайт (9%)
Заголовок : Mandarin
Язык : Chinese
ServiceKind : Complete Main
Default : Нет
Forced : Нет
ComplexityIndex : 16
NumberOfDynamicObjects : 15
BedChannelCount : 1 канал
BedChannelConfiguration : LFE
Текст #1
Идентификатор : 4
Формат : UTF-8
Идентификатор кодека : S_TEXT/UTF8
Идентификатор кодека/Информация : UTF-8 Plain Text
Продолжительность : 1 ч. 57 м.
Битрейт : 4 бит/сек
ElementCount : 88
Размер потока : 3,60 Кбайт (0%)
Заголовок : Forced
Язык : Russian
Default : Да
Forced : Нет
Текст #2
Идентификатор : 5
Формат : UTF-8
Идентификатор кодека : S_TEXT/UTF8
Идентификатор кодека/Информация : UTF-8 Plain Text
Продолжительность : 1 ч. 59 м.
Битрейт : 90 бит/сек
ElementCount : 1738
Размер потока : 78,9 Кбайт (0%)
Заголовок : Full
Язык : Russian
Default : Нет
Forced : Нет
Текст #3
Идентификатор : 6
Формат : UTF-8
Идентификатор кодека : S_TEXT/UTF8
Идентификатор кодека/Информация : UTF-8 Plain Text
Продолжительность : 1 ч. 58 м.
Битрейт : 59 бит/сек
ElementCount : 1653
Размер потока : 51,6 Кбайт (0%)
Заголовок : Full
Язык : English
Default : Нет
Forced : Нет
Текст #4
Идентификатор : 7
Формат : UTF-8
Идентификатор кодека : S_TEXT/UTF8
Идентификатор кодека/Информация : UTF-8 Plain Text
Продолжительность : 1 ч. 58 м.
Битрейт : 80 бит/сек
ElementCount : 2244
Размер потока : 69,7 Кбайт (0%)
Заголовок : SDH
Язык : English
Default : Нет
Forced : Нет

Скриншоты

admin

Post 05-Jun-2019 01:07

[Quote]

Информация о фильме
Название: Блуждающая Земля
Оригинальное название: Liu lang di qiu / The Wandering Earth
Год выхода: 2019
Жанр: Фантастика, боевик
Режиссер: Франт Гво
В ролях: Джеки Ву, Цюй Чусяо, Ли Гуанцзе, Нг Ман-Тат, Чжао Цзиньмай, Цюй Цзинцзин, Чжан Ичи, Ян Хаоюй, Аркадий Шароградский, Ли Хунчэнь, Цзян Чжиган, Чжан Хуань, Лэй Цзяинь, Нин Хао, Ван Чжи
О фильме:
В ближайшем будущем становится известно, что Солнце скоро погаснет, и Солнечная система будет разрушена. Тогда человечество запускает масштабный проект под названием «Блуждающая Земля», цель которого — с помощью огромных двигателей по всему миру сдвинуть Землю и полететь искать новое пристанище. Через 17 лет путешествия земляне приближаются к Юпитеру. Гравитация гигантской планеты меняет траекторию Земли, вызывает глобальные землетрясения и ставит под угрозу весь проект по выживанию человечества.

Страна: Китай
Студия: Beijing Culture, China Film Company Limited., United Entertainment Partners
Продолжительность: 02:05:30
Перевод: Профессиональный многоголосый, Авторский
Файл
Кодек: AVC
Качество: WEBRip 720p | The.Wandering.Earth.2019.CHINESE.720p.NF.WEBRip.DDP5.1.Atmos.x264-NTG
Видео: MPEG-4 AVC, 3830 Kбит/с, 1280x720, 24.000 кадр/с
Звук: ► Без рекламы!
Аудио #1: Русский ( АС3, 2ch, 192 Кбит/с, 48.0 KHz) Профессиональный (многоголосый, закадровый) HDRezka Studio
Аудио #2: Русский ( АС3, 2ch, 256 Кбит/с, 48.0 KHz) Авторский (одноголосый, закадровый) Андрей Дольский
Аудио #3: Китайский (E-AC3+Atmos, 6ch, 768 Кбит/с, 48.0 KHz)
Субтитры: Русские (форс, полные), английские, немецкие, французские, итальянские, испанские, финские, японские, турецкие, китайские | Нетфликс

MediaInfo

Источник: The.Wandering.Earth.2019.CHINESE.720p.NF.WEBRip.DDP5.1.Atmos.x264-NTG
General
Unique ID : 183882594113486993135485063757107432376 (0x8A567FDA5919EE9181B2BC9B262A0BB8)
Complete name : The.Wandering.Earth.2019.NF.WEB-DL.720p.mkv
Format : Matroska
Format version : Version 4
File size : 4.30 GiB
Duration : 2 h 5 min
Overall bit rate mode : Variable
Overall bit rate : 4 909 kb/s
Encoded date : UTC 2019-06-04 09:54:02
Writing application : mkvmerge v7.1.0 ('Good Love') 64bit built on Jul 27 2014 13:06:55
Writing library : libebml v1.3.0 + libmatroska v1.4.1
Video
ID : 1
Format : AVC
Format/Info : Advanced Video Codec
Format profile : Main@L3.1
Format settings : CABAC / 3 Ref Frames
Format settings, CABAC : Yes
Format settings, ReFrames : 3 frames
Codec ID : V_MPEG4/ISO/AVC
Duration : 2 h 5 min
Bit rate mode : Variable
Bit rate : 3 830 kb/s
Maximum bit rate : 5 745 kb/s
Width : 1 280 pixels
Height : 720 pixels
Display aspect ratio : 16:9
Frame rate mode : Constant
Frame rate : 24.000 FPS
Color space : YUV
Chroma subsampling : 4:2:0
Bit depth : 8 bits
Scan type : Progressive
Bits/(Pixel*Frame) : 0.173
Stream size : 3.23 GiB (75%)
Writing library : x264 core 148 r2715 7e75228
Encoding settings : cabac=1 / ref=3 / deblock=1:0:0 / analyse=0x1:0x111 / me=umh / subme=10 / psy=1 / psy_rd=1.00:0.00 / mixed_ref=1 / me_range=24 / chroma_me=1 / trellis=2 / 8x8dct=0 / cqm=0 / deadzone=21,11 / fast_pskip=1 / chroma_qp_offset=-2 / threads=8 / lookahead_threads=1 / sliced_threads=0 / nr=0 / decimate=1 / interlaced=0 / bluray_compat=0 / stitchable=1 / constrained_intra=0 / bframes=2 / b_pyramid=0 / b_adapt=2 / b_bias=0 / direct=3 / weightb=1 / open_gop=0 / weightp=2 / keyint=48 / keyint_min=25 / scenecut=0 / intra_refresh=0 / rc_lookahead=48 / rc=2pass / mbtree=1 / bitrate=3830 / ratetol=1.0 / qcomp=0.50 / qpmin=6 / qpmax=51 / qpstep=4 / cplxblur=20.0 / qblur=0.5 / vbv_maxrate=5745 / vbv_bufsize=7660 / nal_hrd=vbr / filler=0 / ip_ratio=1.40 / aq=1:1.00
Language : Chinese
Default : Yes
Forced : No
Audio #1
ID : 2
Format : AC-3
Format/Info : Audio Coding 3
Commercial name : Dolby Digital
Codec ID : A_AC3
Duration : 2 h 5 min
Bit rate mode : Constant
Bit rate : 192 kb/s
Channel(s) : 2 channels
Channel layout : L R
Sampling rate : 48.0 kHz
Frame rate : 31.250 FPS (1536 SPF)
Bit depth : 16 bits
Compression mode : Lossy
Stream size : 172 MiB (4%)
Title : MVO | HDRezka Studio
Language : Russian
Service kind : Complete Main
Default : Yes
Forced : No
Audio #2
ID : 3
Format : AC-3
Format/Info : Audio Coding 3
Commercial name : Dolby Digital
Codec ID : A_AC3
Duration : 2 h 5 min
Bit rate mode : Constant
Bit rate : 256 kb/s
Channel(s) : 2 channels
Channel layout : L R
Sampling rate : 48.0 kHz
Frame rate : 31.250 FPS (1536 SPF)
Bit depth : 16 bits
Compression mode : Lossy
Stream size : 229 MiB (5%)
Title : Андрей Дольский
Language : Russian
Service kind : Complete Main
Default : No
Forced : No
Audio #3
ID : 4
Format : E-AC-3 JOC
Format/Info : Enhanced AC-3 with Joint Object Coding
Commercial name : Dolby Digital Plus with Dolby Atmos
Codec ID : A_EAC3
Duration : 2 h 5 min
Bit rate mode : Constant
Bit rate : 768 kb/s
Channel(s) : 6 channels
Channel layout : L R C LFE Ls Rs
Sampling rate : 48.0 kHz
Frame rate : 31.250 FPS (1536 SPF)
Compression mode : Lossy
Stream size : 689 MiB (16%)
Title : Mandarin
Language : Chinese
Service kind : Complete Main
Default : No
Forced : No
Complexity index : 16
Number of dynamic objects : 15
Bed channel count : 1 channel
Bed channel configuration : LFE
Text #1
ID : 5
Format : UTF-8
Codec ID : S_TEXT/UTF8
Codec ID/Info : UTF-8 Plain Text
Duration : 1 h 57 min
Bit rate : 4 b/s
Count of elements : 88
Stream size : 3.60 KiB (0%)
Title : Forced
Language : Russian
Default : Yes
Forced : No
Text #2
ID : 6
Format : UTF-8
Codec ID : S_TEXT/UTF8
Codec ID/Info : UTF-8 Plain Text
Duration : 1 h 59 min
Bit rate : 90 b/s
Count of elements : 1738
Stream size : 78.9 KiB (0%)
Language : Russian
Default : No
Forced : No
Text #3
ID : 7
Format : UTF-8
Codec ID : S_TEXT/UTF8
Codec ID/Info : UTF-8 Plain Text
Duration : 1 h 58 min
Bit rate : 59 b/s
Count of elements : 1653
Stream size : 51.6 KiB (0%)
Language : English
Default : No
Forced : No
Text #4
ID : 8
Format : UTF-8
Codec ID : S_TEXT/UTF8
Codec ID/Info : UTF-8 Plain Text
Duration : 1 h 58 min
Bit rate : 80 b/s
Count of elements : 2244
Stream size : 69.7 KiB (0%)
Title : SDH
Language : English
Default : No
Forced : No
Text #5
ID : 9
Format : UTF-8
Codec ID : S_TEXT/UTF8
Codec ID/Info : UTF-8 Plain Text
Duration : 1 h 59 min
Bit rate : 62 b/s
Count of elements : 1749
Stream size : 55.0 KiB (0%)
Language : German
Default : No
Forced : No
Text #6
ID : 10
Format : UTF-8
Codec ID : S_TEXT/UTF8
Codec ID/Info : UTF-8 Plain Text
Duration : 1 h 59 min
Bit rate : 62 b/s
Count of elements : 1766
Stream size : 54.7 KiB (0%)
Language : French
Default : No
Forced : No
Text #7
ID : 11
Format : UTF-8
Codec ID : S_TEXT/UTF8
Codec ID/Info : UTF-8 Plain Text
Duration : 1 h 59 min
Bit rate : 62 b/s
Count of elements : 1795
Stream size : 54.6 KiB (0%)
Language : Italian
Default : No
Forced : No
Text #8
ID : 12
Format : UTF-8
Codec ID : S_TEXT/UTF8
Codec ID/Info : UTF-8 Plain Text
Duration : 1 h 59 min
Bit rate : 64 b/s
Count of elements : 1795
Stream size : 56.6 KiB (0%)
Title : European
Language : Spanish
Default : No
Forced : No
Text #9
ID : 13
Format : UTF-8
Codec ID : S_TEXT/UTF8
Codec ID/Info : UTF-8 Plain Text
Duration : 1 h 59 min
Bit rate : 60 b/s
Count of elements : 1801
Stream size : 52.6 KiB (0%)
Language : Czech
Default : No
Forced : No
Text #10
ID : 14
Format : UTF-8
Codec ID : S_TEXT/UTF8
Codec ID/Info : UTF-8 Plain Text
Duration : 1 h 59 min
Bit rate : 57 b/s
Count of elements : 1804
Stream size : 50.3 KiB (0%)
Language : Hungarian
Default : No
Forced : No
Text #11
ID : 15
Format : UTF-8
Codec ID : S_TEXT/UTF8
Codec ID/Info : UTF-8 Plain Text
Duration : 1 h 59 min
Bit rate : 60 b/s
Count of elements : 1791
Stream size : 53.0 KiB (0%)
Language : Finnish
Default : No
Forced : No
Text #12
ID : 16
Format : UTF-8
Codec ID : S_TEXT/UTF8
Codec ID/Info : UTF-8 Plain Text
Duration : 1 h 59 min
Bit rate : 55 b/s
Count of elements : 1455
Stream size : 48.2 KiB (0%)
Language : Japanese
Default : No
Forced : No
Text #13
ID : 17
Format : UTF-8
Codec ID : S_TEXT/UTF8
Codec ID/Info : UTF-8 Plain Text
Duration : 1 h 59 min
Bit rate : 62 b/s
Count of elements : 1805
Stream size : 54.6 KiB (0%)
Language : Turkish
Default : No
Forced : No
Text #14
ID : 18
Format : UTF-8
Codec ID : S_TEXT/UTF8
Codec ID/Info : UTF-8 Plain Text
Duration : 1 h 57 min
Bit rate : 52 b/s
Count of elements : 1739
Stream size : 45.3 KiB (0%)
Title : Simplified
Language : Chinese
Default : No
Forced : No
Text #15
ID : 19
Format : UTF-8
Codec ID : S_TEXT/UTF8
Codec ID/Info : UTF-8 Plain Text
Duration : 1 h 59 min
Bit rate : 55 b/s
Count of elements : 1798
Stream size : 48.2 KiB (0%)
Title : Traditional
Language : Chinese
Default : No
Forced : No

Скриншоты

admin

Post 14-May-2019 08:26

[Quote]

Информация о фильме
Название: Детектив Ди: Четыре Небесных царя
Оригинальное название: Di Renjie: zhi si da tian wang
Год выхода: 2018
Жанр: Фэнтези, боевик, детектив, приключения
Режиссер: Харк Цуй
В ролях: Марк Чао, Карина Лау, Уилльям Фэн, Кенни Лин, Сандра Ма, Этан Жуань
О фильме:
Третья часть саги о детективе Ди повествует о его новых невероятных приключениях. Получив в дар от императора могущественный артефакт, способный укрощать драконов, детектив не только обрел новые способности, но и попал под подозрение императрицы Ву — та забеспокоилась, что он может попытаться захватить власть, и пожелала любой ценой вернуть артефакт обратно. Теперь детективу Ди предстоит защитить свое имя и раскрыть таинственное дело, в котором тесно переплетаются дворцовые интриги и сверхъестественные события, охватившие город.

Страна: Китай, Гонконг
Студия: Huayi Brothers
Продолжительность: 02:12:04
Перевод: Профессиональный многоголосый | HDRezka Studio
Файл
Кодек: x.264
Качество: BDRip 720p
Видео: MPEG-4 AVC, 5231 Kбит/с, 1280x692, 23.976 кадр/с
Аудио #1: Русский (АС3, 2ch, 192 Кбит/с, 48.0 KHz) Профессиональный (многоголосый, закадровый) HDRezka Studio
Аудио #2: Китайский (DTS, 6ch, 1509 Кбит/с, 48.0 KHz)
Субтитры: Русские, английские(*srt)

MediaInfo

Источник: Detective.Dee.The.Four.Heavenly.Kings.2018.720p.BluRay.x264.DTS-HDH
General
Unique ID : 219053837554174382482654357704814273786 (0xA4CC3C095CA96220AAE9A257B286A4FA)
Complete name : Detective.Dee.The.Four.Heavenly.Kings.2018.BDRip.720p.mkv
Format : Matroska
Format version : Version 4 / Version 2
File size : 6.40 GiB
Duration : 2 h 12 min
Overall bit rate : 6 935 kb/s
Encoded date : UTC 2019-05-13 13:49:05
Writing application : mkvmerge v7.1.0 ('Good Love') 64bit built on Jul 27 2014 13:06:55
Writing library : libebml v1.3.0 + libmatroska v1.4.1
Video
ID : 1
Format : AVC
Format/Info : Advanced Video Codec
Format profile : High@L4.1
Format settings, CABAC : Yes
Format settings, RefFrames : 9 frames
Codec ID : V_MPEG4/ISO/AVC
Duration : 2 h 12 min
Bit rate : 5 231 kb/s
Width : 1 280 pixels
Height : 692 pixels
Display aspect ratio : 1.85:1
Frame rate mode : Constant
Frame rate : 23.976 (24000/1001) FPS
Color space : YUV
Chroma subsampling : 4:2:0
Bit depth : 8 bits
Scan type : Progressive
Bits/(Pixel*Frame) : 0.246
Stream size : 4.83 GiB (75%)
Writing library : x264 core 142 r2431+42 c69a006 tMod [8-bit@4:2:0 X86_64]
Encoding settings : cabac=1 / ref=9 / deblock=1:-3:-3 / analyse=0x3:0x113 / me=umh / subme=10 / psy=1 / fade_compensate=0.00 / psy_rd=1.00:0.05 / mixed_ref=1 / me_range=32 / chroma_me=1 / trellis=2 / 8x8dct=1 / cqm=0 / deadzone=21,11 / fast_pskip=0 / chroma_qp_offset=-2 / threads=48 / lookahead_threads=5 / sliced_threads=0 / nr=0 / decimate=1 / interlaced=0 / bluray_compat=0 / constrained_intra=0 / fgo=0 / bframes=8 / b_pyramid=2 / b_adapt=2 / b_bias=0 / direct=3 / weightb=1 / open_gop=0 / weightp=2 / keyint=250 / keyint_min=23 / scenecut=40 / intra_refresh=0 / rc=crf / mbtree=0 / crf=18.7000 / qcomp=0.60 / qpmin=0:0:0 / qpmax=69:69:69 / qpstep=4 / ip_ratio=1.40 / pb_ratio=1.30 / aq=3:0.80 / aq-sensitivity=10.00 / aq-factor=1.00:1.00:1.00 / aq2=0 / aq3=0
Language : Chinese
Default : Yes
Forced : No
Color range : Limited
Matrix coefficients : BT.709
Audio #1
ID : 2
Format : AC-3
Format/Info : Audio Coding 3
Format settings, Endianness : Big
Codec ID : A_AC3
Duration : 2 h 12 min
Bit rate mode : Constant
Bit rate : 192 kb/s
Channel(s) : 2 channels
Channel positions : Front: L R
Sampling rate : 48.0 kHz
Frame rate : 31.250 FPS (1536 SPF)
Bit depth : 16 bits
Compression mode : Lossy
Stream size : 181 MiB (3%)
Title : MVO | HDRezka Studio
Language : Russian
Service kind : Complete Main
Default : Yes
Forced : No
Audio #2
ID : 3
Format : DTS
Format/Info : Digital Theater Systems
Mode : 16
Format settings, Endianness : Big
Codec ID : A_DTS
Duration : 2 h 12 min
Bit rate mode : Constant
Bit rate : 1 509 kb/s
Channel(s) : 6 channels
Channel positions : Front: L C R, Side: L R, LFE
Sampling rate : 48.0 kHz
Frame rate : 93.750 FPS (512 SPF)
Bit depth : 24 bits
Compression mode : Lossy
Stream size : 1.39 GiB (22%)
Language : Chinese
Default : No
Forced : No
Text #1
ID : 4
Format : UTF-8
Codec ID : S_TEXT/UTF8
Codec ID/Info : UTF-8 Plain Text
Duration : 2 h 7 min
Bit rate : 83 b/s
Count of elements : 1422
Stream size : 77.9 KiB (0%)
Language : Russian
Default : No
Forced : No
Text #2
ID : 5
Format : UTF-8
Codec ID : S_TEXT/UTF8
Codec ID/Info : UTF-8 Plain Text
Duration : 2 h 7 min
Bit rate : 46 b/s
Count of elements : 1421
Stream size : 43.0 KiB (0%)
Language : English
Default : No
Forced : No
Menu
00:00:00.000 : en:00:00:00.000
00:09:37.535 : en:00:09:37.535
00:20:46.912 : en:00:20:46.912
00:31:00.317 : en:00:31:00.317
00:40:30.970 : en:00:40:30.970
00:47:54.747 : en:00:47:54.747
01:00:14.486 : en:01:00:14.486
01:08:47.332 : en:01:08:47.332
01:22:26.567 : en:01:22:26.567
01:33:52.669 : en:01:33:52.669
01:42:48.871 : en:01:42:48.871
01:59:52.977 : en:01:59:52.977

Скриншоты

admin

Post 14-May-2019 08:24

[Quote]

Информация о фильме
Название: Детектив Ди: Четыре Небесных царя
Оригинальное название: Di Renjie: zhi si da tian wang / Detective Dee: The Four Heavenly Kings
Год выпуска: 2018
Жанр: Фэнтези, боевик, детектив, приключения
Режиссер: Харк Цуй
В ролях: Марк Чао, Карина Лау, Уилльям Фэн, Кенни Лин, Сандра Ма, Этан Жуань
О фильме: Третья часть саги о детективе Ди повествует о его новых невероятных приключениях. Получив в дар от императора могущественный артефакт, способный укрощать драконов, детектив не только обрел новые способности, но и попал под подозрение императрицы Ву — та забеспокоилась, что он может попытаться захватить власть, и пожелала любой ценой вернуть артефакт обратно. Теперь детективу Ди предстоит защитить свое имя и раскрыть таинственное дело, в котором тесно переплетаются дворцовые интриги и сверхъестественные события, охватившие город.

Выпущено: Китай, Гонконг, Huayi Brothers
Продолжительность: 02:12:04
Перевод: Профессиональный (многоголосый, закадровый) | HDrezka Studio
Файл
Качество: BDRip 1080p
Контейнер: MKV
Видео: MPEG-4 AVC, 13.7 Мбит/с, 1920x1040, 23.976 fps
Аудио 1: Russian: AC3, 2 ch, 192 Кбит/с - HDrezka Studio
Аудио 2: Chinese: DTS, 6 ch, 1509 Кбит/с - Original
Субтитры: Русские, английские

Скриншоты

MediaInfo

General
Unique ID : 189498654137178758584334220158630366442 (0x8E901CFD73FDDB89927B27B34BD00CEA)
Complete name : G:Detective.Dee.The.Four.Heavenly.Kings.2018.BDRip.1080p.mkv
Format : Matroska
Format version : Version 4 / Version 2
File size : 14.2 GiB
Duration : 2 h 12 min
Overall bit rate : 15.4 Mb/s
Encoded date : UTC 2019-05-13 08:43:43
Writing application : mkvmerge v20.0.0 ('I Am The Sun') 64-bit
Writing library : libebml v1.3.5 + libmatroska v1.4.8
Video
ID : 1
Format : AVC
Format/Info : Advanced Video Codec
Format profile : High@L4.1
Format settings : CABAC / 4 Ref Frames
Format settings, CABAC : Yes
Format settings, RefFrames : 4 frames
Codec ID : V_MPEG4/ISO/AVC
Duration : 2 h 12 min
Bit rate : 13.7 Mb/s
Width : 1 920 pixels
Height : 1 040 pixels
Display aspect ratio : 1.85:1
Frame rate mode : Constant
Frame rate : 23.976 (24000/1001) FPS
Color space : YUV
Chroma subsampling : 4:2:0
Bit depth : 8 bits
Scan type : Progressive
Bits/(Pixel*Frame) : 0.287
Stream size : 12.7 GiB (89%)
Writing library : x264 core 142 r2431+42 c69a006 tMod [8-bit@4:2:0 X86_64]
Encoding settings : cabac=1 / ref=4 / deblock=1:-3:-3 / analyse=0x3:0x113 / me=umh / subme=10 / psy=1 / fade_compensate=0.00 / psy_rd=1.00:0.05 / mixed_ref=1 / me_range=48 / chroma_me=1 / trellis=2 / 8x8dct=1 / cqm=0 / deadzone=21,11 / fast_pskip=0 / chroma_qp_offset=-2 / threads=48 / lookahead_threads=8 / sliced_threads=0 / nr=0 / decimate=1 / interlaced=0 / bluray_compat=0 / constrained_intra=0 / fgo=0 / bframes=8 / b_pyramid=2 / b_adapt=2 / b_bias=0 / direct=3 / weightb=1 / open_gop=0 / weightp=2 / keyint=250 / keyint_min=23 / scenecut=40 / intra_refresh=0 / rc_lookahead=40 / rc=crf / mbtree=0 / crf=19.0000 / qcomp=0.60 / qpmin=0:0:0 / qpmax=69:69:69 / qpstep=4 / vbv_maxrate=40000 / vbv_bufsize=30000 / crf_max=0.0 / nal_hrd=none / filler=0 / ip_ratio=1.40 / pb_ratio=1.30 / aq=3:0.80 / aq-sensitivity=10.00 / aq-factor=1.00:1.00:1.00 / aq2=0 / aq3=0
Language : Chinese
Default : Yes
Forced : No
Color range : Limited
Matrix coefficients : BT.709
Audio #1
ID : 2
Format : AC-3
Format/Info : Audio Coding 3
Codec ID : A_AC3
Duration : 2 h 12 min
Bit rate mode : Constant
Bit rate : 192 kb/s
Channel(s) : 2 channels
Channel positions : Front: L R
Sampling rate : 48.0 kHz
Frame rate : 31.250 FPS (1536 SPF)
Bit depth : 16 bits
Compression mode : Lossy
Stream size : 181 MiB (1%)
Title : MVO, HDrezka Studio
Language : Russian
Service kind : Complete Main
Default : Yes
Forced : No
Audio #2
ID : 3
Format : DTS
Format/Info : Digital Theater Systems
Codec ID : A_DTS
Duration : 2 h 12 min
Bit rate mode : Constant
Bit rate : 1 509 kb/s
Channel(s) : 6 channels
Channel positions : Front: L C R, Side: L R, LFE
Sampling rate : 48.0 kHz
Frame rate : 93.750 FPS (512 SPF)
Bit depth : 24 bits
Compression mode : Lossy
Stream size : 1.39 GiB (10%)
Language : Chinese
Default : No
Forced : No
Text #1
ID : 4
Format : UTF-8
Codec ID : S_TEXT/UTF8
Codec ID/Info : UTF-8 Plain Text
Duration : 2 h 7 min
Bit rate : 83 b/s
Count of elements : 1422
Stream size : 77.9 KiB (0%)
Language : Russian
Default : No
Forced : No
Text #2
ID : 5
Format : UTF-8
Codec ID : S_TEXT/UTF8
Codec ID/Info : UTF-8 Plain Text
Duration : 2 h 7 min
Bit rate : 46 b/s
Count of elements : 1421
Stream size : 43.0 KiB (0%)
Language : English
Default : No
Forced : No
Menu
00:00:00.000 : en:00:00:00.000
00:09:37.535 : en:00:09:37.535
00:20:46.912 : en:00:20:46.912
00:31:00.317 : en:00:31:00.317
00:40:30.970 : en:00:40:30.970
00:47:54.747 : en:00:47:54.747
01:00:14.486 : en:01:00:14.486
01:08:47.332 : en:01:08:47.332
01:22:26.567 : en:01:22:26.567
01:33:52.669 : en:01:33:52.669
01:42:48.871 : en:01:42:48.871
01:59:52.977 : en:01:59:52.977
 

Current time is: 08-Dec 16:12

All times are UTC + 3