Search found 67 matches

Author Message

admin

Post 20-Jun-2022 15:42

[Quote]

Информация о фильме
Название: Ип Ман: Пробуждение
Оригинальное название: Ip Man: The Awakening
Год выпуска: 2022
Производство: Китай
Жанр: боевик
Продолжительность: 01:19:39
Перевод: Любительский (многоголосый, закадровый) [Pazl Voice]
Субтитры: английские
Навигация по главам: есть-Режиссер: Ли Си Цзе, Чжан Чжу Линь
В ролях: Се Мяо, Чэнь Гуаньин, Чжао Юйсюан, Хуа Цилун, Хоу Тунцзян, Ань Дэ, Цин Тянь, Хао Яньфэй, Бай Лун, Чэнь Вэйфэнь, Гу Лэй, Сяо Гуан-О фильме: Ип Ман перебирается из Фошаня в Гонконг, где знакомится с молодым рикшей и его сестрой. Однажды он становится свидетелем того, как группа бандитов похищает китайских девушек. Ип Ман спасает похищенных, навлекая этим на себя гнев могущественного английского гангстера, а уж когда Ип Ман побеждает в бою британского бойца, уничтожить китайского мастера винчуня становится для мстительного англичанина делом принципа.- -Качество: BDRip 1080p
Формат: MKV
Видео: AVC, 1920x816 (2,35:1), 10831 kbps, 24 fps
Аудио#1: 48 kHz, AC3, 5.1, 384 kbps | RUS
Аудио#2: 48 kHz, E-AC3, 5.1, 1024 kbps | ENG

Скриншоты


admin

Post 20-Jun-2022 15:42

[Quote]

Информация о фильме
Название: Ип Ман: Пробуждение
Оригинальное название: Ip Man: The Awakening
Год выпуска: 2022
Производство: Китай
Жанр: боевик
Продолжительность: 01:19:39
Перевод: Любительский (многоголосый, закадровый) [Pazl Voice]
Субтитры: английские
Навигация по главам: есть-Режиссер: Ли Си Цзе, Чжан Чжу Линь
В ролях: Се Мяо, Чэнь Гуаньин, Чжао Юйсюан, Хуа Цилун, Хоу Тунцзян, Ань Дэ, Цин Тянь, Хао Яньфэй, Бай Лун, Чэнь Вэйфэнь, Гу Лэй, Сяо Гуан-О фильме: Ип Ман перебирается из Фошаня в Гонконг, где знакомится с молодым рикшей и его сестрой. Однажды он становится свидетелем того, как группа бандитов похищает китайских девушек. Ип Ман спасает похищенных, навлекая этим на себя гнев могущественного английского гангстера, а уж когда Ип Ман побеждает в бою британского бойца, уничтожить китайского мастера винчуня становится для мстительного англичанина делом принципа.- -Качество: BDRip 720p
Формат: MKV
Видео: AVC, 1280x544 (2,35:1), 5794 kbps, 24 fps
Аудио#1: 48 kHz, AC3, 5.1, 384 kbps | RUS
Аудио#2: 48 kHz, AC3, 5.1, 640 kbps | ENG

Скриншоты


admin

Post 07-Jun-2022 06:57

[Quote]

Информация о фильме
Название: Девушка на бульдозере
Оригинальное название: The Girl on a Bulldozer
Год выхода: 2022
Жанр: Драма, детектив
Режиссер: Пак И Ун
В ролях: О Ман Сок, Пак Хёк Квон, Йесон, Чхве Хи Джин, Ким Хе Юн
О фильме:
Гу Хе Ён (Ким Хе Юн) – 19-летняя безнадёжная девушка, с вытатуированным на руке драконом. Будучи нарушительницей спокойствия, использующей вульгарный язык, она жестока и не боится никого и ничего. У неё нет матери, она живет со своим отцом Гу Бон Джином (Пак Хёк Квон), который управляет китайским рестораном, и младшим братом. Однажды ее отец попадает в загадочную автомобильную аварию, после которой впадает в кому. Гу Хе Ён с братом остаются совсем одни. Девушка начинает самостоятельно расследовать дело отца, при этом она старается заботиться о доме и своём брате. Гу Хе Ён удается раскрыть правду, стоящую за несчастным случаем с её отцом, попутно выплескивая свой гнев на весь мир.

Страна: Южная Корея
Студия: Gozip Studio
Продолжительность: 1:52:30
Перевод: любительский (двуголосый, закадровый) RealFake
Файл
Кодек: MPEG-4 AVC
Качество: WEB-DL (1080p)
Видео: 4558 Кбит/с, 1920x1080, 23.976 fps
Звук: AAC, 198 Kbps, 2 ch

Скриншоты

MediaInfo

Format : Matroska
Format version : Version 4 / Version 2
File size : 3.58 GiB
Duration : 1h 52mn
Overall bit rate mode : Variable
Overall bit rate : 4 558 Kbps
Encoded date : UTC 2022-06-05 18:16:47
Writing application : mkvmerge v27.0.0 ('Metropolis') 64-bit
Writing library : libebml v1.3.6 + libmatroska v1.4.9
DURATION : 01:52:31.016000000
NUMBER_OF_FRAMES : 290742
NUMBER_OF_BYTES : 191035822
_STATISTICS_WRITING_APP : mkvmerge v27.0.0 ('Metropolis') 64-bit
_STATISTICS_WRITING_DATE_UTC : 2022-06-05 18:16:47
_STATISTICS_TAGS : BPS DURATION NUMBER_OF_FRAMES NUMBER_OF_BYTES
Video
ID : 1
Format : AVC
Format/Info : Advanced Video Codec
Format profile : High@L4.0
Format settings, CABAC : Yes
Format settings, ReFrames : 2 frames
Codec ID : V_MPEG4/ISO/AVC
Duration : 1h 52mn
Bit rate mode : Variable
Maximum bit rate : 5 500 Kbps
Width : 1 920 pixels
Height : 1 080 pixels
Display aspect ratio : 16:9
Frame rate mode : Constant
Frame rate : 23.976 fps
Color space : YUV
Chroma subsampling : 4:2:0
Bit depth : 8 bits
Scan type : Progressive
Default : Yes
Forced : No
Audio
ID : 2
Format : AAC
Format/Info : Advanced Audio Codec
Format profile : LC
Codec ID : A_AAC
Duration : 1h 52mn
Channel(s) : 2 channels
Channel positions : Front: L R
Sampling rate : 44.1 KHz
Compression mode : Lossy
Delay relative to video : -55ms
Title : RealFake
Language : Russian
Default : Yes
Forced : Yes

admin

Post 19-Apr-2022 01:43

[Quote]

Информация о фильме
Название: Квартиранты
Оригинальное название: Күшiк Құда
Год выхода: 2020
Жанр: Комедия, семейный
Режиссер: Дархан Саркенов
В ролях: Жан Байжанбаев, Баян Алагузова, Куандык Шакиржанов, Бахыт Алипбаева, Аскар Ильясов, Айым Сейтметова, Мейргат Амангелдин
О фильме: Две абсолютно разных семьи вынуждены жить под одной крышей. Это оказалось непросто. Пытаясь найти общий язык, сваты все время попадают в смешные и нелепые ситуации, но в результате становятся настоящей семьей.

Выпущено: Казахстан / Dastan Media
Продолжительность: 01:28:50
Перевод: не требуется (русский, казахский)
Файл
Качество: WEBRip 720p
Формат: MKV
Видео: MPEG-4 AVC/x264@L4.1, 3260 Кбит/сек, 1280x678 (1.895) at 24.000 fps
Аудио: Русский / Казахский: AC3, 2 ch, 256 Кбит/сек
Субтитры: русские, казахские [вшитые неотключаемые]

MediaInfo:

Общее
Уникальный идентификатор : 295443518911415628603364259697704142100 (0xDE445A1C527ECBB7D6A78A865FB18514)
Полное имя : F:1.ФИЛЬМЫ�2. ФИЛЬМЫ СНГКвартиранты Күшiк Құда (2020)Kvartiranty Kүshik Kұda (2020) WEBRip 720p.mkv
Формат : Matroska
Версия формата : Version 4
Размер файла : 2,00 Гбайт
Продолжительность : 1 ч. 21 м.
Общий поток : 3 511 Кбит/сек
Дата кодирования : UTC 2022-04-18 10:26:37
Программа кодирования : mkvmerge v66.0.0 ('Josie') 64-bit
Библиотека кодирования : libebml v1.4.2 + libmatroska v1.6.4
Авторское право : *=Z=*
Attachments : poster.png
Язык : und
Видео
Идентификатор : 1
Формат : AVC
Формат/Информация : Advanced Video Codec
Профиль формата : High@L4.1
Настройки формата : CABAC / 9 Ref Frames
Параметр CABAC формата : Да
Параметр RefFrames формата : 9 кадров
Идентификатор кодека : V_MPEG4/ISO/AVC
Продолжительность : 1 ч. 21 м.
Битрейт : 3 260 Кбит/сек
Ширина : 1 280 пикселей
Высота : 678 пикселей
Соотношение сторон : 1,895
Режим частоты кадров : Постоянный
Частота кадров : 24,000 кадра/сек
Цветовое пространство : YUV
Субдискретизация насыщенности : 4:2:0
Битовая глубина : 8 бит
Тип развёртки : Прогрессивная
Бит/(Пиксели*Кадры) : 0.157
Размер потока : 1,85 Гбайт (93%)
Заголовок : Kazakhstan / Dastan Media
Библиотека кодирования : x264 core 159 r2991 1771b55
Настройки программы : cabac=1 / ref=9 / deblock=1:-3:-3 / analyse=0x3:0x133 / me=umh / subme=11 / psy=1 / psy_rd=1.00:0.00 / mixed_ref=1 / me_range=32 / chroma_me=1 / trellis=2 / 8x8dct=1 / cqm=0 / deadzone=21,18 / fast_pskip=0 / chroma_qp_offset=-2 / threads=19 / lookahead_threads=4 / sliced_threads=0 / nr=60 / decimate=0 / interlaced=0 / bluray_compat=0 / constrained_intra=0 / bframes=16 / b_pyramid=2 / b_adapt=2 / b_bias=10 / direct=3 / weightb=1 / open_gop=0 / weightp=2 / keyint=240 / keyint_min=24 / scenecut=40 / intra_refresh=0 / rc_lookahead=60 / rc=2pass / mbtree=0 / bitrate=3260 / ratetol=1.0 / qcomp=0.70 / qpmin=3 / qpmax=69 / qpstep=4 / cplxblur=20.0 / qblur=0.5 / vbv_maxrate=5000 / vbv_bufsize=4000 / nal_hrd=none / filler=0 / ip_ratio=1.40 / pb_ratio=1.30 / aq=1:0.60
Язык : Russian
Default : Да
Forced : Нет
Цветовой диапазон : Limited
Основные цвета : BT.709
Характеристики трансфера : BT.709
Коэффициенты матрицы : BT.709
Аудио
Идентификатор : 2
Формат : AC-3
Формат/Информация : Audio Coding 3
Коммерческое название : Dolby Digital
Идентификатор кодека : A_AC3
Продолжительность : 1 ч. 21 м.
Вид битрейта : Постоянный
Битрейт : 256 Кбит/сек
Каналы : 2 канала
Channel layout : L R
Частота : 44,1 КГц
Частота кадров : 28,711 кадров/сек (1536 SPF)
Битовая глубина : 32 бит
Метод сжатия : С потерями
Размер потока : 149 Мбайт (7%)
Заголовок : Original (Russian / Kazakh)
Язык : Russian
Service kind : Complete Main
Default : Да
Forced : Нет

СЭМПЛ

admin

Post 10-Apr-2022 06:02

[Quote]

Информация о фильме
Название: Проклятие. Дом с прислугой
Оригинальное название: The Maid
Год выхода: 2021
Жанр: ужасы, фэнтези, триллер, драма, детектив
Режиссер: Ли Тонгкхэм
В ролях: Плой Сорнарин, Савика Чайдей, Каннапорн Пуангтонг, Ратчанок Суваннакет, Китапат Понгру, Натани Ситтисаман, Венера Саксири, Сорабоди Чангсири
О фильме:
Джой нанимается горничной в дом богатой семьи и начинает присматривать за их дочерью, страдающей душевным расстройством. Но вскоре девушку начинает преследовать призрак таинственной женщины, который кроме неё видит только её малолетняя подопечная. Джой решает разобраться в причинах появления призрака, однако, незаметно для себя, оказывается втянута в зловещую историю благородного семейства.

Выпущено: Таиланд / Global Film Station, Hollywood
Продолжительность: 01:43:06
Озвучивание: Дублированное [iTunes]
Файл
Формат: MKV
Качество: BDRip 1080p
Видео: MPEG-4 AVC, 10.8 Mb/s, 1920x804
Аудио: Russian: AC3, 384 Kb/s (6 ch), Thai: AC3, 640 Kb/s (6 ch)
Субтитры: English
Дополнительно: Сохранены оригинальные чаптеры.

Инфо-файл:

Complete name : Proklyatie.Dom.s.prislugoy.2020.BDRip.1080p.ELEKTRI4KA.UNIONGANG.mkv
Format : Matroska
Format version : Version 4
File size : 8.51 GiB
Duration : 1 h 43 min
Overall bit rate : 11.8 Mb/s
Movie name : Proklyatie.Dom.s.prislugoy.2020.BDRip.1080p.ELEKTRI4KA.UNIONGANG.
Encoded date : UTC 2022-04-09 19:06:23
Writing application : mkvmerge v8.3.0 ('Over the Horizon') 32bit
Writing library : libebml v1.3.1 + libmatroska v1.4.2
Video
ID : 1
Format : AVC
Format/Info : Advanced Video Codec
Format profile : High@L4.1
Format settings : CABAC / 5 Ref Frames
Format settings, CABAC : Yes
Format settings, Reference frames : 5 frames
Codec ID : V_MPEG4/ISO/AVC
Duration : 1 h 43 min
Bit rate : 10.8 Mb/s
Width : 1 920 pixels
Height : 804 pixels
Display aspect ratio : 2.40:1
Frame rate mode : Constant
Frame rate : 24.000 FPS
Color space : YUV
Chroma subsampling : 4:2:0
Bit depth : 8 bits
Scan type : Progressive
Bits/(Pixel*Frame) : 0.292
Stream size : 7.78 GiB (91%)
Writing library : x264 core 157 r2958 57baac4
Encoding settings : cabac=1 / ref=5 / deblock=1:-3:-3 / analyse=0x3:0x113 / me=umh / subme=10 / psy=1 / psy_rd=1.00:0.15 / mixed_ref=1 / me_range=32 / chroma_me=1 / trellis=2 / 8x8dct=1 / cqm=0 / deadzone=21,11 / fast_pskip=0 / chroma_qp_offset=-3 / threads=25 / lookahead_threads=4 / sliced_threads=0 / nr=1 / decimate=0 / interlaced=0 / bluray_compat=0 / constrained_intra=0 / bframes=8 / b_pyramid=2 / b_adapt=2 / b_bias=0 / direct=3 / weightb=1 / open_gop=0 / weightp=2 / keyint=240 / keyint_min=24 / scenecut=40 / intra_refresh=0 / rc=2pass / mbtree=0 / bitrate=10800 / ratetol=1.0 / qcomp=0.60 / qpmin=0 / qpmax=69 / qpstep=4 / cplxblur=20.0 / qblur=0.5 / ip_ratio=1.40 / pb_ratio=1.30 / aq=1:1.00
Default : Yes
Forced : No
Audio #1
ID : 2
Format : AC-3
Format/Info : Audio Coding 3
Commercial name : Dolby Digital
Codec ID : A_AC3
Duration : 1 h 42 min
Bit rate mode : Constant
Bit rate : 384 kb/s
Channel(s) : 6 channels
Channel layout : L R C LFE Ls Rs
Sampling rate : 48.0 kHz
Frame rate : 31.250 FPS (1536 SPF)
Compression mode : Lossy
Stream size : 283 MiB (3%)
Title : DUB (iTunes)
Language : Russian
Service kind : Complete Main
Default : Yes
Forced : Yes
Audio #2
ID : 3
Format : AC-3
Format/Info : Audio Coding 3
Commercial name : Dolby Digital
Codec ID : A_AC3
Duration : 1 h 43 min
Bit rate mode : Constant
Bit rate : 640 kb/s
Channel(s) : 6 channels
Channel layout : L R C LFE Ls Rs
Sampling rate : 48.0 kHz
Frame rate : 31.250 FPS (1536 SPF)
Compression mode : Lossy
Stream size : 472 MiB (5%)
Title : Original
Language : Thai
Service kind : Complete Main
Default : No
Forced : No
Text
ID : 4
Format : UTF-8
Codec ID : S_TEXT/UTF8
Codec ID/Info : UTF-8 Plain Text
Duration : 1 h 38 min
Bit rate : 23 b/s
Count of elements : 716
Stream size : 17.2 KiB (0%)
Language : English
Default : No
Forced : No
Menu
00:00:00.000 : :Chapter 01
00:08:34.958 : :Chapter 02
00:18:12.125 : :Chapter 03
00:26:21.792 : :Chapter 04
00:35:29.750 : :Chapter 05
00:43:01.375 : :Chapter 06
00:48:58.542 : :Chapter 07
00:56:34.250 : :Chapter 08
01:06:21.500 : :Chapter 09
01:14:44.625 : :Chapter 10
01:24:54.583 : :Chapter 11
01:39:10.292 : :Chapter 12

Скриншоты

admin

Post 09-Apr-2022 07:13

[Quote]

Информация о фильме
Название: Дерзкое ограбление
Оригинальное название: Paipeurain
Год выхода: 2021
Жанр: криминал
Режиссер: Ю Ха
В ролях: Со Ин-гук, Ли Су-хёк, Ым Мун-сок, Ю Сын-мок, Тхэ Хан-хо, Пэ Ю-рам, Пэ Да-бин, Ким Ён-гё, Чон Джэ-гван, Чи Дэ-хан
О фильме:
Наследник богатого семейства собирает команду из пяти суперпрофессионалов, чтобы реализовать план дерзкого ограбления. Им предстоит украсть нефть, спрятанную в туннеле на глубине десятков метров под землей.

Выпущено: Южная Корея / CJ Entertainment, Gom Pictures, LiTTLE BiG PiCTURES, m.o.vera Pictures, Megabox Plus M
Продолжительность: 01:47:37
Озвучивание: Дублированное [iTunes]
Файл
Формат: MKV
Качество: WEB-DL 1080p
Видео: MPEG-4 AVC, 8000 Kb/s, 1920x1080
Аудио: Russian / Korean: AC3, 384 Kb/s (6 ch)
Субтитры: English

Инфо-файл:

Complete name : Derzkoe.ograblenie.2021.WEB-DL.1080p.ELEKTRI4KA.UNIONGANG.mkv
Format : Matroska
Format version : Version 4
File size : 6.59 GiB
Duration : 1 h 47 min
Overall bit rate : 8 769 kb/s
Movie name : Derzkoe.ograblenie.2021.WEB-DL.1080p.ELEKTRI4KA.UNIONGANG.
Encoded date : UTC 2022-04-07 22:18:13
Writing application : mkvmerge v8.3.0 ('Over the Horizon') 32bit
Writing library : libebml v1.3.1 + libmatroska v1.4.2
Video
ID : 1
Format : AVC
Format/Info : Advanced Video Codec
Format profile : Main@L4
Format settings : CABAC / 2 Ref Frames
Format settings, CABAC : Yes
Format settings, Reference frames : 2 frames
Format settings, GOP : M=1, N=30
Codec ID : V_MPEG4/ISO/AVC
Duration : 1 h 47 min
Bit rate mode : Constant
Bit rate : 8 000 kb/s
Width : 1 920 pixels
Height : 1 080 pixels
Display aspect ratio : 16:9
Frame rate mode : Constant
Frame rate : 23.976 (24000/1001) FPS
Color space : YUV
Chroma subsampling : 4:2:0
Bit depth : 8 bits
Scan type : Progressive
Bits/(Pixel*Frame) : 0.161
Stream size : 6.01 GiB (91%)
Title : Pipeline.2021.1080p.WEB-DL
Language : Korean
Default : Yes
Forced : Yes
Audio #1
ID : 2
Format : AC-3
Format/Info : Audio Coding 3
Commercial name : Dolby Digital
Codec ID : A_AC3
Duration : 1 h 47 min
Bit rate mode : Constant
Bit rate : 384 kb/s
Channel(s) : 6 channels
Channel layout : L R C LFE Ls Rs
Sampling rate : 48.0 kHz
Frame rate : 31.250 FPS (1536 SPF)
Compression mode : Lossy
Stream size : 296 MiB (4%)
Title : DUB (ITunes)
Language : Russian
Service kind : Complete Main
Default : Yes
Forced : Yes
Audio #2
ID : 3
Format : AC-3
Format/Info : Audio Coding 3
Commercial name : Dolby Digital
Codec ID : A_AC3
Duration : 1 h 47 min
Bit rate mode : Constant
Bit rate : 384 kb/s
Channel(s) : 6 channels
Channel layout : L R C LFE Ls Rs
Sampling rate : 48.0 kHz
Frame rate : 31.250 FPS (1536 SPF)
Compression mode : Lossy
Stream size : 296 MiB (4%)
Title : Original
Language : Korean
Service kind : Complete Main
Default : No
Forced : No
Text
ID : 4
Format : UTF-8
Codec ID : S_TEXT/UTF8
Codec ID/Info : UTF-8 Plain Text
Duration : 1 h 42 min
Bit rate : 50 b/s
Count of elements : 1480
Stream size : 37.8 KiB (0%)
Title : English
Language : English
Default : No
Forced : No

Скриншоты

admin

Post 05-Apr-2022 07:37

[Quote]

Информация о фильме
Название: Снайпер
Оригинальное название: The Sniper
Год выхода: 2021
Жанр: Боевик, драма
Режиссер: Чжу Цзян
В ролях: Генри Принц Мак, Ракель Сюй, Майкл Тун, Фрида Ху, Лу Цзиньхао, Чэн Тао, Чжоу Чжо, Е Синьюй, Ли Муюй, Пэй Цзясинь, Ло Чжэнхуа
О фильме: Во время выполнения задания снайпер Цзинь Мин (Майкл Тун) отвлекается на пленного ребенка и срывает операцию. Спустя десять лет ребенок, которого Цзинь Мин взял под крыло и назвал Цзинь Таем (Генри Принц Мак), вырастает и сам становится снайпером, как и еще одна спасенная Цзинь Мином девочка, Сяо Мэй (Фрида Ху). Во время очередного задания Цзинь Мин неожиданно попадает под подозрение, и тут пути его «детей» расходятся – Сяо Мэй безоговорочно встает на сторону «отца» и вместе с ним устраивает бойню в штабе, а находящийся «в поле» Цзинь Тай пытается их остановить.
Выпущено: Китай / Gold Stone Film, IQiyi
Продолжительность: 01:35:00
Перевод: Любительский (одноголосый, закадровый) Виктор Береговых
Файл
Качество: WEB-DLRip 720p
Формат: MKV
Видео: MPEG-4 AVC/H.264, 3240 Кбит/сек, 1280x540
Аудио #1: Русский: AC3, 2 ch, 256 Кбит/сек
Аудио #2: Китайский: AC3, 2 ch, 192 Кбит/сек
Субтитры: русские, украинские, английские [вшитые отключаемые]

MediaInfo:

Общее
Уникальный идентификатор : 38522976702354422359019801434847200755 (0x1CFB41645F238B8FC7DA56DE5D1845F3)
Полное имя : F:1.ФИЛЬМЫ�1. ФИЛЬМЫСнайпер The Sniper (2021)Snayper The Sniper (2021) WEB-DLRip 720p.mkv
Формат : Matroska
Версия формата : Version 4
Размер файла : 2,44 Гбайт
Продолжительность : 1 ч. 35 м.
Общий поток : 3 675 Кбит/сек
Дата кодирования : UTC 2022-04-04 12:49:32
Программа кодирования : mkvmerge v66.0.0 ('Josie') 64-bit
Библиотека кодирования : libebml v1.4.2 + libmatroska v1.6.4
Авторское право : *=Z=*
Attachments : poster.jpg
Язык : und
Видео
Идентификатор : 1
Формат : AVC
Формат/Информация : Advanced Video Codec
Профиль формата : High@L4.1
Настройки формата : CABAC / 12 Ref Frames
Параметр CABAC формата : Да
Параметр RefFrames формата : 12 кадров
Идентификатор кодека : V_MPEG4/ISO/AVC
Продолжительность : 1 ч. 35 м.
Битрейт : 3 240 Кбит/сек
Ширина : 1 280 пикселей
Высота : 540 пикселей
Соотношение сторон : 2,40:1
Режим частоты кадров : Постоянный
Частота кадров : 24,000 кадра/сек
Цветовое пространство : YUV
Субдискретизация насыщенности : 4:2:0
Битовая глубина : 8 бит
Тип развёртки : Прогрессивная
Бит/(Пиксели*Кадры) : 0.195
Размер потока : 2,14 Гбайт (88%)
Заголовок : China (Gold Stone Film, IQiyi)
Библиотека кодирования : x264 core 159 r2991 1771b55
Настройки программы : cabac=1 / ref=12 / deblock=1:-3:-3 / analyse=0x3:0x133 / me=umh / subme=11 / psy=1 / psy_rd=1.00:0.00 / mixed_ref=1 / me_range=32 / chroma_me=1 / trellis=2 / 8x8dct=1 / cqm=0 / deadzone=21,18 / fast_pskip=0 / chroma_qp_offset=-2 / threads=19 / lookahead_threads=4 / sliced_threads=0 / nr=60 / decimate=0 / interlaced=0 / bluray_compat=0 / constrained_intra=0 / bframes=16 / b_pyramid=2 / b_adapt=2 / b_bias=10 / direct=3 / weightb=1 / open_gop=0 / weightp=2 / keyint=240 / keyint_min=24 / scenecut=40 / intra_refresh=0 / rc_lookahead=60 / rc=2pass / mbtree=0 / bitrate=3240 / ratetol=1.0 / qcomp=0.70 / qpmin=3 / qpmax=69 / qpstep=4 / cplxblur=20.0 / qblur=0.5 / vbv_maxrate=5000 / vbv_bufsize=4000 / nal_hrd=none / filler=0 / ip_ratio=1.40 / pb_ratio=1.30 / aq=1:0.60
Язык : Chinese
Default : Да
Forced : Нет
Цветовой диапазон : Limited
Основные цвета : BT.709
Характеристики трансфера : BT.709
Коэффициенты матрицы : BT.709
Аудио #1
Идентификатор : 2
Формат : AC-3
Формат/Информация : Audio Coding 3
Коммерческое название : Dolby Digital
Идентификатор кодека : A_AC3
Продолжительность : 1 ч. 35 м.
Вид битрейта : Постоянный
Битрейт : 256 Кбит/сек
Каналы : 2 канала
Channel layout : L R
Частота : 48,0 КГц
Частота кадров : 31,250 кадров/сек (1536 SPF)
Битовая глубина : 32 бит
Метод сжатия : С потерями
Размер потока : 174 Мбайт (7%)
Заголовок : VO (Viktor Beregovoy)
Язык : Russian
Service kind : Complete Main
Default : Да
Forced : Нет
Аудио #2
Идентификатор : 3
Формат : AC-3
Формат/Информация : Audio Coding 3
Коммерческое название : Dolby Digital
Идентификатор кодека : A_AC3
Продолжительность : 1 ч. 35 м.
Вид битрейта : Постоянный
Битрейт : 192 Кбит/сек
Каналы : 2 канала
Channel layout : L R
Частота : 48,0 КГц
Частота кадров : 31,250 кадров/сек (1536 SPF)
Метод сжатия : С потерями
Размер потока : 130 Мбайт (5%)
Заголовок : Original (Chinese)
Язык : Chinese
Service kind : Complete Main
Default : Да
Forced : Нет
Текст #1
Идентификатор : 4
Формат : ASS
Идентификатор кодека : S_TEXT/ASS
Идентификатор кодека/Информация : Advanced Sub Station Alpha
Продолжительность : 1 ч. 32 м.
Битрейт : 65 бит/сек
Count of elements : 798
Метод сжатия : Без потерь
Размер потока : 44,6 Кбайт (0%)
Язык : Russian
Default : Да
Forced : Нет
Текст #2
Идентификатор : 5
Формат : ASS
Идентификатор кодека : S_TEXT/ASS
Идентификатор кодека/Информация : Advanced Sub Station Alpha
Продолжительность : 1 ч. 32 м.
Битрейт : 65 бит/сек
Count of elements : 798
Метод сжатия : Без потерь
Размер потока : 44,3 Кбайт (0%)
Язык : Ukrainian
Default : Да
Forced : Нет
Текст #3
Идентификатор : 6
Формат : UTF-8
Идентификатор кодека : S_TEXT/UTF8
Идентификатор кодека/Информация : UTF-8 Plain Text
Продолжительность : 1 ч. 32 м.
Битрейт : 31 бит/сек
Count of elements : 962
Размер потока : 21,3 Кбайт (0%)
Язык : English
Default : Да
Forced : Нет
СЭМПЛ

admin

Post 02-Apr-2022 05:32

[Quote]

Информация о фильме
Название: Воспоминания из будущего / Воспоминания о завтрашнем дне
Оригинальное название: Naeilui gioek / Recalled
Год выхода: 2021
Жанр: Триллер, детектив, криминал
Режиссер: Со Ю-мин
В ролях: Со Е-джи, Ким Кан У, Пэ Ю-рам, Пак Бом, Ём Хе-ран, Сун Хюк, Ким Чон Гу, Ким Чу Рен

О фильме: После аварии Су Джин потеряла память. Она ничего не помнит о своем прошлом, но зато теперь ей открывается будущее, не только ее личное, но и других людей. Су Джин вспоминает события, которые противоречат тому, о чем рассказывает ее муж. С каждым днем героиня все ближе подбирается к тайне своего прошлого и все опаснее для нее становится истина.
Страна: Корея Южная
Студия: CJ Entertainment, iFilm Co. Ltd., Tory Pictures
Продолжительность: 01:39:26
Перевод: Дублированный | Кинопоиск HD
Качество: WEB-DL 1080p
Видео: MPEG-4 AVC, 1920x800, 8738 Kbit/s, 23.976 fps
Аудио #01: 48 kHz, AC3, 5.1, 448 Kbps | Дублированный | Кинопоиск HD | RUS |
Аудио #02: 48 kHz, E-AC3, 5.1, 448 Kbps | Дублированный | Кинопоиск HD | RUS |
Аудио #03: 48 kHz, E-AC3, 5.1, 640 Kbps | Оригинал | KOR |
Субтитры: Английские

Скриншоты

MI

General
Unique ID : 259285268382078352489534332120880983782 (0xC31086B86BF7C023C845654EB9352EE6)
Complete name : D:Video1Recalled.2021.AMZN.WEB-DL.1080p.seleZen.mkv
Format : Matroska
Format version : Version 4
File size : 7.14 GiB
Duration : 1 h 39 min
Overall bit rate : 10.3 Mb/s
Movie name : Recalled 2021 from seleZen
Encoded date : UTC 2022-04-01 03:31:50
Writing application : mkvmerge v59.0.0 ('Shining Star') 64-bit
Writing library : libebml v1.4.2 + libmatroska v1.6.4
Video
ID : 1
Format : AVC
Format/Info : Advanced Video Codec
Format profile : High@L4
Format settings : CABAC / 4 Ref Frames
Format settings, CABAC : Yes
Format settings, Reference : 4 frames
Codec ID : V_MPEG4/ISO/AVC
Duration : 1 h 39 min
Bit rate mode : Constant
Bit rate : 8 738 kb/s
Nominal bit rate : 10 000 kb/s
Width : 1 920 pixels
Height : 800 pixels
Display aspect ratio : 2.40:1
Frame rate mode : Constant
Frame rate : 23.976 (24000/1001) FPS
Color space : YUV
Chroma subsampling : 4:2:0
Bit depth : 8 bits
Scan type : Progressive
Bits/(Pixel*Frame) : 0.237
Stream size : 6.07 GiB (85%)
Language : English
Default : Yes
Forced : No
Color range : Limited
Color primaries : BT.709
Transfer characteristics : BT.709
Matrix coefficients : BT.709
Audio #1
ID : 2
Format : AC-3
Format/Info : Audio Coding 3
Commercial name : Dolby Digital
Codec ID : A_AC3
Duration : 1 h 39 min
Bit rate mode : Constant
Bit rate : 448 kb/s
Channel(s) : 6 channels
Channel layout : L R C LFE Ls Rs
Sampling rate : 48.0 kHz
Frame rate : 31.250 FPS (1536 SPF)
Compression mode : Lossy
Stream size : 319 MiB (4%)
Title : Dub
Language : Russian
Service kind : Complete Main
Default : Yes
Forced : Yes
Audio #2
ID : 3
Format : E-AC-3
Format/Info : Enhanced AC-3
Commercial name : Dolby Digital Plus
Codec ID : A_EAC3
Duration : 1 h 39 min
Bit rate mode : Constant
Bit rate : 448 kb/s
Channel(s) : 6 channels
Channel layout : L R C LFE Ls Rs
Sampling rate : 48.0 kHz
Frame rate : 31.250 FPS (1536 SPF)
Compression mode : Lossy
Stream size : 319 MiB (4%)
Title : Dub
Language : Russian
Service kind : Complete Main
Default : No
Forced : No
Audio #3
ID : 4
Format : E-AC-3
Format/Info : Enhanced AC-3
Commercial name : Dolby Digital Plus
Codec ID : A_EAC3
Duration : 1 h 39 min
Bit rate mode : Constant
Bit rate : 640 kb/s
Channel(s) : 6 channels
Channel layout : L R C LFE Ls Rs
Sampling rate : 48.0 kHz
Frame rate : 31.250 FPS (1536 SPF)
Compression mode : Lossy
Stream size : 455 MiB (6%)
Title : Original
Language : Korean
Service kind : Complete Main
Default : No
Forced : No
Text #1
ID : 5
Format : UTF-8
Codec ID : S_TEXT/UTF8
Codec ID/Info : UTF-8 Plain Text
Duration : 1 h 34 min
Bit rate : 30 b/s
Count of elements : 965
Stream size : 21.4 KiB (0%)
Title : Full
Language : English
Default : No
Forced : No
Text #2
ID : 6
Format : UTF-8
Codec ID : S_TEXT/UTF8
Codec ID/Info : UTF-8 Plain Text
Duration : 1 h 34 min
Bit rate : 30 b/s
Count of elements : 965
Stream size : 21.4 KiB (0%)
Title : SDH
Language : English
Default : No
Forced : No

admin

Post 29-Mar-2022 05:19

[Quote]

Информация о фильме
Название: Битва при Чосинском водохранилище
Оригинальное название: Zhang jin hu / Battle at lake changjin
Год выхода: 2021
Жанр: Боевик, военный, исторический, драма
Режиссер: Чэнь Кайгэ, Данте Лам, Цуй Харк
В ролях: Джеки Ву, Джексон И, Кевин Ли, Кай Чжэн, Ханьюй Чжан, Цзюнь Ху, Явэнь Чжу, Сюань Хуан, Темур Мамисашвили, Ли Чэнь
О фильме:
Октябрь 1950 года. Опасаясь приближения американских войск к своей границе, Китай решает вступить в Корейскую войну. Защищать родную землю и Корею от империалистического вторжения отправляются многочисленные силы добровольцев, в том числе заслуженный командир У Цяньли. Его младший брат, желая доказать собственную состоятельность, записывается в армию и оказывается с Цяньли в одном корпусе. Братьев и их товарищей по оружию ждут столкновения с на голову лучше вооружённым противником, в том числе стратегически важная битва при Чосинском водохранилище.

Выпущено: Китай, Гонконг / August 1st Film Studio, Bona Film Group
Продолжительность: 02:55:47
Субтитры: английские (полные)
Оригинальная аудиодорожка: китайский
Файл
Тип релиза: BDRip 1080p | WiKi
Контейнер: MKV
Видео: 1920x816 (2.35:1), 24.000 fps, AVC, 12.0 Mb/s
Аудио 1: Russian, 48.0 KHz, AC3, 2 ch, 192 Kbps - | Колобок
Аудио 2: Chinese, 48.0 KHz, AC3, 6 ch, 640 Kbps - Original

M/I

General
Unique ID : 29953680635838638689359224651910072886 (0x1688DE79EFFAC4C59A7CD1C5C08DCA36)
Complete name : The.Battle.at.Lake.Changjin.2021.1080p.BluRay.Rus.Chi.WiKi.mkv
Format : Matroska
Format version : Version 4
File size : 15.8 GiB
Duration : 2 h 55 min
Overall bit rate : 12.8 Mb/s
Encoded date : UTC 2022-02-03 19:12:27
Writing application : mkvmerge v64.0.0 ('Willows') 64-bit
Writing library : libebml v1.4.2 + libmatroska v1.6.4
Video
ID : 1
Format : AVC
Format/Info : Advanced Video Codec
Format profile : High@L4.1
Format settings : CABAC / 5 Ref Frames
Format settings, CABAC : Yes
Format settings, Reference : 5 frames
Codec ID : V_MPEG4/ISO/AVC
Duration : 2 h 55 min
Bit rate : 12.0 Mb/s
Width : 1 920 pixels
Height : 816 pixels
Display aspect ratio : 2.35:1
Frame rate mode : Constant
Frame rate : 24.000 FPS
Color space : YUV
Chroma subsampling : 4:2:0
Bit depth : 8 bits
Scan type : Progressive
Bits/(Pixel*Frame) : 0.319
Stream size : 14.7 GiB (93%)
Title : WiKi
Writing library : x264 core 133 r2334 a3ac64b
Encoding settings : cabac=1 / ref=5 / deblock=1:-3:-3 / analyse=0x3:0x113 / me=umh / subme=11 / psy=1 / psy_rd=1.00:0.00 / mixed_ref=1 / me_range=64 / chroma_me=1 / trellis=2 / 8x8dct=1 / cqm=0 / deadzone=21,11 / fast_pskip=0 / chroma_qp_offset=-4 / threads=36 / lookahead_threads=6 / sliced_threads=0 / nr=0 / decimate=0 / interlaced=0 / bluray_compat=0 / constrained_intra=0 / bframes=8 / b_pyramid=2 / b_adapt=2 / b_bias=0 / direct=3 / weightb=1 / open_gop=0 / weightp=2 / keyint=250 / keyint_min=24 / scenecut=40 / intra_refresh=0 / rc=2pass / mbtree=0 / bitrate=12000 / ratetol=1.0 / qcomp=0.60 / qpmin=0 / qpmax=69 / qpstep=4 / cplxblur=20.0 / qblur=0.5 / ip_ratio=1.40 / pb_ratio=1.30 / aq=1:0.80
Language : English
Default : Yes
Forced : No
Audio #1
ID : 2
Format : AC-3
Format/Info : Audio Coding 3
Commercial name : Dolby Digital
Codec ID : A_AC3
Duration : 2 h 55 min
Bit rate mode : Constant
Bit rate : 192 kb/s
Channel(s) : 2 channels
Channel layout : L R
Sampling rate : 48.0 kHz
Frame rate : 31.250 FPS (1536 SPF)
Compression mode : Lossy
Stream size : 241 MiB (1%)
Title : Двухголосый закадровый, Колобок
Language : Russian
Service kind : Complete Main
Default : Yes
Forced : No
Audio #2
ID : 3
Format : AC-3
Format/Info : Audio Coding 3
Commercial name : Dolby Digital
Format settings : Dolby Surround EX
Codec ID : A_AC3
Duration : 2 h 55 min
Bit rate mode : Constant
Bit rate : 640 kb/s
Channel(s) : 6 channels
Channel layout : L R C LFE Ls Rs
Sampling rate : 48.0 kHz
Frame rate : 31.250 FPS (1536 SPF)
Compression mode : Lossy
Stream size : 805 MiB (5%)
Title : Original
Language : Chinese
Service kind : Complete Main
Default : No
Forced : No
Text
ID : 4
Format : UTF-8
Codec ID : S_TEXT/UTF8
Codec ID/Info : UTF-8 Plain Text
Duration : 2 h 44 min
Bit rate : 39 b/s
Count of elements : 1958
Stream size : 47.4 KiB (0%)
Title : Full
Language : English
Default : No
Forced : No

Скриншоты

admin

Post 28-Mar-2022 05:14

[Quote]

Информация о фильме
Название: Битва при Чосинском водохранилище
Оригинальное название: Zhang jin hu / Battle at lake changjin
Год выхода: 2021
Жанр: Боевик, военный, исторический, драма
Режиссер: Чэнь Кайгэ, Данте Лам, Цуй Харк
В ролях: Джеки Ву, Джексон И, Кевин Ли, Кай Чжэн, Ханьюй Чжан, Цзюнь Ху, Явэнь Чжу, Сюань Хуан, Темур Мамисашвили, Ли Чэнь
Слоган: «Они падают с проклятого неба?»
О фильме: Октябрь 1950 года. Опасаясь приближения американских войск к своей границе, Китай решает вступить в Корейскую войну. Защищать родную землю и Корею от империалистического вторжения отправляются многочисленные силы добровольцев, в том числе заслуженный командир У Цяньли. Его младший брат, желая доказать собственную состоятельность, записывается в армию и оказывается с Цяньли в одном корпусе. Братьев и их товарищей по оружию ждут столкновения с на голову лучше вооружённым противником, в том числе стратегически важная битва при Чосинском водохранилище.

Выпущено: Китай, Гонконг / August 1st Film Studio, Bona Film Group
Продолжительность: 02:55:47
Перевод: Любительский (двухголосый закадровый) [Колобок]
Файл
Качество: BDRip 720p
Формат: MKV
Видео: MPEG-4 AVC/H.264, 3320 Кбит/сек, 1280x544
Аудио #1: Русский: AC3, 2 ch, 192 Кбит/сек
Аудио #2: Китайский: AC3, 6 ch, 384 Кбит/сек
Субтитры: английские, украинские [вшитые отключаемые]

MediaInfo:

Общее
Уникальный идентификатор : 222011696523407086153848387797670431736 (0xA705E5BE39C8C217975B1E71C3700BF8)
Полное имя : F:1.ФИЛЬМЫ1. ФИЛЬМЫБитва при Чосинском водохранилище Zhang jin hu Battle at lake changjin 2021Bitva pri Chosinskom vodokhranilishche Zhang jin hu Battle at lake changjin (2021) BDRip 720p.mkv
Формат : Matroska
Версия формата : Version 4
Размер файла : 4,78 Гбайт
Продолжительность : 2 ч. 55 м.
Общий поток : 3 892 Кбит/сек
Дата кодирования : UTC 2022-03-27 05:47:09
Программа кодирования : mkvmerge v65.0.0 ('Too Much') 64-bit
Библиотека кодирования : libebml v1.4.2 + libmatroska v1.6.4
Авторское право : *=Z=*
Attachments : poster.png
Язык : und
Видео
Идентификатор : 1
Формат : AVC
Формат/Информация : Advanced Video Codec
Профиль формата : High@L4.1
Настройки формата : CABAC / 12 Ref Frames
Параметр CABAC формата : Да
Параметр RefFrames формата : 12 кадров
Идентификатор кодека : V_MPEG4/ISO/AVC
Продолжительность : 2 ч. 55 м.
Битрейт : 3 320 Кбит/сек
Ширина : 1 280 пикселей
Высота : 544 пикселя
Соотношение сторон : 2,35:1
Режим частоты кадров : Постоянный
Частота кадров : 24,000 кадра/сек
Цветовое пространство : YUV
Субдискретизация насыщенности : 4:2:0
Битовая глубина : 8 бит
Тип развёртки : Прогрессивная
Бит/(Пиксели*Кадры) : 0.199
Размер потока : 4,07 Гбайт (85%)
Заголовок : China, Hong Kong (August 1st Film Studio, Bona Film Group)
Библиотека кодирования : x264 core 159 r2991 1771b55
Настройки программы : cabac=1 / ref=12 / deblock=1:-3:-3 / analyse=0x3:0x133 / me=umh / subme=11 / psy=1 / psy_rd=1.00:0.00 / mixed_ref=1 / me_range=32 / chroma_me=1 / trellis=2 / 8x8dct=1 / cqm=0 / deadzone=21,18 / fast_pskip=0 / chroma_qp_offset=-2 / threads=5 / lookahead_threads=1 / sliced_threads=0 / nr=60 / decimate=0 / interlaced=0 / bluray_compat=0 / constrained_intra=0 / bframes=16 / b_pyramid=2 / b_adapt=2 / b_bias=10 / direct=3 / weightb=1 / open_gop=0 / weightp=2 / keyint=240 / keyint_min=24 / scenecut=40 / intra_refresh=0 / rc_lookahead=60 / rc=2pass / mbtree=0 / bitrate=3320 / ratetol=1.0 / qcomp=0.70 / qpmin=3 / qpmax=69 / qpstep=4 / cplxblur=20.0 / qblur=0.5 / vbv_maxrate=5000 / vbv_bufsize=4000 / nal_hrd=none / filler=0 / ip_ratio=1.40 / pb_ratio=1.30 / aq=1:0.60
Язык : Chinese
Default : Да
Forced : Нет
Цветовой диапазон : Limited
Основные цвета : BT.709
Характеристики трансфера : BT.709
Коэффициенты матрицы : BT.709
Аудио #1
Идентификатор : 2
Формат : AC-3
Формат/Информация : Audio Coding 3
Коммерческое название : Dolby Digital
Идентификатор кодека : A_AC3
Продолжительность : 2 ч. 55 м.
Вид битрейта : Постоянный
Битрейт : 192 Кбит/сек
Каналы : 2 канала
Channel layout : L R
Частота : 48,0 КГц
Частота кадров : 31,250 кадров/сек (1536 SPF)
Битовая глубина : 32 бит
Метод сжатия : С потерями
Размер потока : 241 Мбайт (5%)
Заголовок : DVO (Kolobok)
Язык : Russian
Service kind : Complete Main
Default : Да
Forced : Нет
Аудио #2
Идентификатор : 3
Формат : AC-3
Формат/Информация : Audio Coding 3
Коммерческое название : Dolby Digital
Идентификатор кодека : A_AC3
Продолжительность : 2 ч. 55 м.
Вид битрейта : Постоянный
Битрейт : 384 Кбит/сек
Каналы : 6 каналов
Channel layout : L R C LFE Ls Rs
Частота : 48,0 КГц
Частота кадров : 31,250 кадров/сек (1536 SPF)
Битовая глубина : 32 бит
Метод сжатия : С потерями
Размер потока : 483 Мбайт (10%)
Заголовок : Original (Chinese)
Язык : Chinese
Service kind : Complete Main
Default : Нет
Forced : Нет
Текст #1
Идентификатор : 4
Формат : UTF-8
Идентификатор кодека : S_TEXT/UTF8
Идентификатор кодека/Информация : UTF-8 Plain Text
Продолжительность : 2 ч. 44 м.
Битрейт : 39 бит/сек
Count of elements : 1958
Размер потока : 47,4 Кбайт (0%)
Заголовок : Full
Язык : English
Default : Да
Forced : Нет
Текст #2
Идентификатор : 5
Формат : UTF-8
Идентификатор кодека : S_TEXT/UTF8
Идентификатор кодека/Информация : UTF-8 Plain Text
Продолжительность : 2 ч. 44 м.
Битрейт : 67 бит/сек
Count of elements : 1925
Размер потока : 81,6 Кбайт (0%)
Язык : Ukrainian
Default : Да
Forced : Нет
[]СЭМПЛ

admin

Post 17-Feb-2022 05:41

[Quote]

Информация о фильме
Название: Спецдоставка
Оригинальное название: Teuksong
Год выпуска: 2022
Жанр: Боевик, криминал
Режиссер: Пак Дэ Мин / Park Dae Min
В ролях: Со Дам Пак, Сэ Бёк Сон, Ый Сон Ким, Хён Джун Чон, Хе Ран Ём, Хён Мин Хан, Дон Вон Хо, У Чжин Юн, Рён О, До Гём Пэк, Су О Син, Сын Хо Ю, Сок Хо Чон, Док Мун Чхве
О фильме:
Девушке-курьеру Ын Ха любое задание по плечу. Не особо заморачиваясь с моральными и юридическими аспектами своей работы, она честно доставляет что угодно куда угодно, когда вдруг решает помочь маленькому мальчику. Теперь за девушкой и её необычным «грузом» охотятся и полиция, и спецслужбы.

Выпущено: Южная Корея, Matchmaker Entertainment M Pictures Co., Ltd
Продолжительность: 01:48:33
Перевод: Двуголосый любительский (АрхиAsia), многоголосый любительский (Head Pack Films)
Субтитры: Русские (forced, full)
Присутствует ненормативная лексика!
Файл
Формат: Matroska
Качество: WEB-DLRip 720p
Видео: 1280x536 at 23.976 fps, x264@L4.1, ~2733 kbps
Аудио 1: AC3, 6 ch, 640 Кbps | Русский (DVO, АрхиAsia)
Аудио 2: AC3, 2 ch, 192 Кbps | Русский (MVO, Head Pack Films)
Формат субтитров: softsub (SRT), (ASS)

M/I

x264 [info]: frame I:1683 Avg QP:16.81 size: 58630
x264 [info]: frame P:40755 Avg QP:18.20 size: 25341
x264 [info]: frame B:113724 Avg QP:19.52 size: 9614
General
Unique ID : 123903953171312086543773779103361081634 (0x5D37088A8C039674D1178FD0F5512122)
Complete name : L:Teuksong.2022.L.WEB-DLRip.x264.720p.mkv
Format : Matroska
Format version : Version 4
File size : 2.70 GiB
Duration : 1 h 48 min
Overall bit rate : 3 566 kb/s
Encoded date : UTC 2022-02-16 10:02:27
Writing application : mkvmerge v65.0.0 ('Too Much') 64-bit
Writing library : libebml v1.4.2 + libmatroska v1.6.4
Cover : Yes
Attachments : cover.jpg / cover 2.jpg
Video
ID : 1
Format : AVC
Format/Info : Advanced Video Codec
Format profile : High@L4.1
Format settings : CABAC / 9 Ref Frames
Format settings, CABAC : Yes
Format settings, Reference : 9 frames
Codec ID : V_MPEG4/ISO/AVC
Duration : 1 h 48 min
Bit rate : 2 733 kb/s
Width : 1 280 pixels
Height : 536 pixels
Display aspect ratio : 2.40:1
Frame rate mode : Constant
Frame rate : 23.976 (24000/1001) FPS
Color space : YUV
Chroma subsampling : 4:2:0
Bit depth : 8 bits
Scan type : Progressive
Bits/(Pixel*Frame) : 0.166
Stream size : 2.07 GiB (77%)
Title : -=DoMiNo=-
Writing library : x264 core 164 r3086 5585eaf
Encoding settings : cabac=1 / ref=9 / deblock=1:-3:-2 / analyse=0x3:0x133 / me=umh / subme=9 / psy=1 / psy_rd=1.00:0.00 / mixed_ref=1 / me_range=32 / chroma_me=1 / trellis=2 / 8x8dct=1 / cqm=0 / deadzone=21,11 / fast_pskip=0 / chroma_qp_offset=-2 / threads=17 / lookahead_threads=2 / sliced_threads=0 / nr=0 / decimate=1 / interlaced=0 / bluray_compat=0 / constrained_intra=0 / bframes=9 / b_pyramid=2 / b_adapt=2 / b_bias=0 / direct=1 / weightb=1 / open_gop=0 / weightp=2 / keyint=250 / keyint_min=23 / scenecut=40 / intra_refresh=0 / rc_lookahead=60 / rc=crf / mbtree=0 / crf=20.5 / qcomp=0.70 / qpmin=0 / qpmax=69 / qpstep=4 / vbv_maxrate=50000 / vbv_bufsize=62500 / crf_max=0.0 / nal_hrd=none / filler=0 / ip_ratio=1.30 / pb_ratio=1.20 / aq=1:1.00
Language : Korean
Default : Yes
Forced : No
Audio #1
ID : 2
Format : AC-3
Format/Info : Audio Coding 3
Commercial name : Dolby Digital
Codec ID : A_AC3
Duration : 1 h 48 min
Bit rate mode : Constant
Bit rate : 640 kb/s
Channel(s) : 6 channels
Channel layout : L R C LFE Ls Rs
Sampling rate : 48.0 kHz
Frame rate : 31.250 FPS (1536 SPF)
Compression mode : Lossy
Stream size : 497 MiB (18%)
Title : DVO, АрхиAsia
Language : Russian
Service kind : Complete Main
Default : Yes
Forced : No
Audio #2
ID : 3
Format : AC-3
Format/Info : Audio Coding 3
Commercial name : Dolby Digital
Codec ID : A_AC3
Duration : 1 h 48 min
Bit rate mode : Constant
Bit rate : 192 kb/s
Channel(s) : 2 channels
Channel layout : L R
Sampling rate : 48.0 kHz
Frame rate : 31.250 FPS (1536 SPF)
Compression mode : Lossy
Stream size : 149 MiB (5%)
Title : MVO, Head Pack Films
Language : Russian
Service kind : Complete Main
Default : No
Forced : No
Text #1
ID : 4
Format : UTF-8
Codec ID : S_TEXT/UTF8
Codec ID/Info : UTF-8 Plain Text
Duration : 1 h 31 min
Bit rate : 0 b/s
Count of elements : 5
Stream size : 458 Bytes (0%)
Title : Forced
Language : Russian
Default : Yes
Forced : No
Text #2
ID : 5
Format : UTF-8
Codec ID : S_TEXT/UTF8
Codec ID/Info : UTF-8 Plain Text
Duration : 1 h 44 min
Bit rate : 171 b/s
Count of elements : 1586
Stream size : 132 KiB (0%)
Title : АрхиAsia || Enasty Che
Language : Russian
Default : No
Forced : No
Text #3
ID : 6
Format : ASS
Codec ID : S_TEXT/ASS
Codec ID/Info : Advanced Sub Station Alpha
Duration : 1 h 44 min
Bit rate : 116 b/s
Count of elements : 1589
Compression mode : Lossless
Stream size : 89.4 KiB (0%)
Title : АрхиAsia || Enasty Che
Language : Russian
Default : No
Forced : No
Menu
00:00:00.000 : en:Глава 01
00:12:30.000 : en:Глава 02
00:25:00.000 : en:Глава 03
00:37:30.000 : en:Глава 04
00:50:00.000 : en:Глава 05
01:02:30.000 : en:Глава 06
01:15:00.000 : en:Глава 07
01:27:30.000 : en:Глава 08
01:40:00.000 : en:Глава 09

Дополнительная информация:

Звуковая дорожка 1
Переведено и озвучено: РГ АрхиAsia
Перевод: Enasty Che
Редакция, тайминг: Macho
Озвучивали: Verner, Veda
Русские субтитры (full, forced): РГ АрхиAsia
Звуковая дорожка 2
Перевод: ФСГ Азалии
Озвучено: РГ Head Pack Films
Роли озвучили: Алена Bastet, Алексей Паук, Cергей Ледовски

Скриншоты

admin

Post 16-Feb-2022 06:42

[Quote]

Название фильма: Запретные глубины
Оригинальное название фильма: Ming Hai Jin Di
Год выпуска: 2021
Производство: Китай, iQIYI Pictures
Жанр: Боевик, фэнтези, триллер
Режиссер: Лю Юйсин, Цяо Лэ
Актеры: Тим Хуан, Ян Цзинь, Кэй Хуан, Майкл Тун, Меган Хуан, Кевин Чу, Минова Ясуфуми, Чжу Хаоцзэ, Хоу Чжэньпэн, Чжан Цзятун
Описание:
Бянь Хайшэн (Тим Хуан) вырос в деревушке Танка, жители которой промышляют поиском морских сокровищ, но родом он не из этих краев – глава деревни Бянь Хайлун (Майкл Тун) усыновил его, когда Хайшэн был совсем маленьким. О своем прошлом юноша не помнит ничего, но «пиратская» татуировка на руке заставляет других юношей деревни относиться к нему с презрением. Однажды Хайшэн теряется в море и попадает к настоящим пиратам, а оттуда – в загадочную деревню, спрятанную за стеной смертоносного тумана, и именно там он найдет ключ к своему прошлому.
Продолжительность: 01:18:37
Перевод: Любительский одноголосый (Виктор Береговых)
Субтитры: Русские, английские, китайские (hardsab)
Файл
Формат: Matroska
Качество: WEB-DLRip 720p [исх.The Pirate.2021.2160p.WEB-DL]
Видео: 1280x536 at 24.000 fps, x264@L4.1, ~2593 kbps
Аудио: AC3, 2 ch, ~224 kbps - | Русский |
Формат субтитров: softsub (SRT)

M/I

x264 [info]: frame I:846 Avg QP:17.09 size: 59211
x264 [info]: frame P:27537 Avg QP:18.91 size: 23309
x264 [info]: frame B:84849 Avg QP:20.55 size: 9868
General
Unique ID : 300636083365695080930834804671670261126 (0xE22C674DDAFAC042948EBF6A52061586)
Complete name : L:The Pirate.2021.VO.WEB-DLRip.x264.720p.mkv
Format : Matroska
Format version : Version 4
File size : 1.55 GiB
Duration : 1 h 18 min
Overall bit rate : 2 819 kb/s
Encoded date : UTC 2022-02-15 14:57:25
Writing application : mkvmerge v65.0.0 ('Too Much') 64-bit
Writing library : libebml v1.4.2 + libmatroska v1.6.4
Cover : Yes
Attachments : cover.jpg / cover 2.jpg
Video
ID : 1
Format : AVC
Format/Info : Advanced Video Codec
Format profile : High@L4.1
Format settings : CABAC / 12 Ref Frames
Format settings, CABAC : Yes
Format settings, Reference : 12 frames
Codec ID : V_MPEG4/ISO/AVC
Duration : 1 h 18 min
Bit rate : 2 593 kb/s
Width : 1 280 pixels
Height : 536 pixels
Display aspect ratio : 2.40:1
Frame rate mode : Constant
Frame rate : 24.000 FPS
Color space : YUV
Chroma subsampling : 4:2:0
Bit depth : 8 bits
Scan type : Progressive
Bits/(Pixel*Frame) : 0.157
Stream size : 1.42 GiB (92%)
Title : -=DoMiNo=-
Writing library : x264 core 164 r3086 5585eaf
Encoding settings : cabac=1 / ref=12 / deblock=1:-2:-2 / analyse=0x3:0x133 / me=umh / subme=9 / psy=1 / psy_rd=1.00:0.20 / mixed_ref=1 / me_range=32 / chroma_me=1 / trellis=2 / 8x8dct=1 / cqm=0 / deadzone=21,11 / fast_pskip=0 / chroma_qp_offset=-3 / threads=17 / lookahead_threads=4 / sliced_threads=0 / nr=0 / decimate=1 / interlaced=0 / bluray_compat=0 / constrained_intra=0 / bframes=10 / b_pyramid=2 / b_adapt=2 / b_bias=0 / direct=1 / weightb=1 / open_gop=0 / weightp=2 / keyint=250 / keyint_min=24 / scenecut=40 / intra_refresh=0 / rc_lookahead=60 / rc=crf / mbtree=0 / crf=20.5 / qcomp=0.70 / qpmin=0 / qpmax=69 / qpstep=4 / vbv_maxrate=50000 / vbv_bufsize=62500 / crf_max=0.0 / nal_hrd=none / filler=0 / ip_ratio=1.30 / pb_ratio=1.20 / aq=1:1.00
Language : Chinese
Default : Yes
Forced : No
Audio
ID : 2
Format : AC-3
Format/Info : Audio Coding 3
Commercial name : Dolby Digital
Codec ID : A_AC3
Duration : 1 h 18 min
Bit rate mode : Constant
Bit rate : 224 kb/s
Channel(s) : 2 channels
Channel layout : L R
Sampling rate : 48.0 kHz
Frame rate : 31.250 FPS (1536 SPF)
Compression mode : Lossy
Stream size : 126 MiB (8%)
Title : VO, Виктор Береговых
Language : Russian
Service kind : Complete Main
Default : Yes
Forced : No
Text #1
ID : 3
Format : UTF-8
Codec ID : S_TEXT/UTF8
Codec ID/Info : UTF-8 Plain Text
Duration : 1 h 14 min
Bit rate : 51 b/s
Count of elements : 807
Stream size : 28.5 KiB (0%)
Title : Виктор Береговых
Language : Russian
Default : No
Forced : No
Text #2
ID : 4
Format : UTF-8
Codec ID : S_TEXT/UTF8
Codec ID/Info : UTF-8 Plain Text
Duration : 1 h 18 min
Bit rate : 39 b/s
Count of elements : 946
Stream size : 22.4 KiB (0%)
Title : NastyaColors00
Language : English
Default : No
Forced : No

Дополнительная информация:

Переведено и озвучено: Виктор Береговых
Русские субтитры: Виктор Береговых
Заказ перевода и озвучивания: vitolinform

Скриншоты

admin

Post 28-Jan-2022 04:32

[Quote]

Название: Адская тюрьма (Асурадо)
Оригинальное название: Asurado
Год выпуска: 2021
Жанр: Криминал
Выпущено: Южная Корея, JNC Media Group
Режиссер: Юн Ё Чхан
В ролях: Ли Соль Гу, Чон Ми Нам, Ли Даль Хён, Ким Чхве Ён Джун, Мун Со Ён, Пэ Ён Гын, Чан Кван, Ли Вон Чжон
Скачать семпл
Релиз от: АрхиAsia & vitolinform
Качество: WEB-DL 1080p | Исходник: 아수라도 (Asurado) 2021 1080p WEB-DL AAC H.264-NonDRM
Видео: MPEG-4 AVC, 5200 Кбит/с, 1920x1080
Аудио: Русский (АС3, 2 ch, 384 Кбит/с)
корейский (ААС, 2 ch, 192 Кбит/с)
Продолжительность: 01:29:41
Перевод: Любительский двухголосый (АрхиAsia)
Субтитры: Русские, английские

Скриншоты

M.I

Общее
Уникальный идентификатор : 264021566831452789134228778305635078586 (0xC6A0B4435623408F40B19B09C529D1BA)
Полное имя : D:Asurado.2021.1080p.WEB-DL.mkv
Формат : Matroska
Версия формата : Version 4
Размер файла : 3,57 Гбайт
Продолжительность : 1 ч. 29 м.
Общий поток : 5 703 Кбит/сек
Название фильма : Asurado.2021.1080p.WEB-DL
Дата кодирования : UTC 2022-01-26 10:17:12
Программа кодирования : mkvmerge v64.0.0 ('Willows') 64-bit
Библиотека кодирования : libebml v1.4.2 + libmatroska v1.6.4
Attachments : poster.jpg
Видео
Идентификатор : 1
Формат : AVC
Формат/Информация : Advanced Video Codec
Профиль формата : Baseline@L4
Настройки формата : 1 Ref Frames
Параметр CABAC формата : Нет
Параметр RefFrames формата : 1 кадр
Идентификатор кодека : V_MPEG4/ISO/AVC
Продолжительность : 1 ч. 29 м.
Битрейт : 5 200 Кбит/сек
Ширина : 1 920 пикселей
Высота : 1 080 пикселей
Соотношение сторон : 16:9
Режим частоты кадров : Постоянный
Частота кадров : 23,976 (24000/1001) кадра/сек
Цветовое пространство : YUV
Субдискретизация насыщенности : 4:2:0
Битовая глубина : 8 бит
Тип развёртки : Прогрессивная
Бит/(Пиксели*Кадры) : 0.105
Размер потока : 3,21 Гбайт (90%)
Заголовок : Адская тюрьма / Асурадо / Asurado (2021)
Библиотека кодирования : x264 core 157 r2969 d4099dd
Настройки программы : cabac=0 / ref=1 / deblock=1:0:0 / analyse=0x1:0x111 / me=hex / subme=2 / psy=1 / psy_rd=1.00:0.00 / mixed_ref=0 / me_range=16 / chroma_me=1 / trellis=0 / 8x8dct=0 / cqm=0 / deadzone=21,11 / fast_pskip=1 / chroma_qp_offset=0 / threads=12 / lookahead_threads=4 / sliced_threads=0 / nr=0 / decimate=1 / interlaced=0 / bluray_compat=0 / constrained_intra=0 / bframes=0 / weightp=0 / keyint=250 / keyint_min=23 / scenecut=40 / intra_refresh=0 / rc_lookahead=10 / rc=abr / mbtree=1 / bitrate=5200 / ratetol=1.0 / qcomp=0.60 / qpmin=0 / qpmax=69 / qpstep=4 / ip_ratio=1.40 / aq=1:1.00
Язык : Korean
Default : Да
Forced : Нет
Аудио #1
Идентификатор : 2
Формат : AC-3
Формат/Информация : Audio Coding 3
Коммерческое название : Dolby Digital
Идентификатор кодека : A_AC3
Продолжительность : 1 ч. 29 м.
Вид битрейта : Постоянный
Битрейт : 384 Кбит/сек
Каналы : 2 канала
Channel layout : L R
Частота : 48,0 КГц
Частота кадров : 31,250 кадров/сек (1536 SPF)
Метод сжатия : С потерями
Размер потока : 246 Мбайт (7%)
Заголовок : DVO, АрхиAsia
Язык : Russian
Service kind : Complete Main
Default : Да
Forced : Нет
Аудио #2
Идентификатор : 3
Формат : AAC LC
Формат/Информация : Advanced Audio Codec Low Complexity
Идентификатор кодека : A_AAC-2
Продолжительность : 1 ч. 29 м.
Битрейт : 192 Кбит/сек
Каналы : 2 канала
Channel layout : L R
Частота : 48,0 КГц
Частота кадров : 46,875 кадров/сек (1024 SPF)
Метод сжатия : С потерями
Размер потока : 122 Мбайт (3%)
Заголовок : Korean
Язык : Korean
Default : Нет
Forced : Нет
Текст #1
Идентификатор : 4
Формат : ASS
Идентификатор кодека : S_TEXT/ASS
Идентификатор кодека/Информация : Advanced Sub Station Alpha
Продолжительность : 1 ч. 27 м.
Битрейт : 103 бит/сек
Count of elements : 984
Метод сжатия : Без потерь
Размер потока : 66,4 Кбайт (0%)
Заголовок : АрхиAsia // Romaryllo и Saturn
Язык : Russian
Default : Нет
Forced : Нет
Текст #2
Идентификатор : 5
Формат : UTF-8
Идентификатор кодека : S_TEXT/UTF8
Идентификатор кодека/Информация : UTF-8 Plain Text
Продолжительность : 1 ч. 26 м.
Битрейт : 40 бит/сек
Count of elements : 981
Размер потока : 25,4 Кбайт (0%)
Заголовок : IQIYI
Язык : English
Default : Нет
Forced : Нет

admin

Post 28-Jan-2022 04:32

[Quote]

Информация о фильме
Название: Адская тюрьма / Асурадо
Оригинальное название: Asurado
Студия: JNC Media Group
Жанр: Криминал
Год выпуска: 2021
Режиссер: Юн Ё Чхан / Yoon Yeo-chang
В ролях: Ли Соль Гу, Чон Ми Нам, Ли Даль Хён, Ким Чхве Ён Джун, Мун Со Ён, Пэ Ён Гын, Чан Кван, Ли Вон Чжон
Описание:
Асурадо – тюрьма смертников, в которой содержатся самые отвратительные преступники, осужденные за особо тяжкие преступления. Новый надзиратель Чо Пхён Хо решает навести в тюрьме порядок.

Страна: Южная Корея
Продолжительность: 01:29:41
Перевод: Любительский (двухголосый закадровый) | АрхиAsia - Присутствует ненормативная лексика!
Субтитры: Русские, английские
Файл
Формат: Matroska
Качество: WEB-DLRip 720p
Видео: 1280x544 at 23.976 fps, x264@L4.1, ~2128 kbps
Аудио: AC3, 2 ch, ~192 kbps - | Русский |
Формат субтитров: softsub (SRT, ASS)
► Без Рекламы!

M/I

x264 [info]: frame I:952 Avg QP:15.78 size: 71955
x264 [info]: frame P:33452 Avg QP:18.38 size: 22814
x264 [info]: frame B:94611 Avg QP:19.91 size: 6327
General
Unique ID : 182161888837922950043773433721326391074 (0x890B1A886841A3F5345D4884CE83CF22)
Complete name : I:Asurado.2021.DVO.WEB-DLRip.x264.720p.mkv
Format : Matroska
Format version : Version 4
File size : 1.45 GiB
Duration : 1 h 29 min
Overall bit rate : 2 321 kb/s
Encoded date : UTC 2022-01-27 14:15:23
Writing application : mkvmerge v64.0.0 ('Willows') 64-bit
Writing library : libebml v1.4.2 + libmatroska v1.6.4
Cover : Yes
Attachments : cover.jpg / cover 2.jpg
Video
ID : 1
Format : AVC
Format/Info : Advanced Video Codec
Format profile : High@L4.1
Format settings : CABAC / 12 Ref Frames
Format settings, CABAC : Yes
Format settings, Reference : 12 frames
Codec ID : V_MPEG4/ISO/AVC
Duration : 1 h 29 min
Bit rate : 2 128 kb/s
Width : 1 280 pixels
Height : 544 pixels
Display aspect ratio : 2.35:1
Frame rate mode : Constant
Frame rate : 23.976 (24000/1001) FPS
Color space : YUV
Chroma subsampling : 4:2:0
Bit depth : 8 bits
Scan type : Progressive
Bits/(Pixel*Frame) : 0.127
Stream size : 1.33 GiB (92%)
Title : -=DoMiNo=-
Writing library : x264 core 164 r3085 0bb85e8
Encoding settings : cabac=1 / ref=12 / deblock=1:-3:-2 / analyse=0x3:0x133 / me=umh / subme=9 / psy=1 / psy_rd=1.00:0.00 / mixed_ref=1 / me_range=32 / chroma_me=1 / trellis=2 / 8x8dct=1 / cqm=0 / deadzone=21,11 / fast_pskip=0 / chroma_qp_offset=-2 / threads=17 / lookahead_threads=2 / sliced_threads=0 / nr=0 / decimate=0 / interlaced=0 / bluray_compat=0 / constrained_intra=0 / bframes=9 / b_pyramid=2 / b_adapt=2 / b_bias=0 / direct=3 / weightb=1 / open_gop=0 / weightp=2 / keyint=250 / keyint_min=23 / scenecut=40 / intra_refresh=0 / rc_lookahead=60 / rc=2pass / mbtree=0 / bitrate=2128 / ratetol=1.0 / qcomp=0.70 / qpmin=0 / qpmax=69 / qpstep=4 / cplxblur=20.0 / qblur=0.5 / vbv_maxrate=50000 / vbv_bufsize=62500 / nal_hrd=none / filler=0 / ip_ratio=1.40 / pb_ratio=1.30 / aq=3:0.90
Language : Korean
Default : Yes
Forced : No
Audio
ID : 2
Format : AC-3
Format/Info : Audio Coding 3
Commercial name : Dolby Digital
Codec ID : A_AC3
Duration : 1 h 29 min
Bit rate mode : Constant
Bit rate : 192 kb/s
Channel(s) : 2 channels
Channel layout : L R
Sampling rate : 48.0 kHz
Frame rate : 31.250 FPS (1536 SPF)
Compression mode : Lossy
Stream size : 123 MiB (8%)
Title : DVO_АрхиAsia
Language : Russian
Service kind : Complete Main
Default : Yes
Forced : No
Text #1
ID : 3
Format : UTF-8
Codec ID : S_TEXT/UTF8
Codec ID/Info : UTF-8 Plain Text
Duration : 1 h 26 min
Bit rate : 147 b/s
Count of elements : 982
Stream size : 93.2 KiB (0%)
Language : Russian
Default : No
Forced : No
Text #2
ID : 4
Format : ASS
Codec ID : S_TEXT/ASS
Codec ID/Info : Advanced Sub Station Alpha
Duration : 1 h 27 min
Bit rate : 103 b/s
Count of elements : 984
Compression mode : Lossless
Stream size : 66.4 KiB (0%)
Language : Russian
Default : No
Forced : No
Text #3
ID : 5
Format : UTF-8
Codec ID : S_TEXT/UTF8
Codec ID/Info : UTF-8 Plain Text
Duration : 1 h 26 min
Bit rate : 40 b/s
Count of elements : 981
Stream size : 25.4 KiB (0%)
Language : English
Default : No
Forced : No

Скриншоты

admin

Post 23-Jan-2022 22:29

[Quote]

Информация о фильме
Название: Обратный отсчёт
Оригинальное название: Balsinjehan
Год выхода: 2021
Жанр: Триллер, криминал, боевик
Режиссер: Ким Чхан-джу
В ролях: Чо У Джин, Ли Чжэ Ин, Чжин Гён, Чжи Чан Ук, Ким Джи Хо, Чон Сок-хо
О фильме:
Привычный план — отвезти детей в школу и отправиться на работу в банк — для героя неожиданно превращается в самый жуткий квест в жизни. Голос с незнакомого телефонного номера утверждает, что в автомобиле бомба. И если кто-то откроет дверь, все погибнут. Помощи просить нельзя. Что делать?

Выпущено: Южная Корея / CJ Entertainment
Продолжительность: 01:34:22
Озвучивание: Профессиональное (многоголосое) | КиноПоиск HD
Файл
Формат: MKV
Качество: BDRip 1080p
Видео: MPEG-4 AVC, 12.0 Mb/s, 1920x804
Аудио: Russian / Korean / English: AC3, 448 Kb/s (6 ch)
Субтитры: Russian (Full), English (Forced, Full, SDH)
Дополнительно: Сохранены оригинальные чаптеры.

Инфо-файл:

Complete name : Obratnyiy.otschet.2021.BDRip.1080p.ELEKTRI4KA.UNIONGANG.mkv
Format : Matroska
Format version : Version 4
File size : 8.80 GiB
Duration : 1 h 34 min
Overall bit rate : 13.3 Mb/s
Movie name : Obratnyiy.otschet.2021.BDRip.1080p.ELEKTRI4KA.UNIONGANG.
Encoded date : UTC 2022-01-21 21:16:36
Writing application : mkvmerge v8.3.0 ('Over the Horizon') 32bit
Writing library : libebml v1.3.1 + libmatroska v1.4.2
Video
ID : 1
Format : AVC
Format/Info : Advanced Video Codec
Format profile : High@L4.1
Format settings : CABAC / 5 Ref Frames
Format settings, CABAC : Yes
Format settings, Reference frames : 5 frames
Codec ID : V_MPEG4/ISO/AVC
Duration : 1 h 34 min
Bit rate : 12.0 Mb/s
Width : 1 920 pixels
Height : 804 pixels
Display aspect ratio : 2.40:1
Frame rate mode : Constant
Frame rate : 23.976 (24000/1001) FPS
Color space : YUV
Chroma subsampling : 4:2:0
Bit depth : 8 bits
Scan type : Progressive
Bits/(Pixel*Frame) : 0.324
Stream size : 7.91 GiB (90%)
Writing library : x264 core 157 r2958 57baac4
Encoding settings : cabac=1 / ref=5 / deblock=1:-3:-3 / analyse=0x3:0x113 / me=umh / subme=10 / psy=1 / psy_rd=1.00:0.15 / mixed_ref=1 / me_range=32 / chroma_me=1 / trellis=2 / 8x8dct=1 / cqm=0 / deadzone=21,11 / fast_pskip=0 / chroma_qp_offset=-3 / threads=25 / lookahead_threads=4 / sliced_threads=0 / nr=1 / decimate=0 / interlaced=0 / bluray_compat=0 / constrained_intra=0 / bframes=8 / b_pyramid=2 / b_adapt=2 / b_bias=0 / direct=3 / weightb=1 / open_gop=0 / weightp=2 / keyint=240 / keyint_min=24 / scenecut=40 / intra_refresh=0 / rc=2pass / mbtree=0 / bitrate=12000 / ratetol=1.0 / qcomp=0.60 / qpmin=0 / qpmax=69 / qpstep=4 / cplxblur=20.0 / qblur=0.5 / ip_ratio=1.40 / pb_ratio=1.30 / aq=1:1.00
Language : Korean
Default : Yes
Forced : No
Audio #1
ID : 2
Format : AC-3
Format/Info : Audio Coding 3
Commercial name : Dolby Digital
Codec ID : A_AC3
Duration : 1 h 34 min
Bit rate mode : Constant
Bit rate : 448 kb/s
Channel(s) : 6 channels
Channel layout : L R C LFE Ls Rs
Sampling rate : 48.0 kHz
Frame rate : 31.250 FPS (1536 SPF)
Compression mode : Lossy
Stream size : 302 MiB (3%)
Title : MVO (KinoPoisk HD)
Language : Russian
Service kind : Complete Main
Default : Yes
Forced : Yes
Audio #2
ID : 3
Format : AC-3
Format/Info : Audio Coding 3
Commercial name : Dolby Digital
Codec ID : A_AC3
Duration : 1 h 34 min
Bit rate mode : Constant
Bit rate : 448 kb/s
Channel(s) : 6 channels
Channel layout : L R C LFE Ls Rs
Sampling rate : 48.0 kHz
Frame rate : 31.250 FPS (1536 SPF)
Compression mode : Lossy
Stream size : 302 MiB (3%)
Language : Korean
Service kind : Complete Main
Default : No
Forced : No
Audio #3
ID : 4
Format : AC-3
Format/Info : Audio Coding 3
Commercial name : Dolby Digital
Codec ID : A_AC3
Duration : 1 h 34 min
Bit rate mode : Constant
Bit rate : 448 kb/s
Channel(s) : 6 channels
Channel layout : L R C LFE Ls Rs
Sampling rate : 48.0 kHz
Frame rate : 31.250 FPS (1536 SPF)
Compression mode : Lossy
Stream size : 302 MiB (3%)
Language : English
Service kind : Complete Main
Default : No
Forced : No
Text #1
ID : 5
Format : UTF-8
Codec ID : S_TEXT/UTF8
Codec ID/Info : UTF-8 Plain Text
Duration : 1 h 27 min
Bit rate : 96 b/s
Count of elements : 1120
Stream size : 62.2 KiB (0%)
Title : Full
Language : Russian
Default : No
Forced : No
Text #2
ID : 6
Format : UTF-8
Codec ID : S_TEXT/UTF8
Codec ID/Info : UTF-8 Plain Text
Duration : 1 h 15 min
Bit rate : 0 b/s
Count of elements : 17
Stream size : 474 Bytes (0%)
Title : Forced
Language : English
Default : No
Forced : No
Text #3
ID : 7
Format : UTF-8
Codec ID : S_TEXT/UTF8
Codec ID/Info : UTF-8 Plain Text
Duration : 1 h 27 min
Bit rate : 40 b/s
Count of elements : 961
Stream size : 26.1 KiB (0%)
Title : Full
Language : English
Default : No
Forced : No
Text #4
ID : 8
Format : UTF-8
Codec ID : S_TEXT/UTF8
Codec ID/Info : UTF-8 Plain Text
Duration : 1 h 31 min
Bit rate : 49 b/s
Count of elements : 1272
Stream size : 33.3 KiB (0%)
Title : SDH
Language : English
Default : No
Forced : No
Menu
00:00:00.000 : :Chapter 1
00:04:59.716 : :Chapter 2
00:14:17.106 : :Chapter 3
00:19:50.856 : :Chapter 4
00:25:33.323 : :Chapter 5
00:29:39.444 : :Chapter 6
00:37:16.984 : :Chapter 7
00:43:45.956 : :Chapter 8
00:50:43.623 : :Chapter 9
00:55:30.493 : :Chapter 10
01:01:05.703 : :Chapter 11
01:08:08.334 : :Chapter 12
01:12:58.207 : :Chapter 13
01:18:13.438 : :Chapter 14
01:23:39.305 : :Chapter 15
01:29:51.427 : :Chapter 16
01:34:21.155 : :Chapter 17

Скриншоты

 

Current time is: 28-Jun 10:30

All times are UTC + 3