Search found 46 matches

Author Message

admin

Post Today 04:02

[Quote]

Название фильма: Странный дом
Оригинальное название фильма: Goegimaensyon / The Grotesque Mansion
Год выпуска: 2021
Выпущено: Южная Корея, MCMC
Жанр: Ужасы
Продолжительность: 01:46:20
Перевод: Любительский двухголосый (РГ АрхиАзия)
Режиссер: Чо Ба-рын
В ролях: Сон Джун, Ким Хон-пха, Ким Бо-ра, Ли Чхан-хун, Соджин, Чжэ Хва Ким, Хён У Со, Кан Ю-сок, Ли Сок-хён, Вон Хён-джун
О фильме: В поисках идей для новый произведений автор вебтунов решает обследовать дом, о котором ходят страшные легенды. Подозрительный консьерж начинает рассказывать ему истории про проклятые квартиры, и чем больше парень узнаёт, тем больше чувствует, что с ним самим начинает происходить нечто зловещее.


В начале и конце фильма фраза: Фильм озвучен АрхиАзия в 2021г.
Возраст: 18+
Качество: WEB-DL 1080p |Ghost Mansion AKA The Grotesque Mansion 2021 1080p WEB-DL AAC5.1 H.264-Imagine
Видео: MPEG-4 AVC, 8000 Кбит/с, 1920x1080
Аудио 1: АС3, 6 ch, 640 Кбит/с |RUS|
Аудио 2: ААС, 6 ch, 192 Кбит/с |KOR|
Субтитры: Нет.

дополнительная информация

Исходный видеоряд: Ghost Mansion AKA The Grotesque Mansion 2021 1080p WEB-DL AAC5.1 H.264-Imagine
Переведено и озвучено: РГ АрхиAsia
Перевод: НаНа
Редакция, тайминг: Macho
Роли озвучивали: Veda, dee.quadro
Рекламы нет

Скриншоты


Инфо

Общее
Уникальный идентификатор : 101548153203879962343223129327329938882 (0x4C657680F57E20884712AB24C9B50DC2)
Полное имя : D:The.Grotesque.Mansion.2021.1080p.WEB-DL.mkv
Формат : Matroska
Версия формата : Version 4
Размер файла : 6,56 Гбайт
Продолжительность : 1 ч. 46 м.
Общий поток : 8 832 Кбит/сек
Название фильма : Загадочный дом / Гротескный особняк / Goegimaensyon / Ghost Mansion (2021)
Дата кодирования : UTC 2021-07-25 22:32:17
Программа кодирования : mkvmerge v44.0.0 ('Domino') 64-bit
Библиотека кодирования : libebml v1.3.10 + libmatroska v1.5.2
Обложка : Yes
Attachments : cover.jpg
IMDB : tt14895216
TMDB : movie/842033
Видео
Идентификатор : 1
Формат : AVC
Формат/Информация : Advanced Video Codec
Профиль формата : Main@L4
Настройки формата : CABAC / 2 Ref Frames
Параметр CABAC формата : Да
Параметр RefFrames формата : 2 кадра
Параметр GOP формата : M=1, N=30
Идентификатор кодека : V_MPEG4/ISO/AVC
Продолжительность : 1 ч. 46 м.
Вид битрейта : Постоянный
Битрейт : 8 000 Кбит/сек
Ширина : 1 920 пикселей
Высота : 1 080 пикселей
Соотношение сторон : 16:9
Режим частоты кадров : Постоянный
Частота кадров : 23,976 (24000/1001) кадра/сек
Цветовое пространство : YUV
Субдискретизация насыщенности : 4:2:0
Битовая глубина : 8 бит
Тип развёртки : Прогрессивная
Бит/(Пиксели*Кадры) : 0.161
Размер потока : 5,94 Гбайт (91%)
Заголовок : The.Grotesque.Mansion.2021.1080p.WEB-DL
Язык : Korean
Default : Да
Forced : Да
Аудио #1
Идентификатор : 2
Формат : AC-3
Формат/Информация : Audio Coding 3
Коммерческое название : Dolby Digital
Идентификатор кодека : A_AC3
Продолжительность : 1 ч. 46 м.
Вид битрейта : Постоянный
Битрейт : 640 Кбит/сек
Каналы : 6 каналов
Channel layout : L R C LFE Ls Rs
Частота : 48,0 КГц
Частота кадров : 31,250 кадров/сек (1536 SPF)
Метод сжатия : С потерями
Размер потока : 487 Мбайт (7%)
Заголовок : DVO, АрхиAsia
Язык : Russian
Service kind : Complete Main
Default : Да
Forced : Да
Аудио #2
Идентификатор : 3
Формат : AAC LC SBR
Формат/Информация : Advanced Audio Codec Low Complexity with Spectral Band Replication
Коммерческое название : HE-AAC
Настройки формата : Implicit
Идентификатор кодека : A_AAC-2
Продолжительность : 1 ч. 46 м.
Битрейт : 192 Кбит/сек
Каналы : 6 каналов
Channel layout : C L R Ls Rs LFE
Частота : 48,0 КГц
Частота кадров : 23,438 кадра/сек (2048 SPF)
Метод сжатия : С потерями
Размер потока : 146 Мбайт (2%)
Заголовок : Korean
Язык : Korean
Default : Нет
Forced : Нет

admin

Post Yesterday 05:53

[Quote]

Информация о фильме
Название: Первый клон
Оригинальное название: Seobok
Год выхода: 2020
Жанр: Фантастика, драма, боевик
Режиссер: Ли Ён-джу
В ролях: Кон Ю, Пак По-гом, Чо У-джин, Чан Ён-нам, Пак Пён-ын, Ён Джэ-ук, Ким Джэ-гон, Ли Он-джон, Андреа Пачиотто, На Гван-хун

О фильме: Ученым удалось создать первый клон человека, который обладает секретом бессмертия. Бывший разведчик Ки-хун получает задание — сопроводить такого клона в безопасное место. Из-за нездорового ажиотажа вокруг этого создания возникла угроза уничтожения столь уникального субъекта. Ки-Хун с неохотой берется за дело, не подозревая, чем для него обернется общение с человеческим клоном.
Страна: Корея Южная
Студия: CJ Entertainment, STUDIO101, TPS Company
Продолжительность: 01:54:34
Перевод: Дублированный | iTunes
Качество: BDRip 1080p
Видео: MPEG-4 AVC, 1920x804, 10.0 Mbit/s, 23.976 fps
Аудио #01: 48 kHz, AC3, 5.1, 384 Kbps | Дублированный | RUS |
Аудио #02: 48 kHz, AC3, 5.1, 640 Kbps | Оригинал | GER |
Субтитры: Русские (Forced, full), английские

Скриншоты

MI

General
Unique ID : 72938729438876727332102519624853062233 (0x36DF7D0217D99A965BAC1B82A7EF8259)
Complete name : G:VideoSeobok.202.BDRip.1080p.seleZen.mkv
Format : Matroska
Format version : Version 4
File size : 8.80 GiB
Duration : 1 h 54 min
Overall bit rate : 11.0 Mb/s
Movie name : Seobok 2021 from seleZen
Encoded date : UTC 2021-07-25 04:13:55
Writing application : mkvmerge v53.0.0 ('Fool's Gold') 64-bit
Writing library : libebml v1.4.1 + libmatroska v1.6.2
Video
ID : 1
Format : AVC
Format/Info : Advanced Video Codec
Format profile : High@L4.1
Format settings : CABAC / 5 Ref Frames
Format settings, CABAC : Yes
Format settings, Reference : 5 frames
Codec ID : V_MPEG4/ISO/AVC
Duration : 1 h 54 min
Bit rate : 10 000 kb/s
Width : 1 920 pixels
Height : 804 pixels
Display aspect ratio : 2.40:1
Frame rate mode : Constant
Frame rate : 23.976 (24000/1001) FPS
Color space : YUV
Chroma subsampling : 4:2:0
Bit depth : 8 bits
Scan type : Progressive
Bits/(Pixel*Frame) : 0.270
Stream size : 7.98 GiB (91%)
Writing library : x264 core 146 -from seleZen
Encoding settings : cabac=1 / ref=5 / deblock=1:-2:-2 / analyse=0x3:0x133 / me=umh / subme=10 / psy=1 / psy_rd=1.03:0.05 / mixed_ref=1 / me_range=48 / chroma_me=1 / trellis=2 / 8x8dct=1 / cqm=0 / deadzone=21,11 / fast_pskip=0 / chroma_qp_offset=-3 / threads=48 / lookahead_threads=6 / sliced_threads=0 / nr=0 / decimate=0 / interlaced=0 / bluray_compat=0 / constrained_intra=0 / bframes=9 / b_pyramid=2 / b_adapt=2 / b_bias=0 / direct=3 / weightb=1 / open_gop=0 / weightp=2 / keyint=240 / keyint_min=23 / scenecut=40 / intra_refresh=0 / rc_lookahead=50 / rc=2pass / mbtree=0 / bitrate=10000 / ratetol=1.0 / qcomp=0.60 / qpmin=0 / qpmax=51 / qpstep=4 / cplxblur=20.0 / qblur=0.5 / vbv_maxrate=50000 / vbv_bufsize=62500 / nal_hrd=none / filler=0 / ip_ratio=1.40 / pb_ratio=1.30 / aq=3:0.80
Language : English
Default : Yes
Forced : No
Audio #1
ID : 2
Format : AC-3
Format/Info : Audio Coding 3
Commercial name : Dolby Digital
Codec ID : A_AC3
Duration : 1 h 54 min
Bit rate mode : Constant
Bit rate : 384 kb/s
Channel(s) : 6 channels
Channel layout : L R C LFE Ls Rs
Sampling rate : 48.0 kHz
Frame rate : 31.250 FPS (1536 SPF)
Compression mode : Lossy
Stream size : 315 MiB (3%)
Title : iTunes
Language : Russian
Service kind : Complete Main
Default : Yes
Forced : Yes
Audio #2
ID : 3
Format : AC-3
Format/Info : Audio Coding 3
Commercial name : Dolby Digital
Codec ID : A_AC3
Duration : 1 h 54 min
Bit rate mode : Constant
Bit rate : 640 kb/s
Channel(s) : 6 channels
Channel layout : L R C LFE Ls Rs
Sampling rate : 48.0 kHz
Frame rate : 31.250 FPS (1536 SPF)
Compression mode : Lossy
Stream size : 524 MiB (6%)
Title : Original
Language : German
Service kind : Complete Main
Default : No
Forced : No
Text #1
ID : 4
Format : UTF-8
Codec ID : S_TEXT/UTF8
Codec ID/Info : UTF-8 Plain Text
Duration : 3 min 0 s
Bit rate : 30 b/s
Count of elements : 14
Stream size : 688 Bytes (0%)
Title : Forced
Language : Russian
Default : Yes
Forced : Yes
Text #2
ID : 5
Format : UTF-8
Codec ID : S_TEXT/UTF8
Codec ID/Info : UTF-8 Plain Text
Duration : 1 h 46 min
Bit rate : 52 b/s
Count of elements : 1146
Stream size : 40.8 KiB (0%)
Title : Full
Language : Russian
Default : No
Forced : No
Text #3
ID : 6
Format : UTF-8
Codec ID : S_TEXT/UTF8
Codec ID/Info : UTF-8 Plain Text
Duration : 1 h 46 min
Bit rate : 29 b/s
Count of elements : 843
Stream size : 23.0 KiB (0%)
Title : Full
Language : English
Default : No
Forced : No
Menu
00:00:00.000 : en:Глава 01
00:09:20.059 : en:Глава 02
00:17:46.899 : en:Глава 03
00:27:10.838 : en:Глава 04
00:36:05.497 : en:Глава 05
00:46:10.142 : en:Глава 06
00:54:49.953 : en:Глава 07
01:05:07.612 : en:Глава 08
01:14:41.060 : en:Глава 09
01:24:50.085 : en:Глава 10
01:36:43.673 : en:Глава 11
01:43:24.448 : en:Глава 12

admin

Post 21-Jul-2021 05:23

[Quote]

Информация о фильме
Название: Ага
Год выхода: 2021
Жанр: Боевик, триллер
Режиссер: Фархат Серкебаев
В ролях: Мурат Бисенбин, Азамат Ибраев, Болат Абдильманов, Фархад Абдраимов, Александр Устюгов, Марйам Сатаева, Руслан Каирбаев, Нурсултан Мухаметжанов, Руслан Акылбаев, Руслан Ныгманов
О фильме:
Бахытжан Абдулаев — бывший меч трех Жузов — после громких дел в прошлом, перенеся утрату близких людей, оставляет криминальный путь. Уединившись в горах, он проживает жизнь отшельником. Однако, весть о жестоком убийстве родного племянника нарушает его спокойствие и идиллию. Баха узнает, что виновником является Сакен — сын местного олигарха Сансызбая, опасного и влиятельного человека, на которого не распространяются законы. Баха принимает решение выйти на тропу войны против самых могущественных и влиятельных кланов трех Жузов. Он готов пойти на все, чтобы восстановить справедливость. Возможно, даже заплатить ценой своей жизни.


Страна: Казахстан
Студия: Toraigyr Film
Продолжительность: 01:25:05
Перевод: Не требуется
Файл
Качество: WEBRip 1080p
Формат: MKV
Кодек: MPEG-4 AVC
Видео: 1920x800 (2.40:1), 24 fps, MPEG-4 AVC ~ 4925 Kbps avg, 0.134 bit/pixel
Аудио: AC3, 48 kHz, 2 ch, ~192.00 kbps avg | русский |
Субтитры: Отсутствуют

Инфо-файл

Общее
Уникальный идентификатор : 227382529236884803290417892960372885458 (0xAB10483D86271894147D147BF45187D2)
Полное имя : Aga.2021.1080p.WEBRip.DD.2.0.MegaPeer.mkv
Формат : Matroska
Версия формата : Version 4
Размер файла : 3,04 Гбайт
Продолжительность : 1 ч. 25 м.
Общий поток : 5 119 Кбит/сек
Название фильма : Ага (2021) от MegaPeer
Дата кодирования : UTC 2021-07-20 19:31:22
Программа кодирования : mkvmerge v59.0.0 ('Shining Star') 64-bit
Библиотека кодирования : libebml v1.4.2 + libmatroska v1.6.4 / Lavf58.12.100
Обложка : Yes
Attachments : cover.jpg
Видео
Идентификатор : 1
Формат : AVC
Формат/Информация : Advanced Video Codec
Профиль формата : Main@L4
Настройки формата : CABAC / 1 Ref Frames
Параметр CABAC формата : Да
Параметр RefFrames формата : 1 кадр
Параметр GOP формата : M=1, N=25
Идентификатор кодека : V_MPEG4/ISO/AVC
Продолжительность : 1 ч. 25 м.
Битрейт : 4 925 Кбит/сек
Ширина : 1 920 пикселей
Высота : 800 пикселей
Соотношение сторон : 2,40:1
Режим частоты кадров : Постоянный
Частота кадров : 24,000 кадра/сек
Цветовое пространство : YUV
Субдискретизация насыщенности : 4:2:0
Битовая глубина : 8 бит
Тип развёртки : Прогрессивная
Бит/(Пиксели*Кадры) : 0.134
Размер потока : 2,93 Гбайт (96%)
Язык : Russian
Default : Да
Forced : Нет
Аудио
Идентификатор : 2
Формат : AC-3
Формат/Информация : Audio Coding 3
Коммерческое название : Dolby Digital
Идентификатор кодека : A_AC3
Продолжительность : 1 ч. 25 м.
Вид битрейта : Постоянный
Битрейт : 192 Кбит/сек
Каналы : 2 канала
Channel layout : L R
Частота : 48,0 КГц
Частота кадров : 31,250 кадров/сек (1536 SPF)
Метод сжатия : С потерями
Задержка видео : -5 мс.
Размер потока : 117 Мбайт (4%)
Язык : Russian
Service kind : Complete Main
Default : Да
Forced : Нет

Скриншоты

admin

Post 12-Jul-2021 03:31

[Quote]

Информация о фильме
Название: Двойной мир
Оригинальное название: Zheng tu / Double World
Год выхода: 2020
Жанр: Боевик, приключения, фэнтези
Режиссер: Тедди Чан
В ролях: Генри Лау, Питер Хо, Линь Чэньхань, Луся Цзян, Ло Чун-Хим, Ху Мин, Марк Чэн, Линь Сююй, Тайгер Сюй, Чжан Нинцзян
О фильме:
С давних пор два соседних государства Северный Янь и Южный Чжао вели непримиримую вражду, но последние 10 лет между странами царит мир. Шпиону с Севера удалось занять пост верховного советника на Юге и устроить подставное покушение на монарха - теперь у советника Гуаня есть повод готовиться к войне и объявить большое состязание для самых сильных воинов. Сирота Дун Илун, который не знал своих родителей, и младший брат великого полководца Чу Хун, желающий убить Гуаня за предательство брата, отправляются из родной деревни в столицу, чтобы участвовать в состязании.

Страна: Китай
Студия: China Film Group Corporation (CFGC) Filmko Film Co., Giant Pictures
Продолжительность: 01:50:08
Перевод: Aвторский одноголосый, Любительский двухголосый
Файл
Кодек: x.264
Качество: BDRip 1080p | Double.World.2020.CHINESE.1080p.BluRay.x264.DTS-MT
Видео: MPEG-4 AVC, 11.0 Mбит/с, 1920x808, 23.976 кадр/с
Аудио #1: Русский (АС3, 6 ch, 448 Кбит/с, 48.0 KHz) Aвторский (одноголосый, закадровый) А. Дольский
Аудио #2: Русский (АС3, 6 ch, 448 Кбит/с, 48.0 KHz) Любительский (двухголосый, закадровый) Batafurai team_&_SOUND-GROUP
Аудио #3: Русский (АС3, 6 ch, 384 Кбит/с, 48.0 KHz) Любительский (двухголосый, закадровый) East Dream
Аудио #4: Китайский (АС3, 6 ch, 640 Кбит/с, 48.0 KHz)
Субтитры: Русские (Forced, Full), английские
► Без Рекламы!

MediaInfo

Источник: Double.World.2020.CHINESE.1080p.BluRay.x264.DTS-MT
General
Unique ID : 181770245600393513768793673494035247529 (0x88BFAD07C8FFCA5A9F65296EEB3D31A9)
Complete name : Double.World.2020.CHINESE.BDRip.1080p.mkv
Format : Matroska
Format version : Version 4 / Version 2
File size : 9.93 GiB
Duration : 1 h 50 min
Overall bit rate : 12.9 Mb/s
Encoded date : UTC 2021-07-03 19:10:07
Writing application : mkvmerge v7.1.0 ('Good Love') 64bit built on Jul 27 2014 13:06:55
Writing library : libebml v1.3.0 + libmatroska v1.4.1
Video
ID : 1
Format : AVC
Format/Info : Advanced Video Codec
Format profile : High@L4.1
Format settings, CABAC : Yes
Format settings, RefFrames : 5 frames
Codec ID : V_MPEG4/ISO/AVC
Duration : 1 h 50 min
Bit rate : 11.0 Mb/s
Width : 1 920 pixels
Height : 808 pixels
Display aspect ratio : 2.40:1
Frame rate mode : Constant
Frame rate : 23.976 (24000/1001) FPS
Color space : YUV
Chroma subsampling : 4:2:0
Bit depth : 8 bits
Scan type : Progressive
Bits/(Pixel*Frame) : 0.296
Stream size : 8.46 GiB (85%)
Writing library : x264 core 157 r2938 2b00a84 TnP@MTeam Mod
Encoding settings : cabac=1 / ref=5 / deblock=1:-3:-3 / analyse=0x3:0x133 / me=umh / subme=10 / psy=1 / psy_rd=1.05:0.00 / mixed_ref=1 / me_range=32 / chroma_me=1 / trellis=2 / 8x8dct=1 / cqm=0 / deadzone=21,11 / fast_pskip=0 / chroma_qp_offset=-2 / threads=12 / lookahead_threads=2 / sliced_threads=0 / nr=0 / decimate=0 / interlaced=0 / bluray_compat=0 / constrained_intra=0 / bframes=8 / b_pyramid=2 / b_adapt=2 / b_bias=0 / direct=3 / weightb=1 / open_gop=0 / weightp=2 / keyint=250 / keyint_min=24 / scenecut=40 / intra_refresh=0 / rc_lookahead=250 / rc=crf / mbtree=0 / crf=16.8 / qcomp=0.60 / qpmin=0 / qpmax=69 / qpstep=4 / vbv_maxrate=62500 / vbv_bufsize=78125 / crf_max=0.0 / nal_hrd=none / filler=0 / ip_ratio=1.30 / pb_ratio=1.20 / aq=3:0.80
Language : Chinese
Default : Yes
Forced : No
Color range : Limited
Color primaries : BT.709
Matrix coefficients : BT.709
Audio #1
ID : 2
Format : AC-3
Format/Info : Audio Coding 3
Format settings, Endianness : Big
Codec ID : A_AC3
Duration : 1 h 50 min
Bit rate mode : Constant
Bit rate : 448 kb/s
Channel(s) : 6 channels
Channel positions : Front: L C R, Side: L R, LFE
Sampling rate : 48.0 kHz
Frame rate : 31.250 FPS (1536 SPF)
Bit depth : 16 bits
Compression mode : Lossy
Stream size : 353 MiB (3%)
Title : А. Дольский
Language : Russian
Service kind : Complete Main
Default : Yes
Forced : No
Audio #2
ID : 3
Format : AC-3
Format/Info : Audio Coding 3
Format settings, Endianness : Big
Codec ID : A_AC3
Duration : 1 h 50 min
Bit rate mode : Constant
Bit rate : 448 kb/s
Channel(s) : 6 channels
Channel positions : Front: L C R, Side: L R, LFE
Sampling rate : 48.0 kHz
Frame rate : 31.250 FPS (1536 SPF)
Bit depth : 16 bits
Compression mode : Lossy
Stream size : 353 MiB (3%)
Title : Batafurai team_&_SOUND-GROUP
Language : Russian
Service kind : Complete Main
Default : No
Forced : No
Audio #3
ID : 4
Format : AC-3
Format/Info : Audio Coding 3
Format settings, Endianness : Big
Codec ID : A_AC3
Duration : 1 h 50 min
Bit rate mode : Constant
Bit rate : 384 kb/s
Channel(s) : 6 channels
Channel positions : Front: L C R, Side: L R, LFE
Sampling rate : 48.0 kHz
Frame rate : 31.250 FPS (1536 SPF)
Bit depth : 16 bits
Compression mode : Lossy
Stream size : 302 MiB (3%)
Title : East Dream
Language : Russian
Service kind : Complete Main
Default : No
Forced : No
Audio #4
ID : 5
Format : AC-3
Format/Info : Audio Coding 3
Format settings, Endianness : Big
Codec ID : A_AC3
Duration : 1 h 50 min
Bit rate mode : Constant
Bit rate : 640 kb/s
Channel(s) : 6 channels
Channel positions : Front: L C R, Side: L R, LFE
Sampling rate : 48.0 kHz
Frame rate : 31.250 FPS (1536 SPF)
Bit depth : 16 bits
Compression mode : Lossy
Stream size : 504 MiB (5%)
Language : Chinese
Service kind : Complete Main
Default : No
Forced : No
Text #1
ID : 6
Format : UTF-8
Codec ID : S_TEXT/UTF8
Codec ID/Info : UTF-8 Plain Text
Duration : 1 h 42 min
Bit rate : 0 b/s
Count of elements : 16
Stream size : 421 Bytes (0%)
Title : Forced
Language : Russian
Default : Yes
Forced : No
Text #2
ID : 7
Format : UTF-8
Codec ID : S_TEXT/UTF8
Codec ID/Info : UTF-8 Plain Text
Duration : 1 h 43 min
Bit rate : 59 b/s
Count of elements : 971
Stream size : 45.3 KiB (0%)
Title : Aeterna temple
Language : Russian
Default : No
Forced : No
Text #3
ID : 8
Format : UTF-8
Codec ID : S_TEXT/UTF8
Codec ID/Info : UTF-8 Plain Text
Duration : 1 h 43 min
Bit rate : 34 b/s
Count of elements : 993
Stream size : 26.3 KiB (0%)
Title : SRT
Language : English
Default : No
Forced : No
Menu
00:00:00.000 : en:Chapter 01
00:09:33.239 : en:Chapter 02
00:18:44.123 : en:Chapter 03
00:25:19.435 : en:Chapter 04
00:37:15.817 : en:Chapter 05
00:46:59.650 : en:Chapter 06
00:58:39.516 : en:Chapter 07
01:09:37.757 : en:Chapter 08
01:18:31.206 : en:Chapter 09
01:26:14.503 : en:Chapter 10
01:34:20.446 : en:Chapter 11
01:42:03.868 : en:Chapter 12

Скриншоты

admin

Post 09-Jul-2021 05:04

[Quote]

Информация о фильме
Название: Ассасин: Битва миров
Оригинальное название: A Writer's Odyssey: Assassin in red / Ci sha xiao shuo jia
Год выхода: 2021
Жанр: Фэнтези, боевик
Режиссер: Лу Ян
В ролях: Цзяинь Лэй, Ми Ян, Дун Цзыцзянь, Хэвэй Юй, Цзинфэй Го, Ван Шэнди, Лия Тун, Дун Цзэ, Ян И, Лю Тяньцзо
О фильме: В неком фэнтезийном мире правит жестокий Бог, которому нужны лишь смерть и разрушения. Потеряв сестру, но обретя волшебный доспех, молодой воин Кунвэнь отправляется в путешествие, чтобы разыскать и убить Бога. В это время в нашем мире мужчина Гуань Нин уже шесть лет находится на грани отчаяния, разыскивая пропавшую дочку. Он выходит на торговцев детьми, но полиция ошибочно принимает его за преступника и арестовывает. Сбежать Нину помогает ассистентка влиятельного бизнесмена и предлагает ему сделку. Один популярный писатель в данный момент пишет роман в жанре фэнтези, который каким-то образом вредит здоровью её босса, а Нин в обмен на информацию о местонахождении дочери должен этого писателя убить.

Выпущено: Китай / Free Whale Pictures, Huace Pictures
Продолжительность: 02:09:52
Озвучивание: Дублированное | IVI
Файл
Формат: MKV
Качество: WEBRip 1080p
Видео: MPEG-4 AVC, 5120 Kb/s, 1920x1036
Аудио: Russian: 48 kHz, AC3 Dolby Digital, 3/2 (L, C, R, l, r) + LFE ch, ~384 Kbps
Субтитры: Нет
Дополнительно: Нет

MediaInfo:

Complete name: Assasin.Bitva.mirov.2021.WEB-DL.1080p.ELEKTRI4KA.UNIONGANG.mkv
Format: Matroska
Format version: Version 4
File size: 4.99 GiB
Duration: 2 h 9 min
Overall bit rate: 5 498 kb/s
Movie name: Assasin.Bitva.mirov.2021.WEB-DL.1080p.ELEKTRI4KA.UNIONGANG.
Encoded date: UTC 2021-07-07 18:22:07
Writing application: mkvmerge v8.3.0 ('Over the Horizon') 32bit
Writing library: libebml v1.3.1 + libmatroska v1.4.2
Video
ID: 1
Format: AVC
Format/Info: Advanced Video Codec
Format profile: High@L4
Format settings: CABAC / 4 Ref Frames
Format settings, CABAC: Yes
Format settings, Reference frames: 4 frames
Codec ID: V_MPEG4/ISO/AVC
Duration: 2 h 9 min
Bit rate: 5 120 kb/s
Width: 1 920 pixels
Height: 1 036 pixels
Display aspect ratio: 1.85:1
Frame rate mode: Constant
Frame rate: 24.000 FPS
Color space: YUV
Chroma subsampling: 4:2:0
Bit depth: 8 bits
Scan type: Progressive
Bits/(Pixel*Frame): 0.107
Stream size: 4.64 GiB (93%)
Writing library: x264 core 152 r2854 e9a5903
Encoding settings: cabac=1 / ref=3 / deblock=1:0:0 / analyse=0x3:0x113 / me=hex / subme=7 / psy=1 / psy_rd=1.00:0.00 / mixed_ref=1 / me_range=16 / chroma_me=1 / trellis=1 / 8x8dct=1 / cqm=0 / deadzone=21, 11 / fast_pskip=1 / chroma_qp_offset=-2 / threads=32 / lookahead_threads=5 / sliced_threads=0 / nr=0 / decimate=1 / interlaced=0 / bluray_compat=0 / constrained_intra=0 / bframes=6 / b_pyramid=2 / b_adapt=1 / b_bias=0 / direct=1 / weightb=1 / open_gop=0 / weightp=2 / keyint=48 / keyint_min=25 / scenecut=0 / intra_refresh=0 / rc_lookahead=40 / rc=2pass / mbtree=1 / bitrate=5120 / ratetol=1.0 / qcomp=0.60 / qpmin=0 / qpmax=69 / qpstep=4 / cplxblur=20.0 / qblur=0.5 / vbv_maxrate=7680 / vbv_bufsize=20480 / nal_hrd=none / filler=0 / ip_ratio=1.40 / aq=1:1.00
Default: Yes
Forced: No
Audio
ID: 2
Format: AC-3
Format/Info: Audio Coding 3
Commercial name: Dolby Digital
Codec ID: A_AC3
Duration: 2 h 9 min
Bit rate mode: Constant
Bit rate: 384 kb/s
Channel(s): 6 channels
Channel layout: L R C LFE Ls Rs
Sampling rate: 48.0 kHz
Frame rate: 31.250 FPS (1536 SPF)
Compression mode: Lossy
Stream size: 357 MiB (7%)
Title: DUB (IVI)
Language: Russian
Service kind: Complete Main
Default: Yes
Forced: Yes

Скриншоты

admin

Post 02-Jul-2021 05:33

[Quote]

Информация о фильме
Название: Непрощенный
Оригинальное название: Unforgiven / Yurusarezaru mono
Год выхода: 2013
Жанр: Боевик, триллер, драма, криминал
Режиссер: Ли Сан-иль
В ролях: Кен Ватанабэ, Дзюн Кунимура, Сиори Куцуна, Юя Ягира, Коити Сато, Эйко Койке, Такахиро Миура, Юкиёси Одзава, Сэидзи Хино, Юкиёси Одзава, Акира Эмото, Кэнъити Такито, Го Дзибики, Ёсимаса Кондо
О фильме:
Ремейк фильма Клинта Иствуда 1992г. События происходят в Хоккайдо, Япония, в 1880-х годах. Дзюбэй Камата, который поддерживает сторону правительства сегуната Эдо, убивает многих людей. Его имя печально известно в Киото. Но, когда битва при Горьокаку должна вот-вот закончиться, Дзюбэй исчезает. 10 лет спустя Дзюбэй живет со своими детьми. Он едва сводит концы с концами. Его жена умерла, и он решил никогда больше не браться за меч, но нищета не оставляет ему выбора…

Страна: Япония
Студия: Nikkatsu, Office Shirous, Warner Bros.
Продолжительность: 02:15:45
Перевод: Любительский одноголосый
Файл
Кодек: x.264
Качество: BDRip 1080p
Видео: MPEG-4 AVC, 8268 Kбит/с, 1920x802, 23.976 кадр/с
Аудио #1: Русский (АС3, 6 ch, 448 Кбит/с, 48.0 KHz) Любительский (одноголосый, закадровый) CinemaSET
Аудио #2: Русский (АС3, 2 ch, 224 Кбит/с, 48.0 KHz) Любительский (одноголосый, закадровый) BadCatStudio
Аудио #3: Японский (АС3, 6 ch, 640 Кбит/с, 48.0 KHz)
Субтитры: Русские (Full), английские, японские

MediaInfo

Источник: Yurusarezaru.Mono.AKA.Unforgiven.2013.1080p.BluRay.x264-HANDJOB
General
Unique ID : 243821323217700088691590708076052656273 (0xB76E475BEE62E87696B1B0048CFEB091)
Complete name : Unforgiven.2013.BDRip.1080p.x264.mkv
Format : Matroska
Format version : Version 4 / Version 2
File size : 9.10 GiB
Duration : 2 h 15 min
Overall bit rate : 9 592 kb/s
Movie name : Yurusarezaru mono AKA Unforgiven [2013] 1080p BluRay - HJ
Encoded date : UTC 2021-07-01 08:31:28
Writing application : mkvmerge v7.1.0 ('Good Love') 64bit built on Jul 27 2014 13:06:55
Writing library : libebml v1.3.0 + libmatroska v1.4.1
Video
ID : 1
Format : AVC
Format/Info : Advanced Video Codec
Format profile : High@L4.1
Format settings, CABAC : Yes
Format settings, RefFrames : 5 frames
Codec ID : V_MPEG4/ISO/AVC
Duration : 2 h 15 min
Bit rate : 8 268 kb/s
Width : 1 920 pixels
Height : 802 pixels
Display aspect ratio : 2.40:1
Frame rate mode : Constant
Frame rate : 23.976 (24000/1001) FPS
Color space : YUV
Chroma subsampling : 4:2:0
Bit depth : 8 bits
Scan type : Progressive
Bits/(Pixel*Frame) : 0.224
Stream size : 7.84 GiB (86%)
Writing library : x264 core 157 r2935 545de2f
Encoding settings : cabac=1 / ref=5 / deblock=1:-3:-3 / analyse=0x3:0x133 / me=umh / subme=10 / psy=1 / psy_rd=1.00:0.00 / mixed_ref=1 / me_range=32 / chroma_me=1 / trellis=2 / 8x8dct=1 / cqm=0 / deadzone=21,11 / fast_pskip=0 / chroma_qp_offset=-2 / threads=18 / lookahead_threads=4 / sliced_threads=0 / nr=0 / decimate=0 / interlaced=0 / bluray_compat=0 / constrained_intra=0 / bframes=16 / b_pyramid=2 / b_adapt=2 / b_bias=0 / direct=3 / weightb=1 / open_gop=0 / weightp=2 / keyint=240 / keyint_min=24 / scenecut=40 / intra_refresh=0 / rc_lookahead=60 / rc=crf / mbtree=0 / crf=19.0 / qcomp=0.60 / qpmin=0 / qpmax=69 / qpstep=4 / vbv_maxrate=62500 / vbv_bufsize=78125 / crf_max=0.0 / nal_hrd=none / filler=0 / ip_ratio=1.40 / pb_ratio=1.30 / aq=2:1.00
Language : Japanese
Default : Yes
Forced : No
Color range : Limited
Color primaries : BT.709
Transfer characteristics : BT.709
Matrix coefficients : BT.709
Audio #1
ID : 2
Format : AC-3
Format/Info : Audio Coding 3
Format settings, Endianness : Big
Codec ID : A_AC3
Duration : 2 h 15 min
Bit rate mode : Constant
Bit rate : 448 kb/s
Channel(s) : 6 channels
Channel positions : Front: L C R, Side: L R, LFE
Sampling rate : 48.0 kHz
Frame rate : 31.250 FPS (1536 SPF)
Bit depth : 16 bits
Compression mode : Lossy
Stream size : 435 MiB (5%)
Title : CinemaSET
Language : Russian
Service kind : Complete Main
Default : Yes
Forced : No
Audio #2
ID : 3
Format : AC-3
Format/Info : Audio Coding 3
Format settings, Endianness : Big
Codec ID : A_AC3
Duration : 2 h 15 min
Bit rate mode : Constant
Bit rate : 224 kb/s
Channel(s) : 2 channels
Channel positions : Front: L R
Sampling rate : 48.0 kHz
Frame rate : 31.250 FPS (1536 SPF)
Bit depth : 16 bits
Compression mode : Lossy
Stream size : 217 MiB (2%)
Title : BadCatStudio
Language : Russian
Service kind : Complete Main
Default : No
Forced : No
Audio #3
ID : 4
Format : AC-3
Format/Info : Audio Coding 3
Format settings, Endianness : Big
Codec ID : A_AC3
Duration : 2 h 15 min
Bit rate mode : Constant
Bit rate : 640 kb/s
Channel(s) : 6 channels
Channel positions : Front: L C R, Side: L R, LFE
Sampling rate : 48.0 kHz
Frame rate : 31.250 FPS (1536 SPF)
Bit depth : 16 bits
Compression mode : Lossy
Stream size : 621 MiB (7%)
Language : Japanese
Service kind : Complete Main
Default : No
Forced : No
Text #1
ID : 5
Format : UTF-8
Codec ID : S_TEXT/UTF8
Codec ID/Info : UTF-8 Plain Text
Duration : 2 h 11 min
Bit rate : 44 b/s
Count of elements : 941
Stream size : 42.4 KiB (0%)
Language : Russian
Default : No
Forced : No
Text #2
ID : 6
Format : UTF-8
Codec ID : S_TEXT/UTF8
Codec ID/Info : UTF-8 Plain Text
Duration : 2 h 15 min
Bit rate : 22 b/s
Count of elements : 912
Stream size : 22.1 KiB (0%)
Language : English
Default : No
Forced : No
Text #3
ID : 7
Format : PGS
Muxing mode : zlib
Codec ID : S_HDMV/PGS
Codec ID/Info : Picture based subtitle format used on BDs/HD-DVDs
Duration : 2 h 9 min
Bit rate : 9 500 b/s
Count of elements : 2075
Stream size : 8.80 MiB (0%)
Language : Japanese
Default : No
Forced : No
Menu
00:00:00.000 : :Chapter 1
00:06:01.528 : :Chapter 2
00:12:48.393 : :Chapter 3
00:17:43.437 : :Chapter 4
00:23:09.138 : :Chapter 5
00:29:33.605 : :Chapter 6
00:35:44.893 : :Chapter 7
00:39:25.405 : :Chapter 8
00:44:29.584 : :Chapter 9
00:49:25.921 : :Chapter 10
00:52:13.922 : :Chapter 11
00:56:28.260 : :Chapter 12
01:01:34.107 : :Chapter 13
01:06:49.464 : :Chapter 14
01:11:42.006 : :Chapter 15
01:17:11.669 : :Chapter 16
01:21:43.857 : :Chapter 17
01:25:48.852 : :Chapter 18
01:31:23.728 : :Chapter 19
01:33:59.717 : :Chapter 20
01:39:20.663 : :Chapter 21
01:43:34.709 : :Chapter 22
01:45:47.341 : :Chapter 23
01:50:32.876 : :Chapter 24
01:55:33.260 : :Chapter 25
01:58:56.963 : :Chapter 26
02:03:26.232 : :Chapter 27
02:08:54.143 : :Chapter 28
02:10:51.844 : :Chapter 29

Скриншоты

admin

Post 18-May-2021 04:38

[Quote]

Информация о фильме
Название: Мастер меча / Мечник
Оригинальное название: Geomgaek / The Swordsman
Год выхода: 2020
Жанр: История, боевик
Режиссер: Джэ Хун Чхве
В ролях: Чжан Хёк, Хён Су Ким, Ман Сик Чон, Джо Таслим, На Гён Ли, Мин Хёк Ли, Хён Сон Чан, Юн Тэ Ким, Чжин Хо Чхве, Сын Хён Чжи, Ван Ги Чо, Сын Хун Юн, Сан А Кон, Ангелина Данилова, Чан Хён-сон, Ким Юн-тхэ, Юн Сын-хун
О фильме: Чосон, 1623 год. После свержения монарха Кванхэ-гуна страна погружается в хаос. Через несколько лет солдаты империи Цин забирают крестьян на чужой территории в рабы, их предводитель ищет достойного соперника для поединка на мечах, а простая девушка пытается найти лекарство для слепнущего отца.

Выпущено: Корея Южная / ISU Venture Capital, KTH, Opus Pictures
Продолжительность: 01:40:39
Озвучивание: Дублированное | iTunes
Файл
Формат: MKV
Качество: BDRip 720p
Видео: MPEG-4 AVC, 7366 Kb/s, 1280x692
Аудио #1: Russian: 48 kHz, AC3 Dolby Digital, 3/2 (L, C, R, l, r) + LFE ch, ~384 Kbps | DUB | iTunes
Аудио #2: Korean: 48 kHz, AC3 Dolby Digital, 3/2 (L, C, R, l, r) + LFE ch, ~640 Kbps | Original
Аудио #3: English: 48 kHz, AC3 Dolby Digital, 3/2 (L, C, R, l, r) + LFE ch, ~640 Kbps
Субтитры: Russian (Forced), English
Дополнительно: Сохранены оригинальные чаптеры.

MediaInfo:

Complete name : Master.mecha.2020.BDRip.720p.ELEKTRI4KA.UNIONGANG.mkv
Format : Matroska
Format version : Version 4
File size : 6.35 GiB
Duration : 1 h 40 min
Overall bit rate : 9 028 kb/s
Movie name : Master.mecha.2020.BDRip.720p.ELEKTRI4KA.UNIONGANG.
Encoded date : UTC 2021-05-16 19:35:54
Writing application : mkvmerge v8.3.0 ('Over the Horizon') 32bit
Writing library : libebml v1.3.1 + libmatroska v1.4.2
Video
ID : 1
Format : AVC
Format/Info : Advanced Video Codec
Format profile : High@L4.1
Format settings : CABAC / 9 Ref Frames
Format settings, CABAC : Yes
Format settings, Reference frames : 9 frames
Codec ID : V_MPEG4/ISO/AVC
Duration : 1 h 40 min
Bit rate : 7 366 kb/s
Width : 1 280 pixels
Height : 692 pixels
Display aspect ratio : 1.85:1
Frame rate mode : Constant
Frame rate : 23.976 (24000/1001) FPS
Color space : YUV
Chroma subsampling : 4:2:0
Bit depth : 8 bits
Scan type : Progressive
Bits/(Pixel*Frame) : 0.347
Stream size : 5.18 GiB (82%)
Writing library : x264 core 161 r3048+58M ~ Encoded by Mocunaman in Portugal
Encoding settings : cabac=1 / ref=9 / deblock=1:-3:-3 / analyse=0x3:0x113 / me=umh / subme=11 / psy=1 / fade_compensate=0.00 / psy_rd=1.00:0.00 / mixed_ref=1 / me_range=32 / chroma_me=1 / trellis=2 / 8x8dct=1 / cqm=0 / deadzone=21,11 / fast_pskip=0 / chroma_qp_offset=-2 / threads=22 / lookahead_threads=3 / sliced_threads=0 / nr=0 / decimate=0 / interlaced=0 / bluray_compat=0 / constrained_intra=0 / fgo=0 / bframes=8 / b_pyramid=2 / b_adapt=2 / b_bias=0 / direct=3 / weightb=1 / open_gop=0 / weightp=2 / keyint=250 / keyint_min=23 / scenecut=40 / intra_refresh=0 / rc_lookahead=60 / rc=crf / mbtree=0 / crf=16.5000 / qcomp=0.65 / qpmin=0:0:0 / qpmax=69:69:69 / qpstep=4 / vbv_maxrate=62500 / vbv_bufsize=78125 / crf_max=0.0 / nal_hrd=none / filler=0 / ip_ratio=1.30 / pb_ratio=1.20 / aq=3:0.80 / aq-sensitivity=10.00 / aq-factor=1.00:1.00:1.00 / aq2=0 / aq3=0 / zones=0,1824,crf=14.5/1824,10825,crf=15.5/41980,43900,crf=15.5/50713,52787,crf=15.5/60166,69725,crf=15/74593,96251,crf=15.5/110459,118787,crf=15.5
Language : English
Default : Yes
Forced : No
Color range : Limited
Color primaries : BT.709
Transfer characteristics : BT.709
Matrix coefficients : BT.709
Audio #1
ID : 2
Format : AC-3
Format/Info : Audio Coding 3
Commercial name : Dolby Digital
Codec ID : A_AC3
Duration : 1 h 40 min
Bit rate mode : Constant
Bit rate : 384 kb/s
Channel(s) : 6 channels
Channel layout : L R C LFE Ls Rs
Sampling rate : 48.0 kHz
Frame rate : 31.250 FPS (1536 SPF)
Compression mode : Lossy
Stream size : 277 MiB (4%)
Title : DUB (iTunes)
Language : Russian
Service kind : Complete Main
Default : Yes
Forced : Yes
Audio #2
ID : 3
Format : AC-3
Format/Info : Audio Coding 3
Commercial name : Dolby Digital
Codec ID : A_AC3
Duration : 1 h 40 min
Bit rate mode : Constant
Bit rate : 640 kb/s
Channel(s) : 6 channels
Channel layout : L R C LFE Ls Rs
Sampling rate : 48.0 kHz
Frame rate : 31.250 FPS (1536 SPF)
Compression mode : Lossy
Stream size : 461 MiB (7%)
Title : Original
Language : Korean
Service kind : Complete Main
Default : No
Forced : No
Audio #3
ID : 4
Format : AC-3
Format/Info : Audio Coding 3
Commercial name : Dolby Digital
Codec ID : A_AC3
Duration : 1 h 40 min
Bit rate mode : Constant
Bit rate : 640 kb/s
Channel(s) : 6 channels
Channel layout : L R C LFE Ls Rs
Sampling rate : 48.0 kHz
Frame rate : 31.250 FPS (1536 SPF)
Compression mode : Lossy
Stream size : 461 MiB (7%)
Language : English
Service kind : Complete Main
Default : No
Forced : No
Text #1
ID : 5
Format : UTF-8
Codec ID : S_TEXT/UTF8
Codec ID/Info : UTF-8 Plain Text
Duration : 1 min 47 s
Bit rate : 25 b/s
Count of elements : 3
Stream size : 339 Bytes (0%)
Title : Forced
Language : Russian
Default : Yes
Forced : Yes
Text #2
ID : 6
Format : UTF-8
Codec ID : S_TEXT/UTF8
Codec ID/Info : UTF-8 Plain Text
Duration : 1 h 33 min
Bit rate : 27 b/s
Count of elements : 606
Stream size : 18.7 KiB (0%)
Title : Full
Language : English
Default : No
Forced : No
Menu
00:00:00.000 : en:Chapter 01
00:05:00.000 : en:Chapter 02
00:10:00.000 : en:Chapter 03
00:15:00.000 : en:Chapter 04
00:20:00.000 : en:Chapter 05
00:25:00.000 : en:Chapter 06
00:30:00.000 : en:Chapter 07
00:35:00.000 : en:Chapter 08
00:40:00.000 : en:Chapter 09
00:45:00.000 : en:Chapter 10
00:50:00.000 : en:Chapter 11
00:55:00.000 : en:Chapter 12
01:00:00.000 : en:Chapter 13
01:05:00.000 : en:Chapter 14
01:10:00.000 : en:Chapter 15
01:15:00.000 : en:Chapter 16
01:20:00.000 : en:Chapter 17
01:25:00.000 : en:Chapter 18
01:30:00.000 : en:Chapter 19
01:35:00.000 : en:Chapter 20
01:40:00.000 : en:Chapter 21

Скриншоты


admin

Post 18-May-2021 04:36

[Quote]

Информация о фильме
Название: Мастер меча / Мечник
Оригинальное название: Geomgaek / The Swordsman
Год выхода: 2020
Жанр: История, боевик
Режиссер: Джэ Хун Чхве
В ролях: Чжан Хёк, Хён Су Ким, Ман Сик Чон, Джо Таслим, На Гён Ли, Мин Хёк Ли, Хён Сон Чан, Юн Тэ Ким, Чжин Хо Чхве, Сын Хён Чжи, Ван Ги Чо, Сын Хун Юн, Сан А Кон, Ангелина Данилова, Чан Хён-сон, Ким Юн-тхэ, Юн Сын-хун
О фильме: Чосон, 1623 год. После свержения монарха Кванхэ-гуна страна погружается в хаос. Через несколько лет солдаты империи Цин забирают крестьян на чужой территории в рабы, их предводитель ищет достойного соперника для поединка на мечах, а простая девушка пытается найти лекарство для слепнущего отца.

Выпущено: Корея Южная / ISU Venture Capital, KTH, Opus Pictures
Продолжительность: 01:40:39
Озвучивание: Дублированное | iTunes
Файл
Формат: MKV
Качество: BDRip 1080p
Видео: MPEG-4 AVC, 14.6 Мb/s, 1920x1038
Аудио #1: Russian: 48 kHz, AC3 Dolby Digital, 3/2 (L, C, R, l, r) + LFE ch, ~384 Kbps | DUB | iTunes
Аудио #2: Korean: 48 kHz, AC3 Dolby Digital, 3/2 (L, C, R, l, r) + LFE ch, ~640 Kbps | Original
Аудио #3: English: 48 kHz, AC3 Dolby Digital, 3/2 (L, C, R, l, r) + LFE ch, ~640 Kbps
Субтитры: Russian (Forced), English
Дополнительно: Сохранены оригинальные чаптеры.

MediaInfo:

Complete name : Master.mecha.2020.BDRip.1080p.ELEKTRI4KA.UNIONGANG.mkv
Format : Matroska
Format version : Version 4
File size : 11.4 GiB
Duration : 1 h 40 min
Overall bit rate : 16.2 Mb/s
Movie name : Master.mecha.2020.BDRip.1080p.ELEKTRI4KA.UNIONGANG.
Encoded date : UTC 2021-05-16 19:09:46
Writing application : mkvmerge v8.3.0 ('Over the Horizon') 32bit
Writing library : libebml v1.3.1 + libmatroska v1.4.2
Video
ID : 1
Format : AVC
Format/Info : Advanced Video Codec
Format profile : High@L4.1
Format settings : CABAC / 4 Ref Frames
Format settings, CABAC : Yes
Format settings, Reference frames : 4 frames
Codec ID : V_MPEG4/ISO/AVC
Duration : 1 h 40 min
Bit rate : 14.6 Mb/s
Width : 1 920 pixels
Height : 1 038 pixels
Display aspect ratio : 1.85:1
Frame rate mode : Constant
Frame rate : 23.976 (24000/1001) FPS
Color space : YUV
Chroma subsampling : 4:2:0
Bit depth : 8 bits
Scan type : Progressive
Bits/(Pixel*Frame) : 0.305
Stream size : 10.2 GiB (90%)
Writing library : x264 core 161 r3033+53M ~ Encoded by Mocunaman in Portugal
Encoding settings : cabac=1 / ref=4 / deblock=1:-3:-3 / analyse=0x3:0x113 / me=umh / subme=11 / psy=1 / fade_compensate=0.00 / psy_rd=1.00:0.00 / mixed_ref=1 / me_range=32 / chroma_me=1 / trellis=2 / 8x8dct=1 / cqm=0 / deadzone=21,11 / fast_pskip=0 / chroma_qp_offset=-2 / threads=32 / lookahead_threads=5 / sliced_threads=0 / nr=0 / decimate=0 / interlaced=0 / bluray_compat=0 / constrained_intra=0 / fgo=0 / bframes=8 / b_pyramid=2 / b_adapt=2 / b_bias=0 / direct=3 / weightb=1 / open_gop=0 / weightp=2 / keyint=250 / keyint_min=23 / scenecut=40 / intra_refresh=0 / rc_lookahead=60 / rc=crf / mbtree=0 / crf=17.5000 / qcomp=0.65 / qpmin=0:0:0 / qpmax=69:69:69 / qpstep=4 / vbv_maxrate=62500 / vbv_bufsize=78125 / crf_max=0.0 / nal_hrd=none / filler=0 / ip_ratio=1.30 / pb_ratio=1.20 / aq=3:0.80 / aq-sensitivity=10.00 / aq-factor=1.00:1.00:1.00 / aq2=0 / aq3=0 / zones=0,1824,crf=15.5/1824,10825,crf=16.5/41980,43900,crf=16.5/50713,52787,crf=16.5/60166,69725,crf=16/74593,96251,crf=16.5/110459,118787,crf=16.5
Language : English
Default : Yes
Forced : No
Color range : Limited
Color primaries : BT.709
Transfer characteristics : BT.709
Matrix coefficients : BT.709
Audio #1
ID : 2
Format : AC-3
Format/Info : Audio Coding 3
Commercial name : Dolby Digital
Codec ID : A_AC3
Duration : 1 h 40 min
Bit rate mode : Constant
Bit rate : 384 kb/s
Channel(s) : 6 channels
Channel layout : L R C LFE Ls Rs
Sampling rate : 48.0 kHz
Frame rate : 31.250 FPS (1536 SPF)
Compression mode : Lossy
Stream size : 277 MiB (2%)
Title : DUB (iTunes)
Language : Russian
Service kind : Complete Main
Default : Yes
Forced : Yes
Audio #2
ID : 3
Format : AC-3
Format/Info : Audio Coding 3
Commercial name : Dolby Digital
Codec ID : A_AC3
Duration : 1 h 40 min
Bit rate mode : Constant
Bit rate : 640 kb/s
Channel(s) : 6 channels
Channel layout : L R C LFE Ls Rs
Sampling rate : 48.0 kHz
Frame rate : 31.250 FPS (1536 SPF)
Compression mode : Lossy
Stream size : 461 MiB (4%)
Title : Original
Language : Korean
Service kind : Complete Main
Default : No
Forced : No
Audio #3
ID : 4
Format : AC-3
Format/Info : Audio Coding 3
Commercial name : Dolby Digital
Codec ID : A_AC3
Duration : 1 h 40 min
Bit rate mode : Constant
Bit rate : 640 kb/s
Channel(s) : 6 channels
Channel layout : L R C LFE Ls Rs
Sampling rate : 48.0 kHz
Frame rate : 31.250 FPS (1536 SPF)
Compression mode : Lossy
Stream size : 461 MiB (4%)
Language : English
Service kind : Complete Main
Default : No
Forced : No
Text #1
ID : 5
Format : UTF-8
Codec ID : S_TEXT/UTF8
Codec ID/Info : UTF-8 Plain Text
Duration : 1 min 47 s
Bit rate : 25 b/s
Count of elements : 3
Stream size : 339 Bytes (0%)
Title : Forced
Language : Russian
Default : Yes
Forced : Yes
Text #2
ID : 6
Format : UTF-8
Codec ID : S_TEXT/UTF8
Codec ID/Info : UTF-8 Plain Text
Duration : 1 h 33 min
Bit rate : 27 b/s
Count of elements : 606
Stream size : 18.7 KiB (0%)
Title : Full
Language : English
Default : No
Forced : No
Menu
00:00:00.000 : en:Chapter 01
00:05:00.000 : en:Chapter 02
00:10:00.000 : en:Chapter 03
00:15:00.000 : en:Chapter 04
00:20:00.000 : en:Chapter 05
00:25:00.000 : en:Chapter 06
00:30:00.000 : en:Chapter 07
00:35:00.000 : en:Chapter 08
00:40:00.000 : en:Chapter 09
00:45:00.000 : en:Chapter 10
00:50:00.000 : en:Chapter 11
00:55:00.000 : en:Chapter 12
01:00:00.000 : en:Chapter 13
01:05:00.000 : en:Chapter 14
01:10:00.000 : en:Chapter 15
01:15:00.000 : en:Chapter 16
01:20:00.000 : en:Chapter 17
01:25:00.000 : en:Chapter 18
01:30:00.000 : en:Chapter 19
01:35:00.000 : en:Chapter 20
01:40:00.000 : en:Chapter 21

Скриншоты


admin

Post 17-May-2021 05:15

[Quote]

Информация о фильме
Название: Новички
Оригинальное название: The Rookies / Su ren te gong
Год выхода: 2019
Жанр: Боевик, комедия, приключения
Режиссер: Алан Юэнь
В ролях: Даррен Ван, Милла Йовович, Сандрин Пинна, Вэйчжоу Сюй, Лю Мэйтун, Шон Сяо, Сует Лам, Дэвид Ли МакИннис, Пол Аллисия, Пьер Бурдо, Эндрю Лэйн Коутон, Бэррет Коутс, Исаак Фернандес, Бьорн Фрайберг, Темур Мамисашвили, Бернадетт Ошторхази
О фильме:
Весельчак и любитель экстремальных видов спорта Чжао Фэн как-то раз случайно сталкивается с могущественной преступной группировкой, и вот уже крутая агент Интерпола по имени Брюс берёт парня в оборот и везёт в Будапешт. Там они собирают команду новичков, которой предстоит противостоять международной террористической организации.

Страна: Китай, Венгрия
Студия: New Classics Media, New Classics International Media, Huaxia Film Distribution
Продолжительность: 01:53:04
Перевод: Любительский многоголосый, Любительский одноголосый
Файл
Кодек: x.264
Качество: BDRip 1080p
Видео: MPEG-4 AVC, 13.3 Mбит/с, 1920x798, 23.976 кадр/с
Аудио #1: Русский (АС3, 2 ch, 224 Кбит/с, 48.0 KHz) Любительский (многоголосый, закадровый) @MUZOBOZ@
Аудио #2: Русский (АС3, 2 ch, 224 Кбит/с, 48.0 KHz) Любительский (одноголосый, закадровый) Ворон | [Batafurai Team]
Аудио #3: Английский (АС3, 6 ch, 640 Кбит/с, 48.0 KHz)
Субтитры: Русские (Forced), английские (Full, SDH)
► Без Рекламы!
Сэмпл

MediaInfo

Источник: The.Rookies.2019.1080p.BluRay.x264.DTS-MT
General
Unique ID : 243492098476261856072244884120706811982 (0xB72EDF537D886B2C83A1D78FF1FD084E)
Complete name : The.Rookies.2019.BDRip,1080p.x264.mkv
Format : Matroska
Format version : Version 4
File size : 11.4 GiB
Duration : 1 h 53 min
Overall bit rate : 14.4 Mb/s
Encoded date : UTC 2021-05-16 10:27:05
Writing application : mkvmerge v7.1.0 ('Good Love') 64bit built on Jul 27 2014 13:06:55
Writing library : libebml v1.3.0 + libmatroska v1.4.1
Video
ID : 1
Format : AVC
Format/Info : Advanced Video Codec
Format profile : High@L4.1
Format settings : CABAC / 5 Ref Frames
Format settings, CABAC : Yes
Format settings, Reference fra : 5 frames
Codec ID : V_MPEG4/ISO/AVC
Duration : 1 h 53 min
Bit rate : 13.3 Mb/s
Width : 1 920 pixels
Height : 798 pixels
Display aspect ratio : 2.40:1
Frame rate mode : Constant
Frame rate : 23.976 (24000/1001) FPS
Color space : YUV
Chroma subsampling : 4:2:0
Bit depth : 8 bits
Scan type : Progressive
Bits/(Pixel*Frame) : 0.362
Stream size : 10.5 GiB (92%)
Writing library : x264 core 157 r2938 2b00a84 TnP@MTeam Mod
Encoding settings : cabac=1 / ref=5 / deblock=1:-3:-3 / analyse=0x3:0x133 / me=umh / subme=10 / psy=1 / psy_rd=1.05:0.00 / mixed_ref=1 / me_range=32 / chroma_me=1 / trellis=2 / 8x8dct=1 / cqm=0 / deadzone=21,11 / fast_pskip=0 / chroma_qp_offset=-2 / threads=12 / lookahead_threads=2 / sliced_threads=0 / nr=0 / decimate=0 / interlaced=0 / bluray_compat=0 / constrained_intra=0 / bframes=8 / b_pyramid=2 / b_adapt=2 / b_bias=0 / direct=3 / weightb=1 / open_gop=0 / weightp=2 / keyint=250 / keyint_min=24 / scenecut=40 / intra_refresh=0 / rc_lookahead=250 / rc=crf / mbtree=0 / crf=16.8 / qcomp=0.60 / qpmin=0 / qpmax=69 / qpstep=4 / vbv_maxrate=62500 / vbv_bufsize=78125 / crf_max=0.0 / nal_hrd=none / filler=0 / ip_ratio=1.30 / pb_ratio=1.20 / aq=3:0.80
Language : English
Default : Yes
Forced : No
Color range : Limited
Color primaries : BT.709
Matrix coefficients : BT.709
Audio #1
ID : 2
Format : AC-3
Format/Info : Audio Coding 3
Commercial name : Dolby Digital
Codec ID : A_AC3
Duration : 1 h 53 min
Bit rate mode : Constant
Bit rate : 224 kb/s
Channel(s) : 2 channels
Channel layout : L R
Sampling rate : 48.0 kHz
Frame rate : 31.250 FPS (1536 SPF)
Compression mode : Lossy
Stream size : 181 MiB (2%)
Title : MVO
Language : Russian
Service kind : Complete Main
Default : Yes
Forced : No
Audio #2
ID : 3
Format : AC-3
Format/Info : Audio Coding 3
Commercial name : Dolby Digital
Codec ID : A_AC3
Duration : 1 h 53 min
Bit rate mode : Constant
Bit rate : 224 kb/s
Channel(s) : 2 channels
Channel layout : L R
Sampling rate : 48.0 kHz
Frame rate : 31.250 FPS (1536 SPF)
Compression mode : Lossy
Stream size : 181 MiB (2%)
Title : VO [Batafurai team]
Language : Russian
Service kind : Complete Main
Default : No
Forced : No
Audio #3
ID : 4
Format : AC-3
Format/Info : Audio Coding 3
Commercial name : Dolby Digital
Codec ID : A_AC3
Duration : 1 h 53 min
Bit rate mode : Constant
Bit rate : 640 kb/s
Channel(s) : 6 channels
Channel layout : L R C LFE Ls Rs
Sampling rate : 48.0 kHz
Frame rate : 31.250 FPS (1536 SPF)
Compression mode : Lossy
Stream size : 518 MiB (4%)
Language : English
Service kind : Complete Main
Default : No
Forced : No
Text #1
ID : 5
Format : UTF-8
Codec ID : S_TEXT/UTF8
Codec ID/Info : UTF-8 Plain Text
Duration : 1 h 45 min
Bit rate : 2 b/s
Count of elements : 34
Stream size : 1.94 KiB (0%)
Title : Forced [Batafurai team]
Language : Russian
Default : Yes
Forced : No
Text #2
ID : 6
Format : UTF-8
Codec ID : S_TEXT/UTF8
Codec ID/Info : UTF-8 Plain Text
Duration : 1 h 50 min
Bit rate : 47 b/s
Count of elements : 1464
Stream size : 38.6 KiB (0%)
Language : English
Default : No
Forced : No
Text #3
ID : 7
Format : UTF-8
Codec ID : S_TEXT/UTF8
Codec ID/Info : UTF-8 Plain Text
Duration : 1 h 52 min
Bit rate : 72 b/s
Count of elements : 2178
Stream size : 59.7 KiB (0%)
Title : SDH
Language : English
Default : No
Forced : No
Menu
00:00:00.000 : en:Chapter 01
00:09:07.881 : en:Chapter 02
00:22:03.864 : en:Chapter 03
00:30:29.828 : en:Chapter 04
00:38:59.963 : en:Chapter 05
00:50:03.167 : en:Chapter 06
00:59:44.539 : en:Chapter 07
01:08:55.173 : en:Chapter 08
01:18:04.555 : en:Chapter 09
01:28:21.505 : en:Chapter 10
01:36:45.883 : en:Chapter 11
01:43:08.391 : en:Chapter 12

Скриншоты

admin

Post 17-Mar-2021 04:24

[Quote]

Информация о фильме
Название: Женщина, которая убежала
Оригинальное название: Domangchin yeoja / The Woman Who Ran

Год выпуска: 2020
Страна: Южная Корея
Студия: Contents Panda, Jeonwonsa Film
Жанр: Драма, комедия
Продолжительность: 01:16:58
Перевод: Профессиональный многоголосый | iTunes
Режиссер: Хон Сан-су
В ролях: Ким Мин Хи, Ён-хва Сео, Сон-Ми Сонг, Ким Сэ-бек, Квон Хэ-хе
О фильме: Пока муж в командировке Кам-хи едет в пригород Сеула навестить трёх подруг, выпить и поговорить о жизни. За непринужденным общением приятельницы пытаются скрыть свои проблемы, только у Кам-хи всё хорошо — за пять лет счастливого брака она впервые разлучилась с мужем. Но тогда от чего она убежала?

Без рекламы!
Качество: WEB-DL (720p)
Видео: MPEG-4 AVC, 3048 Кбит/с, 1280x688
Аудио 1: AC3, 6 ch, 384 Кбит/с | RUS
Субтитры: Русские (Full), английские

Скриншоты


Инфо

Общее
Уникальный идентификатор : 324456427925217093434199741140026324469 (0xF41808F7017C5979A3D2DE3E5AF4F5F5)
Полное имя : C:DownloadsЖенщина, которая убежала_2020_WEB-DL_(720p)_Gateberg.mkv
Формат : Matroska
Версия формата : Version 4
Размер файла : 1,85 Гбайт
Продолжительность : 1 ч. 16 м.
Общий поток : 3 434 Кбит/сек
Название фильма : Женщина, которая убежала_2020_WEB-DL_(720p)_Gateberg
Дата кодирования : UTC 2021-03-16 06:28:46
Программа кодирования : mkvmerge v53.0.0 ('Fool's Gold') 64-bit
Библиотека кодирования : libebml v1.4.1 + libmatroska v1.6.2
Видео
Идентификатор : 1
Формат : AVC
Формат/Информация : Advanced Video Codec
Профиль формата : High@L3.1
Настройки формата : CABAC / 4 Ref Frames
Параметр CABAC формата : Да
Параметр RefFrames формата : 4 кадра
Идентификатор кодека : V_MPEG4/ISO/AVC
Продолжительность : 1 ч. 16 м.
Вид битрейта : Постоянный
Битрейт : 3 048 Кбит/сек
Номинальный битрейт : 6 000 Кбит/сек
Ширина : 1 280 пикселей
Высота : 688 пикселей
Соотношение сторон : 1,85:1
Режим частоты кадров : Постоянный
Частота кадров : 23,976 (24000/1001) кадра/сек
Цветовое пространство : YUV
Субдискретизация насыщенности : 4:2:0
Битовая глубина : 8 бит
Тип развёртки : Прогрессивная
Бит/(Пиксели*Кадры) : 0.144
Размер потока : 1,64 Гбайт (89%)
Default : Да
Forced : Нет
Цветовой диапазон : Limited
Основные цвета : BT.709
Характеристики трансфера : BT.709
Коэффициенты матрицы : BT.709
Аудио
Идентификатор : 2
Формат : AC-3
Формат/Информация : Audio Coding 3
Коммерческое название : Dolby Digital
Идентификатор кодека : A_AC3
Продолжительность : 1 ч. 16 м.
Вид битрейта : Постоянный
Битрейт : 384 Кбит/сек
Каналы : 6 каналов
Channel layout : L R C LFE Ls Rs
Частота : 48,0 КГц
Частота кадров : 31,250 кадров/сек (1536 SPF)
Метод сжатия : С потерями
Размер потока : 211 Мбайт (11%)
Заголовок : iTunes
Язык : Russian
Service kind : Complete Main
Default : Да
Forced : Нет
Текст #1
Идентификатор : 3
Формат : UTF-8
Идентификатор кодека : S_TEXT/UTF8
Идентификатор кодека/Информация : UTF-8 Plain Text
Продолжительность : 1 ч. 13 м.
Битрейт : 78 бит/сек
Count of elements : 886
Размер потока : 42,3 Кбайт (0%)
Заголовок : Full
Язык : Russian
Default : Нет
Forced : Нет
Текст #2
Идентификатор : 4
Формат : UTF-8
Идентификатор кодека : S_TEXT/UTF8
Идентификатор кодека/Информация : UTF-8 Plain Text
Продолжительность : 1 ч. 16 м.
Битрейт : 41 бит/сек
Count of elements : 894
Размер потока : 23,3 Кбайт (0%)
Заголовок : Full
Язык : English
Default : Нет
Forced : Нет

admin

Post 20-Dec-2019 21:02

[Quote]

Информация о фильме
Название: Первая любовь
Оригинальное название: First Love / Hatsukoi
Год выпуска: 2019
Жанр: Криминал, боевик
Режиссер: Такаси Миике
В ролях: Масатака Кубота, Сакурако Кониси, Нао Омори, Сёта Сомэтани, Сэиё Утино, Беки, Дзюн Мураками, Сансэй Сиоми
О фильме: Рео и Моника — боксер со смертельным диагнозом и проститутка-наркоманка, влипшая в долги… Любовь, первая любовь настигает их внезапно. Но их чувство и жизнь под угрозой: за парочкой гонятся якудза, продажный коп, киллерша, посланная китайской триадой, и даже призрак в белой простыне… Безумная ночь в безумном Токио.

Страна: Япония, Великобритания
Студия: Oriental Light and Magic, Recorded Picture Company
Продолжительность: 01:43:38
Перевод: Дублированный | iTunes
Файл
Качество: WEB-DL 1080p
Контейнер: MKV
Видео: MPEG-4 AVC, 1920x804, 4553 Kbps, 25.000 fps
Аудио: Russian: AC3, 6 ch, 48 kHz, 384 kbps - DUB, iTunes
Субтитры: Нет

Скриншоты


MediaInfo

General
Unique ID : 199674539242564397457812911574392395478 (0x9637EADC6C73FB1CB6F0A467ED1A56D6)
Complete name : Pervaya.lyubov.2019.WEB-DL.1080p.mkv
Format : Matroska
Format version : Version 4 / Version 2
File size : 3.58 GiB
Duration : 1 h 43 min
Overall bit rate : 4 939 kb/s
Encoded date : UTC 2019-12-19 21:25:14
Writing application : mkvmerge v7.8.0 ('River Man') 32bit built on Apr 3 2015 12:11:22
Writing library : libebml v1.3.1 + libmatroska v1.4.2
Video
ID : 1
Format : AVC
Format/Info : Advanced Video Codec
Format profile : High@L4
Format settings, CABAC : Yes
Format settings, RefFrames : 5 frames
Codec ID : V_MPEG4/ISO/AVC
Duration : 1 h 43 min
Bit rate : 4 553 kb/s
Width : 1 920 pixels
Height : 804 pixels
Display aspect ratio : 2.40:1
Frame rate mode : Constant
Frame rate : 25.000 FPS
Color space : YUV
Chroma subsampling : 4:2:0
Bit depth : 8 bits
Scan type : Progressive
Bits/(Pixel*Frame) : 0.118
Stream size : 3.30 GiB (92%)
Language : English
Default : Yes
Forced : No
Color range : Limited
Color primaries : BT.709
Transfer characteristics : BT.709
Matrix coefficients : BT.709
Audio
ID : 2
Format : AC-3
Format/Info : Audio Coding 3
Format settings, Endianness : Big
Codec ID : A_AC3
Duration : 1 h 43 min
Bit rate mode : Constant
Bit rate : 384 kb/s
Channel(s) : 6 channels
Channel positions : Front: L C R, Side: L R, LFE
Sampling rate : 48.0 kHz
Frame rate : 31.250 FPS (1536 SPF)
Bit depth : 16 bits
Compression mode : Lossy
Stream size : 285 MiB (8%)
Title : iTunes
Language : Russian
Service kind : Complete Main
Default : Yes
Forced : No
Menu
00:00:00.000 : en:Глава 1
00:08:43.640 : en:Глава 2
00:17:17.280 : en:Глава 3
00:25:23.159 : en:Глава 4
00:33:37.718 : en:Глава 5
00:42:49.477 : en:Глава 6
00:51:23.756 : en:Глава 7
01:00:23.915 : en:Глава 8
01:09:50.354 : en:Глава 9
01:17:56.433 : en:Глава 10
01:26:00.672 : en:Глава 11
01:34:09.232 : en:Глава 12

admin

Post 05-Dec-2019 04:27

[Quote]

Информация о фильме
Название: Царство
Оригинальное название: Kingdom
Год выхода: 2019
Жанр: Драма, боевик, военный, история
Режиссер: Синсуке Сато
В ролях: Рё Ёсидзава, Кэнто Ямадзаки, Масами Нагасава, Канна Хасимото, Масая Като, Каната Хонго, Синносукэ Мицусима, Масахиро Такасима, Джан Канаме, Такао Осава, Синносукэ Абэ, Мотоки Фуками, Дзюн Хасимото, Ватару Итиносэ, Рэндзи Исибаси
О фильме:
III век до н. э., период Сражающихся царств, когда на территории современного Китая было множество постоянно воевавших друг с другом небольших государств. Где-то на задворках одного из таких царств живут двое сирот и ежедневно тренируются, чтобы исполнить свою мечту стать великими генералами. Но один из друзей оказывается поразительно похож на правителя, и парня забирают во дворец в качестве его двойника.

Страна: Япония
Студия: East Japan Marketing & Communications Inc, KDDI Corporation
Продолжительность: 02:13:56
Перевод: Дублированный | Tunes
Файл
Кодек: x.264
Качество: BDRip 1080p | WiKi
Видео: MPEG-4 AVC, 13.2 Mбит/с, 1920x804, 23.976 кадр/с
Аудио #1: Русский (АС3, 6 ch, 384 Кбит/с, 48.0 KHz) Профессиональный (дублированный) Tunes
Аудио #2: Японский (DTS, 6 ch, 1509 Кбит/с, 48.0 KHz)
Субтитры: китайские (*ass)

MediaInfo

General
Unique ID : 293491281095802098330404298621904827440 (0xDCCC5D5AE016693E5379CB7417F93430)
Complete name : Царство.2019.Dub.1080p.BluRay.x264-WiKi.mkv
Format : Matroska
Format version : Version 4
File size : 12.4 GiB
Duration : 2 h 13 min
Overall bit rate : 13.2 Mb/s
Movie name : Kingdom [2019] [1080p] DUB
Encoded date : UTC 2019-11-10 04:52:26
Writing application : mkvmerge v40.0.0 ('Old Town Road + Pony') 32-bit
Writing library : libebml v1.3.9 + libmatroska v1.5.2
Attachments : poster.jpg / DFPHuaZongW5-B5 1.0.2005.12.28.ttf / 汉仪秀英体繁.ttf
DIRECTOR : Shinsuke Sato
GENRE : Action, History, War
IMDB : tt9099938
KEYWORDS :
Video
ID : 1
Format : AVC
Format/Info : Advanced Video Codec
Format profile : High@L4.1
Format settings : CABAC / 5 Ref Frames
Format settings, CABAC : Yes
Format settings, Reference fra : 5 frames
Codec ID : V_MPEG4/ISO/AVC
Duration : 2 h 13 min
Bit rate : 11.3 Mb/s
Width : 1 920 pixels
Height : 804 pixels
Display aspect ratio : 2.40:1
Frame rate mode : Constant
Frame rate : 23.976 (24000/1001) FPS
Color space : YUV
Chroma subsampling : 4:2:0
Bit depth : 8 bits
Scan type : Progressive
Bits/(Pixel*Frame) : 0.306
Stream size : 10.6 GiB (86%)
Writing library : x264 core 129 r2245+704+36 8e61944 tMod+MixAQ [8-bit@4:2:0 X86_64]
Encoding settings : cabac=1 / ref=5 / deblock=1:-3:-3 / analyse=0x3:0x133 / me=umh / subme=11 / psy=1 / fade_compensate=0.00 / psy_rd=1.05:0.10 / mixed_ref=1 / me_range=32 / chroma_me=1 / trellis=2 / 8x8dct=1 / cqm=0 / deadzone=21,11 / fast_pskip=0 / chroma_qp_offset=-3 / threads=18 / lookahead_threads=3 / sliced_threads=0 / nr=0 / decimate=0 / interlaced=0 / bluray_compat=0 / constrained_intra=0 / fgo=0 / bframes=10 / b_pyramid=2 / b_adapt=2 / b_bias=0 / direct=3 / weightb=1 / open_gop=0 / weightp=2 / keyint=250 / keyint_min=23 / scenecut=40 / intra_refresh=0 / rc=2pass / mbtree=0 / bitrate=11312 / ratetol=1.0 / qcomp=0.70 / qpmin=0 / qpmax=69 / qpstep=4 / cplxblur=20.0 / qblur=0.5 / ip_ratio=1.40 / pb_ratio=1.30 / aq=1 / aq-strength=0.85 / aq-sensitivity=10.00 / aq-ifactor=1.00 / aq-pfactor=1.00 / aq-bfactor=1.00 / aq2=0
Language : Japanese
Default : Yes
Forced : No
Audio #1
ID : 2
Format : AC-3
Format/Info : Audio Coding 3
Commercial name : Dolby Digital
Codec ID : A_AC3
Duration : 2 h 13 min
Bit rate mode : Constant
Bit rate : 384 kb/s
Channel(s) : 6 channels
Channel layout : L R C LFE Ls Rs
Sampling rate : 48.0 kHz
Frame rate : 31.250 FPS (1536 SPF)
Compression mode : Lossy
Stream size : 368 MiB (3%)
Title : Dub
Language : Russian
Service kind : Complete Main
Default : Yes
Forced : No
Audio #2
ID : 3
Format : DTS
Format/Info : Digital Theater Systems
Codec ID : A_DTS
Duration : 2 h 13 min
Bit rate mode : Constant
Bit rate : 1 509 kb/s
Channel(s) : 6 channels
Channel layout : C L R Ls Rs LFE
Sampling rate : 48.0 kHz
Frame rate : 93.750 FPS (512 SPF)
Bit depth : 24 bits
Compression mode : Lossy
Stream size : 1.41 GiB (11%)
Language : Japanese
Default : No
Forced : No
Text
ID : 4
Format : ASS
Codec ID : S_TEXT/ASS
Codec ID/Info : Advanced Sub Station Alpha
Duration : 2 h 13 min
Bit rate : 68 b/s
Count of elements : 1345
Compression mode : Lossless
Stream size : 66.6 KiB (0%)
Language : Chinese
Default : No
Forced : No
Menu
00:00:00.000 : en:第 01 章
00:05:57.273 : en:第 02 章
00:11:19.387 : en:第 03 章
00:23:25.278 : en:第 04 章
00:33:00.979 : en:第 05 章
00:41:31.530 : en:第 06 章
00:45:54.376 : en:第 07 章
00:50:44.249 : en:第 08 章
00:57:42.083 : en:第 09 章
01:00:00.847 : en:第 10 章
01:07:40.723 : en:第 11 章
01:23:37.595 : en:第 12 章
01:32:05.520 : en:第 13 章
01:40:57.509 : en:第 14 章
01:56:03.998 : en:第 15 章
02:07:35.606 : en:第 16 章

Скриншоты

admin

Post 09-Sep-2019 05:14

[Quote]

Информация о фильме
Название: 12 ребят, которые хотят умереть
Оригинальное название: 12 Suicidal Teens / Jyuni Nin no Shinitai Kodomotachi
Год выхода: 2019
Жанр: триллер, детектив
Режиссер: Юкихико Цуцуми
В ролях: Хана Сугисаки, Макэню Арата, Такуми Китамура, Махиро Такасуги, Юина Куросима, Канна Хасимото, Аи Ёсикава, Рику Хагивара, Юто Футино, Рёта Бандо
Описание: 12 парней и девушек, которые решили покончить с собой, собираются в заброшенном доме. Когда они находят тело и пытаются выяснить, кто убийца, всплывают причины каждого отважившегося на такой отчаянный шаг.

Страна: Япония
Продолжительность: 01:58:14
Перевод: любительский (двухголосый закадровый) XDUB DORAMA
Субтитры: английские, китайские, японские, русские & английские (форсированные на песню в титрах)
Оригинальная аудиодорожка: японский
Файл
Качество: BDRip 720p
Видео: AVC (x264), 1280x536 (2.40:1) at 23,976 fps, 4644 Кbps
Аудио 1: AC3; 192 Kbps; CBR; 2 ch; 48 khz | DVO - XDUB DORAMA |
Аудио 2: AC3; 640 Kbps; CBR; 6 ch; 48 khz | Японский |

Скриншоты

MediaInfo

General
Unique ID : 256787400719516309385147931384823696155 (0xC12F7456185D47C19199FA9E1C104B1B)
Complete name : 12 ребят, которые хотят умереть.2019.DVO.720p.BluRay.x264-WiKi.mkv
Format : Matroska
Format version : Version 4
File size : 4.57 GiB
Duration : 1 h 58 min
Overall bit rate : 5 530 kb/s
Movie name : 12 Suicidal Teens [2019] [720p] DVO
Encoded date : UTC 2019-09-03 23:45:20
Writing application : mkvmerge v37.0.0 ('Leave It') 32-bit
Writing library : libebml v1.3.9 + libmatroska v1.5.2
Attachments : poster.jpg
DIRECTOR : Yukihiko Tsutsumi
GENRE : Mystery, Thriller
IMDB : tt9214844
Video
ID : 1
Format : AVC
Format/Info : Advanced Video Codec
Format profile : High@L4.1
Format settings : CABAC / 12 Ref Frames
Format settings, CABAC : Yes
Format settings, Reference frames : 12 frames
Codec ID : V_MPEG4/ISO/AVC
Duration : 1 h 58 min
Bit rate : 4 644 kb/s
Width : 1 280 pixels
Height : 536 pixels
Display aspect ratio : 2.40:1
Frame rate mode : Constant
Frame rate : 23.976 (24000/1001) FPS
Color space : YUV
Chroma subsampling : 4:2:0
Bit depth : 8 bits
Scan type : Progressive
Bits/(Pixel*Frame) : 0.282
Stream size : 3.84 GiB (84%)
Writing library : x264 core 129 r2245+704+36 8e61944 tMod+MixAQ [8-bit@4:2:0 X86_64]
Encoding settings : cabac=1 / ref=12 / deblock=1:-3:-3 / analyse=0x3:0x133 / me=umh / subme=11 / psy=1 / fade_compensate=0.00 / psy_rd=1.05:0.10 / mixed_ref=1 / me_range=32 / chroma_me=1 / trellis=2 / 8x8dct=1 / cqm=0 / deadzone=21,11 / fast_pskip=0 / chroma_qp_offset=-3 / threads=18 / lookahead_threads=3 / sliced_threads=0 / nr=0 / decimate=0 / interlaced=0 / bluray_compat=0 / constrained_intra=0 / fgo=0 / bframes=10 / b_pyramid=2 / b_adapt=2 / b_bias=0 / direct=3 / weightb=1 / open_gop=0 / weightp=2 / keyint=250 / keyint_min=23 / scenecut=40 / intra_refresh=0 / rc=2pass / mbtree=0 / bitrate=4644 / ratetol=1.0 / qcomp=0.70 / qpmin=0 / qpmax=69 / qpstep=4 / cplxblur=20.0 / qblur=0.5 / ip_ratio=1.40 / pb_ratio=1.30 / aq=1 / aq-strength=0.90 / aq-sensitivity=10.00 / aq-ifactor=1.00 / aq-pfactor=1.00 / aq-bfactor=1.00 / aq2=0
Language : Japanese
Default : Yes
Forced : No
Audio #1
ID : 2
Format : AC-3
Format/Info : Audio Coding 3
Commercial name : Dolby Digital
Codec ID : A_AC3
Duration : 1 h 58 min
Bit rate mode : Constant
Bit rate : 192 kb/s
Channel(s) : 2 channels
Channel layout : L R
Sampling rate : 48.0 kHz
Frame rate : 31.250 FPS (1536 SPF)
Bit depth : 16 bits
Compression mode : Lossy
Stream size : 162 MiB (3%)
Title : DVO [XDUB DORAMA]
Language : Russian
Service kind : Complete Main
Default : Yes
Forced : No
Audio #2
ID : 3
Format : AC-3
Format/Info : Audio Coding 3
Commercial name : Dolby Digital
Codec ID : A_AC3
Duration : 1 h 58 min
Bit rate mode : Constant
Bit rate : 640 kb/s
Channel(s) : 6 channels
Channel layout : L R C LFE Ls Rs
Sampling rate : 48.0 kHz
Frame rate : 31.250 FPS (1536 SPF)
Bit depth : 16 bits
Compression mode : Lossy
Stream size : 541 MiB (12%)
Language : Japanese
Service kind : Complete Main
Default : No
Forced : No
Text #1
ID : 4
Format : UTF-8
Codec ID : S_TEXT/UTF8
Codec ID/Info : UTF-8 Plain Text
Duration : 4 min 4 s
Bit rate : 184 b/s
Count of elements : 53
Stream size : 5.51 KiB (0%)
Title : russian translation song forced
Language : Russian
Default : Yes
Forced : No
Text #2
ID : 5
Format : UTF-8
Codec ID : S_TEXT/UTF8
Codec ID/Info : UTF-8 Plain Text
Duration : 4 min 4 s
Bit rate : 106 b/s
Count of elements : 53
Stream size : 3.17 KiB (0%)
Title : english translation song forced
Language : English
Default : No
Forced : No
Text #3
ID : 6
Format : UTF-8
Codec ID : S_TEXT/UTF8
Codec ID/Info : UTF-8 Plain Text
Duration : 1 h 56 min
Bit rate : 40 b/s
Count of elements : 1259
Stream size : 34.6 KiB (0%)
Title : bluray + song
Language : English
Default : No
Forced : No
Text #4
ID : 7
Format : PGS
Muxing mode : zlib
Codec ID : S_HDMV/PGS
Codec ID/Info : Picture based subtitle format used on BDs/HD-DVDs
Duration : 1 h 56 min
Bit rate : 25.8 kb/s
Count of elements : 2412
Stream size : 21.4 MiB (0%)
Title : bluray
Language : English
Default : No
Forced : No
Text #5
ID : 8
Format : PGS
Muxing mode : zlib
Codec ID : S_HDMV/PGS
Codec ID/Info : Picture based subtitle format used on BDs/HD-DVDs
Duration : 1 h 56 min
Bit rate : 26.6 kb/s
Count of elements : 2422
Stream size : 22.1 MiB (0%)
Title : bluray
Language : Chinese
Default : No
Forced : No
Text #6
ID : 9
Format : PGS
Muxing mode : zlib
Codec ID : S_HDMV/PGS
Codec ID/Info : Picture based subtitle format used on BDs/HD-DVDs
Duration : 1 h 57 min
Bit rate : 75.1 kb/s
Count of elements : 4162
Stream size : 63.0 MiB (1%)
Title : bluray
Language : Japanese
Default : No
Forced : No
Menu
00:00:00.000 : en:第 01 章
00:00:27.027 : en:第 02 章
00:01:05.064 : en:第 03 章
00:13:04.909 : en:第 04 章
00:16:15.307 : en:第 05 章
00:20:59.174 : en:第 06 章
00:24:26.006 : en:第 07 章
00:28:38.508 : en:第 08 章
00:30:25.615 : en:第 09 章
00:32:44.003 : en:第 10 章
00:35:04.519 : en:第 11 章
00:36:01.158 : en:第 12 章
00:39:06.135 : en:第 13 章
00:42:58.993 : en:第 14 章
00:46:14.188 : en:第 15 章
00:53:50.060 : en:第 16 章
01:01:52.375 : en:第 17 章
01:07:20.369 : en:第 18 章
01:14:16.535 : en:第 19 章
01:25:28.164 : en:第 20 章
01:27:29.994 : en:第 21 章
01:38:56.347 : en:第 22 章
01:50:28.330 : en:第 23 章
01:53:34.808 : en:第 24 章

admin

Post 18-Jul-2019 05:49

[Quote]

Большой брат / Big Brother / Dai si hing
Страна: Гонконг
Производство: Mega-Vision Pictures (MVP), Bullet Films
Год выпуска: 2018
Жанр: боевик, комедия
Продолжительность: 01:41:07
Режиссер: Кам Ка-Вай
В ролях: Донни Йен, Джо Чэнь, Юй Кан, Том Касерто, Брахим Ачаббаке, Альфред Чун, Джей Дэй, Семиквавер Иафета, Ка Ва Лам, Билли Лау
Описание: Мистер Чэн приходит устраиваться учителем в обычную гонконгскую школу. Учебное заведение находится на грани закрытия, так как поступаемость в вузы у её выпускников почти нулевая. Но мистер Чэн, обладающий полезными знаниями, эффективными умениями и необычными методами преподавания, начинает бороться с неуспеваемостью и хромающей дисциплиной в классе...

Перевод: Профессиональный (многоголосый, закадровый) | HDRezka Studio
Субтитры: русские (forced), английские (full)-Качество: BDRip 1080p
Формат: MKV
Видео кодек: AVC
Аудио кодек: АС3
Видео: 1920x804 (2.40:1), 24.000 fps, MPEG-4 AVC ~11.5 Mbps avg
Аудио №1: 48.0 kHz, AC3 Dolby Digital, 2/0 (L,R) ch, ~192 kbps | RUS / MVO
Аудио №2: 48.0 kHz, AC3 Dolby Digital, 3/2 (L,C,R,l,r) + LFE ch, ~640 kbps | CHI
Формат субтитров: UTF-8 Plain Text
Дата премьеры (мир): 1 августа 2018

Media Info

General
Unique ID : 84912524032686954070572687331743861140 (0x3FE18EA92B1DADAC002ACD54E38D8994)
Complete name : Big.Brother.2018.BDRip.1080p.mkv
Format : Matroska
Format version : Version 4 / Version 2
File size : 8.68 GiB
Duration : 1 h 41 min
Overall bit rate : 12.3 Mb/s
Encoded date : UTC 2019-07-17 05:57:03
Writing application : mkvmerge v20.0.0 ('I Am The Sun') 64-bit
Writing library : libebml v1.3.5 + libmatroska v1.4.8
Video
ID : 1
Format : AVC
Format/Info : Advanced Video Codec
Format profile : High@L4.1
Format settings : CABAC / 5 Ref Frames
Format settings, CABAC : Yes
Format settings, RefFrames : 5 frames
Codec ID : V_MPEG4/ISO/AVC
Duration : 1 h 41 min
Bit rate : 11.5 Mb/s
Width : 1 920 pixels
Height : 804 pixels
Display aspect ratio : 2.40:1
Frame rate mode : Constant
Frame rate : 24.000 FPS
Color space : YUV
Chroma subsampling : 4:2:0
Bit depth : 8 bits
Scan type : Progressive
Bits/(Pixel*Frame) : 0.309
Stream size : 8.09 GiB (93%)
Writing library : x264 core 129 r2245 bc13772
Encoding settings : cabac=1 / ref=5 / deblock=1:-3:-3 / analyse=0x3:0x133 / me=umh / subme=11 / psy=1 / psy_rd=1.05:0.05 / mixed_ref=1 / me_range=64 / chroma_me=1 / trellis=2 / 8x8dct=1 / cqm=0 / deadzone=21,11 / fast_pskip=0 / chroma_qp_offset=-3 / threads=12 / lookahead_threads=2 / sliced_threads=0 / nr=0 / decimate=1 / interlaced=0 / bluray_compat=0 / constrained_intra=0 / bframes=8 / b_pyramid=2 / b_adapt=2 / b_bias=0 / direct=3 / weightb=1 / open_gop=0 / weightp=2 / keyint=250 / keyint_min=24 / scenecut=40 / intra_refresh=0 / rc_lookahead=60 / rc=2pass / mbtree=1 / bitrate=11459 / ratetol=1.0 / qcomp=0.60 / qpmin=0 / qpmax=69 / qpstep=4 / cplxblur=20.0 / qblur=0.5 / vbv_maxrate=40000 / vbv_bufsize=30000 / nal_hrd=none / ip_ratio=1.40 / aq=1:0.80
Language : English
Default : Yes
Forced : No
Audio #1
ID : 2
Format : AC-3
Format/Info : Audio Coding 3
Codec ID : A_AC3
Duration : 1 h 41 min
Bit rate mode : Constant
Bit rate : 192 kb/s
Channel(s) : 2 channels
Channel positions : Front: L R
Sampling rate : 48.0 kHz
Frame rate : 31.250 FPS (1536 SPF)
Bit depth : 16 bits
Compression mode : Lossy
Stream size : 139 MiB (2%)
Title : MVO HDRezka Studio
Language : Russian
Service kind : Complete Main
Default : Yes
Forced : No
Audio #2
ID : 3
Format : AC-3
Format/Info : Audio Coding 3
Codec ID : A_AC3
Duration : 1 h 41 min
Bit rate mode : Constant
Bit rate : 640 kb/s
Channel(s) : 6 channels
Channel positions : Front: L C R, Side: L R, LFE
Sampling rate : 48.0 kHz
Frame rate : 31.250 FPS (1536 SPF)
Bit depth : 16 bits
Compression mode : Lossy
Stream size : 463 MiB (5%)
Title : 国语
Language : Chinese
Service kind : Complete Main
Default : No
Forced : No
Text #1
ID : 4
Format : UTF-8
Codec ID : S_TEXT/UTF8
Codec ID/Info : UTF-8 Plain Text
Duration : 49 min 39 s
Bit rate : 0 b/s
Count of elements : 7
Stream size : 298 Bytes (0%)
Title : forced
Language : Russian
Default : Yes
Forced : Yes
Text #2
ID : 5
Format : UTF-8
Codec ID : S_TEXT/UTF8
Codec ID/Info : UTF-8 Plain Text
Duration : 1 h 36 min
Bit rate : 65 b/s
Count of elements : 1485
Stream size : 45.8 KiB (0%)
Language : English
Default : No
Forced : No

Скриншоты

admin

Post 13-Jul-2019 06:22

[Quote]

Информация о фильме
Название: Фурия
Оригинальное название: Hai Phuong
Год выхода: 2019
Жанр: Боевик, криминал
Режиссер: Ле-Ван Киэт
В ролях: Вероника Нго, Дженнифер Аликс, Фам Анх Хоа, Тхань Ньен Фан, Брианна Робертс, Элизабет Суит, Ким Лонг Тач, Хоа Чан
О фильме:
10 лет назад бывшая глава преступной группировки залегла на дно в сельской местности, родила девочку и наслаждается простым женским счастьем. Поскольку делать женщина ничего полезного не умеет, то занимается сбором долгов. Дочка Май из-за этого переживает и мечтает, что когда-нибудь они откроют рыбную ферму, и маме больше не нужно будет выполнять эту постыдную работу. Внезапно Май похищает международная организация торговцев людьми, и женщина превращается в смертоносную фурию — она пойдёт до конца, чтобы спасти дочь, а негодяям придется пожалеть о своем поступке...

Страна: Вьетнам
Студия: Studio 68, Netflix
Продолжительность: 01:37:19
Перевод: Профессиональный многоголосый | СВ Студия -ненормативная лексика
Файл
Качество: BDRip 1080p
Видео: AVC/H.264, 1920x804, 7830 Кbps, 24 fps
Звук:
Аудио 1: AC3, 6 ch, 640 Kbps - Русский
Аудио 2: DTS, 6 ch, 1509 Kbps - Bьетнамский
Субтитры: Английские (Full, SDH)

Mediainfo

Общее
Уникальный идентификатор : 139439466792003674988860868210789621598 (0x68E7107FF4052922E723BED6E8BA9F5E)
Полное имя : Hai Phuong.2019.BDRip.1080p.W.mkv
Формат : Matroska
Версия формата : Version 4
Размер файла : 6,79 Гбайт
Продолжительность : 1 ч. 37 м.
Общий поток : 9981 Кбит/сек
Название фильма : Hai Phuong / Furie.2019.BDRip.1080p.W
Дата кодирования : UTC 2019-07-12 08:31:04
Программа кодирования : mkvmerge v23.0.0 ('The Bride Said No') 64-bit
Библиотека кодирования : libebml v1.3.6 + libmatroska v1.4.9
Видео
Идентификатор : 1
Формат : AVC
Формат/Информация : Advanced Video Codec
Профиль формата : High@L4.1
Настройки формата : CABAC / 5 Ref Frames
Параметр CABAC формата : Да
Параметр RefFrames формата : 5 кадров
Идентификатор кодека : V_MPEG4/ISO/AVC
Продолжительность : 1 ч. 37 м.
Битрейт : 7830 Кбит/сек
Ширина : 1920 пикселей
Высота : 804 пикселя
Соотношение сторон : 2,40:1
Режим частоты кадров : Постоянный
Частота кадров : 24,000 кадра/сек
Цветовое пространство : YUV
Субдискретизация насыщенности : 4:2:0
Битовая глубина : 8 бит
Тип развёртки : Прогрессивная
Бит/(Пиксели*Кадры) : 0.211
Размер потока : 5,32 Гбайт (78%)
Заголовок : rip by -=walledol=-
Библиотека кодирования : x264 core 157 r2945 72db437
Настройки программы : cabac=1 / ref=5 / deblock=1:-3:-3 / analyse=0x3:0x133 / me=umh / subme=11 / psy=1 / psy_rd=1.00:0.00 / mixed_ref=1 / me_range=32 / chroma_me=1 / trellis=2 / 8x8dct=1 / cqm=0 / deadzone=21,11 / fast_pskip=0 / chroma_qp_offset=-2 / threads=12 / lookahead_threads=2 / sliced_threads=0 / nr=0 / decimate=1 / interlaced=0 / bluray_compat=0 / constrained_intra=0 / bframes=9 / b_pyramid=2 / b_adapt=2 / b_bias=0 / direct=3 / weightb=1 / open_gop=0 / weightp=2 / keyint=240 / keyint_min=24 / scenecut=40 / intra_refresh=0 / rc_lookahead=60 / rc=2pass / mbtree=1 / bitrate=7830 / ratetol=1.0 / qcomp=0.60 / qpmin=0 / qpmax=69 / qpstep=4 / cplxblur=20.0 / qblur=0.5 / vbv_maxrate=30000 / vbv_bufsize=33000 / nal_hrd=none / filler=0 / ip_ratio=1.40 / aq=3:0.80
Язык : Vietnamese
Default : Да
Forced : Нет
Аудио #1
Идентификатор : 2
Формат : AC-3
Формат/Информация : Audio Coding 3
Коммерческое название : Dolby Digital
Идентификатор кодека : A_AC3
Продолжительность : 1 ч. 37 м.
Вид битрейта : Постоянный
Битрейт : 640 Кбит/сек
Каналы : 6 каналов
ChannelLayout : L R C LFE Ls Rs
Частота : 48,0 КГц
Частота кадров : 31,250 кадров/сек (1536 SPF)
Битовая глубина : 16 бит
Метод сжатия : С потерями
Размер потока : 445 Мбайт (6%)
Заголовок : MVO | СВ Студия
Язык : Russian
ServiceKind : Complete Main
Default : Да
Forced : Нет
Аудио #2
Идентификатор : 3
Формат : DTS
Формат/Информация : Digital Theater Systems
Идентификатор кодека : A_DTS
Продолжительность : 1 ч. 37 м.
Вид битрейта : Постоянный
Битрейт : 1509 Кбит/сек
Каналы : 6 каналов
ChannelLayout : C L R Ls Rs LFE
Частота : 48,0 КГц
Частота кадров : 93,750 кадра/сек (512 SPF)
Битовая глубина : 16 бит
Метод сжатия : С потерями
Размер потока : 1,03 Гбайт (15%)
Язык : Vietnamese
Default : Нет
Forced : Нет
Текст #1
Идентификатор : 4
Формат : UTF-8
Идентификатор кодека : S_TEXT/UTF8
Идентификатор кодека/Информация : UTF-8 Plain Text
Продолжительность : 1 ч. 30 м.
Битрейт : 37 бит/сек
ElementCount : 849
Размер потока : 24,8 Кбайт (0%)
Заголовок : Full
Язык : English
Default : Нет
Forced : Нет
Текст #2
Идентификатор : 5
Формат : UTF-8
Идентификатор кодека : S_TEXT/UTF8
Идентификатор кодека/Информация : UTF-8 Plain Text
Продолжительность : 1 ч. 30 м.
Битрейт : 39 бит/сек
ElementCount : 921
Размер потока : 26,3 Кбайт (0%)
Заголовок : SDH
Язык : English
Default : Нет
Forced : Нет
Меню
00:00:00.000 : en:Chapter 1
00:07:58.083 : en:Chapter 2
00:18:37.750 : en:Chapter 3
00:25:33.375 : en:Chapter 4
00:34:46.750 : en:Chapter 5
00:45:30.500 : en:Chapter 6
00:54:38.791 : en:Chapter 7
01:02:59.416 : en:Chapter 8
01:09:26.125 : en:Chapter 9
01:13:43.541 : en:Chapter 10
01:23:34.208 : en:Chapter 11
01:32:52.708 : en:Chapter 12
01:37:18.458 : en:Chapter 13

Скриншоты

 

Current time is: 27-Jul 11:52

All times are UTC + 3