Search found 53 matches

Author Message

admin

Post 23-Jan-2022 22:29

[Quote]

Информация о фильме
Название: Обратный отсчёт
Оригинальное название: Balsinjehan
Год выхода: 2021
Жанр: Триллер, криминал, боевик
Режиссер: Ким Чхан-джу
В ролях: Чо У Джин, Ли Чжэ Ин, Чжин Гён, Чжи Чан Ук, Ким Джи Хо, Чон Сок-хо
О фильме:
Привычный план — отвезти детей в школу и отправиться на работу в банк — для героя неожиданно превращается в самый жуткий квест в жизни. Голос с незнакомого телефонного номера утверждает, что в автомобиле бомба. И если кто-то откроет дверь, все погибнут. Помощи просить нельзя. Что делать?

Выпущено: Южная Корея / CJ Entertainment
Продолжительность: 01:34:22
Озвучивание: Профессиональное (многоголосое) | КиноПоиск HD
Файл
Формат: MKV
Качество: BDRip 1080p
Видео: MPEG-4 AVC, 12.0 Mb/s, 1920x804
Аудио: Russian / Korean / English: AC3, 448 Kb/s (6 ch)
Субтитры: Russian (Full), English (Forced, Full, SDH)
Дополнительно: Сохранены оригинальные чаптеры.

Инфо-файл:

Complete name : Obratnyiy.otschet.2021.BDRip.1080p.ELEKTRI4KA.UNIONGANG.mkv
Format : Matroska
Format version : Version 4
File size : 8.80 GiB
Duration : 1 h 34 min
Overall bit rate : 13.3 Mb/s
Movie name : Obratnyiy.otschet.2021.BDRip.1080p.ELEKTRI4KA.UNIONGANG.
Encoded date : UTC 2022-01-21 21:16:36
Writing application : mkvmerge v8.3.0 ('Over the Horizon') 32bit
Writing library : libebml v1.3.1 + libmatroska v1.4.2
Video
ID : 1
Format : AVC
Format/Info : Advanced Video Codec
Format profile : High@L4.1
Format settings : CABAC / 5 Ref Frames
Format settings, CABAC : Yes
Format settings, Reference frames : 5 frames
Codec ID : V_MPEG4/ISO/AVC
Duration : 1 h 34 min
Bit rate : 12.0 Mb/s
Width : 1 920 pixels
Height : 804 pixels
Display aspect ratio : 2.40:1
Frame rate mode : Constant
Frame rate : 23.976 (24000/1001) FPS
Color space : YUV
Chroma subsampling : 4:2:0
Bit depth : 8 bits
Scan type : Progressive
Bits/(Pixel*Frame) : 0.324
Stream size : 7.91 GiB (90%)
Writing library : x264 core 157 r2958 57baac4
Encoding settings : cabac=1 / ref=5 / deblock=1:-3:-3 / analyse=0x3:0x113 / me=umh / subme=10 / psy=1 / psy_rd=1.00:0.15 / mixed_ref=1 / me_range=32 / chroma_me=1 / trellis=2 / 8x8dct=1 / cqm=0 / deadzone=21,11 / fast_pskip=0 / chroma_qp_offset=-3 / threads=25 / lookahead_threads=4 / sliced_threads=0 / nr=1 / decimate=0 / interlaced=0 / bluray_compat=0 / constrained_intra=0 / bframes=8 / b_pyramid=2 / b_adapt=2 / b_bias=0 / direct=3 / weightb=1 / open_gop=0 / weightp=2 / keyint=240 / keyint_min=24 / scenecut=40 / intra_refresh=0 / rc=2pass / mbtree=0 / bitrate=12000 / ratetol=1.0 / qcomp=0.60 / qpmin=0 / qpmax=69 / qpstep=4 / cplxblur=20.0 / qblur=0.5 / ip_ratio=1.40 / pb_ratio=1.30 / aq=1:1.00
Language : Korean
Default : Yes
Forced : No
Audio #1
ID : 2
Format : AC-3
Format/Info : Audio Coding 3
Commercial name : Dolby Digital
Codec ID : A_AC3
Duration : 1 h 34 min
Bit rate mode : Constant
Bit rate : 448 kb/s
Channel(s) : 6 channels
Channel layout : L R C LFE Ls Rs
Sampling rate : 48.0 kHz
Frame rate : 31.250 FPS (1536 SPF)
Compression mode : Lossy
Stream size : 302 MiB (3%)
Title : MVO (KinoPoisk HD)
Language : Russian
Service kind : Complete Main
Default : Yes
Forced : Yes
Audio #2
ID : 3
Format : AC-3
Format/Info : Audio Coding 3
Commercial name : Dolby Digital
Codec ID : A_AC3
Duration : 1 h 34 min
Bit rate mode : Constant
Bit rate : 448 kb/s
Channel(s) : 6 channels
Channel layout : L R C LFE Ls Rs
Sampling rate : 48.0 kHz
Frame rate : 31.250 FPS (1536 SPF)
Compression mode : Lossy
Stream size : 302 MiB (3%)
Language : Korean
Service kind : Complete Main
Default : No
Forced : No
Audio #3
ID : 4
Format : AC-3
Format/Info : Audio Coding 3
Commercial name : Dolby Digital
Codec ID : A_AC3
Duration : 1 h 34 min
Bit rate mode : Constant
Bit rate : 448 kb/s
Channel(s) : 6 channels
Channel layout : L R C LFE Ls Rs
Sampling rate : 48.0 kHz
Frame rate : 31.250 FPS (1536 SPF)
Compression mode : Lossy
Stream size : 302 MiB (3%)
Language : English
Service kind : Complete Main
Default : No
Forced : No
Text #1
ID : 5
Format : UTF-8
Codec ID : S_TEXT/UTF8
Codec ID/Info : UTF-8 Plain Text
Duration : 1 h 27 min
Bit rate : 96 b/s
Count of elements : 1120
Stream size : 62.2 KiB (0%)
Title : Full
Language : Russian
Default : No
Forced : No
Text #2
ID : 6
Format : UTF-8
Codec ID : S_TEXT/UTF8
Codec ID/Info : UTF-8 Plain Text
Duration : 1 h 15 min
Bit rate : 0 b/s
Count of elements : 17
Stream size : 474 Bytes (0%)
Title : Forced
Language : English
Default : No
Forced : No
Text #3
ID : 7
Format : UTF-8
Codec ID : S_TEXT/UTF8
Codec ID/Info : UTF-8 Plain Text
Duration : 1 h 27 min
Bit rate : 40 b/s
Count of elements : 961
Stream size : 26.1 KiB (0%)
Title : Full
Language : English
Default : No
Forced : No
Text #4
ID : 8
Format : UTF-8
Codec ID : S_TEXT/UTF8
Codec ID/Info : UTF-8 Plain Text
Duration : 1 h 31 min
Bit rate : 49 b/s
Count of elements : 1272
Stream size : 33.3 KiB (0%)
Title : SDH
Language : English
Default : No
Forced : No
Menu
00:00:00.000 : :Chapter 1
00:04:59.716 : :Chapter 2
00:14:17.106 : :Chapter 3
00:19:50.856 : :Chapter 4
00:25:33.323 : :Chapter 5
00:29:39.444 : :Chapter 6
00:37:16.984 : :Chapter 7
00:43:45.956 : :Chapter 8
00:50:43.623 : :Chapter 9
00:55:30.493 : :Chapter 10
01:01:05.703 : :Chapter 11
01:08:08.334 : :Chapter 12
01:12:58.207 : :Chapter 13
01:18:13.438 : :Chapter 14
01:23:39.305 : :Chapter 15
01:29:51.427 : :Chapter 16
01:34:21.155 : :Chapter 17

Скриншоты

admin

Post 23-Jan-2022 22:29

[Quote]

Информация о фильме
Название: Обратный отсчёт
Оригинальное название: Balsinjehan
Год выхода: 2021
Жанр: Триллер, криминал, боевик
Режиссер: Ким Чхан-джу
В ролях: Чо У Джин, Ли Чжэ Ин, Чжин Гён, Чжи Чан Ук, Ким Джи Хо, Чон Сок-хо
О фильме:
Привычный план — отвезти детей в школу и отправиться на работу в банк — для героя неожиданно превращается в самый жуткий квест в жизни. Голос с незнакомого телефонного номера утверждает, что в автомобиле бомба. И если кто-то откроет дверь, все погибнут. Помощи просить нельзя. Что делать?

Выпущено: Южная Корея / CJ Entertainment
Продолжительность: 01:34:22
Озвучивание: Профессиональное (многоголосое) | КиноПоиск HD
Файл
Формат: MKV
Качество: BDRip 720p
Видео: MPEG-4 AVC, 6000 Kb/s, 1280x536
Аудио: Russian / Korean / English: AC3, 448 Kb/s (6 ch)
Субтитры: Russian (Full), English (Forced, Full, SDH)
Дополнительно: Сохранены оригинальные чаптеры.

Инфо-файл:

Complete name : Obratnyiy.otschet.2021.BDRip.720p.ELEKTRI4KA.UNIONGANG.mkv
Format : Matroska
Format version : Version 4
File size : 4.84 GiB
Duration : 1 h 34 min
Overall bit rate : 7 346 kb/s
Movie name : Obratnyiy.otschet.2021.BDRip.720p.ELEKTRI4KA.UNIONGANG.
Encoded date : UTC 2022-01-22 11:27:22
Writing application : mkvmerge v8.3.0 ('Over the Horizon') 32bit
Writing library : libebml v1.3.1 + libmatroska v1.4.2
Video
ID : 1
Format : AVC
Format/Info : Advanced Video Codec
Format profile : High@L4.1
Format settings : CABAC / 12 Ref Frames
Format settings, CABAC : Yes
Format settings, Reference frames : 12 frames
Codec ID : V_MPEG4/ISO/AVC
Duration : 1 h 34 min
Bit rate : 6 000 kb/s
Width : 1 280 pixels
Height : 536 pixels
Display aspect ratio : 2.40:1
Frame rate mode : Constant
Frame rate : 23.976 (24000/1001) FPS
Color space : YUV
Chroma subsampling : 4:2:0
Bit depth : 8 bits
Scan type : Progressive
Bits/(Pixel*Frame) : 0.365
Stream size : 3.95 GiB (82%)
Writing library : x264 core 157 r2958 57baac4
Encoding settings : cabac=1 / ref=12 / deblock=1:-3:-3 / analyse=0x3:0x133 / me=umh / subme=10 / psy=1 / psy_rd=1.00:0.15 / mixed_ref=1 / me_range=32 / chroma_me=1 / trellis=2 / 8x8dct=1 / cqm=0 / deadzone=21,11 / fast_pskip=0 / chroma_qp_offset=-3 / threads=17 / lookahead_threads=2 / sliced_threads=0 / nr=1 / decimate=0 / interlaced=0 / bluray_compat=0 / constrained_intra=0 / bframes=8 / b_pyramid=2 / b_adapt=2 / b_bias=0 / direct=3 / weightb=1 / open_gop=0 / weightp=2 / keyint=240 / keyint_min=24 / scenecut=40 / intra_refresh=0 / rc=2pass / mbtree=0 / bitrate=6000 / ratetol=1.0 / qcomp=0.60 / qpmin=0 / qpmax=69 / qpstep=4 / cplxblur=20.0 / qblur=0.5 / ip_ratio=1.40 / pb_ratio=1.30 / aq=1:1.00
Language : Korean
Default : Yes
Forced : No
Audio #1
ID : 2
Format : AC-3
Format/Info : Audio Coding 3
Commercial name : Dolby Digital
Codec ID : A_AC3
Duration : 1 h 34 min
Bit rate mode : Constant
Bit rate : 448 kb/s
Channel(s) : 6 channels
Channel layout : L R C LFE Ls Rs
Sampling rate : 48.0 kHz
Frame rate : 31.250 FPS (1536 SPF)
Compression mode : Lossy
Stream size : 302 MiB (6%)
Title : MVO (KinoPoisk HD)
Language : Russian
Service kind : Complete Main
Default : Yes
Forced : Yes
Audio #2
ID : 3
Format : AC-3
Format/Info : Audio Coding 3
Commercial name : Dolby Digital
Codec ID : A_AC3
Duration : 1 h 34 min
Bit rate mode : Constant
Bit rate : 448 kb/s
Channel(s) : 6 channels
Channel layout : L R C LFE Ls Rs
Sampling rate : 48.0 kHz
Frame rate : 31.250 FPS (1536 SPF)
Compression mode : Lossy
Stream size : 302 MiB (6%)
Language : Korean
Service kind : Complete Main
Default : No
Forced : No
Audio #3
ID : 4
Format : AC-3
Format/Info : Audio Coding 3
Commercial name : Dolby Digital
Codec ID : A_AC3
Duration : 1 h 34 min
Bit rate mode : Constant
Bit rate : 448 kb/s
Channel(s) : 6 channels
Channel layout : L R C LFE Ls Rs
Sampling rate : 48.0 kHz
Frame rate : 31.250 FPS (1536 SPF)
Compression mode : Lossy
Stream size : 302 MiB (6%)
Language : English
Service kind : Complete Main
Default : No
Forced : No
Text #1
ID : 5
Format : UTF-8
Codec ID : S_TEXT/UTF8
Codec ID/Info : UTF-8 Plain Text
Duration : 1 h 27 min
Bit rate : 96 b/s
Count of elements : 1120
Stream size : 62.2 KiB (0%)
Title : Full
Language : Russian
Default : No
Forced : No
Text #2
ID : 6
Format : UTF-8
Codec ID : S_TEXT/UTF8
Codec ID/Info : UTF-8 Plain Text
Duration : 1 h 15 min
Bit rate : 0 b/s
Count of elements : 17
Stream size : 474 Bytes (0%)
Title : Forced
Language : English
Default : No
Forced : No
Text #3
ID : 7
Format : UTF-8
Codec ID : S_TEXT/UTF8
Codec ID/Info : UTF-8 Plain Text
Duration : 1 h 27 min
Bit rate : 40 b/s
Count of elements : 961
Stream size : 26.1 KiB (0%)
Title : Full
Language : English
Default : No
Forced : No
Text #4
ID : 8
Format : UTF-8
Codec ID : S_TEXT/UTF8
Codec ID/Info : UTF-8 Plain Text
Duration : 1 h 31 min
Bit rate : 49 b/s
Count of elements : 1272
Stream size : 33.3 KiB (0%)
Title : SDH
Language : English
Default : No
Forced : No
Menu
00:00:00.000 : :Chapter 1
00:04:59.716 : :Chapter 2
00:14:17.106 : :Chapter 3
00:19:50.856 : :Chapter 4
00:25:33.323 : :Chapter 5
00:29:39.444 : :Chapter 6
00:37:16.984 : :Chapter 7
00:43:45.956 : :Chapter 8
00:50:43.623 : :Chapter 9
00:55:30.493 : :Chapter 10
01:01:05.703 : :Chapter 11
01:08:08.334 : :Chapter 12
01:12:58.207 : :Chapter 13
01:18:13.438 : :Chapter 14
01:23:39.305 : :Chapter 15
01:29:51.427 : :Chapter 16
01:34:21.155 : :Chapter 17

Скриншоты

admin

Post 18-Jan-2022 04:22

[Quote]

Информация о фильме
Название: Ускользающий человек
Оригинальное название: Yucheitalja / Spiritwalker
Год выхода: 2021
Жанр: Боевик, фантастика, детектив
Режиссер: Юн Джэ-гын
В ролях: Юн Ге-сан, Пак Ён-у, Лим Джи-ён, Ю Сын-мок, Пак Чи-хван, Ли Сон-ук, Хон Ги-джун, Со Хён-у, Квон Хёк-пом, У Ган-мин
О фильме:
Человек обнаруживает себя на месте автомобильной аварии, в неизвестном теле, без малейшего понятия, кто он и как сюда попал. Он предпринимает отчаянные попытки отыскать самого себя и находит женщину, которая утверждает, что знает его. Все глубже погружаясь в тайну, он узнает о некой секретной организации, которая, судя по всему, преследует его.

Страна: Корея Южная
Студия: ABO Entertainment, BA Entertainment, Kiwi Media Group, Megabox Plus M, Saram Entertainment
Продолжительность: 01:48:27
Перевод: Дублированный | iTunes
Файл
Формат: MKV
Качество: WEB-DL 1080p
Видео: MPEG-4 AVC, 8000 Кбит/с, 1920x1080
Аудио 1: Русский (АС3, 6 ch, 384 Кбит/с) DUB (iTunes)
Аудио 2: Корейский (ААС, 2 ch, 128 Кбит/с) Original
Субтитры: Нет
Семпл

M/I

Общее
Уникальный идентификатор : 215696045415102272701428420590648735855 (0xA2458C1A3851F97598B46FA744E8B86F)
Полное имя : D:РаздачаYucheitalja.2021.WEB-DL 1080p.ExKinoRay.mkv
Формат : Matroska
Версия формата : Version 4 / Version 2
Размер файла : 6,45 Гбайт
Продолжительность : 1 ч. 48 м.
Общий поток : 8514 Кбит/сек
Название фильма : Spiritwalker.2021.WEB-DL 1080p.grab777 & ExKinoRay
Дата кодирования : UTC 2022-01-17 15:11:34
Программа кодирования : mkvmerge v7.3.0 ('Nouages') 64bit built on Oct 22 2014 18:53:34
Библиотека кодирования : libebml v1.3.0 + libmatroska v1.4.1
Видео
Идентификатор : 1
Формат : AVC
Формат/Информация : Advanced Video Codec
Профиль формата : Main@L4
Настройки формата : CABAC / 2 Ref Frames
Параметр CABAC формата : Да
Параметр RefFrames формата : 2 кадра
Параметр GOP формата : M=1, N=30
Идентификатор кодека : V_MPEG4/ISO/AVC
Продолжительность : 1 ч. 48 м.
Вид битрейта : Постоянный
Битрейт : 8000 Кбит/сек
Ширина : 1920 пикселей
Высота : 1080 пикселей
Соотношение сторон : 16:9
Режим частоты кадров : Постоянный
Частота кадров : 24,000 кадра/сек
Цветовое пространство : YUV
Субдискретизация насыщенности : 4:2:0
Битовая глубина : 8 бит
Тип развёртки : Прогрессивная
Бит/(Пиксели*Кадры) : 0.161
Размер потока : 6,06 Гбайт (94%)
Язык : Korean
Default : Да
Forced : Нет
Аудио #1
Идентификатор : 2
Формат : AC-3
Формат/Информация : Audio Coding 3
Параметр Endianness формата : Big
Идентификатор кодека : A_AC3
Продолжительность : 1 ч. 48 м.
Вид битрейта : Постоянный
Битрейт : 384 Кбит/сек
Каналы : 6 каналов
Расположение каналов : Front: L C R, Side: L R, LFE
Частота : 48,0 КГц
Частота кадров : 31,250 кадров/сек (1536 SPF)
Битовая глубина : 16 бит
Метод сжатия : С потерями
Размер потока : 298 Мбайт (5%)
Заголовок : DUB (iTunes)
Язык : Russian
Default : Да
Forced : Нет
Аудио #2
Идентификатор : 3
Формат : AAC
Формат/Информация : Advanced Audio Codec
Профиль формата : LC
Идентификатор кодека : A_AAC-2
Продолжительность : 1 ч. 48 м.
Битрейт : 128 Кбит/сек
Каналы : 2 канала
Расположение каналов : Front: L R
Частота : 48,0 КГц
Частота кадров : 46,875 кадров/сек (1024 SPF)
Метод сжатия : С потерями
Размер потока : 99,3 Мбайт (2%)
Заголовок : Original
Язык : Korean
Default : Нет
Forced : Нет

Скриншоты

admin

Post 14-Jan-2022 06:24

[Quote]

Информация о фильме
Название: Операция «Бангкок»
Оригинальное название: Cim duk sin fung / Heroes Return / Operation Bangkok
Год выхода: 2021
Жанр: Боевик
Режиссер: Кен Ип
В ролях: Кэти Чоу, Ракель Сюй, Рэй Лю, Чу Сюй, Бяо Юэнь, Паваритх Монколписит, Лю Вэйсэнь, Хуан Гуань
О фильме:
На секретной базе проводят эксперименты над людьми для создания препарата, позволяющего продлить жизнь. Ветеран боевых действий У Вэй (Рэй Луй) и несколько его товарищей проникают на базу, где спасают полицейского Гао Тяньмина (Юэнь Бяо), который два года собирал доказательства против главаря бандитов Ду Си. Силы не равны и наши герои отступают, но в скором времени они вернутся.

Страна: Гонконг
Студия: My Way Film Company
Продолжительность: 01:29:29
Перевод: Любительский одноголосый | Виктор Береговых
Файл
Кодек: x.264
Качество: BDRip 1080p | Operation.Bangkok.2021.CHINESE.1080p.BluRay.x264
Видео: MPEG-4 AVC, 9975 Kбит/с, 1920x816, 25.000 кадр/с
Аудио #1: Русский (АС3, 6 ch, 640 Кбит/с, 48.0 KHz) Любительский (одноголосый, закадровый) Виктор Береговых
Аудио #2: Китайский (DTS, 6 ch, 1509 Кбит/с, 48.0 KHz)

Субтитры: Русские (Full), английские, китайские
► Без Рекламы!

MediaInfo

Источник: Operation.Bangkok.2021.CHINESE.1080p.BluRay.x264.DD5.1-HANDJOB
General
Unique ID : 211454598529228144709494798764818972870 (0x9F14ACA024817B49BD107053024A40C6)
Complete name : Operation.Bangkok.2021.BDRip.1080p.mkv
Format : Matroska
Format version : Version 4
File size : 7.59 GiB
Duration : 1 h 29 min
Overall bit rate : 12.1 Mb/s
Movie name : Operation Bangkok [2021] 1080p BluRay - HJ
Encoded date : UTC 2022-01-13 16:40:35
Writing application : mkvmerge v7.1.0 ('Good Love') 64bit built on Jul 27 2014 13:06:55
Writing library : libebml v1.3.0 + libmatroska v1.4.1
Video
ID : 1
Format : AVC
Format/Info : Advanced Video Codec
Format profile : High@L4.1
Format settings : CABAC / 5 Ref Frames
Format settings, CABAC : Yes
Format settings, Reference fra : 5 frames
Codec ID : V_MPEG4/ISO/AVC
Duration : 1 h 29 min
Bit rate : 9 975 kb/s
Width : 1 920 pixels
Height : 816 pixels
Display aspect ratio : 2.35:1
Frame rate mode : Constant
Frame rate : 25.000 FPS
Color space : YUV
Chroma subsampling : 4:2:0
Bit depth : 8 bits
Scan type : Progressive
Bits/(Pixel*Frame) : 0.255
Stream size : 6.24 GiB (82%)
Writing library : x264 core 164 r3065 ae03d92
Encoding settings : cabac=1 / ref=5 / deblock=1:-3:-3 / analyse=0x3:0x133 / me=umh / subme=10 / psy=1 / psy_rd=1.00:0.00 / mixed_ref=1 / me_range=32 / chroma_me=1 / trellis=2 / 8x8dct=1 / cqm=0 / deadzone=21,11 / fast_pskip=0 / chroma_qp_offset=-2 / threads=25 / lookahead_threads=6 / sliced_threads=0 / nr=0 / decimate=0 / interlaced=0 / bluray_compat=0 / constrained_intra=0 / bframes=16 / b_pyramid=2 / b_adapt=2 / b_bias=0 / direct=3 / weightb=1 / open_gop=0 / weightp=2 / keyint=250 / keyint_min=25 / scenecut=40 / intra_refresh=0 / rc_lookahead=60 / rc=crf / mbtree=0 / crf=18.0 / qcomp=0.60 / qpmin=0 / qpmax=69 / qpstep=4 / vbv_maxrate=62500 / vbv_bufsize=78125 / crf_max=0.0 / nal_hrd=none / filler=0 / ip_ratio=1.40 / pb_ratio=1.30 / aq=2:1.00
Language : Chinese
Default : Yes
Forced : No
Color range : Limited
Color primaries : BT.709
Transfer characteristics : BT.709
Matrix coefficients : BT.709
Audio #1
ID : 2
Format : AC-3
Format/Info : Audio Coding 3
Commercial name : Dolby Digital
Codec ID : A_AC3
Duration : 1 h 29 min
Bit rate mode : Constant
Bit rate : 640 kb/s
Channel(s) : 6 channels
Channel layout : L R C LFE Ls Rs
Sampling rate : 48.0 kHz
Frame rate : 31.250 FPS (1536 SPF)
Compression mode : Lossy
Stream size : 410 MiB (5%)
Title : VO | Виктор Береговых
Language : Russian
Service kind : Complete Main
Default : Yes
Forced : No
Audio #2
ID : 3
Format : DTS
Format/Info : Digital Theater Systems
Codec ID : A_DTS
Duration : 1 h 29 min
Bit rate mode : Constant
Bit rate : 1 509 kb/s
Channel(s) : 6 channels
Channel layout : C L R Ls Rs LFE
Sampling rate : 48.0 kHz
Frame rate : 93.750 FPS (512 SPF)
Bit depth : 16 bits
Compression mode : Lossy
Stream size : 966 MiB (12%)
Title : Cantonese
Language : Chinese
Default : No
Forced : No
Text #1
ID : 4
Format : UTF-8
Codec ID : S_TEXT/UTF8
Codec ID/Info : UTF-8 Plain Text
Duration : 1 h 25 min
Bit rate : 40 b/s
Count of elements : 854
Stream size : 25.3 KiB (0%)
Title : Виктор Береговых
Language : Russian
Default : No
Forced : No
Text #2
ID : 5
Format : UTF-8
Codec ID : S_TEXT/UTF8
Codec ID/Info : UTF-8 Plain Text
Duration : 1 h 25 min
Bit rate : 26 b/s
Count of elements : 940
Stream size : 16.9 KiB (0%)
Language : English
Default : No
Forced : No
Text #3
ID : 6
Format : PGS
Muxing mode : zlib
Codec ID : S_HDMV/PGS
Codec ID/Info : Picture based subtitle format used on BDs/HD-DVDs
Duration : 1 h 25 min
Bit rate : 8 018 b/s
Count of elements : 1566
Stream size : 4.92 MiB (0%)
Title : English
Language : English
Default : No
Forced : No
Text #4
ID : 7
Format : PGS
Muxing mode : zlib
Codec ID : S_HDMV/PGS
Codec ID/Info : Picture based subtitle format used on BDs/HD-DVDs
Duration : 1 h 25 min
Bit rate : 7 559 b/s
Count of elements : 1567
Stream size : 4.64 MiB (0%)
Language : Chinese
Default : No
Forced : No
Menu
00:00:00.000 : en:Chapter 01
00:08:20.400 : en:Chapter 02
00:18:25.080 : en:Chapter 03
00:24:38.400 : en:Chapter 04
00:30:11.840 : en:Chapter 05
00:36:00.440 : en:Chapter 06
00:41:46.840 : en:Chapter 07
00:51:11.840 : en:Chapter 08
01:00:22.960 : en:Chapter 09
01:04:13.720 : en:Chapter 10
01:11:36.920 : en:Chapter 11
01:20:48.360 : en:Chapter 12

Скриншоты

admin

Post 29-Dec-2021 01:09

[Quote]

Месть земли / Feng bao / Cloudy Mountain
Год выпуска: 2021
Выпущено: Китай / China Film Co. Ltd., Shanghai Film (Group) Co.Ltd, Tianjin Maoyan WeyingMedia Co. Ltd
Жанр: Боевик, приключения, драма
Режиссер: Ли Цзюнь / Jun Li
В ролях: Чжу Илун, Хуан Чжичжун, Чэнь Шу, Цзяо Цзюньянь, Чэнь Тайшэн, Ван Гэ, Лу Сыюй, Хун Цзяньтао, Чжоу Сяооу, Бинь Цзы-О фильме: На небольшой провинциальный городок внезапно обрушилось сразу несколько стихийных бедствий. Первым был стёрт с лица земли железнодорожный тоннель, построенный совсем недавно. Из-за этого почти целиком разрушилась инфраструктура региона. Представители властей любыми способами искали варианты исправления ситуации, вот только все попытки оборачивались полным провалом.

Продолжительность: 01:54:24
Перевод: дублированный (iTunes)
Субтитры: Английские, китайские (hardsub)
Фрмат: MKV
Качество: WEB-DL 1080p | Cloudy.Mountain.2021.1080p.WEB-DL.H264.DDP5.1
Видео: MPEG-4 AVC, 2168 Кбит/с, 1920x960
Аудио #1: AC3, 6 ch, 384 Кбит/с | RUS |

Скриншоты

-

MediaInfo

Общее
Уникальный идентификатор : 90321194700507115722831757390068091522 (0x43F33AB697E6C0C4013B355853388A82)
Полное имя : E:TorrentsCloudy.Mountain.2021.1080p_от New-Team.mkv
Формат : Matroska
Версия формата : Version 4
Размер файла : 2,04 Гбайт
Продолжительность : 1 ч. 54 м.
Общий поток : 2 554 Кбит/сек
Название фильма : Cloudy.Mountain.2021.1080p_от New-Team
Дата кодирования : UTC 2021-12-28 06:03:48
Программа кодирования : mkvmerge v59.0.0 ('Shining Star') 64-bit
Библиотека кодирования : libebml v1.4.2 + libmatroska v1.6.4
Видео
Идентификатор : 1
Формат : AVC
Формат/Информация : Advanced Video Codec
Профиль формата : High@L4
Настройки формата : CABAC / 3 Ref Frames
Параметр CABAC формата : Да
Параметр RefFrames формата : 3 кадра
Идентификатор кодека : V_MPEG4/ISO/AVC
Продолжительность : 1 ч. 54 м.
Битрейт : 2 168 Кбит/сек
Ширина : 1 920 пикселей
Высота : 960 пикселей
Соотношение сторон : 2,000
Режим частоты кадров : Постоянный
Частота кадров : 24,000 кадра/сек
Цветовое пространство : YUV
Субдискретизация насыщенности : 4:2:0
Битовая глубина : 8 бит
Тип развёртки : Прогрессивная
Бит/(Пиксели*Кадры) : 0.049
Размер потока : 1,73 Гбайт (85%)
Библиотека кодирования : qiyi.com vtc-test
Default : Да
Forced : Нет
Цветовой диапазон : Limited
Основные цвета : BT.709
Характеристики трансфера : BT.709
Коэффициенты матрицы : BT.709
Аудио
Идентификатор : 2
Формат : AC-3
Формат/Информация : Audio Coding 3
Коммерческое название : Dolby Digital
Идентификатор кодека : A_AC3
Продолжительность : 1 ч. 54 м.
Вид битрейта : Постоянный
Битрейт : 384 Кбит/сек
Каналы : 6 каналов
Channel layout : L R C LFE Ls Rs
Частота : 48,0 КГц
Частота кадров : 31,250 кадров/сек (1536 SPF)
Метод сжатия : С потерями
Размер потока : 314 Мбайт (15%)
Заголовок : iTunes
Язык : Russian
Service kind : Complete Main
Default : Да
Forced : Нет

admin

Post 23-Dec-2021 00:48

[Quote]

Информация о фильме
Название: Подвиг
Оригинальное название: Jin gang chuan / The Sacrifice
Год выхода: 2020
Жанр: Боевик, военный, драма, история
Режиссер: Гуань Ху, Франт Гво, Лу Ян
В ролях: Чжан И, Джеки Ву, Ли Цзюсяо, Вижен Вэй, Ден Чао, Охо Оу, Цю Тянь, Чжоу Сыюй, Лю Сяньда, Владимир Ершов, Ян И, Чжан Чэн, Ду Цзылань
О фильме:
Идет 1953-ий год. Затяжная и кровопролитная Корейская война вступает в завершающую стадию. Грядет последнее крупное сражение при Кымсоне. И чтобы оказать помощь своим войскам, горстка бойцов из Народной армии Китая ведет неравный бой, защищая стратегически важный мост...

Страна: Китай
Студия: China Film Group Corporation (CFGC)
Продолжительность: 02:02:12
Перевод: Любительский двухголосый | DeadSno & den904 | * Tnx.KinoPub
Файл
Кодек: x.264
Качество: BDRip 1080p | The.Sacrifice.2020.CHINESE.1080p.BluRay.x264.DD5.1-iKiW
Видео: MPEG-4 AVC, 13.4 Mбит/с, 1920x804, 24.000 кадр/с
Аудио #1: Русский (АС3, 2 ch, 192 Кбит/с, 48.0 KHz) Любительский (двухголосый, закадровый) (DeadSno & den904 aka КОЛОБОК)
Аудио #2: Китайский (АС3, 6 ch, 640 Кбит/с, 48.0 KHz)

Субтитры: Aнглийские, китайские (отключаемые)
► Без Рекламы!

MediaInfo

Источник: The.Sacrifice.2020.CHINESE.1080p.BluRay.x264.DD5.1-iKiW
General
Unique ID : 228108498545428025975264565796130994542 (0xAB9C194A6B1E93AF88383ED97197396E)
Complete name : The.Sacrifice.2020.CHINESE.BDRip.1080p.mkv
Format : Matroska
Format version : Version 4
File size : 12.2 GiB
Duration : 2 h 2 min
Overall bit rate : 14.3 Mb/s
Encoded date : UTC 2021-12-20 11:15:29
Writing application : mkvmerge v7.1.0 ('Good Love') 64bit built on Jul 27 2014 13:06:55
Writing library : libebml v1.3.0 + libmatroska v1.4.1
Video
ID : 1
Format : AVC
Format/Info : Advanced Video Codec
Format profile : High@L4.1
Format settings : CABAC / 5 Ref Frames
Format settings, CABAC : Yes
Format settings, Reference fra : 5 frames
Codec ID : V_MPEG4/ISO/AVC
Duration : 2 h 2 min
Bit rate : 13.4 Mb/s
Width : 1 920 pixels
Height : 804 pixels
Display aspect ratio : 2.40:1
Frame rate mode : Constant
Frame rate : 24.000 FPS
Color space : YUV
Chroma subsampling : 4:2:0
Bit depth : 8 bits
Scan type : Progressive
Bits/(Pixel*Frame) : 0.362
Stream size : 11.5 GiB (94%)
Writing library : x264 core 129 r2245 bc13772
Encoding settings : cabac=1 / ref=5 / deblock=1:-3:-3 / analyse=0x3:0x133 / me=umh / subme=11 / psy=1 / psy_rd=1.05:0.05 / mixed_ref=1 / me_range=64 / chroma_me=1 / trellis=2 / 8x8dct=1 / cqm=0 / deadzone=21,11 / fast_pskip=0 / chroma_qp_offset=-3 / threads=24 / lookahead_threads=4 / sliced_threads=0 / nr=0 / decimate=1 / interlaced=0 / bluray_compat=0 / constrained_intra=0 / bframes=10 / b_pyramid=2 / b_adapt=2 / b_bias=0 / direct=3 / weightb=1 / open_gop=0 / weightp=2 / keyint=250 / keyint_min=24 / scenecut=40 / intra_refresh=0 / rc_lookahead=60 / rc=2pass / mbtree=1 / bitrate=13415 / ratetol=1.0 / qcomp=0.60 / qpmin=0 / qpmax=69 / qpstep=4 / cplxblur=20.0 / qblur=0.5 / vbv_maxrate=40000 / vbv_bufsize=30000 / nal_hrd=none / ip_ratio=1.40 / aq=1:0.80
Language : English
Default : Yes
Forced : No
Audio #1
ID : 2
Format : AC-3
Format/Info : Audio Coding 3
Commercial name : Dolby Digital
Codec ID : A_AC3
Duration : 2 h 2 min
Bit rate mode : Constant
Bit rate : 192 kb/s
Channel(s) : 2 channels
Channel layout : L R
Sampling rate : 48.0 kHz
Frame rate : 31.250 FPS (1536 SPF)
Compression mode : Lossy
Stream size : 168 MiB (1%)
Title : DVO
Language : Russian
Service kind : Complete Main
Default : Yes
Forced : No
Audio #2
ID : 3
Format : AC-3
Format/Info : Audio Coding 3
Commercial name : Dolby Digital
Codec ID : A_AC3
Duration : 2 h 2 min
Bit rate mode : Constant
Bit rate : 640 kb/s
Channel(s) : 6 channels
Channel layout : L R C LFE Ls Rs
Sampling rate : 48.0 kHz
Frame rate : 31.250 FPS (1536 SPF)
Compression mode : Lossy
Stream size : 559 MiB (4%)
Language : Chinese
Service kind : Complete Main
Default : No
Forced : No
Text #1
ID : 4
Format : UTF-8
Codec ID : S_TEXT/UTF8
Codec ID/Info : UTF-8 Plain Text
Duration : 1 h 52 min
Bit rate : 36 b/s
Count of elements : 1240
Stream size : 29.9 KiB (0%)
Language : English
Default : No
Forced : No
Text #2
ID : 5
Format : UTF-8
Codec ID : S_TEXT/UTF8
Codec ID/Info : UTF-8 Plain Text
Duration : 1 h 55 min
Bit rate : 27 b/s
Count of elements : 1280
Stream size : 23.5 KiB (0%)
Title : 简体
Language : Chinese
Default : No
Forced : No
Text #3
ID : 6
Format : PGS
Muxing mode : zlib
Codec ID : S_HDMV/PGS
Codec ID/Info : Picture based subtitle format used on BDs/HD-DVDs
Duration : 1 h 52 min
Bit rate : 8 305 b/s
Count of elements : 1963
Stream size : 6.71 MiB (0%)
Language : English
Default : No
Forced : No

Скриншоты

admin

Post 02-Dec-2021 07:08

[Quote]

Информация о фильме
Название: Перекрёстный огонь
Оригинальное название: Nou fo (Crossfire, Raging Fire)
Год выхода: 2021
Жанр: Боевик, триллер, криминал
Режиссер: Бенни Чан
В ролях: Донни Йен, Николас Тсе, Цинь Лань, Патрик Там, Кенни Вон, Дип Нг, Джина Хо, Ангус Юн, Брюс Тун, Генри Май
О фильме:
Честный полицейский Шань заслужил репутацию неподкупного и ревностного борца за справедливость. Даже когда его протеже Нго попал в неприятности, Шань не стал прикрывать парня, а отправил его в тюрьму. Теперь Нго готов мстить всем, кто отнял у него свободу, особенно своему бывшему учителю и коллеге Шаню.

Страна: Гонконг, Китай
Студия: Emperor Film Production, Super Bullet Pictures, Tencent Pictures
Продолжительность: 02:05:50
Перевод : Любительский (двухголосный закадровый) [Pazl Voice]
Субтитры: Английские
Файл
Формат: Matroska
Качество: BDRip 720p
Видео: MPEG4/AVC, 2.40:1, 24000 FPS, 1280x536p, 4923 kb/s
Аудио 1: Русский, AC-3, 48.0 kHz, 5.1, 448 kb/s - DVO
Аудио 2: Китайский, DTS, 48.0 kHz, 5.1, 1509 kb/s, 24 bit
► Без Рекламы!

M/I

Общее
Полное имя : F:Raging.Fire.2021.720p.AVC.x264-DFM.mkv
Формат : Matroska
Версия формата : Version 4
Размер файла : 6,05 Гбайт
Продолжительность : 2 ч. 5 м.
Общий поток : 6 883 Кбит/сек
Название фильма : Raging.Fire.2021
Дата кодирования : UTC 2021-12-01 04:22:36
Программа кодирования : mkvmerge v63.0.0 ('Everything') 64-bit
Библиотека кодирования : libebml v1.4.2 + libmatroska v1.6.4
Обложка : Yes
Attachments : cover.jpg
Видео
Идентификатор : 1
Формат : AVC
Формат/Информация : Advanced Video Codec
Профиль формата : High@L4.1
Настройки формата : CABAC / 12 Ref Frames
Параметр CABAC формата : Да
Параметр RefFrames формата : 12 кадров
Идентификатор кодека : V_MPEG4/ISO/AVC
Продолжительность : 2 ч. 5 м.
Битрейт : 4 923 Кбит/сек
Ширина : 1 280 пикселей
Высота : 536 пикселей
Соотношение сторон : 2,40:1
Режим частоты кадров : Постоянный
Частота кадров : 24,000 кадра/сек
Цветовое пространство : YUV
Субдискретизация насыщенности : 4:2:0
Битовая глубина : 8 бит
Тип развёртки : Прогрессивная
Бит/(Пиксели*Кадры) : 0.299
Размер потока : 4,33 Гбайт (72%)
Заголовок : Raging.Fire.2021 - ripped by LION1234
Библиотека кодирования : x264 core 164 r3075 66a5bc1
Настройки программы : cabac=1 / ref=12 / deblock=1:-3:-3 / analyse=0x3:0x113 / me=umh / subme=10 / psy=1 / psy_rd=1.02:0.00 / mixed_ref=1 / me_range=32 / chroma_me=1 / trellis=2 / 8x8dct=1 / cqm=0 / deadzone=21,11 / fast_pskip=0 / chroma_qp_offset=-2 / threads=17 / lookahead_threads=4 / sliced_threads=0 / nr=0 / decimate=0 / interlaced=0 / bluray_compat=0 / constrained_intra=0 / bframes=16 / b_pyramid=2 / b_adapt=2 / b_bias=0 / direct=1 / weightb=1 / open_gop=0 / weightp=2 / keyint=230 / keyint_min=22 / scenecut=40 / intra_refresh=0 / rc_lookahead=60 / rc=crf / mbtree=0 / crf=14.5 / qcomp=0.64 / qpmin=0 / qpmax=51 / qpstep=4 / vbv_maxrate=62500 / vbv_bufsize=78125 / crf_max=0.0 / nal_hrd=none / filler=0 / ip_ratio=1.30 / pb_ratio=1.20 / aq=2:0.80
Default : Да
Forced : Нет
Аудио #1
Идентификатор : 2
Формат : AC-3
Формат/Информация : Audio Coding 3
Коммерческое название : Dolby Digital
Идентификатор кодека : A_AC3
Продолжительность : 2 ч. 5 м.
Вид битрейта : Постоянный
Битрейт : 448 Кбит/сек
Каналы : 6 каналов
Channel layout : L R C LFE Ls Rs
Частота : 48,0 КГц
Частота кадров : 31,250 кадров/сек (1536 SPF)
Метод сжатия : С потерями
Размер потока : 403 Мбайт (7%)
Заголовок : русский DVO Pazl Voice
Язык : Russian
Service kind : Complete Main
Default : Да
Forced : Нет
Аудио #2
Идентификатор : 3
Формат : DTS
Формат/Информация : Digital Theater Systems
Идентификатор кодека : A_DTS
Продолжительность : 2 ч. 5 м.
Вид битрейта : Постоянный
Битрейт : 1 509 Кбит/сек
Каналы : 6 каналов
Channel layout : C L R Ls Rs LFE
Частота : 48,0 КГц
Частота кадров : 93,750 кадра/сек (512 SPF)
Битовая глубина : 24 бит
Метод сжатия : С потерями
Размер потока : 1,33 Гбайт (22%)
Заголовок : китайский
Язык : Chinese
Default : Нет
Forced : Нет
Текст
Идентификатор : 4
Формат : UTF-8
Идентификатор кодека : S_TEXT/UTF8
Идентификатор кодека/Информация : UTF-8 Plain Text
Продолжительность : 1 ч. 56 м.
Битрейт : 39 бит/сек
Count of elements : 1256
Размер потока : 33,3 Кбайт (0%)
Заголовок : английские
Язык : English
Default : Нет
Forced : Нет
Меню
00:00:00.000 : :Chapter 01
00:10:25.750 : :Chapter 02
00:20:18.750 : :Chapter 03
00:30:07.958 : :Chapter 04
00:38:49.541 : :Chapter 05
00:52:53.250 : :Chapter 06
01:02:53.375 : :Chapter 07
01:13:14.541 : :Chapter 08
01:26:47.541 : :Chapter 09
01:34:34.500 : :Chapter 10
01:43:26.500 : :Chapter 11
01:52:06.416 : :Chapter 12

Скриншоты

admin

Post 27-Jul-2021 04:02

[Quote]

Название фильма: Странный дом
Оригинальное название фильма: Goegimaensyon / The Grotesque Mansion
Год выпуска: 2021
Выпущено: Южная Корея, MCMC
Жанр: Ужасы
Продолжительность: 01:46:20
Перевод: Любительский двухголосый (РГ АрхиАзия)
Режиссер: Чо Ба-рын
В ролях: Сон Джун, Ким Хон-пха, Ким Бо-ра, Ли Чхан-хун, Соджин, Чжэ Хва Ким, Хён У Со, Кан Ю-сок, Ли Сок-хён, Вон Хён-джун
О фильме: В поисках идей для новый произведений автор вебтунов решает обследовать дом, о котором ходят страшные легенды. Подозрительный консьерж начинает рассказывать ему истории про проклятые квартиры, и чем больше парень узнаёт, тем больше чувствует, что с ним самим начинает происходить нечто зловещее.


В начале и конце фильма фраза: Фильм озвучен АрхиАзия в 2021г.
Возраст: 18+
Качество: WEB-DL 1080p |Ghost Mansion AKA The Grotesque Mansion 2021 1080p WEB-DL AAC5.1 H.264-Imagine
Видео: MPEG-4 AVC, 8000 Кбит/с, 1920x1080
Аудио 1: АС3, 6 ch, 640 Кбит/с |RUS|
Аудио 2: ААС, 6 ch, 192 Кбит/с |KOR|
Субтитры: Нет.

дополнительная информация

Исходный видеоряд: Ghost Mansion AKA The Grotesque Mansion 2021 1080p WEB-DL AAC5.1 H.264-Imagine
Переведено и озвучено: РГ АрхиAsia
Перевод: НаНа
Редакция, тайминг: Macho
Роли озвучивали: Veda, dee.quadro
Рекламы нет

Скриншоты


Инфо

Общее
Уникальный идентификатор : 101548153203879962343223129327329938882 (0x4C657680F57E20884712AB24C9B50DC2)
Полное имя : D:The.Grotesque.Mansion.2021.1080p.WEB-DL.mkv
Формат : Matroska
Версия формата : Version 4
Размер файла : 6,56 Гбайт
Продолжительность : 1 ч. 46 м.
Общий поток : 8 832 Кбит/сек
Название фильма : Загадочный дом / Гротескный особняк / Goegimaensyon / Ghost Mansion (2021)
Дата кодирования : UTC 2021-07-25 22:32:17
Программа кодирования : mkvmerge v44.0.0 ('Domino') 64-bit
Библиотека кодирования : libebml v1.3.10 + libmatroska v1.5.2
Обложка : Yes
Attachments : cover.jpg
IMDB : tt14895216
TMDB : movie/842033
Видео
Идентификатор : 1
Формат : AVC
Формат/Информация : Advanced Video Codec
Профиль формата : Main@L4
Настройки формата : CABAC / 2 Ref Frames
Параметр CABAC формата : Да
Параметр RefFrames формата : 2 кадра
Параметр GOP формата : M=1, N=30
Идентификатор кодека : V_MPEG4/ISO/AVC
Продолжительность : 1 ч. 46 м.
Вид битрейта : Постоянный
Битрейт : 8 000 Кбит/сек
Ширина : 1 920 пикселей
Высота : 1 080 пикселей
Соотношение сторон : 16:9
Режим частоты кадров : Постоянный
Частота кадров : 23,976 (24000/1001) кадра/сек
Цветовое пространство : YUV
Субдискретизация насыщенности : 4:2:0
Битовая глубина : 8 бит
Тип развёртки : Прогрессивная
Бит/(Пиксели*Кадры) : 0.161
Размер потока : 5,94 Гбайт (91%)
Заголовок : The.Grotesque.Mansion.2021.1080p.WEB-DL
Язык : Korean
Default : Да
Forced : Да
Аудио #1
Идентификатор : 2
Формат : AC-3
Формат/Информация : Audio Coding 3
Коммерческое название : Dolby Digital
Идентификатор кодека : A_AC3
Продолжительность : 1 ч. 46 м.
Вид битрейта : Постоянный
Битрейт : 640 Кбит/сек
Каналы : 6 каналов
Channel layout : L R C LFE Ls Rs
Частота : 48,0 КГц
Частота кадров : 31,250 кадров/сек (1536 SPF)
Метод сжатия : С потерями
Размер потока : 487 Мбайт (7%)
Заголовок : DVO, АрхиAsia
Язык : Russian
Service kind : Complete Main
Default : Да
Forced : Да
Аудио #2
Идентификатор : 3
Формат : AAC LC SBR
Формат/Информация : Advanced Audio Codec Low Complexity with Spectral Band Replication
Коммерческое название : HE-AAC
Настройки формата : Implicit
Идентификатор кодека : A_AAC-2
Продолжительность : 1 ч. 46 м.
Битрейт : 192 Кбит/сек
Каналы : 6 каналов
Channel layout : C L R Ls Rs LFE
Частота : 48,0 КГц
Частота кадров : 23,438 кадра/сек (2048 SPF)
Метод сжатия : С потерями
Размер потока : 146 Мбайт (2%)
Заголовок : Korean
Язык : Korean
Default : Нет
Forced : Нет

admin

Post 26-Jul-2021 05:53

[Quote]

Информация о фильме
Название: Первый клон
Оригинальное название: Seobok
Год выхода: 2020
Жанр: Фантастика, драма, боевик
Режиссер: Ли Ён-джу
В ролях: Кон Ю, Пак По-гом, Чо У-джин, Чан Ён-нам, Пак Пён-ын, Ён Джэ-ук, Ким Джэ-гон, Ли Он-джон, Андреа Пачиотто, На Гван-хун

О фильме: Ученым удалось создать первый клон человека, который обладает секретом бессмертия. Бывший разведчик Ки-хун получает задание — сопроводить такого клона в безопасное место. Из-за нездорового ажиотажа вокруг этого создания возникла угроза уничтожения столь уникального субъекта. Ки-Хун с неохотой берется за дело, не подозревая, чем для него обернется общение с человеческим клоном.
Страна: Корея Южная
Студия: CJ Entertainment, STUDIO101, TPS Company
Продолжительность: 01:54:34
Перевод: Дублированный | iTunes
Качество: BDRip 1080p
Видео: MPEG-4 AVC, 1920x804, 10.0 Mbit/s, 23.976 fps
Аудио #01: 48 kHz, AC3, 5.1, 384 Kbps | Дублированный | RUS |
Аудио #02: 48 kHz, AC3, 5.1, 640 Kbps | Оригинал | GER |
Субтитры: Русские (Forced, full), английские

Скриншоты

MI

General
Unique ID : 72938729438876727332102519624853062233 (0x36DF7D0217D99A965BAC1B82A7EF8259)
Complete name : G:VideoSeobok.202.BDRip.1080p.seleZen.mkv
Format : Matroska
Format version : Version 4
File size : 8.80 GiB
Duration : 1 h 54 min
Overall bit rate : 11.0 Mb/s
Movie name : Seobok 2021 from seleZen
Encoded date : UTC 2021-07-25 04:13:55
Writing application : mkvmerge v53.0.0 ('Fool's Gold') 64-bit
Writing library : libebml v1.4.1 + libmatroska v1.6.2
Video
ID : 1
Format : AVC
Format/Info : Advanced Video Codec
Format profile : High@L4.1
Format settings : CABAC / 5 Ref Frames
Format settings, CABAC : Yes
Format settings, Reference : 5 frames
Codec ID : V_MPEG4/ISO/AVC
Duration : 1 h 54 min
Bit rate : 10 000 kb/s
Width : 1 920 pixels
Height : 804 pixels
Display aspect ratio : 2.40:1
Frame rate mode : Constant
Frame rate : 23.976 (24000/1001) FPS
Color space : YUV
Chroma subsampling : 4:2:0
Bit depth : 8 bits
Scan type : Progressive
Bits/(Pixel*Frame) : 0.270
Stream size : 7.98 GiB (91%)
Writing library : x264 core 146 -from seleZen
Encoding settings : cabac=1 / ref=5 / deblock=1:-2:-2 / analyse=0x3:0x133 / me=umh / subme=10 / psy=1 / psy_rd=1.03:0.05 / mixed_ref=1 / me_range=48 / chroma_me=1 / trellis=2 / 8x8dct=1 / cqm=0 / deadzone=21,11 / fast_pskip=0 / chroma_qp_offset=-3 / threads=48 / lookahead_threads=6 / sliced_threads=0 / nr=0 / decimate=0 / interlaced=0 / bluray_compat=0 / constrained_intra=0 / bframes=9 / b_pyramid=2 / b_adapt=2 / b_bias=0 / direct=3 / weightb=1 / open_gop=0 / weightp=2 / keyint=240 / keyint_min=23 / scenecut=40 / intra_refresh=0 / rc_lookahead=50 / rc=2pass / mbtree=0 / bitrate=10000 / ratetol=1.0 / qcomp=0.60 / qpmin=0 / qpmax=51 / qpstep=4 / cplxblur=20.0 / qblur=0.5 / vbv_maxrate=50000 / vbv_bufsize=62500 / nal_hrd=none / filler=0 / ip_ratio=1.40 / pb_ratio=1.30 / aq=3:0.80
Language : English
Default : Yes
Forced : No
Audio #1
ID : 2
Format : AC-3
Format/Info : Audio Coding 3
Commercial name : Dolby Digital
Codec ID : A_AC3
Duration : 1 h 54 min
Bit rate mode : Constant
Bit rate : 384 kb/s
Channel(s) : 6 channels
Channel layout : L R C LFE Ls Rs
Sampling rate : 48.0 kHz
Frame rate : 31.250 FPS (1536 SPF)
Compression mode : Lossy
Stream size : 315 MiB (3%)
Title : iTunes
Language : Russian
Service kind : Complete Main
Default : Yes
Forced : Yes
Audio #2
ID : 3
Format : AC-3
Format/Info : Audio Coding 3
Commercial name : Dolby Digital
Codec ID : A_AC3
Duration : 1 h 54 min
Bit rate mode : Constant
Bit rate : 640 kb/s
Channel(s) : 6 channels
Channel layout : L R C LFE Ls Rs
Sampling rate : 48.0 kHz
Frame rate : 31.250 FPS (1536 SPF)
Compression mode : Lossy
Stream size : 524 MiB (6%)
Title : Original
Language : German
Service kind : Complete Main
Default : No
Forced : No
Text #1
ID : 4
Format : UTF-8
Codec ID : S_TEXT/UTF8
Codec ID/Info : UTF-8 Plain Text
Duration : 3 min 0 s
Bit rate : 30 b/s
Count of elements : 14
Stream size : 688 Bytes (0%)
Title : Forced
Language : Russian
Default : Yes
Forced : Yes
Text #2
ID : 5
Format : UTF-8
Codec ID : S_TEXT/UTF8
Codec ID/Info : UTF-8 Plain Text
Duration : 1 h 46 min
Bit rate : 52 b/s
Count of elements : 1146
Stream size : 40.8 KiB (0%)
Title : Full
Language : Russian
Default : No
Forced : No
Text #3
ID : 6
Format : UTF-8
Codec ID : S_TEXT/UTF8
Codec ID/Info : UTF-8 Plain Text
Duration : 1 h 46 min
Bit rate : 29 b/s
Count of elements : 843
Stream size : 23.0 KiB (0%)
Title : Full
Language : English
Default : No
Forced : No
Menu
00:00:00.000 : en:Глава 01
00:09:20.059 : en:Глава 02
00:17:46.899 : en:Глава 03
00:27:10.838 : en:Глава 04
00:36:05.497 : en:Глава 05
00:46:10.142 : en:Глава 06
00:54:49.953 : en:Глава 07
01:05:07.612 : en:Глава 08
01:14:41.060 : en:Глава 09
01:24:50.085 : en:Глава 10
01:36:43.673 : en:Глава 11
01:43:24.448 : en:Глава 12

admin

Post 21-Jul-2021 05:23

[Quote]

Информация о фильме
Название: Ага
Год выхода: 2021
Жанр: Боевик, триллер
Режиссер: Фархат Серкебаев
В ролях: Мурат Бисенбин, Азамат Ибраев, Болат Абдильманов, Фархад Абдраимов, Александр Устюгов, Марйам Сатаева, Руслан Каирбаев, Нурсултан Мухаметжанов, Руслан Акылбаев, Руслан Ныгманов
О фильме:
Бахытжан Абдулаев — бывший меч трех Жузов — после громких дел в прошлом, перенеся утрату близких людей, оставляет криминальный путь. Уединившись в горах, он проживает жизнь отшельником. Однако, весть о жестоком убийстве родного племянника нарушает его спокойствие и идиллию. Баха узнает, что виновником является Сакен — сын местного олигарха Сансызбая, опасного и влиятельного человека, на которого не распространяются законы. Баха принимает решение выйти на тропу войны против самых могущественных и влиятельных кланов трех Жузов. Он готов пойти на все, чтобы восстановить справедливость. Возможно, даже заплатить ценой своей жизни.


Страна: Казахстан
Студия: Toraigyr Film
Продолжительность: 01:25:05
Перевод: Не требуется
Файл
Качество: WEBRip 1080p
Формат: MKV
Кодек: MPEG-4 AVC
Видео: 1920x800 (2.40:1), 24 fps, MPEG-4 AVC ~ 4925 Kbps avg, 0.134 bit/pixel
Аудио: AC3, 48 kHz, 2 ch, ~192.00 kbps avg | русский |
Субтитры: Отсутствуют

Инфо-файл

Общее
Уникальный идентификатор : 227382529236884803290417892960372885458 (0xAB10483D86271894147D147BF45187D2)
Полное имя : Aga.2021.1080p.WEBRip.DD.2.0.MegaPeer.mkv
Формат : Matroska
Версия формата : Version 4
Размер файла : 3,04 Гбайт
Продолжительность : 1 ч. 25 м.
Общий поток : 5 119 Кбит/сек
Название фильма : Ага (2021) от MegaPeer
Дата кодирования : UTC 2021-07-20 19:31:22
Программа кодирования : mkvmerge v59.0.0 ('Shining Star') 64-bit
Библиотека кодирования : libebml v1.4.2 + libmatroska v1.6.4 / Lavf58.12.100
Обложка : Yes
Attachments : cover.jpg
Видео
Идентификатор : 1
Формат : AVC
Формат/Информация : Advanced Video Codec
Профиль формата : Main@L4
Настройки формата : CABAC / 1 Ref Frames
Параметр CABAC формата : Да
Параметр RefFrames формата : 1 кадр
Параметр GOP формата : M=1, N=25
Идентификатор кодека : V_MPEG4/ISO/AVC
Продолжительность : 1 ч. 25 м.
Битрейт : 4 925 Кбит/сек
Ширина : 1 920 пикселей
Высота : 800 пикселей
Соотношение сторон : 2,40:1
Режим частоты кадров : Постоянный
Частота кадров : 24,000 кадра/сек
Цветовое пространство : YUV
Субдискретизация насыщенности : 4:2:0
Битовая глубина : 8 бит
Тип развёртки : Прогрессивная
Бит/(Пиксели*Кадры) : 0.134
Размер потока : 2,93 Гбайт (96%)
Язык : Russian
Default : Да
Forced : Нет
Аудио
Идентификатор : 2
Формат : AC-3
Формат/Информация : Audio Coding 3
Коммерческое название : Dolby Digital
Идентификатор кодека : A_AC3
Продолжительность : 1 ч. 25 м.
Вид битрейта : Постоянный
Битрейт : 192 Кбит/сек
Каналы : 2 канала
Channel layout : L R
Частота : 48,0 КГц
Частота кадров : 31,250 кадров/сек (1536 SPF)
Метод сжатия : С потерями
Задержка видео : -5 мс.
Размер потока : 117 Мбайт (4%)
Язык : Russian
Service kind : Complete Main
Default : Да
Forced : Нет

Скриншоты

admin

Post 12-Jul-2021 03:31

[Quote]

Информация о фильме
Название: Двойной мир
Оригинальное название: Zheng tu / Double World
Год выхода: 2020
Жанр: Боевик, приключения, фэнтези
Режиссер: Тедди Чан
В ролях: Генри Лау, Питер Хо, Линь Чэньхань, Луся Цзян, Ло Чун-Хим, Ху Мин, Марк Чэн, Линь Сююй, Тайгер Сюй, Чжан Нинцзян
О фильме:
С давних пор два соседних государства Северный Янь и Южный Чжао вели непримиримую вражду, но последние 10 лет между странами царит мир. Шпиону с Севера удалось занять пост верховного советника на Юге и устроить подставное покушение на монарха - теперь у советника Гуаня есть повод готовиться к войне и объявить большое состязание для самых сильных воинов. Сирота Дун Илун, который не знал своих родителей, и младший брат великого полководца Чу Хун, желающий убить Гуаня за предательство брата, отправляются из родной деревни в столицу, чтобы участвовать в состязании.

Страна: Китай
Студия: China Film Group Corporation (CFGC) Filmko Film Co., Giant Pictures
Продолжительность: 01:50:08
Перевод: Aвторский одноголосый, Любительский двухголосый
Файл
Кодек: x.264
Качество: BDRip 1080p | Double.World.2020.CHINESE.1080p.BluRay.x264.DTS-MT
Видео: MPEG-4 AVC, 11.0 Mбит/с, 1920x808, 23.976 кадр/с
Аудио #1: Русский (АС3, 6 ch, 448 Кбит/с, 48.0 KHz) Aвторский (одноголосый, закадровый) А. Дольский
Аудио #2: Русский (АС3, 6 ch, 448 Кбит/с, 48.0 KHz) Любительский (двухголосый, закадровый) Batafurai team_&_SOUND-GROUP
Аудио #3: Русский (АС3, 6 ch, 384 Кбит/с, 48.0 KHz) Любительский (двухголосый, закадровый) East Dream
Аудио #4: Китайский (АС3, 6 ch, 640 Кбит/с, 48.0 KHz)
Субтитры: Русские (Forced, Full), английские
► Без Рекламы!

MediaInfo

Источник: Double.World.2020.CHINESE.1080p.BluRay.x264.DTS-MT
General
Unique ID : 181770245600393513768793673494035247529 (0x88BFAD07C8FFCA5A9F65296EEB3D31A9)
Complete name : Double.World.2020.CHINESE.BDRip.1080p.mkv
Format : Matroska
Format version : Version 4 / Version 2
File size : 9.93 GiB
Duration : 1 h 50 min
Overall bit rate : 12.9 Mb/s
Encoded date : UTC 2021-07-03 19:10:07
Writing application : mkvmerge v7.1.0 ('Good Love') 64bit built on Jul 27 2014 13:06:55
Writing library : libebml v1.3.0 + libmatroska v1.4.1
Video
ID : 1
Format : AVC
Format/Info : Advanced Video Codec
Format profile : High@L4.1
Format settings, CABAC : Yes
Format settings, RefFrames : 5 frames
Codec ID : V_MPEG4/ISO/AVC
Duration : 1 h 50 min
Bit rate : 11.0 Mb/s
Width : 1 920 pixels
Height : 808 pixels
Display aspect ratio : 2.40:1
Frame rate mode : Constant
Frame rate : 23.976 (24000/1001) FPS
Color space : YUV
Chroma subsampling : 4:2:0
Bit depth : 8 bits
Scan type : Progressive
Bits/(Pixel*Frame) : 0.296
Stream size : 8.46 GiB (85%)
Writing library : x264 core 157 r2938 2b00a84 TnP@MTeam Mod
Encoding settings : cabac=1 / ref=5 / deblock=1:-3:-3 / analyse=0x3:0x133 / me=umh / subme=10 / psy=1 / psy_rd=1.05:0.00 / mixed_ref=1 / me_range=32 / chroma_me=1 / trellis=2 / 8x8dct=1 / cqm=0 / deadzone=21,11 / fast_pskip=0 / chroma_qp_offset=-2 / threads=12 / lookahead_threads=2 / sliced_threads=0 / nr=0 / decimate=0 / interlaced=0 / bluray_compat=0 / constrained_intra=0 / bframes=8 / b_pyramid=2 / b_adapt=2 / b_bias=0 / direct=3 / weightb=1 / open_gop=0 / weightp=2 / keyint=250 / keyint_min=24 / scenecut=40 / intra_refresh=0 / rc_lookahead=250 / rc=crf / mbtree=0 / crf=16.8 / qcomp=0.60 / qpmin=0 / qpmax=69 / qpstep=4 / vbv_maxrate=62500 / vbv_bufsize=78125 / crf_max=0.0 / nal_hrd=none / filler=0 / ip_ratio=1.30 / pb_ratio=1.20 / aq=3:0.80
Language : Chinese
Default : Yes
Forced : No
Color range : Limited
Color primaries : BT.709
Matrix coefficients : BT.709
Audio #1
ID : 2
Format : AC-3
Format/Info : Audio Coding 3
Format settings, Endianness : Big
Codec ID : A_AC3
Duration : 1 h 50 min
Bit rate mode : Constant
Bit rate : 448 kb/s
Channel(s) : 6 channels
Channel positions : Front: L C R, Side: L R, LFE
Sampling rate : 48.0 kHz
Frame rate : 31.250 FPS (1536 SPF)
Bit depth : 16 bits
Compression mode : Lossy
Stream size : 353 MiB (3%)
Title : А. Дольский
Language : Russian
Service kind : Complete Main
Default : Yes
Forced : No
Audio #2
ID : 3
Format : AC-3
Format/Info : Audio Coding 3
Format settings, Endianness : Big
Codec ID : A_AC3
Duration : 1 h 50 min
Bit rate mode : Constant
Bit rate : 448 kb/s
Channel(s) : 6 channels
Channel positions : Front: L C R, Side: L R, LFE
Sampling rate : 48.0 kHz
Frame rate : 31.250 FPS (1536 SPF)
Bit depth : 16 bits
Compression mode : Lossy
Stream size : 353 MiB (3%)
Title : Batafurai team_&_SOUND-GROUP
Language : Russian
Service kind : Complete Main
Default : No
Forced : No
Audio #3
ID : 4
Format : AC-3
Format/Info : Audio Coding 3
Format settings, Endianness : Big
Codec ID : A_AC3
Duration : 1 h 50 min
Bit rate mode : Constant
Bit rate : 384 kb/s
Channel(s) : 6 channels
Channel positions : Front: L C R, Side: L R, LFE
Sampling rate : 48.0 kHz
Frame rate : 31.250 FPS (1536 SPF)
Bit depth : 16 bits
Compression mode : Lossy
Stream size : 302 MiB (3%)
Title : East Dream
Language : Russian
Service kind : Complete Main
Default : No
Forced : No
Audio #4
ID : 5
Format : AC-3
Format/Info : Audio Coding 3
Format settings, Endianness : Big
Codec ID : A_AC3
Duration : 1 h 50 min
Bit rate mode : Constant
Bit rate : 640 kb/s
Channel(s) : 6 channels
Channel positions : Front: L C R, Side: L R, LFE
Sampling rate : 48.0 kHz
Frame rate : 31.250 FPS (1536 SPF)
Bit depth : 16 bits
Compression mode : Lossy
Stream size : 504 MiB (5%)
Language : Chinese
Service kind : Complete Main
Default : No
Forced : No
Text #1
ID : 6
Format : UTF-8
Codec ID : S_TEXT/UTF8
Codec ID/Info : UTF-8 Plain Text
Duration : 1 h 42 min
Bit rate : 0 b/s
Count of elements : 16
Stream size : 421 Bytes (0%)
Title : Forced
Language : Russian
Default : Yes
Forced : No
Text #2
ID : 7
Format : UTF-8
Codec ID : S_TEXT/UTF8
Codec ID/Info : UTF-8 Plain Text
Duration : 1 h 43 min
Bit rate : 59 b/s
Count of elements : 971
Stream size : 45.3 KiB (0%)
Title : Aeterna temple
Language : Russian
Default : No
Forced : No
Text #3
ID : 8
Format : UTF-8
Codec ID : S_TEXT/UTF8
Codec ID/Info : UTF-8 Plain Text
Duration : 1 h 43 min
Bit rate : 34 b/s
Count of elements : 993
Stream size : 26.3 KiB (0%)
Title : SRT
Language : English
Default : No
Forced : No
Menu
00:00:00.000 : en:Chapter 01
00:09:33.239 : en:Chapter 02
00:18:44.123 : en:Chapter 03
00:25:19.435 : en:Chapter 04
00:37:15.817 : en:Chapter 05
00:46:59.650 : en:Chapter 06
00:58:39.516 : en:Chapter 07
01:09:37.757 : en:Chapter 08
01:18:31.206 : en:Chapter 09
01:26:14.503 : en:Chapter 10
01:34:20.446 : en:Chapter 11
01:42:03.868 : en:Chapter 12

Скриншоты

admin

Post 09-Jul-2021 05:04

[Quote]

Информация о фильме
Название: Ассасин: Битва миров
Оригинальное название: A Writer's Odyssey: Assassin in red / Ci sha xiao shuo jia
Год выхода: 2021
Жанр: Фэнтези, боевик
Режиссер: Лу Ян
В ролях: Цзяинь Лэй, Ми Ян, Дун Цзыцзянь, Хэвэй Юй, Цзинфэй Го, Ван Шэнди, Лия Тун, Дун Цзэ, Ян И, Лю Тяньцзо
О фильме: В неком фэнтезийном мире правит жестокий Бог, которому нужны лишь смерть и разрушения. Потеряв сестру, но обретя волшебный доспех, молодой воин Кунвэнь отправляется в путешествие, чтобы разыскать и убить Бога. В это время в нашем мире мужчина Гуань Нин уже шесть лет находится на грани отчаяния, разыскивая пропавшую дочку. Он выходит на торговцев детьми, но полиция ошибочно принимает его за преступника и арестовывает. Сбежать Нину помогает ассистентка влиятельного бизнесмена и предлагает ему сделку. Один популярный писатель в данный момент пишет роман в жанре фэнтези, который каким-то образом вредит здоровью её босса, а Нин в обмен на информацию о местонахождении дочери должен этого писателя убить.

Выпущено: Китай / Free Whale Pictures, Huace Pictures
Продолжительность: 02:09:52
Озвучивание: Дублированное | IVI
Файл
Формат: MKV
Качество: WEBRip 1080p
Видео: MPEG-4 AVC, 5120 Kb/s, 1920x1036
Аудио: Russian: 48 kHz, AC3 Dolby Digital, 3/2 (L, C, R, l, r) + LFE ch, ~384 Kbps
Субтитры: Нет
Дополнительно: Нет

MediaInfo:

Complete name: Assasin.Bitva.mirov.2021.WEB-DL.1080p.ELEKTRI4KA.UNIONGANG.mkv
Format: Matroska
Format version: Version 4
File size: 4.99 GiB
Duration: 2 h 9 min
Overall bit rate: 5 498 kb/s
Movie name: Assasin.Bitva.mirov.2021.WEB-DL.1080p.ELEKTRI4KA.UNIONGANG.
Encoded date: UTC 2021-07-07 18:22:07
Writing application: mkvmerge v8.3.0 ('Over the Horizon') 32bit
Writing library: libebml v1.3.1 + libmatroska v1.4.2
Video
ID: 1
Format: AVC
Format/Info: Advanced Video Codec
Format profile: High@L4
Format settings: CABAC / 4 Ref Frames
Format settings, CABAC: Yes
Format settings, Reference frames: 4 frames
Codec ID: V_MPEG4/ISO/AVC
Duration: 2 h 9 min
Bit rate: 5 120 kb/s
Width: 1 920 pixels
Height: 1 036 pixels
Display aspect ratio: 1.85:1
Frame rate mode: Constant
Frame rate: 24.000 FPS
Color space: YUV
Chroma subsampling: 4:2:0
Bit depth: 8 bits
Scan type: Progressive
Bits/(Pixel*Frame): 0.107
Stream size: 4.64 GiB (93%)
Writing library: x264 core 152 r2854 e9a5903
Encoding settings: cabac=1 / ref=3 / deblock=1:0:0 / analyse=0x3:0x113 / me=hex / subme=7 / psy=1 / psy_rd=1.00:0.00 / mixed_ref=1 / me_range=16 / chroma_me=1 / trellis=1 / 8x8dct=1 / cqm=0 / deadzone=21, 11 / fast_pskip=1 / chroma_qp_offset=-2 / threads=32 / lookahead_threads=5 / sliced_threads=0 / nr=0 / decimate=1 / interlaced=0 / bluray_compat=0 / constrained_intra=0 / bframes=6 / b_pyramid=2 / b_adapt=1 / b_bias=0 / direct=1 / weightb=1 / open_gop=0 / weightp=2 / keyint=48 / keyint_min=25 / scenecut=0 / intra_refresh=0 / rc_lookahead=40 / rc=2pass / mbtree=1 / bitrate=5120 / ratetol=1.0 / qcomp=0.60 / qpmin=0 / qpmax=69 / qpstep=4 / cplxblur=20.0 / qblur=0.5 / vbv_maxrate=7680 / vbv_bufsize=20480 / nal_hrd=none / filler=0 / ip_ratio=1.40 / aq=1:1.00
Default: Yes
Forced: No
Audio
ID: 2
Format: AC-3
Format/Info: Audio Coding 3
Commercial name: Dolby Digital
Codec ID: A_AC3
Duration: 2 h 9 min
Bit rate mode: Constant
Bit rate: 384 kb/s
Channel(s): 6 channels
Channel layout: L R C LFE Ls Rs
Sampling rate: 48.0 kHz
Frame rate: 31.250 FPS (1536 SPF)
Compression mode: Lossy
Stream size: 357 MiB (7%)
Title: DUB (IVI)
Language: Russian
Service kind: Complete Main
Default: Yes
Forced: Yes

Скриншоты

admin

Post 02-Jul-2021 05:33

[Quote]

Информация о фильме
Название: Непрощенный
Оригинальное название: Unforgiven / Yurusarezaru mono
Год выхода: 2013
Жанр: Боевик, триллер, драма, криминал
Режиссер: Ли Сан-иль
В ролях: Кен Ватанабэ, Дзюн Кунимура, Сиори Куцуна, Юя Ягира, Коити Сато, Эйко Койке, Такахиро Миура, Юкиёси Одзава, Сэидзи Хино, Юкиёси Одзава, Акира Эмото, Кэнъити Такито, Го Дзибики, Ёсимаса Кондо
О фильме:
Ремейк фильма Клинта Иствуда 1992г. События происходят в Хоккайдо, Япония, в 1880-х годах. Дзюбэй Камата, который поддерживает сторону правительства сегуната Эдо, убивает многих людей. Его имя печально известно в Киото. Но, когда битва при Горьокаку должна вот-вот закончиться, Дзюбэй исчезает. 10 лет спустя Дзюбэй живет со своими детьми. Он едва сводит концы с концами. Его жена умерла, и он решил никогда больше не браться за меч, но нищета не оставляет ему выбора…

Страна: Япония
Студия: Nikkatsu, Office Shirous, Warner Bros.
Продолжительность: 02:15:45
Перевод: Любительский одноголосый
Файл
Кодек: x.264
Качество: BDRip 1080p
Видео: MPEG-4 AVC, 8268 Kбит/с, 1920x802, 23.976 кадр/с
Аудио #1: Русский (АС3, 6 ch, 448 Кбит/с, 48.0 KHz) Любительский (одноголосый, закадровый) CinemaSET
Аудио #2: Русский (АС3, 2 ch, 224 Кбит/с, 48.0 KHz) Любительский (одноголосый, закадровый) BadCatStudio
Аудио #3: Японский (АС3, 6 ch, 640 Кбит/с, 48.0 KHz)
Субтитры: Русские (Full), английские, японские

MediaInfo

Источник: Yurusarezaru.Mono.AKA.Unforgiven.2013.1080p.BluRay.x264-HANDJOB
General
Unique ID : 243821323217700088691590708076052656273 (0xB76E475BEE62E87696B1B0048CFEB091)
Complete name : Unforgiven.2013.BDRip.1080p.x264.mkv
Format : Matroska
Format version : Version 4 / Version 2
File size : 9.10 GiB
Duration : 2 h 15 min
Overall bit rate : 9 592 kb/s
Movie name : Yurusarezaru mono AKA Unforgiven [2013] 1080p BluRay - HJ
Encoded date : UTC 2021-07-01 08:31:28
Writing application : mkvmerge v7.1.0 ('Good Love') 64bit built on Jul 27 2014 13:06:55
Writing library : libebml v1.3.0 + libmatroska v1.4.1
Video
ID : 1
Format : AVC
Format/Info : Advanced Video Codec
Format profile : High@L4.1
Format settings, CABAC : Yes
Format settings, RefFrames : 5 frames
Codec ID : V_MPEG4/ISO/AVC
Duration : 2 h 15 min
Bit rate : 8 268 kb/s
Width : 1 920 pixels
Height : 802 pixels
Display aspect ratio : 2.40:1
Frame rate mode : Constant
Frame rate : 23.976 (24000/1001) FPS
Color space : YUV
Chroma subsampling : 4:2:0
Bit depth : 8 bits
Scan type : Progressive
Bits/(Pixel*Frame) : 0.224
Stream size : 7.84 GiB (86%)
Writing library : x264 core 157 r2935 545de2f
Encoding settings : cabac=1 / ref=5 / deblock=1:-3:-3 / analyse=0x3:0x133 / me=umh / subme=10 / psy=1 / psy_rd=1.00:0.00 / mixed_ref=1 / me_range=32 / chroma_me=1 / trellis=2 / 8x8dct=1 / cqm=0 / deadzone=21,11 / fast_pskip=0 / chroma_qp_offset=-2 / threads=18 / lookahead_threads=4 / sliced_threads=0 / nr=0 / decimate=0 / interlaced=0 / bluray_compat=0 / constrained_intra=0 / bframes=16 / b_pyramid=2 / b_adapt=2 / b_bias=0 / direct=3 / weightb=1 / open_gop=0 / weightp=2 / keyint=240 / keyint_min=24 / scenecut=40 / intra_refresh=0 / rc_lookahead=60 / rc=crf / mbtree=0 / crf=19.0 / qcomp=0.60 / qpmin=0 / qpmax=69 / qpstep=4 / vbv_maxrate=62500 / vbv_bufsize=78125 / crf_max=0.0 / nal_hrd=none / filler=0 / ip_ratio=1.40 / pb_ratio=1.30 / aq=2:1.00
Language : Japanese
Default : Yes
Forced : No
Color range : Limited
Color primaries : BT.709
Transfer characteristics : BT.709
Matrix coefficients : BT.709
Audio #1
ID : 2
Format : AC-3
Format/Info : Audio Coding 3
Format settings, Endianness : Big
Codec ID : A_AC3
Duration : 2 h 15 min
Bit rate mode : Constant
Bit rate : 448 kb/s
Channel(s) : 6 channels
Channel positions : Front: L C R, Side: L R, LFE
Sampling rate : 48.0 kHz
Frame rate : 31.250 FPS (1536 SPF)
Bit depth : 16 bits
Compression mode : Lossy
Stream size : 435 MiB (5%)
Title : CinemaSET
Language : Russian
Service kind : Complete Main
Default : Yes
Forced : No
Audio #2
ID : 3
Format : AC-3
Format/Info : Audio Coding 3
Format settings, Endianness : Big
Codec ID : A_AC3
Duration : 2 h 15 min
Bit rate mode : Constant
Bit rate : 224 kb/s
Channel(s) : 2 channels
Channel positions : Front: L R
Sampling rate : 48.0 kHz
Frame rate : 31.250 FPS (1536 SPF)
Bit depth : 16 bits
Compression mode : Lossy
Stream size : 217 MiB (2%)
Title : BadCatStudio
Language : Russian
Service kind : Complete Main
Default : No
Forced : No
Audio #3
ID : 4
Format : AC-3
Format/Info : Audio Coding 3
Format settings, Endianness : Big
Codec ID : A_AC3
Duration : 2 h 15 min
Bit rate mode : Constant
Bit rate : 640 kb/s
Channel(s) : 6 channels
Channel positions : Front: L C R, Side: L R, LFE
Sampling rate : 48.0 kHz
Frame rate : 31.250 FPS (1536 SPF)
Bit depth : 16 bits
Compression mode : Lossy
Stream size : 621 MiB (7%)
Language : Japanese
Service kind : Complete Main
Default : No
Forced : No
Text #1
ID : 5
Format : UTF-8
Codec ID : S_TEXT/UTF8
Codec ID/Info : UTF-8 Plain Text
Duration : 2 h 11 min
Bit rate : 44 b/s
Count of elements : 941
Stream size : 42.4 KiB (0%)
Language : Russian
Default : No
Forced : No
Text #2
ID : 6
Format : UTF-8
Codec ID : S_TEXT/UTF8
Codec ID/Info : UTF-8 Plain Text
Duration : 2 h 15 min
Bit rate : 22 b/s
Count of elements : 912
Stream size : 22.1 KiB (0%)
Language : English
Default : No
Forced : No
Text #3
ID : 7
Format : PGS
Muxing mode : zlib
Codec ID : S_HDMV/PGS
Codec ID/Info : Picture based subtitle format used on BDs/HD-DVDs
Duration : 2 h 9 min
Bit rate : 9 500 b/s
Count of elements : 2075
Stream size : 8.80 MiB (0%)
Language : Japanese
Default : No
Forced : No
Menu
00:00:00.000 : :Chapter 1
00:06:01.528 : :Chapter 2
00:12:48.393 : :Chapter 3
00:17:43.437 : :Chapter 4
00:23:09.138 : :Chapter 5
00:29:33.605 : :Chapter 6
00:35:44.893 : :Chapter 7
00:39:25.405 : :Chapter 8
00:44:29.584 : :Chapter 9
00:49:25.921 : :Chapter 10
00:52:13.922 : :Chapter 11
00:56:28.260 : :Chapter 12
01:01:34.107 : :Chapter 13
01:06:49.464 : :Chapter 14
01:11:42.006 : :Chapter 15
01:17:11.669 : :Chapter 16
01:21:43.857 : :Chapter 17
01:25:48.852 : :Chapter 18
01:31:23.728 : :Chapter 19
01:33:59.717 : :Chapter 20
01:39:20.663 : :Chapter 21
01:43:34.709 : :Chapter 22
01:45:47.341 : :Chapter 23
01:50:32.876 : :Chapter 24
01:55:33.260 : :Chapter 25
01:58:56.963 : :Chapter 26
02:03:26.232 : :Chapter 27
02:08:54.143 : :Chapter 28
02:10:51.844 : :Chapter 29

Скриншоты

admin

Post 18-May-2021 04:38

[Quote]

Информация о фильме
Название: Мастер меча / Мечник
Оригинальное название: Geomgaek / The Swordsman
Год выхода: 2020
Жанр: История, боевик
Режиссер: Джэ Хун Чхве
В ролях: Чжан Хёк, Хён Су Ким, Ман Сик Чон, Джо Таслим, На Гён Ли, Мин Хёк Ли, Хён Сон Чан, Юн Тэ Ким, Чжин Хо Чхве, Сын Хён Чжи, Ван Ги Чо, Сын Хун Юн, Сан А Кон, Ангелина Данилова, Чан Хён-сон, Ким Юн-тхэ, Юн Сын-хун
О фильме: Чосон, 1623 год. После свержения монарха Кванхэ-гуна страна погружается в хаос. Через несколько лет солдаты империи Цин забирают крестьян на чужой территории в рабы, их предводитель ищет достойного соперника для поединка на мечах, а простая девушка пытается найти лекарство для слепнущего отца.

Выпущено: Корея Южная / ISU Venture Capital, KTH, Opus Pictures
Продолжительность: 01:40:39
Озвучивание: Дублированное | iTunes
Файл
Формат: MKV
Качество: BDRip 720p
Видео: MPEG-4 AVC, 7366 Kb/s, 1280x692
Аудио #1: Russian: 48 kHz, AC3 Dolby Digital, 3/2 (L, C, R, l, r) + LFE ch, ~384 Kbps | DUB | iTunes
Аудио #2: Korean: 48 kHz, AC3 Dolby Digital, 3/2 (L, C, R, l, r) + LFE ch, ~640 Kbps | Original
Аудио #3: English: 48 kHz, AC3 Dolby Digital, 3/2 (L, C, R, l, r) + LFE ch, ~640 Kbps
Субтитры: Russian (Forced), English
Дополнительно: Сохранены оригинальные чаптеры.

MediaInfo:

Complete name : Master.mecha.2020.BDRip.720p.ELEKTRI4KA.UNIONGANG.mkv
Format : Matroska
Format version : Version 4
File size : 6.35 GiB
Duration : 1 h 40 min
Overall bit rate : 9 028 kb/s
Movie name : Master.mecha.2020.BDRip.720p.ELEKTRI4KA.UNIONGANG.
Encoded date : UTC 2021-05-16 19:35:54
Writing application : mkvmerge v8.3.0 ('Over the Horizon') 32bit
Writing library : libebml v1.3.1 + libmatroska v1.4.2
Video
ID : 1
Format : AVC
Format/Info : Advanced Video Codec
Format profile : High@L4.1
Format settings : CABAC / 9 Ref Frames
Format settings, CABAC : Yes
Format settings, Reference frames : 9 frames
Codec ID : V_MPEG4/ISO/AVC
Duration : 1 h 40 min
Bit rate : 7 366 kb/s
Width : 1 280 pixels
Height : 692 pixels
Display aspect ratio : 1.85:1
Frame rate mode : Constant
Frame rate : 23.976 (24000/1001) FPS
Color space : YUV
Chroma subsampling : 4:2:0
Bit depth : 8 bits
Scan type : Progressive
Bits/(Pixel*Frame) : 0.347
Stream size : 5.18 GiB (82%)
Writing library : x264 core 161 r3048+58M ~ Encoded by Mocunaman in Portugal
Encoding settings : cabac=1 / ref=9 / deblock=1:-3:-3 / analyse=0x3:0x113 / me=umh / subme=11 / psy=1 / fade_compensate=0.00 / psy_rd=1.00:0.00 / mixed_ref=1 / me_range=32 / chroma_me=1 / trellis=2 / 8x8dct=1 / cqm=0 / deadzone=21,11 / fast_pskip=0 / chroma_qp_offset=-2 / threads=22 / lookahead_threads=3 / sliced_threads=0 / nr=0 / decimate=0 / interlaced=0 / bluray_compat=0 / constrained_intra=0 / fgo=0 / bframes=8 / b_pyramid=2 / b_adapt=2 / b_bias=0 / direct=3 / weightb=1 / open_gop=0 / weightp=2 / keyint=250 / keyint_min=23 / scenecut=40 / intra_refresh=0 / rc_lookahead=60 / rc=crf / mbtree=0 / crf=16.5000 / qcomp=0.65 / qpmin=0:0:0 / qpmax=69:69:69 / qpstep=4 / vbv_maxrate=62500 / vbv_bufsize=78125 / crf_max=0.0 / nal_hrd=none / filler=0 / ip_ratio=1.30 / pb_ratio=1.20 / aq=3:0.80 / aq-sensitivity=10.00 / aq-factor=1.00:1.00:1.00 / aq2=0 / aq3=0 / zones=0,1824,crf=14.5/1824,10825,crf=15.5/41980,43900,crf=15.5/50713,52787,crf=15.5/60166,69725,crf=15/74593,96251,crf=15.5/110459,118787,crf=15.5
Language : English
Default : Yes
Forced : No
Color range : Limited
Color primaries : BT.709
Transfer characteristics : BT.709
Matrix coefficients : BT.709
Audio #1
ID : 2
Format : AC-3
Format/Info : Audio Coding 3
Commercial name : Dolby Digital
Codec ID : A_AC3
Duration : 1 h 40 min
Bit rate mode : Constant
Bit rate : 384 kb/s
Channel(s) : 6 channels
Channel layout : L R C LFE Ls Rs
Sampling rate : 48.0 kHz
Frame rate : 31.250 FPS (1536 SPF)
Compression mode : Lossy
Stream size : 277 MiB (4%)
Title : DUB (iTunes)
Language : Russian
Service kind : Complete Main
Default : Yes
Forced : Yes
Audio #2
ID : 3
Format : AC-3
Format/Info : Audio Coding 3
Commercial name : Dolby Digital
Codec ID : A_AC3
Duration : 1 h 40 min
Bit rate mode : Constant
Bit rate : 640 kb/s
Channel(s) : 6 channels
Channel layout : L R C LFE Ls Rs
Sampling rate : 48.0 kHz
Frame rate : 31.250 FPS (1536 SPF)
Compression mode : Lossy
Stream size : 461 MiB (7%)
Title : Original
Language : Korean
Service kind : Complete Main
Default : No
Forced : No
Audio #3
ID : 4
Format : AC-3
Format/Info : Audio Coding 3
Commercial name : Dolby Digital
Codec ID : A_AC3
Duration : 1 h 40 min
Bit rate mode : Constant
Bit rate : 640 kb/s
Channel(s) : 6 channels
Channel layout : L R C LFE Ls Rs
Sampling rate : 48.0 kHz
Frame rate : 31.250 FPS (1536 SPF)
Compression mode : Lossy
Stream size : 461 MiB (7%)
Language : English
Service kind : Complete Main
Default : No
Forced : No
Text #1
ID : 5
Format : UTF-8
Codec ID : S_TEXT/UTF8
Codec ID/Info : UTF-8 Plain Text
Duration : 1 min 47 s
Bit rate : 25 b/s
Count of elements : 3
Stream size : 339 Bytes (0%)
Title : Forced
Language : Russian
Default : Yes
Forced : Yes
Text #2
ID : 6
Format : UTF-8
Codec ID : S_TEXT/UTF8
Codec ID/Info : UTF-8 Plain Text
Duration : 1 h 33 min
Bit rate : 27 b/s
Count of elements : 606
Stream size : 18.7 KiB (0%)
Title : Full
Language : English
Default : No
Forced : No
Menu
00:00:00.000 : en:Chapter 01
00:05:00.000 : en:Chapter 02
00:10:00.000 : en:Chapter 03
00:15:00.000 : en:Chapter 04
00:20:00.000 : en:Chapter 05
00:25:00.000 : en:Chapter 06
00:30:00.000 : en:Chapter 07
00:35:00.000 : en:Chapter 08
00:40:00.000 : en:Chapter 09
00:45:00.000 : en:Chapter 10
00:50:00.000 : en:Chapter 11
00:55:00.000 : en:Chapter 12
01:00:00.000 : en:Chapter 13
01:05:00.000 : en:Chapter 14
01:10:00.000 : en:Chapter 15
01:15:00.000 : en:Chapter 16
01:20:00.000 : en:Chapter 17
01:25:00.000 : en:Chapter 18
01:30:00.000 : en:Chapter 19
01:35:00.000 : en:Chapter 20
01:40:00.000 : en:Chapter 21

Скриншоты


admin

Post 18-May-2021 04:36

[Quote]

Информация о фильме
Название: Мастер меча / Мечник
Оригинальное название: Geomgaek / The Swordsman
Год выхода: 2020
Жанр: История, боевик
Режиссер: Джэ Хун Чхве
В ролях: Чжан Хёк, Хён Су Ким, Ман Сик Чон, Джо Таслим, На Гён Ли, Мин Хёк Ли, Хён Сон Чан, Юн Тэ Ким, Чжин Хо Чхве, Сын Хён Чжи, Ван Ги Чо, Сын Хун Юн, Сан А Кон, Ангелина Данилова, Чан Хён-сон, Ким Юн-тхэ, Юн Сын-хун
О фильме: Чосон, 1623 год. После свержения монарха Кванхэ-гуна страна погружается в хаос. Через несколько лет солдаты империи Цин забирают крестьян на чужой территории в рабы, их предводитель ищет достойного соперника для поединка на мечах, а простая девушка пытается найти лекарство для слепнущего отца.

Выпущено: Корея Южная / ISU Venture Capital, KTH, Opus Pictures
Продолжительность: 01:40:39
Озвучивание: Дублированное | iTunes
Файл
Формат: MKV
Качество: BDRip 1080p
Видео: MPEG-4 AVC, 14.6 Мb/s, 1920x1038
Аудио #1: Russian: 48 kHz, AC3 Dolby Digital, 3/2 (L, C, R, l, r) + LFE ch, ~384 Kbps | DUB | iTunes
Аудио #2: Korean: 48 kHz, AC3 Dolby Digital, 3/2 (L, C, R, l, r) + LFE ch, ~640 Kbps | Original
Аудио #3: English: 48 kHz, AC3 Dolby Digital, 3/2 (L, C, R, l, r) + LFE ch, ~640 Kbps
Субтитры: Russian (Forced), English
Дополнительно: Сохранены оригинальные чаптеры.

MediaInfo:

Complete name : Master.mecha.2020.BDRip.1080p.ELEKTRI4KA.UNIONGANG.mkv
Format : Matroska
Format version : Version 4
File size : 11.4 GiB
Duration : 1 h 40 min
Overall bit rate : 16.2 Mb/s
Movie name : Master.mecha.2020.BDRip.1080p.ELEKTRI4KA.UNIONGANG.
Encoded date : UTC 2021-05-16 19:09:46
Writing application : mkvmerge v8.3.0 ('Over the Horizon') 32bit
Writing library : libebml v1.3.1 + libmatroska v1.4.2
Video
ID : 1
Format : AVC
Format/Info : Advanced Video Codec
Format profile : High@L4.1
Format settings : CABAC / 4 Ref Frames
Format settings, CABAC : Yes
Format settings, Reference frames : 4 frames
Codec ID : V_MPEG4/ISO/AVC
Duration : 1 h 40 min
Bit rate : 14.6 Mb/s
Width : 1 920 pixels
Height : 1 038 pixels
Display aspect ratio : 1.85:1
Frame rate mode : Constant
Frame rate : 23.976 (24000/1001) FPS
Color space : YUV
Chroma subsampling : 4:2:0
Bit depth : 8 bits
Scan type : Progressive
Bits/(Pixel*Frame) : 0.305
Stream size : 10.2 GiB (90%)
Writing library : x264 core 161 r3033+53M ~ Encoded by Mocunaman in Portugal
Encoding settings : cabac=1 / ref=4 / deblock=1:-3:-3 / analyse=0x3:0x113 / me=umh / subme=11 / psy=1 / fade_compensate=0.00 / psy_rd=1.00:0.00 / mixed_ref=1 / me_range=32 / chroma_me=1 / trellis=2 / 8x8dct=1 / cqm=0 / deadzone=21,11 / fast_pskip=0 / chroma_qp_offset=-2 / threads=32 / lookahead_threads=5 / sliced_threads=0 / nr=0 / decimate=0 / interlaced=0 / bluray_compat=0 / constrained_intra=0 / fgo=0 / bframes=8 / b_pyramid=2 / b_adapt=2 / b_bias=0 / direct=3 / weightb=1 / open_gop=0 / weightp=2 / keyint=250 / keyint_min=23 / scenecut=40 / intra_refresh=0 / rc_lookahead=60 / rc=crf / mbtree=0 / crf=17.5000 / qcomp=0.65 / qpmin=0:0:0 / qpmax=69:69:69 / qpstep=4 / vbv_maxrate=62500 / vbv_bufsize=78125 / crf_max=0.0 / nal_hrd=none / filler=0 / ip_ratio=1.30 / pb_ratio=1.20 / aq=3:0.80 / aq-sensitivity=10.00 / aq-factor=1.00:1.00:1.00 / aq2=0 / aq3=0 / zones=0,1824,crf=15.5/1824,10825,crf=16.5/41980,43900,crf=16.5/50713,52787,crf=16.5/60166,69725,crf=16/74593,96251,crf=16.5/110459,118787,crf=16.5
Language : English
Default : Yes
Forced : No
Color range : Limited
Color primaries : BT.709
Transfer characteristics : BT.709
Matrix coefficients : BT.709
Audio #1
ID : 2
Format : AC-3
Format/Info : Audio Coding 3
Commercial name : Dolby Digital
Codec ID : A_AC3
Duration : 1 h 40 min
Bit rate mode : Constant
Bit rate : 384 kb/s
Channel(s) : 6 channels
Channel layout : L R C LFE Ls Rs
Sampling rate : 48.0 kHz
Frame rate : 31.250 FPS (1536 SPF)
Compression mode : Lossy
Stream size : 277 MiB (2%)
Title : DUB (iTunes)
Language : Russian
Service kind : Complete Main
Default : Yes
Forced : Yes
Audio #2
ID : 3
Format : AC-3
Format/Info : Audio Coding 3
Commercial name : Dolby Digital
Codec ID : A_AC3
Duration : 1 h 40 min
Bit rate mode : Constant
Bit rate : 640 kb/s
Channel(s) : 6 channels
Channel layout : L R C LFE Ls Rs
Sampling rate : 48.0 kHz
Frame rate : 31.250 FPS (1536 SPF)
Compression mode : Lossy
Stream size : 461 MiB (4%)
Title : Original
Language : Korean
Service kind : Complete Main
Default : No
Forced : No
Audio #3
ID : 4
Format : AC-3
Format/Info : Audio Coding 3
Commercial name : Dolby Digital
Codec ID : A_AC3
Duration : 1 h 40 min
Bit rate mode : Constant
Bit rate : 640 kb/s
Channel(s) : 6 channels
Channel layout : L R C LFE Ls Rs
Sampling rate : 48.0 kHz
Frame rate : 31.250 FPS (1536 SPF)
Compression mode : Lossy
Stream size : 461 MiB (4%)
Language : English
Service kind : Complete Main
Default : No
Forced : No
Text #1
ID : 5
Format : UTF-8
Codec ID : S_TEXT/UTF8
Codec ID/Info : UTF-8 Plain Text
Duration : 1 min 47 s
Bit rate : 25 b/s
Count of elements : 3
Stream size : 339 Bytes (0%)
Title : Forced
Language : Russian
Default : Yes
Forced : Yes
Text #2
ID : 6
Format : UTF-8
Codec ID : S_TEXT/UTF8
Codec ID/Info : UTF-8 Plain Text
Duration : 1 h 33 min
Bit rate : 27 b/s
Count of elements : 606
Stream size : 18.7 KiB (0%)
Title : Full
Language : English
Default : No
Forced : No
Menu
00:00:00.000 : en:Chapter 01
00:05:00.000 : en:Chapter 02
00:10:00.000 : en:Chapter 03
00:15:00.000 : en:Chapter 04
00:20:00.000 : en:Chapter 05
00:25:00.000 : en:Chapter 06
00:30:00.000 : en:Chapter 07
00:35:00.000 : en:Chapter 08
00:40:00.000 : en:Chapter 09
00:45:00.000 : en:Chapter 10
00:50:00.000 : en:Chapter 11
00:55:00.000 : en:Chapter 12
01:00:00.000 : en:Chapter 13
01:05:00.000 : en:Chapter 14
01:10:00.000 : en:Chapter 15
01:15:00.000 : en:Chapter 16
01:20:00.000 : en:Chapter 17
01:25:00.000 : en:Chapter 18
01:30:00.000 : en:Chapter 19
01:35:00.000 : en:Chapter 20
01:40:00.000 : en:Chapter 21

Скриншоты


 

Current time is: 27-Jan 17:21

All times are UTC + 3