Search found 20 matches

Author Message

admin

Post 19-May-2019 07:54

[Quote]

Информация о фильме
Название: Фантастические твари: Преступления Грин-де-Вальда
Оригинальное название: Fantastic Beasts: The Crimes of Grindelwald
Год выхода: 2018
Жанр: фэнтези, приключения, семейный
Режиссер: Дэвид Йейтс
В ролях: Эдди Редмэйн, Джонни Депп, Кэтрин Уотерстон, Элисон Судол, Дэн Фоглер, Джуд Лоу, Эзра Миллер, Зои Кравиц, Каллум Тернер, Клаудия Ким
О фильме:
Могущественный тёмный волшебник Геллерт Грин-де-Вальд пойман в Штатах, но не собирается молча сидеть в темнице и устраивает грандиозный побег. Теперь ничто не помешает ему добиться своей цели — установить превосходство волшебников над всеми немагическими существами на планете. Чтобы сорвать планы Грин-де-Вальда, Альбус Дамблдор обращается к своему бывшему студенту Ньюту Саламандеру, который соглашается помочь, не подозревая, какая опасность ему грозит. В раскалывающемся на части волшебном мире любовь и верность проверяются на прочность, а конфликт разделяет даже настоящих друзей и членов семей.

Страна: Великобритания, США
Студия: Heyday Films, Warner Bros. Pictures
Продолжительность: 128 мин. / 02:08
Перевод: профессиональный (дублированный) лицензия
Файл
Кодек: MPEG2
Качество: DVD9+DVD5 R2
Видео: PAL 16:9 (720x576@1024x576) VBR 5250 Kbps, 25.000 fps
Аудио 1: Dolby AC3, 6 ch, 48.0 KHz, 384 Kbps (русский)
Аудио 2: Dolby AC3, 6 ch, 48.0 KHz, 384 Kbps (английский)
Аудио 3: Dolby AC3, 6 ch, 48.0 KHz, 384 Kbps (чешский)
Аудио 4: Dolby AC3, 6 ch, 48.0 KHz, 384 Kbps (словенский)
Субтитры: русские, английские, чешские, эстонские, исландские, латышские, литовские, португальские, словенские

Дополнительные материалы

Disc 1
Французское министерство магии
Disc 2
Исследуйте мир волшебства Дж. К. РоулингВолшебники на экране, фанаты в реальной жизниПро ДамблдораСекретные сценыУдалённые сцены

MediaInfo

Общее
Полное имя : Fantastic Beasts. The Crimes of Grindelwald (2018) DVD9+DVD5 R2Disc 1VIDEO_TSVTS_01_2.VOB
Формат : MPEG-PS
Размер файла : 1024 Мбайт
Продолжительность : 20 м. 40 с.
Режим общего битрейта : Переменный
Общий поток : 6924 Кбит/сек
Видео
Идентификатор : 224 (0xE0)
Формат : MPEG Video
Версия формата : Version 2
Профиль формата : Main@Main
Настройки формата : CustomMatrix / BVOP
Параметр BVOP формата : Да
Параметр матрицы формата : Выборочная
Параметр GOP формата : Variable
Структура изображения : Frame
Продолжительность : 20 м. 40 с.
Вид битрейта : Переменный
Битрейт : 5250 Кбит/сек
Максимальный битрейт : 9800 Кбит/сек
Ширина : 720 пикселей
Высота : 576 пикселей
Соотношение сторон : 16:9
Частота кадров : 25,000 кадров/сек
Стандарт вещания : PAL
Цветовое пространство : YUV
Субдискретизация насыщенности : 4:2:0
Битовая глубина : 8 бит
Тип развёртки : Чересстрочная
Порядок развёртки : Верхнее поле первое
Метод сжатия : С потерями
Бит/(Пиксели*Кадры) : 0.506
Временной код первого кадра : 01:21:23:02
Оригинал временного кода : Group of pictures header
Размер потока : 776 Мбайт (76%)
Аудио #1
Идентификатор : 189 (0xBD)-128 (0x80)
Формат : AC-3
Формат/Информация : Audio Coding 3
Параметр Endianness формата : Big
Режим смешивания : DVD-Video
Продолжительность : 20 м. 40 с.
Вид битрейта : Постоянный
Битрейт : 384 Кбит/сек
Каналы : 6 каналов
Расположение каналов : Front: L C R, Side: L R, LFE
Частота : 48,0 КГц
Частота кадров : 31,250 кадров/сек (1536 SPF)
Битовая глубина : 16 бит
Метод сжатия : С потерями
Задержка видео : -384 мс.
Размер потока : 56,8 Мбайт (6%)
Аудио #2
Идентификатор : 189 (0xBD)-129 (0x81)
Формат : AC-3
Формат/Информация : Audio Coding 3
Параметр Endianness формата : Big
Режим смешивания : DVD-Video
Продолжительность : 20 м. 40 с.
Вид битрейта : Постоянный
Битрейт : 384 Кбит/сек
Каналы : 6 каналов
Расположение каналов : Front: L C R, Side: L R, LFE
Частота : 48,0 КГц
Частота кадров : 31,250 кадров/сек (1536 SPF)
Битовая глубина : 16 бит
Метод сжатия : С потерями
Задержка видео : -384 мс.
Размер потока : 56,8 Мбайт (6%)
Аудио #3
Идентификатор : 189 (0xBD)-130 (0x82)
Формат : AC-3
Формат/Информация : Audio Coding 3
Параметр Endianness формата : Big
Режим смешивания : DVD-Video
Продолжительность : 20 м. 40 с.
Вид битрейта : Постоянный
Битрейт : 384 Кбит/сек
Каналы : 6 каналов
Расположение каналов : Front: L C R, Side: L R, LFE
Частота : 48,0 КГц
Частота кадров : 31,250 кадров/сек (1536 SPF)
Битовая глубина : 16 бит
Метод сжатия : С потерями
Задержка видео : -384 мс.
Размер потока : 56,8 Мбайт (6%)
Аудио #4
Идентификатор : 189 (0xBD)-131 (0x83)
Формат : AC-3
Формат/Информация : Audio Coding 3
Параметр Endianness формата : Big
Режим смешивания : DVD-Video
Продолжительность : 20 м. 40 с.
Вид битрейта : Постоянный
Битрейт : 384 Кбит/сек
Каналы : 6 каналов
Расположение каналов : Front: L C R, Side: L R, LFE
Частота : 48,0 КГц
Частота кадров : 31,250 кадров/сек (1536 SPF)
Битовая глубина : 16 бит
Метод сжатия : С потерями
Задержка видео : -384 мс.
Размер потока : 56,8 Мбайт (6%)
Текст
Идентификатор : 189 (0xBD)-32 (0x20)
Формат : RLE
Формат/Информация : Run-length encoding
Режим смешивания : DVD-Video
Продолжительность : 20 м. 32 с.
Задержка видео : 4 с. 320 мс.
Меню

Скриншоты


admin

Post 08-Apr-2019 14:28

[Quote]

Информация о фильме
Название: Багровая мята
Оригинальное название: Peppermint
Год выхода: 2018
Жанр: боевик, триллер, драма, криминал
Режиссер: Пьер Морель
В ролях: Дженнифер Гарнер, Джон Галлахер мл., Джон Ортис, Хуан Пабло Раба, Энни Илонзе, Джефф Хефнер, Кэйли Флеминг, Эдди Шин, Метод Мэн, Тайсон Риттер
О фильме:
Когда система закрывает глаза на убийство ее семьи, она решает вершить справедливость сама: очистить город от преступников и продажных полицейских, чтобы отомстить за любимых. Ведь месть — это блюдо, которое подают холодным. Холодным, как мороженое со вкусом мяты, которое так любила ее единственная дочь.

Страна: Гонконг, США
Студия: Huayi Brothers, Lakeshore Entertainment, STXfilms
Продолжительность: 97 мин. / 01:37
Перевод: профессиональный (дублированный) лицензия
Файл
Кодек: MPEG2
Качество: DVD9 R5
Видео: PAL 16:9 (720x576@1024x576) VBR 6475 Kbps, 25.000 fps
Аудио 1: Dolby AC3, 6 ch, 48.0 KHz, 448 Kbps (русский)
Аудио 2: Dolby AC3, 6 ch, 48.0 KHz, 448 Kbps (английский)
Субтитры: русские

Дополнительные материалы

Съемки о фильмеИнтервью

MediaInfo

Формат : MPEG-PS
Размер файла : 1000 Мбайт
Продолжительность : 18 м. 35 с.
Режим общего битрейта : Переменный
Общий поток : 7520 Кбит/сек
Видео
Идентификатор : 224 (0xE0)
Формат : MPEG Video
Версия формата : Version 2
Профиль формата : Main@Main
Настройки формата : BVOP
Параметр BVOP формата : Да
Параметр матрицы формата : По умолчанию
Параметр GOP формата : Variable
Продолжительность : 18 м. 35 с.
Вид битрейта : Переменный
Битрейт : 6475 Кбит/сек
Максимальный битрейт : 8500 Кбит/сек
Ширина : 720 пикселей
Высота : 576 пикселей
Соотношение сторон : 16:9
Частота кадров : 25,000 кадров/сек
Стандарт вещания : PAL
Цветовое пространство : YUV
Субдискретизация насыщенности : 4:2:0
Битовая глубина : 8 бит
Тип развёртки : Прогрессивная
Метод сжатия : С потерями
Бит/(Пиксели*Кадры) : 0.624
Временной код первого кадра : 00:00:00:00
Оригинал временного кода : Group of pictures header
GOP, открыто/закрыто : Открыто
GOP, открыто/закрыто на первом кадре : Закрыто
Размер потока : 861 Мбайт (86%)
Аудио #1
Идентификатор : 189 (0xBD)-128 (0x80)
Формат : AC-3
Формат/Информация : Audio Coding 3
Режим смешивания : DVD-Video
Продолжительность : 18 м. 35 с.
Вид битрейта : Постоянный
Битрейт : 448 Кбит/сек
Каналы : 6 каналов
Расположение каналов : Front: L C R, Side: L R, LFE
Частота : 48,0 КГц
Частота кадров : 31,250 кадров/сек (1536 SPF)
Битовая глубина : 16 бит
Метод сжатия : С потерями
Размер потока : 59,6 Мбайт (6%)
Аудио #2
Идентификатор : 189 (0xBD)-129 (0x81)
Формат : AC-3
Формат/Информация : Audio Coding 3
Режим смешивания : DVD-Video
Продолжительность : 18 м. 35 с.
Вид битрейта : Постоянный
Битрейт : 448 Кбит/сек
Каналы : 6 каналов
Расположение каналов : Front: L C R, Side: L R, LFE
Частота : 48,0 КГц
Частота кадров : 31,250 кадров/сек (1536 SPF)
Битовая глубина : 16 бит
Метод сжатия : С потерями
Размер потока : 59,6 Мбайт (6%)
Текст #1
Идентификатор : 189 (0xBD)-32 (0x20)
Формат : RLE
Формат/Информация : Run-length encoding
Режим смешивания : DVD-Video
Текст #2
Идентификатор : 189 (0xBD)-33 (0x21)
Формат : RLE
Формат/Информация : Run-length encoding
Режим смешивания : DVD-Video
Меню

Скриншоты


admin

Post 25-Jan-2019 05:57

[Quote]

Информация о фильме
Название: Звездные войны. Эпизод 8: Последние джедаи
Оригинальное название: Star Wars: Episode VIII - The Last Jedi
Год выхода: 2017
Жанр: Фантастика, приключения
Режиссер: Райан Джонсон
В ролях: Марк Хэмилл, Кэрри Фишер, Адам Драйвер, Дэйзи Ридли, Джон Бойега, Оскар Айзек, Энди Серкис, Лупита Нионго, Донал Глисон, Энтони Дэниелс, Питер Мейхью, Келли Мари Трэн, Лора Дерн, Бенисио Дель Торо, Фрэнк Оз, Йонас Суотамо, Аманда Лоуренс, Джимми Ви
О фильме: Новая история о противостоянии света и тьмы, добра и зла начинается после гибели Хана Соло. В Галактике, где Первый Орден и Сопротивление яростно сражаются друг с другом в войне, героиня Рей пробудила в себе Силу. Но что произойдет, когда она встретится с единственным оставшимся в живых рыцарем-джедаем — Люком Скайуокером? Кайло Рен перешел на Темную сторону Силы и убил собственного отца, заняв высокую позицию в Первом Ордене. Но куда приведут его неуемные амбиции, подаренные по наследству грозным дедом Дартом Вейдером? Ситуация обострится еще больше, когда мать Кайло, лидер Сопротивления Лея, вместе с По, Финном и BB-8 приступит к новой миссии.

Страна: США
Студия: Lucasfilm Ltd.
Продолжительность: 02:25:37
Перевод: Дублированный (Лицензия)
Файл
Кодек: MPEG-2
Качество: DVD9
Видео: PAL 16:9 (720x576) VBR, 6379 Кбит/сек
Звук: Русский (Dolby AC3, 6 ch 384 Кбит/сек), английский (Dolby AC3, 6 ch 384 Кбит/сек), (Dolby AC3, 2 ch 192 Кбит/сек)
Субтитры: Русские, английские, эстонские

Скриншоты

MediaInfo

Формат : MPEG-PS
Размер файла : 1 024 Мегабит
Продолжительность : 18мин
Общий поток : 7 892 Кбит/сек
Видео
Формат : MPEG Video
Версия формата : Version 2
Профайл формата : Main@Main
Настройка матрицы формата : Standard
Продолжительность : 18мин
Режим расчёта битрейта : Постоянный
Битрейт : 6 379 Кбит/сек
Номинальный битрейт : 9 800 Кбит/сек
Ширина : 720 пикс.
Высота : 576 пикс.
Соотношение кадра : 16/9
Частота кадров : 25,000 кадр/сек
Стандарт вещания : Component
Колориметрия : 4:2:0
Тип развёртки : Прогрессивная
Бит/(Пиксели*Кадры) : 0.945
Аудио #1
Формат : AC-3
Формат/Информация : Audio Coding 3
Продолжительность : 18мин
Режим расчёта битрейта : Постоянный
Битрейт : 384 Кбит/сек
Канал(ы) : 6 канала(ов)
Расположение каналов : Front: L C R, Rear: L R, LFE
Частота : 48,0 КГц
Аудио #2
Формат : AC-3
Формат/Информация : Audio Coding 3
Продолжительность : 18мин
Режим расчёта битрейта : Постоянный
Битрейт : 192 Кбит/сек
Канал(ы) : 2 канала(ов)
Расположение каналов : L R
Частота : 48,0 КГц
Аудио #3
Формат : AC-3
Формат/Информация : Audio Coding 3
Продолжительность : 18мин
Режим расчёта битрейта : Постоянный
Битрейт : 384 Кбит/сек
Канал(ы) : 6 канала(ов)
Расположение каналов : Front: L C R, Rear: L R, LFE
Частота : 48,0 КГц
Текст #1
Формат : RLE
Формат/Информация : Run-length encoding
Продолжительность : 18мин
Текст #2
Формат : RLE
Формат/Информация : Run-length encoding
Продолжительность : 18мин
Текст #3
Формат : RLE
Формат/Информация : Run-length encoding
Продолжительность : 18мин
Текст #4
Формат : RLE
Формат/Информация : Run-length encoding
Продолжительность : 18мин
Текст #5
Формат : RLE
Формат/Информация : Run-length encoding
Продолжительность : 18мин
Текст #6
Формат : RLE
Формат/Информация : Run-length encoding
Продолжительность : 18мин
Меню
Формат : DVD-Video

DVDInfo

TTitle: DATA3
Size: 6.64 Gb ( 6 962 170 KBytes ) - DVD-9
Enabled regions: 1, 2, 3, 4, 5, 6, 7, 8
VTS_01 :
Play Length:
Video: PAL 16:9 (720x576) VBR, Auto Letterboxed
Audio:
Not specified (Dolby AC3, 2 ch)
Not specified (Dolby AC3, 2 ch)
Not specified (Dolby AC3, 2 ch)
Not specified (Dolby AC3, 2 ch)
Not specified (Dolby AC3, 2 ch)
Not specified (Dolby AC3, 2 ch)
Not specified (Dolby AC3, 2 ch)
Not specified (Dolby AC3, 2 ch)
Subtitles:
Not specified
Not specified
Not specified
Not specified
Not specified
Not specified
Not specified
Not specified
Not specified
Not specified
Not specified
Not specified
VTS_02 :
Play Length:
Video: PAL 16:9 (720x576) VBR, Auto Pan&Scan
VTS_03 :
Play Length:
Video: PAL 16:9 (720x576) VBR, Auto Pan&Scan
VTS_04 :
Play Length:
Video: PAL 16:9 (720x576) VBR, Auto Pan&Scan
VTS_05 :
Play Length: 00:00:01
Video: PAL 16:9 (720x576) VBR, Auto Pan&Scan
VTS_06 :
Play Length: 00:00:07+00:00:04
Video: PAL 16:9 (720x576) VBR, Auto Letterboxed
VTS_07 :
Play Length: 02:25:37
Video: PAL 16:9 (720x576) VBR, Auto Pan&Scan
Audio:
English (Dolby AC3, 6 ch)
English (Dolby AC3, 2 ch)
Russian (Dolby AC3, 6 ch)
Subtitles:
English
Russian
Estonian
Menu Video:
PAL 16:9 (720x576) VBR
Auto Letterboxed
Menu Audio:
Not specified (Dolby AC3, 2 ch)
Menu Subtitles:
Not specified
Menu English Language Unit :
Root Menu
Audio Menu
Angle menu
Chapter (PTT) Menu

admin

Post 17-Jan-2019 04:39

[Quote]

Информация о фильме
Название: Хан Соло: Звёздные Войны. Истории
Оригинальное название: Solo: A Star Wars Story
Год выхода: 2018
Жанр: Фантастика, приключения
Режиссер: Рон Ховард
В ролях: Олден Эренрайк, Йонас Суотамо, Вуди Харрельсон, Эмилия Кларк, Дональд Гловер, Тэнди Ньютон, Фиби Уоллер-Бридж, Пол Беттани, Джон Фавро, Линда Хант
О фильме: Фильм расскажет о похождениях юного космического сорвиголовы Хана Соло и его верного напарника Чубакки и о том, как они стали самыми быстрыми пилотами и самыми хитрыми контрабандистами далёкой Галактики.

Страна: США
Студия: Lucasfilm Ltd., Allison Shearmur Productions, Imagine Entertainment
Продолжительность: 02:09:14
Перевод: Дублированный (Лицензия)
Файл
Кодек: MPEG-2
Качество: DVD9
Видео: PAL 16:9 (720x576) VBR, 9800 Кбит/сек
Звук: Русский (Dolby AC3, 6 ch 384 Кбит/сек), английский (Dolby AC3, 6 ch 384 Кбит/сек), (Dolby AC3, 2 ch 192 Кбит/сек)
Субтитры: Русские, английские, эстонские
Семпл

Скриншоты

MediaInfo

Формат : MPEG-PS
Размер файла : 1 024 Мегабит
Продолжительность : 6мин 21с
Общий поток : 22,5 Мбит/сек
Видео
Формат : MPEG Video
Версия формата : Version 2
Профайл формата : Main@Main
Настройка матрицы формата : Standard
Продолжительность : 6мин 21с
Режим расчёта битрейта : Постоянный
Битрейт : 20,0 Мбит/сек
Номинальный битрейт : 9 800 Кбит/сек
Ширина : 720 пикс.
Высота : 576 пикс.
Соотношение кадра : 16/9
Частота кадров : 25,000 кадр/сек
Стандарт вещания : Component
Колориметрия : 4:2:0
Тип развёртки : Прогрессивная
Бит/(Пиксели*Кадры) : 0.945
Аудио #1
Формат : AC-3
Формат/Информация : Audio Coding 3
Продолжительность : 6мин 21с
Режим расчёта битрейта : Постоянный
Битрейт : 384 Кбит/сек
Канал(ы) : 6 канала(ов)
Расположение каналов : Front: L C R, Rear: L R, LFE
Частота : 48,0 КГц
Аудио #2
Формат : AC-3
Формат/Информация : Audio Coding 3
Продолжительность : 6мин 21с
Режим расчёта битрейта : Постоянный
Битрейт : 192 Кбит/сек
Канал(ы) : 2 канала(ов)
Расположение каналов : L R
Частота : 48,0 КГц
Аудио #3
Формат : AC-3
Формат/Информация : Audio Coding 3
Продолжительность : 6мин 21с
Режим расчёта битрейта : Постоянный
Битрейт : 384 Кбит/сек
Канал(ы) : 6 канала(ов)
Расположение каналов : Front: L C R, Rear: L R, LFE
Частота : 48,0 КГц
Текст #1
Формат : RLE
Формат/Информация : Run-length encoding
Продолжительность : 6мин 21с
Текст #2
Формат : RLE
Формат/Информация : Run-length encoding
Продолжительность : 6мин 21с
Текст #3
Формат : RLE
Формат/Информация : Run-length encoding
Текст #4
Формат : RLE
Формат/Информация : Run-length encoding
Текст #5
Формат : RLE
Формат/Информация : Run-length encoding
Текст #6
Формат : RLE
Формат/Информация : Run-length encoding
Текст #7
Формат : RLE
Формат/Информация : Run-length encoding
Текст #8
Формат : RLE
Формат/Информация : Run-length encoding
Текст #9
Формат : RLE
Формат/Информация : Run-length encoding
Текст #10
Формат : RLE
Формат/Информация : Run-length encoding
Меню
Формат : DVD-Video
: DVD-Video

DVDInfo

Title: DATA3
Size: 6.33 Gb ( 6 639 000 KBytes ) - DVD-9
Enabled regions: 1, 2, 3, 4, 5, 6, 7, 8
VTS_01 :
Play Length:
Video: PAL 16:9 (720x576) VBR, Auto Letterboxed
Audio:
Not specified (Dolby AC3, 2 ch)
Not specified (Dolby AC3, 2 ch)
Not specified (Dolby AC3, 2 ch)
Not specified (Dolby AC3, 2 ch)
Not specified (Dolby AC3, 2 ch)
Not specified (Dolby AC3, 2 ch)
Not specified (Dolby AC3, 2 ch)
Not specified (Dolby AC3, 2 ch)
Subtitles:
Not specified
Not specified
Not specified
Not specified
Not specified
Not specified
Not specified
Not specified
Not specified
Not specified
Not specified
Not specified
VTS_02 :
Play Length:
Video: PAL 16:9 (720x576) VBR, Auto Pan&Scan
VTS_03 :
Play Length:
Video: PAL 16:9 (720x576) VBR, Auto Pan&Scan
VTS_04 :
Play Length:
Video: PAL 16:9 (720x576) VBR, Auto Pan&Scan
VTS_05 :
Play Length: 00:00:01
Video: PAL 16:9 (720x576) VBR, Auto Pan&Scan
VTS_06 :
Play Length: 00:00:07+00:00:04
Video: PAL 16:9 (720x576) VBR, Auto Letterboxed
VTS_07 :
Play Length: 02:09:14
Video: PAL 16:9 (720x576) VBR, Auto Pan&Scan
Audio:
English (Dolby AC3, 6 ch)
English (Dolby AC3, 2 ch)
Russian (Dolby AC3, 6 ch)
Subtitles:
English
Russian
Estonian
English
Russian
Menu Video:
PAL 16:9 (720x576) VBR
Auto Letterboxed
Menu Audio:
Not specified (Dolby AC3, 2 ch)
Menu Subtitles:
Not specified
Menu English Language Unit :
Root Menu
Audio Menu
Angle menu
Chapter (PTT) Menu
Subpicture Menu

admin

Post 12-Jan-2019 03:08

[Quote]

Информация о фильме
Название: Анон
Оригинальное название: Anon
Год выхода: 2018
Жанр: фантастика, триллер, криминал, детектив
Режиссер: Эндрю Никкол
В ролях: Клайв Оуэн, Аманда Сайфред, Колм Фиор, Соня Уолгер, Марк О’Брайэн, Джо Пинг, Иддо Голдберг, Себастьян Пижотт, Рэйчел Робертс, Тойин Ишола
О фильме:
Идеальное общество будущего: режим тотального надзора, отсутствие личной жизни, приватных территорий и гражданских прав. Казалось бы, в полностью контролируемом государстве нет места ошибкам и правонарушениям. Но однажды детектив Сол Фриленд знакомится с девушкой, которая не числится в базах данных. Перед копом приоткрывается дверь преступного мира новой эры…

Страна: Германия, США
Студия: K5 Film, K5 International, K5 Media Group
Продолжительность: 95 мин. / 01:35
Перевод: профессиональный (дублированный) лицензия
Файл
Кодек: MPEG2
Качество: DVD9
Видео: PAL 16:9 (720x576@1024x576) VBR 6392 Kbps, 25.000 fps
Аудио 1: Dolby AC3, 6 ch, 48.0 KHz, 448 Kbps (русский)
Аудио 2: Dolby AC3, 6 ch, 48.0 KHz, 448 Kbps (английский)
Субтитры: русские

Дополнительные материалы

Интервью Клайва Оуэна и Эндрю Никколя

MediaInfo

Общее
Полное имя : Anon.2018.DVD9VIDEO_TSVTS_13_1.VOB
Формат : MPEG-PS
Размер файла : 1000 Мбайт
Продолжительность : 18 м. 48 с.
Режим общего битрейта : Переменный
Общий поток : 7436 Кбит/сек
Видео
Идентификатор : 224 (0xE0)
Формат : MPEG Video
Версия формата : Version 2
Профиль формата : Main@Main
Настройки формата : BVOP
Параметр BVOP формата : Да
Параметр матрицы формата : По умолчанию
Параметр GOP формата : Variable
Продолжительность : 18 м. 48 с.
Вид битрейта : Переменный
Битрейт : 6392 Кбит/сек
Максимальный битрейт : 9500 Кбит/сек
Ширина : 720 пикселей
Высота : 576 пикселей
Соотношение сторон : 16:9
Частота кадров : 25,000 кадров/сек
Стандарт вещания : PAL
Цветовое пространство : YUV
Субдискретизация насыщенности : 4:2:0
Битовая глубина : 8 бит
Тип развёртки : Прогрессивная
Метод сжатия : С потерями
Бит/(Пиксели*Кадры) : 0.617
Временной код первого кадра : 00:00:00:00
Оригинал временного кода : Group of pictures header
GOP, открыто/закрыто : Открыто
GOP, открыто/закрыто на первом кадре : Закрыто
Размер потока : 860 Мбайт (86%)
Аудио #1
Идентификатор : 189 (0xBD)-128 (0x80)
Формат : AC-3
Формат/Информация : Audio Coding 3
Режим смешивания : DVD-Video
Продолжительность : 18 м. 47 с.
Вид битрейта : Постоянный
Битрейт : 448 Кбит/сек
Каналы : 6 каналов
Расположение каналов : Front: L C R, Side: L R, LFE
Частота : 48,0 КГц
Частота кадров : 31,250 кадров/сек (1536 SPF)
Битовая глубина : 16 бит
Метод сжатия : С потерями
Размер потока : 60,2 Мбайт (6%)
Аудио #2
Идентификатор : 189 (0xBD)-129 (0x81)
Формат : AC-3
Формат/Информация : Audio Coding 3
Режим смешивания : DVD-Video
Продолжительность : 18 м. 47 с.
Вид битрейта : Постоянный
Битрейт : 448 Кбит/сек
Каналы : 6 каналов
Расположение каналов : Front: L C R, Side: L R, LFE
Частота : 48,0 КГц
Частота кадров : 31,250 кадров/сек (1536 SPF)
Битовая глубина : 16 бит
Метод сжатия : С потерями
Размер потока : 60,2 Мбайт (6%)
Меню

Скриншоты


admin

Post 23-Jul-2018 05:30

[Quote]

Информация о фильме
Название: Ночные игры
Оригинальное название: Game Night
Год выхода: 2018
Жанр: боевик, триллер, комедия, криминал, детектив
Режиссер: Джон Фрэнсис Дейли, Джонатан М. Голдштейн
В ролях: Джейсон Бейтман, Рэйчел МакАдамс, Кайл Чандлер, Шэрон Хорган, Билли Магнуссен, Ламорн Моррис, Кайли Банбери, Джесси Племонс, Майкл С. Холл, Дэнни Хьюстон
О фильме:
История Макса и Энни, которые вместе с другими парами каждую неделю устраивают так называемые «ночные игры». И вот однажды харизматичный брат Макса Брукс организовывает вечер по разгадыванию «убийственного» квеста с «ряжеными» головорезами и агентами ФБР. Получается, похищение Брукса в тот вечер — это розыгрыш… или нет?
В итоге, по мере того, как шестеро мега-азартных игроков пытаются решить заготовленные головоломки и выиграть, они начинают осознавать, что и «квест», и Брукс — совсем не такие, как кажутся. В течение всей этой суматошной ночи друзья не раз прыгают выше головы, пытаясь выпутаться из очередной передряги. В игре нет правил, за нее не начисляются очки, а игроки понятия не имеют, кому противостоят. Эта ночь может стать самой зажигательной в их жизни… или последней.

Страна: США
Студия: Aggregate Films, Davis Entertainment, New Line Cinema
Продолжительность: 01:36:00
Перевод: профессиональный (дублированный) лицензия
Файл
Кодек: MPEG2
Качество: DVD9 «ООО "Активижен"»
Видео: PAL 16:9 (720x576@1024x576) VBR 6109 Kbps, 25.000 fps
Аудио 1: Dolby AC3, 6 ch, 48.0 KHz, 384 Kbps (русский)
Аудио 2: Dolby AC3, 6 ch, 48.0 KHz, 384 Kbps (английский)
Аудио 3: Dolby AC3, 6 ch, 48.0 KHz, 384 Kbps (польский)
Субтитры: русские, английские, болгарские, хорватские, эстонские, исландские, латышские, литовские, польские, словенские, турецкие

MediaInfo

Общее
Полное имя : Game Night (2018) DVD9 R5VIDEO_TSVTS_01_2.VOB
Формат : MPEG-PS
Размер файла : 1024 Мбайт
Продолжительность : 19 м. 19 с.
Режим общего битрейта : Переменный
Общий поток : 7409 Кбит/сек
Видео
Идентификатор : 224 (0xE0)
Формат : MPEG Video
Версия формата : Version 2
Профиль формата : Main@Main
Настройки формата : CustomMatrix / BVOP
Параметр BVOP формата : Да
Параметр матрицы формата : Выборочная
Параметр GOP формата : Variable
Продолжительность : 19 м. 19 с.
Вид битрейта : Переменный
Битрейт : 6109 Кбит/сек
Максимальный битрейт : 9800 Кбит/сек
Ширина : 720 пикселей
Высота : 576 пикселей
Соотношение сторон : 16:9
Частота кадров : 25,000 кадров/сек
Стандарт вещания : PAL
Цветовое пространство : YUV
Субдискретизация насыщенности : 4:2:0
Битовая глубина : 8 бит
Тип развёртки : Прогрессивная
Порядок развёртки : Верхнее поле первое
Метод сжатия : С потерями
Бит/(Пиксели*Кадры) : 0.589
Временной код первого кадра : 01:19:30:21
Оригинал временного кода : Group of pictures header
GOP, открыто/закрыто : Открыто
Размер потока : 844 Мбайт (82%)
Аудио #1
Идентификатор : 189 (0xBD)-128 (0x80)
Формат : AC-3
Формат/Информация : Audio Coding 3
Параметр Endianness формата : Big
Режим смешивания : DVD-Video
Продолжительность : 19 м. 19 с.
Вид битрейта : Постоянный
Битрейт : 384 Кбит/сек
Каналы : 6 каналов
Расположение каналов : Front: L C R, Side: L R, LFE
Частота : 48,0 КГц
Частота кадров : 31,250 кадров/сек (1536 SPF)
Битовая глубина : 16 бит
Метод сжатия : С потерями
Задержка видео : -336 мс.
Размер потока : 53,1 Мбайт (5%)
Аудио #2
Идентификатор : 189 (0xBD)-129 (0x81)
Формат : AC-3
Формат/Информация : Audio Coding 3
Параметр Endianness формата : Big
Режим смешивания : DVD-Video
Продолжительность : 19 м. 19 с.
Вид битрейта : Постоянный
Битрейт : 384 Кбит/сек
Каналы : 6 каналов
Расположение каналов : Front: L C R, Side: L R, LFE
Частота : 48,0 КГц
Частота кадров : 31,250 кадров/сек (1536 SPF)
Битовая глубина : 16 бит
Метод сжатия : С потерями
Задержка видео : -336 мс.
Размер потока : 53,1 Мбайт (5%)
Аудио #3
Идентификатор : 189 (0xBD)-130 (0x82)
Формат : AC-3
Формат/Информация : Audio Coding 3
Параметр Endianness формата : Big
Режим смешивания : DVD-Video
Продолжительность : 19 м. 19 с.
Вид битрейта : Постоянный
Битрейт : 384 Кбит/сек
Каналы : 6 каналов
Расположение каналов : Front: L C R, Side: L R, LFE
Частота : 48,0 КГц
Частота кадров : 31,250 кадров/сек (1536 SPF)
Битовая глубина : 16 бит
Метод сжатия : С потерями
Задержка видео : -336 мс.
Размер потока : 53,1 Мбайт (5%)
Текст #1
Идентификатор : 189 (0xBD)-32 (0x20)
Формат : RLE
Формат/Информация : Run-length encoding
Режим смешивания : DVD-Video
Продолжительность : 19 м. 15 с.
Задержка видео : -320 мс.
Текст #2
Идентификатор : 189 (0xBD)-33 (0x21)
Формат : RLE
Формат/Информация : Run-length encoding
Режим смешивания : DVD-Video
Продолжительность : 19 м. 18 с.
Задержка видео : -360 мс.
Текст #3
Идентификатор : 189 (0xBD)-34 (0x22)
Формат : RLE
Формат/Информация : Run-length encoding
Режим смешивания : DVD-Video
Задержка видео : -320 мс.
Текст #4
Идентификатор : 189 (0xBD)-35 (0x23)
Формат : RLE
Формат/Информация : Run-length encoding
Режим смешивания : DVD-Video
Продолжительность : 19 м. 18 с.
Задержка видео : -360 мс.
Текст #5
Идентификатор : 189 (0xBD)-36 (0x24)
Формат : RLE
Формат/Информация : Run-length encoding
Режим смешивания : DVD-Video
Задержка видео : 2 с. 0 мс.
Текст #6
Идентификатор : 189 (0xBD)-37 (0x25)
Формат : RLE
Формат/Информация : Run-length encoding
Режим смешивания : DVD-Video
Продолжительность : 19 м. 18 с.
Задержка видео : -360 мс.
Текст #7
Идентификатор : 189 (0xBD)-38 (0x26)
Формат : RLE
Формат/Информация : Run-length encoding
Режим смешивания : DVD-Video
Продолжительность : 19 м. 18 с.
Задержка видео : -320 мс.
Текст #8
Идентификатор : 189 (0xBD)-39 (0x27)
Формат : RLE
Формат/Информация : Run-length encoding
Режим смешивания : DVD-Video
Задержка видео : -160 мс.
Текст #9
Идентификатор : 189 (0xBD)-40 (0x28)
Формат : RLE
Формат/Информация : Run-length encoding
Режим смешивания : DVD-Video
Продолжительность : 19 м. 18 с.
Задержка видео : -360 мс.
Текст #10
Идентификатор : 189 (0xBD)-41 (0x29)
Формат : RLE
Формат/Информация : Run-length encoding
Режим смешивания : DVD-Video
Продолжительность : 19 м. 18 с.
Задержка видео : -360 мс.
Текст #11
Идентификатор : 189 (0xBD)-42 (0x2A)
Формат : RLE
Формат/Информация : Run-length encoding
Режим смешивания : DVD-Video
Продолжительность : 19 м. 16 с.
Задержка видео : 2 с. 40 мс.
Текст #12
Идентификатор : 189 (0xBD)-43 (0x2B)
Формат : RLE
Формат/Информация : Run-length encoding
Режим смешивания : DVD-Video
Меню

Скриншоты


admin

Post 12-Jul-2018 01:47

[Quote]

Информация о фильме
Название: Чёрная Пантера
Оригинальное название: Black Panther
Год выхода: 2018
Жанр: фантастика, боевик, приключения
Режиссер: Райан Куглер
В ролях: Чедвик Боузман, Майкл Б. Джордан, Лупита Нионго, Данай Джекесай Гурира, Мартин Фриман, Дэниэл Калуя, Летишиа Райт, Уинстон Дьюк, Стерлинг К. Браун, Анджела Бассетт
О фильме:
С первого взгляда можно решить, что Ваканда — обычная территория дикой Африки, но это не так. Здесь, в недрах пустынных земель, скрываются залежи уникального металла, способного поглощать вибрацию. Многие пытались добраться до него, разоряя всё на своём пути и принося смерть аборигенам, но каждый раз таинственный дух саванны — Чёрная Пантера — вставал на защиту угнетённых.
Спустя много лет беда снова приходит в Ваканду, и в этот раз враг заручился поддержкой современных технологий. Когда шансов почти не остаётся, Т`Чалла, молодой принц Ваканды, узнаёт, что именно ему предстоит возродить легенду и продолжить вечную борьбу, надев маску Чёрной Пантеры.

Страна: США
Студия: Marvel Studios Inc., Walt Disney Pictures
Продолжительность: 02:09:02
Перевод: профессиональный (дублированный) лицензия
Файл
Кодек: MPEG2
Качество: DVD9 "Уолт Дисней Компани СНГ"
Видео: PAL 16:9 (720x576@1024x576) VBR 6162 Kbps, 25.000 fps
Аудио 1: Dolby AC3, 6 ch, 48.0 KHz, 384 Kbps (русский)
Аудио 2: Dolby AC3, 6 ch, 48.0 KHz, 384 Kbps (английский)
Аудио 3: Dolby AC3, 2 ch, 48.0 KHz, 192 Kbps (английский описательный)
Субтитры: русские, английские

MediaInfo

Общее
Полное имя : Black Panther (2018) DVD9 R5VIDEO_TSVTS_07_5.VOB
Формат : MPEG-PS
Размер файла : 1024 Мбайт
Продолжительность : 19 м. 42 с.
Режим общего битрейта : Переменный
Общий поток : 7267 Кбит/сек
Видео
Идентификатор : 224 (0xE0)
Формат : MPEG Video
Версия формата : Version 2
Профиль формата : Main@Main
Настройки формата : CustomMatrix / BVOP
Параметр BVOP формата : Да
Параметр матрицы формата : Выборочная
Параметр GOP формата : Variable
Продолжительность : 19 м. 41 с.
Вид битрейта : Переменный
Битрейт : 6162 Кбит/сек
Максимальный битрейт : 9800 Кбит/сек
Ширина : 720 пикселей
Высота : 576 пикселей
Соотношение сторон : 16:9
Частота кадров : 25,000 кадров/сек
Стандарт вещания : Component
Цветовое пространство : YUV
Субдискретизация насыщенности : 4:2:0
Битовая глубина : 8 бит
Тип развёртки : Прогрессивная
Порядок развёртки : Верхнее поле первое
Метод сжатия : С потерями
Бит/(Пиксели*Кадры) : 0.594
Временной код первого кадра : 02:31:06:22
Оригинал временного кода : Group of pictures header
Размер потока : 868 Мбайт (85%)
Основные цвета : BT.601 PAL
Характеристики трансфера : BT.470 System B, BT.470 System G
Коэффициенты матрицы : BT.470 System B, BT.470 System G
Аудио #1
Идентификатор : 189 (0xBD)-128 (0x80)
Формат : AC-3
Формат/Информация : Audio Coding 3
Параметр Endianness формата : Big
Режим смешивания : DVD-Video
Продолжительность : 19 м. 42 с.
Вид битрейта : Постоянный
Битрейт : 384 Кбит/сек
Каналы : 6 каналов
Расположение каналов : Front: L C R, Side: L R, LFE
Частота : 48,0 КГц
Частота кадров : 31,250 кадров/сек (1536 SPF)
Битовая глубина : 16 бит
Метод сжатия : С потерями
Задержка видео : -592 мс.
Размер потока : 54,1 Мбайт (5%)
Аудио #2
Идентификатор : 189 (0xBD)-129 (0x81)
Формат : AC-3
Формат/Информация : Audio Coding 3
Параметр Endianness формата : Big
Режим смешивания : DVD-Video
Продолжительность : 19 м. 42 с.
Вид битрейта : Постоянный
Битрейт : 192 Кбит/сек
Каналы : 2 канала
Расположение каналов : Front: L R
Частота : 48,0 КГц
Частота кадров : 31,250 кадров/сек (1536 SPF)
Битовая глубина : 16 бит
Метод сжатия : С потерями
Задержка видео : -592 мс.
Размер потока : 27,1 Мбайт (3%)
Аудио #3
Идентификатор : 189 (0xBD)-130 (0x82)
Формат : AC-3
Формат/Информация : Audio Coding 3
Параметр Endianness формата : Big
Режим смешивания : DVD-Video
Продолжительность : 19 м. 42 с.
Вид битрейта : Постоянный
Битрейт : 384 Кбит/сек
Каналы : 6 каналов
Расположение каналов : Front: L C R, Side: L R, LFE
Частота : 48,0 КГц
Частота кадров : 31,250 кадров/сек (1536 SPF)
Битовая глубина : 16 бит
Метод сжатия : С потерями
Задержка видео : -592 мс.
Размер потока : 54,1 Мбайт (5%)
Текст #1
Идентификатор : 189 (0xBD)-32 (0x20)
Формат : RLE
Формат/Информация : Run-length encoding
Режим смешивания : DVD-Video
Продолжительность : 19 м. 37 с.
Задержка видео : 720 мс.
Текст #2
Идентификатор : 189 (0xBD)-33 (0x21)
Формат : RLE
Формат/Информация : Run-length encoding
Режим смешивания : DVD-Video
Продолжительность : 19 м. 37 с.
Задержка видео : 720 мс.
Текст #3
Идентификатор : 189 (0xBD)-34 (0x22)
Формат : RLE
Формат/Информация : Run-length encoding
Режим смешивания : DVD-Video
Продолжительность : 19 м. 37 с.
Задержка видео : 720 мс.
Текст #4
Идентификатор : 189 (0xBD)-35 (0x23)
Формат : RLE
Формат/Информация : Run-length encoding
Режим смешивания : DVD-Video
Продолжительность : 19 м. 37 с.
Задержка видео : 720 мс.
Меню

Скриншоты


admin

Post 10-Jul-2018 21:12

[Quote]

Информация о фильме
Название: Дом призраков
Оригинальное название: Ghost House
Год выхода: 2017
Жанр: ужасы, триллер
Режиссер: Рич Рэгсдэйл
В ролях: Скаут Тэйлор-Комптон, Джеймс Хеберт, Марк Бун Джуниор, Расселл Джеффри Бэнкс, Рич Ли Грэй, Элана Крауш, Кевин Рэгсдэйл, Ян Вэньчу, Майкл С. Нью, Катрина Грэй
О фильме:
Молодая пара отправляется в путешествие в Таиланд. В сельской местности они обнаруживают кладбище с находящимися на нём «домами призраков», где, по местным верованиями, духи обретают покой. Имевших неосторожность осквернить святыню влюблённых начинает преследовать жестокая сверхъестественная сила. Она погружает героев в пучину леденящего ужаса потустороннего мира, из которого нет выхода.

Страна: Таиланд, США
Студия: Benetone Films, Benetone Hillin Entertainment, KNR Productions
Продолжительность: 01:35:47
Перевод: профессиональный (дублированный) лицензия
Файл
Кодек: MPEG2
Качество: DVD9 «Cinema Prestige»
Видео: PAL 16:9 (720x576@1024x576) VBR 7006 Kbps, 25.000 fps
Аудио 1: Dolby AC3, 6 ch, 48.0 KHz, 384 Kbps (русский)
Аудио 2: Dolby AC3, 6 ch, 48.0 KHz, 384 Kbps (английский)
Субтитры: русские

MediaInfo

Общее
Полное имя : Ghost House (2017) DVD9 R5VIDEO_TSVTS_08_1.VOB
Формат : MPEG-PS
Размер файла : 1024 Мбайт
Продолжительность : 18 м. 2 с.
Режим общего битрейта : Переменный
Общий поток : 7932 Кбит/сек
Видео
Идентификатор : 224 (0xE0)
Формат : MPEG Video
Версия формата : Version 2
Профиль формата : Main@Main
Настройки формата : BVOP
Параметр BVOP формата : Да
Параметр матрицы формата : По умолчанию
Параметр GOP формата : M=3, N=12
Продолжительность : 18 м. 2 с.
Вид битрейта : Переменный
Битрейт : 7006 Кбит/сек
Максимальный битрейт : 8500 Кбит/сек
Ширина : 720 пикселей
Высота : 576 пикселей
Соотношение сторон : 16:9
Частота кадров : 25,000 кадров/сек
Стандарт вещания : PAL
Цветовое пространство : YUV
Субдискретизация насыщенности : 4:2:0
Битовая глубина : 8 бит
Тип развёртки : Прогрессивная
Метод сжатия : С потерями
Бит/(Пиксели*Кадры) : 0.676
Временной код первого кадра : 00:00:00:00
Оригинал временного кода : Group of pictures header
GOP, открыто/закрыто : Открыто
GOP, открыто/закрыто на первом кадре : Закрыто
Размер потока : 904 Мбайт (88%)
Аудио #1
Идентификатор : 189 (0xBD)-128 (0x80)
Формат : AC-3
Формат/Информация : Audio Coding 3
Параметр Endianness формата : Big
Режим смешивания : DVD-Video
Продолжительность : 18 м. 2 с.
Вид битрейта : Постоянный
Битрейт : 384 Кбит/сек
Каналы : 6 каналов
Расположение каналов : Front: L C R, Side: L R, LFE
Частота : 48,0 КГц
Частота кадров : 31,250 кадров/сек (1536 SPF)
Битовая глубина : 16 бит
Метод сжатия : С потерями
Размер потока : 49,6 Мбайт (5%)
Аудио #2
Идентификатор : 189 (0xBD)-129 (0x81)
Формат : AC-3
Формат/Информация : Audio Coding 3
Параметр Endianness формата : Big
Режим смешивания : DVD-Video
Продолжительность : 18 м. 2 с.
Вид битрейта : Постоянный
Битрейт : 384 Кбит/сек
Каналы : 6 каналов
Расположение каналов : Front: L C R, Side: L R, LFE
Частота : 48,0 КГц
Частота кадров : 31,250 кадров/сек (1536 SPF)
Битовая глубина : 16 бит
Метод сжатия : С потерями
Размер потока : 49,6 Мбайт (5%)
Меню

Скриншоты


admin

Post 08-Jul-2018 21:00

[Quote]

Информация о фильме
Название: Овердрайв
Оригинальное название: Overdrive
Год выхода: 2017
Жанр: боевик, триллер
Режиссер: Антонио Негрет
В ролях: Скотт Иствуд, Фредди Торп, Ана де Армас, Гайя Уайсс, Симон Абкарян, Клеменс Шик, Абрахам Белага, Каарис, Mars Bezot, Магне Брекке
О фильме:
Эндрю и Гаретт Фостеры — братья-авантюристы, промышляющие угоном самых редких и роскошных автомобилей. До сих пор им легко удавалось избегать неприятностей, но во время очередного дела они попадают под прицел жестокого криминального босса. Теперь в обмен на свои жизни они должны украсть для него самый ценный автомобиль его злейшего врага.

Страна: Франция, Бельгия, США
Студия: Brandt/Haas Productions, Kinology, Nexus Factory, OCS, Overdrive Productions, Sentient Pictures, TF1 Films Production, TMC, Trinity Media Financing, uFund, uMedia Family
Продолжительность: 01:29:32
Перевод: профессиональный (дублированный) лицензия
Файл
Кодек: MPEG2
Качество: DVD9 «НД Плэй»
Видео: PAL 16:9 (720x576@1024x576) VBR 6919 Kbps, 25.000 fps
Аудио: Dolby AC3, 6 ch, 48.0 KHz, 448 Kbps (русский)
Субтитры: отсутствуют

MediaInfo

Общее
Полное имя : Overdrive (2017) DVD9 R5VIDEO_TSVTS_12_4.VOB
Формат : MPEG-PS
Размер файла : 1000 Мбайт
Продолжительность : 18 м. 36 с.
Режим общего битрейта : Переменный
Общий поток : 7516 Кбит/сек
Видео
Идентификатор : 224 (0xE0)
Формат : MPEG Video
Версия формата : Version 2
Профиль формата : Main@Main
Настройки формата : BVOP
Параметр BVOP формата : Да
Параметр матрицы формата : По умолчанию
Параметр GOP формата : Variable
Продолжительность : 18 м. 35 с.
Вид битрейта : Переменный
Битрейт : 6919 Кбит/сек
Максимальный битрейт : 9000 Кбит/сек
Ширина : 720 пикселей
Высота : 576 пикселей
Соотношение сторон : 16:9
Частота кадров : 25,000 кадров/сек
Стандарт вещания : PAL
Цветовое пространство : YUV
Субдискретизация насыщенности : 4:2:0
Битовая глубина : 8 бит
Тип развёртки : Прогрессивная
Метод сжатия : С потерями
Бит/(Пиксели*Кадры) : 0.667
Временной код первого кадра : 00:56:35:05
Оригинал временного кода : Group of pictures header
Размер потока : 920 Мбайт (92%)
Аудио
Идентификатор : 189 (0xBD)-128 (0x80)
Формат : AC-3
Формат/Информация : Audio Coding 3
Параметр Endianness формата : Big
Режим смешивания : DVD-Video
Продолжительность : 18 м. 36 с.
Вид битрейта : Постоянный
Битрейт : 448 Кбит/сек
Каналы : 6 каналов
Расположение каналов : Front: L C R, Side: L R, LFE
Частота : 48,0 КГц
Частота кадров : 31,250 кадров/сек (1536 SPF)
Битовая глубина : 16 бит
Метод сжатия : С потерями
Задержка видео : -752 мс.
Размер потока : 59,6 Мбайт (6%)
Меню

Скриншоты


admin

Post 08-Jul-2018 20:08

[Quote]

Информация о фильме
Название: Жених на двоих
Оригинальное название: Jour J
Год выхода: 2017
Жанр: комедия
Режиссер: Рем Кериси
В ролях: Рем Кериси, Николя Дювошель, Джулия Пьятон, Сильви Тестю, Франсуа-Ксавье Демезон, Шанталь Лоби, Лионель Астье, Ив Сен-Луи, Виктория Монфор, Амели Фонлюп
О фильме:
Что делать, если любовница занимается организацией твоей свадьбы? Молиться, чтобы она не подружилась с невестой. У Матиаса осталось совсем мало времени, чтобы выбрать из двух девушек — одну.

Страна: Франция
Студия: C8, Canal+ [fr], Ciné, France 2 Cinéma, France Télévisions, Gaumont, Mandarin Films
Продолжительность: 01:30:12
Перевод: профессиональный (дублированный) лицензия
Файл
Кодек: MPEG2
Качество: DVD9 «НД Плэй»
Видео: PAL 16:9 (720x576@1024x576) VBR 6965 Kbps, 25.000 fps
Аудио 1: Dolby AC3, 6 ch, 48.0 KHz, 448 Kbps (русский)
Аудио 2: Dolby AC3, 6 ch, 48.0 KHz, 448 Kbps (французский)
Субтитры: русские

MediaInfo

Общее
Полное имя : Jour J (2017) DVD9 R5VIDEO_TSVTS_11_2.VOB
Формат : MPEG-PS
Размер файла : 1000 Мбайт
Продолжительность : 17 м. 25 с.
Режим общего битрейта : Переменный
Общий поток : 8021 Кбит/сек
Видео
Идентификатор : 224 (0xE0)
Формат : MPEG Video
Версия формата : Version 2
Профиль формата : Main@Main
Настройки формата : BVOP
Параметр BVOP формата : Да
Параметр матрицы формата : По умолчанию
Параметр GOP формата : M=3, N=12
Продолжительность : 17 м. 25 с.
Вид битрейта : Переменный
Битрейт : 6965 Кбит/сек
Максимальный битрейт : 9000 Кбит/сек
Ширина : 720 пикселей
Высота : 576 пикселей
Соотношение сторон : 16:9
Частота кадров : 25,000 кадров/сек
Стандарт вещания : PAL
Цветовое пространство : YUV
Субдискретизация насыщенности : 4:2:0
Битовая глубина : 8 бит
Тип развёртки : Прогрессивная
Метод сжатия : С потерями
Бит/(Пиксели*Кадры) : 0.672
Временной код первого кадра : 00:17:46:11
Оригинал временного кода : Group of pictures header
GOP, открыто/закрыто : Открыто
Размер потока : 868 Мбайт (87%)
Аудио #1
Идентификатор : 189 (0xBD)-128 (0x80)
Формат : AC-3
Формат/Информация : Audio Coding 3
Параметр Endianness формата : Big
Режим смешивания : DVD-Video
Продолжительность : 17 м. 25 с.
Вид битрейта : Постоянный
Битрейт : 448 Кбит/сек
Каналы : 6 каналов
Расположение каналов : Front: L C R, Side: L R, LFE
Частота : 48,0 КГц
Частота кадров : 31,250 кадров/сек (1536 SPF)
Битовая глубина : 16 бит
Метод сжатия : С потерями
Задержка видео : -696 мс.
Размер потока : 55,9 Мбайт (6%)
Аудио #2
Идентификатор : 189 (0xBD)-129 (0x81)
Формат : AC-3
Формат/Информация : Audio Coding 3
Параметр Endianness формата : Big
Режим смешивания : DVD-Video
Продолжительность : 17 м. 25 с.
Вид битрейта : Постоянный
Битрейт : 448 Кбит/сек
Каналы : 6 каналов
Расположение каналов : Front: L C R, Side: L R, LFE
Частота : 48,0 КГц
Частота кадров : 31,250 кадров/сек (1536 SPF)
Битовая глубина : 16 бит
Метод сжатия : С потерями
Задержка видео : -696 мс.
Размер потока : 55,9 Мбайт (6%)
Текст #1
Идентификатор : 189 (0xBD)-32 (0x20)
Формат : RLE
Формат/Информация : Run-length encoding
Режим смешивания : DVD-Video
Продолжительность : 17 м. 22 с.
Задержка видео : 1 с. 480 мс.
Текст #2
Идентификатор : 189 (0xBD)-33 (0x21)
Формат : RLE
Формат/Информация : Run-length encoding
Режим смешивания : DVD-Video
Продолжительность : 17 м. 22 с.
Задержка видео : 1 с. 480 мс.
Меню

Скриншоты


admin

Post 07-Jul-2018 19:48

[Quote]

Информация о фильме
Название: Все только начинается
Оригинальное название: Just Getting Started
Год выхода: 2017
Жанр: боевик, комедия
Режиссер: Рон Шелтон
В ролях: Морган Фриман, Томми Ли Джонс, Рене Руссо, Джо Пантольяно, Гленн Хедли, Шерил Ли Ральф, Элизабет Эшли, Джордж Уоллес, Грэм Беккел, Мел Райдо
О фильме:
Дюк, некогда блистательный адвокат крупных преступных группировок, находясь под программой по защите свидетелей, зажигает на роскошной вилле Капри, устраивая безбашенные праздники жизни для своих гостей и превращая будни в яркий Jazz. Однажды под Рождество на виллу приезжает брутальный экс-агент ФБР Лео и переворачивает все вверх дном. Но, как оказалось, все только начинается: вслед за Лео на виллу подтягиваются парни из мафии, имеющие старый зуб на Дюка и Лео. Вечеринка будет жаркой!

Страна: США
Студия: Broad Green Pictures, Endurance Media, Entertainment One, Gerber Pictures, Reel Chefs Catering
Продолжительность: 01:29:15
Перевод: профессиональный (дублированный) лицензия
Файл
Кодек: MPEG2
Качество: DVD9 «Парадиз»
Видео: PAL 16:9 (720x576@1024x576) VBR 7598 Kbps, 25.000 fps
Аудио: Dolby AC3, 6 ch, 48.0 KHz, 448 Kbps (русский)
Субтитры: отсутствуют

MediaInfo

Общее
Полное имя : Just Getting Started (2017) DVD9 R5VIDEO_TSVTS_09_3.VOB
Формат : MPEG-PS
Размер файла : 1000 Мбайт
Продолжительность : 17 м. 1 с.
Режим общего битрейта : Переменный
Общий поток : 8209 Кбит/сек
Видео
Идентификатор : 224 (0xE0)
Формат : MPEG Video
Версия формата : Version 2
Профиль формата : Main@Main
Настройки формата : BVOP
Параметр BVOP формата : Да
Параметр матрицы формата : По умолчанию
Параметр GOP формата : M=3, N=12
Продолжительность : 17 м. 1 с.
Вид битрейта : Переменный
Битрейт : 7598 Кбит/сек
Максимальный битрейт : 9000 Кбит/сек
Ширина : 720 пикселей
Высота : 576 пикселей
Соотношение сторон : 16:9
Частота кадров : 25,000 кадров/сек
Стандарт вещания : PAL
Цветовое пространство : YUV
Субдискретизация насыщенности : 4:2:0
Битовая глубина : 8 бит
Тип развёртки : Прогрессивная
Метод сжатия : С потерями
Бит/(Пиксели*Кадры) : 0.733
Временной код первого кадра : 00:34:57:23
Оригинал временного кода : Group of pictures header
GOP, открыто/закрыто : Открыто
Размер потока : 925 Мбайт (93%)
Аудио
Идентификатор : 189 (0xBD)-128 (0x80)
Формат : AC-3
Формат/Информация : Audio Coding 3
Параметр Endianness формата : Big
Режим смешивания : DVD-Video
Продолжительность : 17 м. 1 с.
Вид битрейта : Постоянный
Битрейт : 448 Кбит/сек
Каналы : 6 каналов
Расположение каналов : Front: L C R, Side: L R, LFE
Частота : 48,0 КГц
Частота кадров : 31,250 кадров/сек (1536 SPF)
Битовая глубина : 16 бит
Метод сжатия : С потерями
Задержка видео : -432 мс.
Размер потока : 54,6 Мбайт (5%)
Меню

Скриншоты


admin

Post 01-Apr-2018 03:53

[Quote]

Информация о фильме
Название: Чудо-женщина
Оригинальное название: Wonder Woman
Год выхода: 2017
Жанр: фантастика, фэнтези, боевик, приключения, военный
Режиссер: Пэтти Дженкинс
В ролях: Галь Гадот, Крис Пайн, Конни Нильсен, Робин Райт, Дэнни Хьюстон, Дэвид Тьюлис, Саид Тагмауи, Юэн Бремнер, Юджин «Храбрый камень», Люси Дэвис
О фильме:
Перед тем как стать Чудо-Женщиной, она была Дианой — принцессой амазонок, обученной быть непобедимой воительницей. И когда на берегах ограждённого от внешнего мира райского острова, который служил ей родиной, терпит крушение американский пилот и рассказывает о серьёзном конфликте, бушующем во внешнем мире, Диана покидает свой дом, чтобы справиться с этой угрозой. И там, сражаясь бок о бок с человеком в войне за мир, Диана обнаружит всю полноту своей власти… и своё истинное предназначение.

Страна: Гонконг, Китай, США
Студия: DC Entertainment, Dune Entertainment, Warner Bros. Pictures
Продолжительность: 140 мин. / 02:20
Перевод: полное дублирование
Файл
Кодек: MPEG2
Качество: DVD9
Видео: PAL 16:9 (720x576@1024x576) VBR 5398 Kbps, 25.000 fps
Аудио: Dolby AC3, 6 ch, 48.0 KHz, 384 Kbps (русский, английский, чешский)
Субтитры: русские, английские, чешские, эстонские, латышские, литовские, португальские

Скриншоты


Magnat

Post 24-Feb-2018 09:19

[Quote]

Улица Прэри / Rue des Prairies [Советская прокатная копия]- Страна: Франция, Италия
Жанр: драма
Год выпуска: 1959
Продолжительность: 01:24:38-Перевод: Профессиональный (дублированный) - Киностудия им. М. Горького
Субтитры: нет-Режиссер: Дени де ла Пательер / Denys de La Patellière
В ролях: Жан Габен, Клод Брассёр, Роже Дюма, Мари-Жозе Нат, Рене Фор, Луи Сене, Жак Моно, Доминик Паж, Франсуа Шометт, Альфред Адам, Макс Монтавон, Поль Мерсей, Бернар Мюссон, Габриель Гобен
Описание: Анри Неве, парижский рабочий, возвращается домой, проведя два года в плену. Он один воспитывает двоих своих детей и одного незаконнорожденного ребенка своей жены, которая умерла при родах. Старший сын, Луи, становится чемпионом Франции по велосипедному спорту, дочка Одетт мечтает стать манекенщицей, а подросший Фернан доставляет много хлопот.
Тип релиза: Screener
Контейнер: DVD-Video
Видео: 720x576 (4:3) @ 768x576, 25.000 fps, MPEG-2 Video, ~6929 Kbps, 0.668 bits/pixel
Аудио: Русский, 48.0 KHz, AC3, 2 ch, 256 Kbps

DVDInfo

Title: Улица Прэри 1959 Dub Горького
Size: 4.33 Gb ( 4 544 924,00 KBytes ) - DVD-5
Enabled regions: 1, 2, 3, 4, 5, 6, 7, 8
VTS_01 :
Play Length: 01:24:38
Video: PAL 4:3 (720x576) VBR
Audio:
Russian, AC3, 2/0 (L,R) ch, 256 kbps, Delay 0 mSec

MediaInfo

General
Complete name : \Улица Прэри 1959 Dub Горького\VIDEO_TS\VTS_01_1.VOB
Format : MPEG-PS
File size : 1 024 MiB
Duration : 19 min 31 s
Overall bit rate mode : Variable
Overall bit rate : 7 331 kb/s
Video
ID : 224 (0xE0)
Format : MPEG Video
Format version : Version 2
Format profile : Main@Main
Format settings : CustomMatrix / BVOP
Format settings, BVOP : Yes
Format settings, Matrix : Custom
Format settings, GOP : M=3, N=15
Format settings, picture structure : Frame
Duration : 19 min 31 s
Bit rate mode : Variable
Bit rate : 6 950 kb/s
Width : 720 pixels
Height : 576 pixels
Display aspect ratio : 4:3
Frame rate : 25.000 FPS
Standard : PAL
Color space : YUV
Chroma subsampling : 4:2:0
Bit depth : 8 bits
Scan type : Interlaced
Scan order : Top Field First
Compression mode : Lossy
Bits/(Pixel*Frame) : 0.670
Time code of first frame : 00:00:00:00
Time code source : Group of pictures header
GOP, Open/Closed : Open
GOP, Open/Closed of first frame : Closed
Stream size : 968 MiB (95%)
Audio
ID : 189 (0xBD)-128 (0x80)
Format : AC-3
Format/Info : Audio Coding 3
Format settings, Endianness : Big
Muxing mode : DVD-Video
Duration : 19 min 31 s
Bit rate mode : Constant
Bit rate : 256 kb/s
Channel(s) : 2 channels
Channel positions : Front: L R
Sampling rate : 48.0 kHz
Frame rate : 31.250 FPS (1536 SPF)
Bit depth : 16 bits
Compression mode : Lossy
Stream size : 35.8 MiB (3%)
Service kind : Complete Main
Menu

Magnat

Post 24-Feb-2018 09:18

[Quote]

Побег / Breakout [Советская прокатная копия]- Страна: США
Жанр: боевик, драма, приключения
Год выпуска: 1975
Продолжительность: 01:26:09-Перевод: Профессиональный (дублированный) - Киностудия "Союзмультфильм"
Субтитры: нет-Режиссер: Том Грайз / Tom Gries
В ролях: Чарльз Бронсон, Роберт Дювалл, Джилл Айрленд, Рэнди Куэйд, Шири Норт, Хорхе Морено, Эмилио Фернандес, Пол Манти, Алан Винт, Алехандро Рей
Описание: Джей Вагнер по ложному обвинению в убийстве арестован и проговорён к тюремному заключению на 28 лет в Мексике за то, что собирался разоблачить махинации своего деда Харриса Вагнера, президента акционерного общества, и его компаньона Кейбла.
Жена Джея Энн не теряет надежды на освобождение мужа из тюрьмы. Она предпринимает одну попытку за другой, чтобы устроить ему побег. Наконец ей удаётся уговорить лётчика Ника Колтона, и тот за большое вознаграждение осуществляет смелый и опасный план спасения Джея.
Тип релиза: Telesync
Контейнер: DVD-Video
Видео: PAL 704x576 (4:3), 25.000 fps, MPEG-2 Video, ~6047 Kbps, 0.597 bits/pixel
Аудио: Русский, 48.0 KHz, AC3, 2 ch, 256 Kbps

DVDInfo

Title: Побег 1975 Dub Союзмультфильм
Size: 3.89 Gb ( 4 082 902,00 KBytes ) - DVD-5
Enabled regions: 1, 2, 3, 4, 5, 6, 7, 8
VTS_01 :
Play Length: 01:26:09
Video: PAL 4:3 (704x576) VBR
Audio:
Russian, AC3, 2/0 (L,R) ch, 256 kbps, Delay 0 mSec

MediaInfo

General
Complete name : \Побег 1975 Dub Союзмультфильм\VIDEO_TS\VTS_01_1.VOB
Format : MPEG-PS
File size : 1 024 MiB
Duration : 22 min 15 s
Overall bit rate mode : Variable
Overall bit rate : 6 431 kb/s
Video
ID : 224 (0xE0)
Format : MPEG Video
Format version : Version 2
Format profile : Main@Main
Format settings : BVOP
Format settings, BVOP : Yes
Format settings, Matrix : Default
Format settings, GOP : M=3, N=12
Format settings, picture structure : Frame
Duration : 22 min 15 s
Bit rate mode : Variable
Bit rate : 6 047 kb/s
Maximum bit rate : 9 579 kb/s
Width : 704 pixels
Height : 576 pixels
Display aspect ratio : 4:3
Frame rate : 25.000 FPS
Standard : PAL
Color space : YUV
Chroma subsampling : 4:2:0
Bit depth : 8 bits
Scan type : Interlaced
Scan order : Top Field First
Compression mode : Lossy
Bits/(Pixel*Frame) : 0.597
Time code of first frame : 00:00:00:00
Time code source : Group of pictures header
GOP, Open/Closed : Open
GOP, Open/Closed of first frame : Closed
Stream size : 963 MiB (94%)
Color primaries : BT.601 PAL
Transfer characteristics : BT.470 System B, BT.470 System G
Matrix coefficients : BT.470 System B, BT.470 System G
Audio
ID : 189 (0xBD)-128 (0x80)
Format : AC-3
Format/Info : Audio Coding 3
Format settings, Endianness : Big
Muxing mode : DVD-Video
Duration : 22 min 15 s
Bit rate mode : Constant
Bit rate : 256 kb/s
Channel(s) : 2 channels
Channel positions : Front: L R
Sampling rate : 48.0 kHz
Frame rate : 31.250 FPS (1536 SPF)
Bit depth : 16 bits
Compression mode : Lossy
Stream size : 40.8 MiB (4%)
Service kind : Complete Main
Menu

admin

Post 05-Feb-2018 04:20

[Quote]

Фильм о любви / Любовное кино / Filme de amor / A Love Movie
Страна: Бразилия
Жанр: драма
Год выпуска: 2003
Продолжительность: 01:30:55
Перевод: Авторский (одноголосый закадровый) – Антон Алексеев
Субтитры: английские, португальские
Оригинальная аудиодорожка: португальский
Режиссер: Жулиу Брессани / Júlio Bressane
В ролях: Бел Гарсия, Жози Антелло, Фернанду Эйрас
Описание: Трое друзей - Матильда, Гаспар и Хильда, обычные люди из предместья Рио-де-Жанейро, проводят вместе уик-энд. Они собираются в заброшенной квартире, чтобы выпить, пофилософствовать на тему любви и заняться сексом. Немудреный сюжет, из которого рождается мелодия любви…

Доп. информация:

Исходник от R1 (Europa Filmes, Бразилия) скачан с Тика, релизер Zygrunte.
На оригинальном диске португальская дорожка, а также английские и португальские субтитры.
Перевод Антона Алексеева (декабрь 2017 г.).
Спасибо всем, без чьего участия эта раздача не состоялась бы.
Бонусы:
• Galeria de Fotos;
• Entrevistas (00:24:56, на португальском языке без субтитров);
• Trailer do Filme
Меню: статичное, озвученное, на португальском языке
Тип релиза: DVD9 (Custom)
Контейнер: DVD-Video
Видео: NTSC 4:3 (720x480) VBR 29.97 fps 5500 Kbps
Аудио:
#1: Russian (Dolby AC3, 2 ch, 48.0 KHz, 192 Kbps);
#2: Portugues (Dolby AC3, 2 ch, 48.0 KHz, 192 Kbps)
Сэмпл: https://yadi.sk/i/401vKN4h3Rqpra

DVDInfo

Title: Elements
Size: 4.64 Gb ( 4 863 516 KBytes ) - DVD-9
Enabled regions: 1, 2, 3, 4, 5, 6, 7, 8
VTS_01 :
Play Length: 01:30:45+00:00:10
Video: NTSC 4:3 (720x480) VBR
Audio:
Russian (Dolby AC3, 2 ch)
Portugues (Dolby AC3, 2 ch)
Subtitles:
English
Portugues
VTS_02 :
Play Length: 00:00:03
Video: NTSC 4:3 (720x480) VBR
Audio:
Not specified (Dolby AC3, 2 ch)
Subtitles:
Portugues
VTS_03 :
Play Length: 00:24:55+00:02:29
Video: NTSC 4:3 (720x480) VBR
Audio:
Portugues (Dolby AC3, 2 ch)
Menu Video:
NTSC 4:3 (720x480) VBR
Auto Pan&Scan, Auto Letterboxed
Menu Language Unit :
Root Menu

Используемые программы

PGCDemux (извлечение)
BeSweet, Sony Vegas 9 (звук)
MuxMan (сборка)
DvdReMakePro (финал)

Скриншоты меню

 

Current time is: 09-Dec 11:13

All times are UTC + 3