Search found 7 matches

Author Message

admin

Post 20-May-2019 06:21

[Quote]

Информация о фильме
Название: Битва при Сарагахри
Оригинальное название: Kesari
Год выхода: 2019
Жанр: Боевик, драма, военный, история
Режиссер: Анураг Сингх
В ролях: Акшай Кумар, Паринити Чопра, Сувиндер Вики, Ванш Бхардвай, Самит Барсан, Аджит Сингх, Сандип Нахар, Харвиндер Сингх Аушла, Ракеш Шарма, Адхрит Шарма
О фильме:
Британская Индия, 12 сентября 1897 года. Отряд сикхов Британской Индийской армии на армейском посту в составе 21-го человека подвергается нападению десятитысячного войска пуштунов.

Страна: Индия
Студия: Dharma Productions, Hari Om Entertainment, Azure Entertainment
Продолжительность: 02:33:17
Перевод: Авторский - А.Важенин [BadBajo]
БЕЗ КАКОЙ-ЛИБО РЕКЛАМЫ!
Файл
Кодек: h. 264
Качество: WEB-DL 1080
Видео: 1920х1080, ~8432 Kbps, 23.976 (24000/1001) FPS
Звук:
Русский: AC3, 6 ch, 640 Kbps (BadBajo)
Индийский: Е-AC3, 6 ch, 640 Kbps
Субтитры: Английские (отключаемые)
Семпл

Скриншоты

admin

Post 02-Dec-2018 05:23

[Quote]

Информация о фильме
Название: Тумбад
Оригинальное название: Tumbbad
Год выхода: 2018
Жанр: Триллер, Ужасы
Режиссер: Рахи Анил Барве, Адеш Прасад
В ролях: Ронджини Чакраборти, Дипак Дамле, Анита Дате, Дхундирадж Прабхакар Джогалекар, Хэриш Ханна, Джоти Малше, Мохд Самад, Сохам Шах
О фильме:
На заре веков Богиня-мать породила нескольких Богов, и самым любимым был её первенец — Хастад. Он решил, что всё золото мира должно принадлежать ему, за что был повержен другими Богами и почти уничтожен, но Богиня-мать спасла его и поместила в своё чрево. С тех пор люди забыли падшего Бога, не ставили ему алтари и не возносили молитвы.
Индия, начало XX века. Неподалеку от замшелой деревушки Тумбад живет внебрачный сын местного лорда по имени Винаяк. В их доме спит проклятая прабабка-ведьма, которую мать Винаяка должна кормить, чтобы та не проснулась и не съела детей, также ходят слухи, что где-то в этой местности хранятся несметные богатства. После смерти лорда мать вместе с сыном уезжает в большой город, взяв с него клятву никогда не возвращаться в Тумбад. Через несколько лет уже взрослый Винаяк приезжает в родные края с твёрдой уверенностью, что сокровища спрятаны в заброшенном замке почившего лорда.

Страна: Индия, Швеция
Студия: Colour Yellow Productions,Sohum Shah FIlms,Film i Väst
Продолжительность: 01:44:57
Перевод: Любительский (одноголосый, закадровый) - А.Важенин (BadBajo)
БЕЗ КАКОЙ-ЛИБО РЕКЛАМЫ!
Файл
Кодек: h. 264
Качество: WEB-DL 1080p
Видео: 1920х816, ~5029 Kbps, 23.976 (24000/1001) FPS
Звук:
Русский: AC3, 6 ch, 640 Kbps (BadBajo)
Индийский: Е-AC3, 6 ch, 640 Kbps
Субтитры: Английские (отключаемые)
Семпл

Скриншоты

admin

Post 19-May-2018 05:13

[Quote]

Информация о фильме
Название фильма: Тигр жив
Оригинальное название фильма: Tiger Zinda Hai
Год выхода: 2017
Произведено: Индия
Жанр: боевик
Режиссер постановщик: Али Аббас Зафар
В главных ролях: Салман Кхан, Катрина Каиф, Садджад Делафруз, Энгэд Беди, Пареш Раваль, Пареш Пахуджа, Кумуд Мишра, Анупурия Гоенка
О фильме: В Ираке во время вооруженного конфликта между иракской армией и террористами ранен лидер террористов Абу Усман. Его доставляют в местный госпиталь и берут в заложники индийских и пакистанских медсестер. Кроме того, со дня на день должны казнить группу американских журналистов.
Когда ушедший на покой секретный агент индийской спецслужбы Тигр где-то в швейцарских Альпах голыми руками расправляется со стаей волков, родине снова нужна его помощь. Американцы согласились совершить авиаудар через неделю, поэтому у Тигра и его команды есть только 7 дней, чтобы вызволить заложников. Да и Зоя не может остаться в стороне - теперь индийские и пакистанские спецслужбы будут работать вместе.

Файл
Качество: BDRip 720p
Видео данные: MKV, 1280x540 (2.40:1), 23.976 fps, 5030 Кбит/с
Аудио данные: AAC, 2 ch, 192 Кбит/с
Перевод: Любительский многоголосый (GreenРай Studio)
Продолжительность: 02:38:42

Медиаинфо

General
Unique ID : 124905626352160863362636177810863177712 (0x5DF7F2D78AB404C2E181619B7F443FF0)
Complete name : E:ГРИНРАЙTiger.Zinda.Hai.2017.P.BDRip.720p.mkv
Format : Matroska
Format version : Version 4 / Version 2
File size : 5.58 GiB
Duration : 2 h 38 min
Overall bit rate mode : Variable
Overall bit rate : 5 030 kb/s
Writing application : Lavf57.83.100
Writing library : Lavf57.83.100
ErrorDetectionType : Per level 1
Video
ID : 1
Format : AVC
Format/Info : Advanced Video Codec
Format profile : High@L4
Format settings : CABAC / 4 Ref Frames
Format settings, CABAC : Yes
Format settings, RefFrames : 4 frames
Codec ID : V_MPEG4/ISO/AVC
Duration : 2 h 38 min
Bit rate mode : Variable
Maximum bit rate : 15.0 Mb/s
Width : 1 280 pixels
Height : 540 pixels
Display aspect ratio : 2.40:1
Frame rate mode : Constant
Frame rate : 23.976 (24000/1001) FPS
Color space : YUV
Chroma subsampling : 4:2:0
Bit depth : 8 bits
Scan type : Progressive
Writing library : Lavc57.107.100 h264_nvenc
Language : English
Default : Yes
Forced : No
Audio
ID : 2
Format : AAC
Format/Info : Advanced Audio Codec
Format profile : LC
Codec ID : A_AAC-2
Duration : 2 h 38 min
Channel(s) : 2 channels
Channel positions : Front: L R
Sampling rate : 48.0 kHz
Frame rate : 46.875 FPS (1024 SPF)
Compression mode : Lossy
Language : English
Default : Yes
Forced : No
Внимание, имеется видео и аудио реклама от спонсора показа

Скриншоты

admin

Post 19-May-2018 05:08

[Quote]

Информация о фильме
Год выхода: 2017
Название: Тигр жив
Оригинальное название: Tiger Zinda Hai
Произведено: Индия
Жанр: боевик
Режиссер постановщик: Али Аббас Зафар
В главных ролях: Салман Кхан, Катрина Каиф, Садджад Делафруз, Энгэд Беди, Пареш Раваль, Пареш Пахуджа, Кумуд Мишра, Анупурия Гоенка
О фильме: В Ираке во время вооруженного конфликта между иракской армией и террористами ранен лидер террористов Абу Усман. Его доставляют в местный госпиталь и берут в заложники индийских и пакистанских медсестер. Кроме того, со дня на день должны казнить группу американских журналистов.
Когда ушедший на покой секретный агент индийской спецслужбы Тигр где-то в швейцарских Альпах голыми руками расправляется со стаей волков, родине снова нужна его помощь. Американцы согласились совершить авиаудар через неделю, поэтому у Тигра и его команды есть только 7 дней, чтобы вызволить заложников. Да и Зоя не может остаться в стороне - теперь индийские и пакистанские спецслужбы будут работать вместе.

Файл
Качество: HDRip 1080p
Видео данные: MKV, 1920x810 (2.40:1), 23.976 fps, 11300 Кбит/с
Аудио данные: AAC, 2 ch, 192 Кбит/с
Перевод: Любительский многоголосый (GreenРай Studio)
Продолжительность: 02:38:42

Медиаинфо

General
Unique ID : 305108343434199742960921647510242042065 (0xE589BABFDF2CE203809589DB39D9A0D1)
Complete name : E:ГРИНРАЙTiger.Zinda.Hai.2017.P.BDRip.1080p.mkv
Format : Matroska
Format version : Version 4 / Version 2
File size : 12.8 GiB
Duration : 2 h 38 min
Overall bit rate : 11.5 Mb/s
Encoded date : UTC 2018-05-17 15:47:05
Writing application : mkvmerge v21.0.0 ('Tardigrades Will Inherit The Earth') 64-bit
Writing library : libebml v1.3.5 + libmatroska v1.4.8
Video
ID : 1
Format : AVC
Format/Info : Advanced Video Codec
Format profile : High@L4.1
Format settings : CABAC / 1 Ref Frames
Format settings, CABAC : Yes
Format settings, RefFrames : 1 frame
Format settings, GOP : M=1, N=30
Codec ID : V_MPEG4/ISO/AVC
Duration : 2 h 38 min
Bit rate : 11.3 Mb/s
Width : 1 920 pixels
Height : 810 pixels
Display aspect ratio : 2.40:1
Frame rate mode : Constant
Frame rate : 23.976 (24000/1001) FPS
Color space : YUV
Chroma subsampling : 4:2:0
Bit depth : 8 bits
Scan type : Progressive
Bits/(Pixel*Frame) : 0.304
Stream size : 12.6 GiB (98%)
Language : English
Default : Yes
Forced : No
Audio
ID : 2
Format : AAC
Format/Info : Advanced Audio Codec
Format profile : LC
Codec ID : A_AAC-2
Duration : 2 h 38 min
Bit rate : 192 kb/s
Channel(s) : 2 channels
Channel positions : Front: L R
Sampling rate : 48.0 kHz
Frame rate : 46.875 FPS (1024 SPF)
Compression mode : Lossy
Stream size : 215 MiB (2%)
Language : English
Default : Yes
Forced : No
Внимание, имеется видео и аудио реклама от спонсора показа

Скриншоты

admin

Post 03-Apr-2018 17:46

[Quote]

Аудио №1: 48.0 kHz, MPEG Layer -Т-временная.

KSA

Post 03-Apr-2018 16:44

[Quote]

Падмавати / Padmaavat
Страна: Индия
Производство: Bhansali Productions, Viacom18 Motion Pictures
Год выпуска: 2018
Жанр: драма, мелодрама, история
Продолжительность: 02:42:54
Режиссер: Санджай Лила Бхансали
Авторы сценария: Пракаш Кападиа, Санджай Лила Бхансали
В ролях: Дипика Падукон, Ранвир Сингх, Шахид Капур, Адити Рао Хидари, Джим Сарбх, Анупурия Гоенка, Аниша Джоши, Раза Мурад, Манджит Сингх
Описание: 1303 год. Могущественный султан Алауддин Хилджи, завоевавший половину Индии, поддается сладким речам изгнанного из Читторгарха бывшего королевского религиозного наставника, что его могущество только будет расти, если рядом с ним будет красавица Падмавати, жена правителя Раваны Сингха. С этого момента султан становится одержим идеей захватить Падмавати. Он приводит свои войска к стенам крепости Читторгарх и обещает её правителю не разрушать город, если тот отдаст ему собственную жену...

Перевод: Любительский (многоголосый, закадровый) | FanStudio
Субтитры: русские (full + на песни)-Качество: WEB-DL 1080p
Формат: МКV
Видео кодек: AVC
Аудио кодек: МР3 | AAC
Видео: 1920x816 (2.35:1), 23.976 fps, MPEG-4 AVC ~2 209 kbps avg
Аудио №1: 48.0 kHz, MPEG Layer 2, 0 ch, ~320 kbps | RUS / FanStudio
Аудио №2: 48.0 kHz, MPEG Layer 2, 0 ch, ~320 kbps | RUS / FanStudio
Аудио №3: 44.1 kHz, Advanced Audio Codec LC, 2/0 (L,R) ch, ~126 kbps | HIN / хинди
Формат субтитров: UTF-8 Plain Text
Дата премьеры (мир): 25 января 2018

Media Info

General
General
Unique ID : 175873199659464925094512424563055258854 (0x844FF237CCB9229026DC26F87DEFECE6)
Complete name : Padmaavat.2018.Hindi.1080p.HD.x264.mkv
Format : Matroska
Format version : Version 4 / Version 2
File size : 3.39 GiB
Duration : 2h 42mn
Overall bit rate : 2 977 Kbps
Encoded date : UTC 2018-04-02 15:48:11
Writing application : mkvmerge v20.0.0 ('I Am The Sun') 64-bit
Writing library : libebml v1.3.5 + libmatroska v1.4.8
DURATION : 01:50:26.610000000
NUMBER_OF_FRAMES : 83
NUMBER_OF_BYTES : 6152
_STATISTICS_WRITING_APP : mkvmerge v20.0.0 ('I Am The Sun') 64-bit
_STATISTICS_WRITING_DATE_UTC : 2018-04-02 15:48:11
_STATISTICS_TAGS : BPS DURATION NUMBER_OF_FRAMES NUMBER_OF_BYTES
Video
ID : 1
Format : AVC
Format/Info : Advanced Video Codec
Format profile : High@L4
Format settings, CABAC : Yes
Format settings, ReFrames : 2 frames
Codec ID : V_MPEG4/ISO/AVC
Duration : 2h 42mn
Width : 1 920 pixels
Height : 816 pixels
Display aspect ratio : 2.35:1
Frame rate mode : Constant
Frame rate : 23.976 fps
Color space : YUV
Chroma subsampling : 4:2:0
Bit depth : 8 bits
Scan type : Progressive
Default : Yes
Forced : No
Color range : Limited
Color primaries : BT.709
Transfer characteristics : BT.709
Matrix coefficients : BT.709
Audio #1
ID : 2
Format : MPEG Audio
Format version : Version 1
Format profile : Layer 3
Mode : Joint stereo
Mode extension : MS Stereo
Codec ID : A_MPEG/L3
Codec ID/Hint : MP3
Duration : 2h 42mn
Bit rate mode : Constant
Bit rate : 320 Kbps
Channel(s) : 2 channels
Sampling rate : 48.0 KHz
Compression mode : Lossy
Stream size : 373 MiB (11%)
Title : FAN studio (С)
Writing library : LAME3.99r
Encoding settings : -m j -V 4 -q 5 -lowpass 20.5
Language : Russian
Default : Yes
Forced : No
Audio #2
ID : 3
Format : MPEG Audio
Format version : Version 1
Format profile : Layer 3
Mode : Joint stereo
Mode extension : MS Stereo
Codec ID : A_MPEG/L3
Codec ID/Hint : MP3
Duration : 2h 42mn
Bit rate mode : Constant
Bit rate : 320 Kbps
Channel(s) : 2 channels
Sampling rate : 48.0 KHz
Compression mode : Lossy
Stream size : 373 MiB (11%)
Title : FAN studio (Э)
Writing library : LAME3.99r
Encoding settings : -m j -V 4 -q 5 -lowpass 20.5
Language : Russian
Default : No
Forced : No
Audio #3
ID : 4
Format : AAC
Format/Info : Advanced Audio Codec
Format profile : LC
Codec ID : A_AAC
Duration : 2h 42mn
Channel(s) : 2 channels
Channel positions : Front: L R
Sampling rate : 44.1 KHz
Compression mode : Lossy
Delay relative to video : 85ms
Language : Hindi
Default : No
Forced : No
Text #1
ID : 5
Format : UTF-8
Codec ID : S_TEXT/UTF8
Codec ID/Info : UTF-8 Plain Text
Title : Песни
Language : Russian
Default : Yes
Forced : No
Text #2
ID : 6
Format : UTF-8
Codec ID : S_TEXT/UTF8
Codec ID/Info : UTF-8 Plain Text
Title : Полные
Language : Russian
Default : No
Forced : No

Скриншоты

KSA

Post 03-Apr-2018 15:22

[Quote]

Падмавати / Padmaavat
Страна: Индия
Производство: Bhansali Productions, Viacom18 Motion Pictures
Год выпуска: 2018
Жанр: драма, мелодрама, история
Продолжительность: 02:42:00
Режиссер: Санджай Лила Бхансали
Авторы сценария: Пракаш Кападиа, Санджай Лила Бхансали
В ролях: Дипика Падукон, Ранвир Сингх, Шахид Капур, Адити Рао Хидари, Джим Сарбх, Анупурия Гоенка, Аниша Джоши, Раза Мурад, Манджит Сингх
Описание: 1303 год. Могущественный султан Алауддин Хилджи, завоевавший половину Индии, поддается сладким речам изгнанного из Читторгарха бывшего королевского религиозного наставника, что его могущество только будет расти, если рядом с ним будет красавица Падмавати, жена правителя Раваны Сингха. С этого момента султан становится одержим идеей захватить Падмавати. Он приводит свои войска к стенам крепости Читторгарх и обещает её правителю не разрушать город, если тот отдаст ему собственную жену...

Перевод: Любительский (многоголосый, закадровый) | Selena + Sunshine Studio + студия Райдо
Субтитры: английские, русские (full + на песни)-Качество: WEB-DL 720p
Формат: МКV
Видео кодек: AVC
Аудио кодек: АС3
Видео: 1280x544 (2.35:1), 23.976 fps, MPEG-4 AVC ~1 859 kbps avg
Аудио №1: 48.0 kHz, AC3 Dolby Digital, 2/0 (L,R) ch, ~192 kbps | HIN / хинди
Аудио №2: 48.0 kHz, AC3 Dolby Digital, 2/0 (L,R) ch, ~192 kbps | RUS / русский
Формат субтитров: UTF-8 Plain Text
Дата премьеры (мир): 25 января 2018

Media Info

General
Unique ID : 193721900009627723077286569992106271748 (0x91BD7B1671943CE08AA3FDA948BBE404)
Complete name : Padmaavat.2018.720p.WEB-DL.H264.AC3(2.0)Sub.mkv
Format : Matroska
Format version : Version 4 / Version 2
File size : 2.56 GiB
Duration : 2 h 42 min
Overall bit rate : 2 248 kb/s
Movie name : Padmaavat
Writing application : XviD4PSP 7.0.448 DAILY
Writing library : Lavf57.71.100
ErrorDetectionType : Per level 1
ENCODING_INFO : MATROSKA,WEBM > MKV 720p / H264 > X264 CRF-2P 21.0 Medium / AAC-LC > AC3 CBR 192kbps / MP3 > AC3 CBR 192kbps
Video
ID : 1
Format : AVC
Format/Info : Advanced Video Codec
Format profile : High@L3.1
Format settings : CABAC / 4 Ref Frames
Format settings, CABAC : Yes
Format settings, ReFrames : 4 frames
Codec ID : V_MPEG4/ISO/AVC
Duration : 2 h 42 min
Bit rate : 1 859 kb/s
Width : 1 280 pixels
Height : 544 pixels
Display aspect ratio : 2.35:1
Frame rate mode : Constant
Frame rate : 23.976 (24000/1001) FPS
Color space : YUV
Chroma subsampling : 4:2:0
Bit depth : 8 bits
Scan type : Progressive
Bits/(Pixel*Frame) : 0.111
Stream size : 2.07 GiB (81%)
Writing library : x264 core 155 r2901M 7d0ff22
Encoding settings : cabac=1 / ref=3 / deblock=1:-1:-1 / analyse=0x3:0x113 / me=hex / subme=7 / psy=1 / psy_rd=1.00:0.00 / mixed_ref=1 / me_range=16 / chroma_me=1 / trellis=1 / 8x8dct=1 / cqm=0 / deadzone=21,11 / fast_pskip=1 / chroma_qp_offset=-2 / threads=5 / lookahead_threads=1 / sliced_threads=0 / nr=0 / decimate=1 / interlaced=0 / bluray_compat=0 / constrained_intra=0 / bframes=3 / b_pyramid=2 / b_adapt=1 / b_bias=0 / direct=1 / weightb=1 / open_gop=0 / weightp=2 / keyint=240 / keyint_min=24 / scenecut=40 / intra_refresh=0 / rc_lookahead=40 / rc=2pass / mbtree=1 / bitrate=1859 / ratetol=1.0 / qcomp=0.60 / qpmin=0 / qpmax=69 / qpstep=4 / cplxblur=20.0 / qblur=0.5 / ip_ratio=1.40 / aq=1:1.00
Default : Yes
Forced : No
Audio #1
ID : 2
Format : AC-3
Format/Info : Audio Coding 3
Codec ID : A_AC3
Duration : 2 h 42 min
Bit rate mode : Constant
Bit rate : 192 kb/s
Channel(s) : 2 channels
Channel positions : Front: L R
Sampling rate : 48.0 kHz
Frame rate : 31.250 FPS (1536 SPF)
Bit depth : 16 bits
Compression mode : Lossy
Stream size : 224 MiB (9%)
Title : dtone
Language : Hindi
Service kind : Complete Main
Default : Yes
Forced : No
Audio #2
ID : 3
Format : AC-3
Format/Info : Audio Coding 3
Codec ID : A_AC3
Duration : 2 h 42 min
Bit rate mode : Constant
Bit rate : 192 kb/s
Channel(s) : 2 channels
Channel positions : Front: L R
Sampling rate : 48.0 kHz
Frame rate : 31.250 FPS (1536 SPF)
Bit depth : 16 bits
Compression mode : Lossy
Stream size : 224 MiB (9%)
Language : Russian
Service kind : Complete Main
Default : No
Forced : No
Text #1
ID : 4
Format : UTF-8
Codec ID : S_TEXT/UTF8
Codec ID/Info : UTF-8 Plain Text
Title : dtone
Language : English
Default : Yes
Forced : No
Text #2
ID : 5
Format : UTF-8
Codec ID : S_TEXT/UTF8
Codec ID/Info : UTF-8 Plain Text
Language : Russian
Default : No
Forced : No
Text #3
ID : 6
Format : UTF-8
Codec ID : S_TEXT/UTF8
Codec ID/Info : UTF-8 Plain Text
Language : Russian
Default : No
Forced : No

Скриншоты

 

Current time is: 12-Dec 12:35

All times are UTC + 3