Search found 2 matches

Author Message

admin

Post 12-Jul-2019 05:48

[Quote]

Бегство рогатых викингов
Страна: Россия
Производство: Ассоциация НП «КОТ»
Год выпуска: 2019
Жанр: семейный, комедия, детский, приключения
Продолжительность: 01:10:18
Режиссер: Илья Белостоцкий
В ролях: Евгений Олещук, Илья Плясухин, Даша Чистякова, Мирослав Быков, Никита Смирнов, Никита Липунов, Алексей Ломакин, Алина Бабушкина
Описание: Ещё один день, и Джонни Воробьёву исполнится девять лет. Тогда он наконец-то освободится от своего летнего «рабства» в летнем лагере под присмотром несносной старшей сестры и сможет спокойно проводить каникулы с своими друзьями. Но Джонни даёт благородное обещание остановить зловредного Тольку Самохина и его банду рогатых викингов и прекратить их набеги на ребятишек по всей округе...

Перевод: не требуется (оригинал) | iTunes
Субтитры: нет-Качество: WEB-DLRip
Формат: AVI
Видео кодек: XviD
Аудио кодек: АС3
Видео: 688x384 (16:9), 24.000 fps, XviD build 73 ~2 390 kbps avg
Аудио: 48.0 kHz, AC3 Dolby Digital, 3/2 (L,C,R,l,r) + LFE ch, ~384 kbps
Дата премьеры (РФ): 13 июня 2019, «Кинологистика»

Релиз от: порошков

Media Info

General
Формат : AVI
Формат/Информация : Audio Video Interleave
Размер файла : 1,37 Гбайт
Продолжительность : 1 ч. 10 м.
Общий поток : 2784 Кбит/сек
Название фильма : Бегство рогатых викингов_2018_WEB-DLRip
Программа кодирования : VirtualDubMod 1.5.10.3 | (build 2550/release)
Авторское право : порошков
Видео
Идентификатор : 0
Формат : MPEG-4 Visual
Профиль формата : Advanced Simple@L5
Настройки формата : BVOP1 / Custom Matrix
Параметр BVOP формата : 1
Параметр QPel формата : Нет
Параметр GMC формата : Без точки перехода
Параметр матрицы формата : Выборочная
Идентификатор кодека : XVID
Идентификатор кодека/Подсказка : XviD
Продолжительность : 1 ч. 10 м.
Битрейт : 2390 Кбит/сек
Ширина : 688 пикселей
Высота : 384 пикселя
Соотношение сторон : 16:9
Частота кадров : 24,000 кадра/сек
Цветовое пространство : YUV
Субдискретизация насыщенности : 4:2:0
Битовая глубина : 8 бит
Тип развёртки : Прогрессивная
Метод сжатия : С потерями
Бит/(Пиксели*Кадры) : 0.377
Размер потока : 1,17 Гбайт (86%)
Библиотека кодирования : XviD 73
Аудио
Идентификатор : 1
Формат : AC-3
Формат/Информация : Audio Coding 3
Коммерческое название : Dolby Digital
Идентификатор кодека : 2000
Продолжительность : 1 ч. 10 м.
Вид битрейта : Постоянный
Битрейт : 384 Кбит/сек
Каналы : 6 каналов
ChannelLayout : L R C LFE Ls Rs
Частота : 48,0 КГц
Частота кадров : 31,250 кадров/сек (1536 SPF)
Битовая глубина : 16 бит
Метод сжатия : С потерями
Размер потока : 193 Мбайт (14%)
Выравнивание : Разделение по промежуткам
Продолжительность промежутка : 42 мс. (1,00 видеокадр)
Время предзагрузки промежутка : 500 мс.

Скриншоты

Борисыч

Post 10-Nov-2018 17:43

[Quote]

<<КОРТИК>> - ( 3 серии )
Год выпуска: 1973
Жанр: Детский, приключения
Страна: СССР
Продолжительность: 3 х 01:07:00
Режиссер: Николай Калинин
В ролях: Сергей Шевкуненко, Владимир Дичковский, Игорь Шульженко, Эммануил Виторган, Михаил Голубович, Виктор Сергачев, Наталья Чемодурова, Эдуард Горячий, Зоя Фёдорова, Гедиминас Карка, Леонид Кмит, Татьяна Кудрявцева, Кузьма Кулаков, Витаутас Томкус, Роман Филиппов, Виталий Быков, Борис Владомирский, Тамара Трушина, Юрий Сидоров, Вера Кузнецова...
Описание: Пионеры 20-х годов пытаются раскрыть тайну морского кортика, хранящего шифрованное послание. Но при этом им приходится то и дело вступать в противостояние с бандитами...
Доп. информация: Мишу Полякова дублировала Ярослава Турылёва, Гену Петрова дублировала Агарь Власова
Качество видео: DVDRip
Формат видео: AVI
Видео кодек: XviD
Аудио кодек: AC3
Видео: 688x448, 25 fps, 1288 kbps
Аудио: 48 kHz, 2 ch, 224 kbps

Скриншоты



<<БРОНЗОВАЯ ПТИЦА>> - ( 3 серии ) Год выпуска: 1974
Жанр: Детский, приключения
Страна: СССР
Продолжительность: 03:11:18
Режиссер: Николай Калинин
В ролях: Сергей Шевкуненко, Владимир Дичковский, Игорь Шульженко, Мария Капнист, Виктор Чекмарев, Любовь Малиновская, Олег Севостьянов, Виталий Быков, Светлана Лапковская, Анатолий Дашкевич, Игорь Кондратович, Сергей Лисиченок, Марина Бойцова, Саша Примако, Владимир Папкович, Игорь Гущин
Описание: Продолжение приключений Миши Полякова и его друзей. Действие фильма происходит в Подмосковье в 1920-е годы. Богатый выбор, сказал кто то из толпы, к чему не понятно. Главные герои летом отправляются отдыхать в пионерский лагерь, который был разбит недалеко от старинного поместья помещиков Карагаевых. С этим родом связана легенда, согласно которой граф Карагаев спрятал где-то в окрестностях поместья крупный бриллиант и клад. Юные пионеры находят клад, попутно раскрывая преступление, связанное с убийством крестьянина Кузьмина...
Доп. информация: Три серии в одном файле
Качество видео: DVDRip
Формат видео: AVI
Видео кодек: XviD
Аудио кодек: AC3
Видео: 720x480, 25 fps, 1948 kbps
Аудио: 48 kHz, 2 ch, 224 kbps

Скриншоты



<<ПОСЛЕДНЕЕ ЛЕТО ДЕТСТВА>> - ( 3 серии )
Год выпуска: 1974
Жанр: Детский, приключения
Страна: СССР
Продолжительность: 3 х 01:09:00
Режиссер: Валерий Рубинчик
В ролях: Владимир Антоник, Евгений Евстигнеев, Вячеслав Молоков, Сергей Беляк, Александр Катько, Олег Грачев, Людмила Куцелай, Александр Жданов, Леонид Белозорович, Николай Денисов, Владимир Лосев, Александр Вокач, Зоя Осмоловская, Ирина Борисова, Владимир Герасимов, Юрий Сидоров, Вадим Ганшин, Геннадий Овсянников, Виктор Лебедев, Вера Кавалерова, Анатолий Чарноцкий, Георгий Штиль, Валентина Ананьина, Рогволд Суховерко
Описание: Действие происходит в Москве в 1927 году во времена нэпа. Трое главных героев Миша, Генка и Слава выросли и стали комсомольцами. Они участвуют в разоблачении банды, которая занималась хищениями мануфактуры, и спасают нескольких беспризорников от вовлечения в преступную деятельность.
Качество видео: DVDRip
Формат видео: AVI
Видео кодек: XviD
Аудио кодек: AC3
Видео: 640x496, 25 fps, 1308 kbps
Аудио: 48 kHz, 2 ch, 224 kbps

Скриншоты



 

Current time is: 14-Dec 13:12

All times are UTC + 3