Search found 5 matches

Author Message

admin

Post 12-Jul-2019 05:48

[Quote]

Бегство рогатых викингов
Страна: Россия
Производство: Ассоциация НП «КОТ»
Год выпуска: 2019
Жанр: семейный, комедия, детский, приключения
Продолжительность: 01:10:18
Режиссер: Илья Белостоцкий
В ролях: Евгений Олещук, Илья Плясухин, Даша Чистякова, Мирослав Быков, Никита Смирнов, Никита Липунов, Алексей Ломакин, Алина Бабушкина
Описание: Ещё один день, и Джонни Воробьёву исполнится девять лет. Тогда он наконец-то освободится от своего летнего «рабства» в летнем лагере под присмотром несносной старшей сестры и сможет спокойно проводить каникулы с своими друзьями. Но Джонни даёт благородное обещание остановить зловредного Тольку Самохина и его банду рогатых викингов и прекратить их набеги на ребятишек по всей округе...

Перевод: не требуется (оригинал) | iTunes
Субтитры: нет-Качество: WEB-DLRip
Формат: AVI
Видео кодек: XviD
Аудио кодек: АС3
Видео: 688x384 (16:9), 24.000 fps, XviD build 73 ~2 390 kbps avg
Аудио: 48.0 kHz, AC3 Dolby Digital, 3/2 (L,C,R,l,r) + LFE ch, ~384 kbps
Дата премьеры (РФ): 13 июня 2019, «Кинологистика»

Релиз от: порошков

Media Info

General
Формат : AVI
Формат/Информация : Audio Video Interleave
Размер файла : 1,37 Гбайт
Продолжительность : 1 ч. 10 м.
Общий поток : 2784 Кбит/сек
Название фильма : Бегство рогатых викингов_2018_WEB-DLRip
Программа кодирования : VirtualDubMod 1.5.10.3 | (build 2550/release)
Авторское право : порошков
Видео
Идентификатор : 0
Формат : MPEG-4 Visual
Профиль формата : Advanced Simple@L5
Настройки формата : BVOP1 / Custom Matrix
Параметр BVOP формата : 1
Параметр QPel формата : Нет
Параметр GMC формата : Без точки перехода
Параметр матрицы формата : Выборочная
Идентификатор кодека : XVID
Идентификатор кодека/Подсказка : XviD
Продолжительность : 1 ч. 10 м.
Битрейт : 2390 Кбит/сек
Ширина : 688 пикселей
Высота : 384 пикселя
Соотношение сторон : 16:9
Частота кадров : 24,000 кадра/сек
Цветовое пространство : YUV
Субдискретизация насыщенности : 4:2:0
Битовая глубина : 8 бит
Тип развёртки : Прогрессивная
Метод сжатия : С потерями
Бит/(Пиксели*Кадры) : 0.377
Размер потока : 1,17 Гбайт (86%)
Библиотека кодирования : XviD 73
Аудио
Идентификатор : 1
Формат : AC-3
Формат/Информация : Audio Coding 3
Коммерческое название : Dolby Digital
Идентификатор кодека : 2000
Продолжительность : 1 ч. 10 м.
Вид битрейта : Постоянный
Битрейт : 384 Кбит/сек
Каналы : 6 каналов
ChannelLayout : L R C LFE Ls Rs
Частота : 48,0 КГц
Частота кадров : 31,250 кадров/сек (1536 SPF)
Битовая глубина : 16 бит
Метод сжатия : С потерями
Размер потока : 193 Мбайт (14%)
Выравнивание : Разделение по промежуткам
Продолжительность промежутка : 42 мс. (1,00 видеокадр)
Время предзагрузки промежутка : 500 мс.

Скриншоты

admin

Post 23-Oct-2018 17:50

[Quote]

Информация о фильме
Название: Корона Российской империи, или Снова неуловимые
Год выхода: 1971
Жанр: Боевик, приключения, история
Режиссер: Эдмонд Кеосаян
В ролях: Михаил Метёлкин, Виктор Косых, Василий Васильев, Валентина Курдюкова, Иван Переверзев, Владислав Стржельчик, Армен Джигарханян, Аркадий Толбузин, Ролан Быков, Людмила Гурченко
Описание: Кончилась гражданская война. Четвёрка неуловимых мстителей, ставших чекистами, получает новое задание: охранять музейные ценности, в том числе и Большую императорскую корону. А между тем именно ею мечтают короноваться авантюристы, которые ведут в Париже борьбу за престол несуществующей Российской империи.

Выпущено: СССР
Продолжительность: 01:03:42 + 01:05:36
Перевод: Не требуется
Файл
Кодек: х264
Качество: WEBRip 720p
Видео: MPEG-4 AVC, 1280x576, 5555 Кбит/с, 25.000 fps
Аудио 1: AC3, 6 ch, 448 Кбит/с
Аудио 2: AC3, 1 ch, 128 Кбит/с
Субтитры: Нет

Скриншоты


MediaInfo

x264 [info]: frame I:621 Avg QP:18.46 size: 140964
x264 [info]: frame P:33647 Avg QP:20.61 size: 66525
x264 [info]: frame B:76483 Avg QP:22.06 size: 20301
======================================
Общее
Уникальный идентификатор : 189326042848901528818076298414766326020 (0x8E6EDE98B2FB21A3BECAB33BB19A8104)
Полное имя : Корона.Российской.империи.или.Снова.неуловимые.1971.WEBRip.720p.KORSAR.mkv
Формат : Matroska
Версия формата : Version 2
Размер файла : 2,73 Гбайт
Продолжительность : 1 ч. 3 м.
Общий поток : 6133 Кбит/сек
Дата кодирования : UTC 2017-03-12 15:40:34
Программа кодирования : mkvmerge v5.8.0 ('No Sleep / Pillow') built on Sep 2 2012 15:37:04
Библиотека кодирования : libebml v1.2.3 + libmatroska v1.3.0
Видео
Идентификатор : 1
Формат : AVC
Формат/Информация : Advanced Video Codec
Профиль формата : High@L4.1
Параметр CABAC формата : Да
Параметр RefFrames формата : 11 кадров
Идентификатор кодека : V_MPEG4/ISO/AVC
Продолжительность : 1 ч. 3 м.
Битрейт : 5555 Кбит/сек
Ширина : 1280 пикселей
Высота : 576 пикселей
Соотношение сторон : 2,222
Режим частоты кадров : Постоянный
Частота кадров : 25,000 кадров/сек
Цветовое пространство : YUV
Субдискретизация насыщенности : 4:2:0
Битовая глубина : 8 бит
Тип развёртки : Прогрессивная
Бит/(Пиксели*Кадры) : 0.301
Размер потока : 2,42 Гбайт (89%)
Заголовок : Корона.Российской.империи.или.Снова.неуловимые.1971.WEBRip.720p.KORSAR
Библиотека кодирования : x264 core 148 r2744kMod b97ae06
Настройки программы : cabac=1 / ref=11 / deblock=1:-1:-1 / analyse=0x3:0x113 / me=umh / subme=10 / psy=1 / fade_compensate=0.00 / psy_rd=1.05:0.10 / mixed_ref=1 / me_range=32 / chroma_me=1 / trellis=2 / 8x8dct=1 / cqm=0 / deadzone=21,11 / fast_pskip=0 / chroma_qp_offset=-3 / threads=12 / lookahead_threads=2 / sliced_threads=0 / nr=0 / decimate=0 / interlaced=0 / bluray_compat=0 / constrained_intra=0 / bframes=9 / b_pyramid=2 / b_adapt=2 / b_bias=0 / direct=3 / weightb=1 / open_gop=0 / weightp=2 / keyint=250 / keyint_min=25 / scenecut=40 / intra_refresh=0 / rc_lookahead=40 / rc=2pass / mbtree=0 / bitrate=5555 / ratetol=1.0 / qcomp=0.63 / qpmin=0 / qpmax=39 / qpstep=4 / cplxblur=20.0 / qblur=0.5 / vbv_maxrate=50000 / vbv_bufsize=62500 / nal_hrd=none / filler=0 / ip_ratio=1.25 / pb_ratio=1.30 / aq=2:0.80
Язык : English
Default : Да
Forced : Нет
Цветовой диапазон : Limited
Основные цвета : BT.709
Характеристики трансфера : BT.709
Коэффициенты матрицы : BT.709
Аудио #1
Идентификатор : 2
Формат : AC-3
Формат/Информация : Audio Coding 3
Параметр Endianness формата : Big
Идентификатор кодека : A_AC3
Продолжительность : 1 ч. 3 м.
Вид битрейта : Постоянный
Битрейт : 448 Кбит/сек
Каналы : 6 каналов
Расположение каналов : Front: L C R, Side: L R, LFE
Частота : 48,0 КГц
Частота кадров : 31,250 кадров/сек (1536 SPF)
Битовая глубина : 16 бит
Метод сжатия : С потерями
Задержка видео : 1 с. 29 мс.
Размер потока : 204 Мбайт (7%)
Язык : Russian
Default : Да
Forced : Нет
Аудио #2
Идентификатор : 3
Формат : AC-3
Формат/Информация : Audio Coding 3
Параметр Endianness формата : Big
Идентификатор кодека : A_AC3
Продолжительность : 1 ч. 3 м.
Вид битрейта : Постоянный
Битрейт : 128 Кбит/сек
Каналы : 1 канал
Расположение каналов : Front: C
Частота : 48,0 КГц
Частота кадров : 31,250 кадров/сек (1536 SPF)
Битовая глубина : 16 бит
Метод сжатия : С потерями
Задержка видео : 1 с. 29 мс.
Размер потока : 58,3 Мбайт (2%)
Язык : Russian
Default : Нет
Forced : Нет

admin

Post 23-Oct-2018 17:47

[Quote]

Информация о фильме
Название: Новые приключения неуловимых
Год выхода: 1968
Жанр: Боевик, приключения
Режиссёр: Эдмонд Кеосаян
В ролях: Михаил Метёлкин, Василий Васильев, Виктор Косых, Валентина Курдюкова, Армен Джигарханян, Борис Сичкин, Аркадий Толбузин, Владимир Ивашов, Ефим Копелян, Константин Сорокин
Описание: Возвращаясь из дозора, четверка отважных «неуловимых» подбивает аэроплан. В полевой сумке взятого в плен летчика они обнаруживают секретное донесение, где говорится о существовании оборонительных укреплений вокруг приморского города, который красным еще предстоит взять. Юные герои получают задание добыть карту укреплений и едут в город.

Выпущено: СССР
Продолжительность: 01:17:44
Перевод: Не требуется
Файл
Кодек: х264
Качество: WEBRip 720p
Видео: MPEG-4 AVC, 1280x576, 7007 Кбит/с, 25.000 fps
Аудио 1: AC3, 6 ch, 448 Кбит/с
Аудио 2: AC3, 1 ch, 128 Кбит/с
Субтитры: Нет
Навигация по главам: Есть

Скриншоты


MediaInfo

x264 [info]: frame I:672 Avg QP:18.50 size: 151317
x264 [info]: frame P:35149 Avg QP:20.41 size: 72819
x264 [info]: frame B:80783 Avg QP:21.81 size: 23188
======================================
Общее
Уникальный идентификатор : 173841589282220631172883055081441118638 (0x82C8AC17C79B1CC19D12A6445DF6C9AE)
Полное имя : Новые.приключения.неуловимых.1968.WEBRip.720p.KORSAR.mkv
Формат : Matroska
Версия формата : Version 2
Размер файла : 4,12 Гбайт
Продолжительность : 1 ч. 17 м.
Общий поток : 7585 Кбит/сек
Дата кодирования : UTC 2017-03-12 15:31:20
Программа кодирования : mkvmerge v5.8.0 ('No Sleep / Pillow') built on Sep 2 2012 15:37:04
Библиотека кодирования : libebml v1.2.3 + libmatroska v1.3.0
Видео
Идентификатор : 1
Формат : AVC
Формат/Информация : Advanced Video Codec
Профиль формата : High@L4.1
Параметр CABAC формата : Да
Параметр RefFrames формата : 11 кадров
Идентификатор кодека : V_MPEG4/ISO/AVC
Продолжительность : 1 ч. 17 м.
Битрейт : 7007 Кбит/сек
Ширина : 1280 пикселей
Высота : 576 пикселей
Соотношение сторон : 2,222
Режим частоты кадров : Постоянный
Частота кадров : 25,000 кадров/сек
Цветовое пространство : YUV
Субдискретизация насыщенности : 4:2:0
Битовая глубина : 8 бит
Тип развёртки : Прогрессивная
Бит/(Пиксели*Кадры) : 0.380
Размер потока : 3,72 Гбайт (90%)
Заголовок : Новые.приключения.неуловимых.1968.WEBRip.720p.KORSAR
Библиотека кодирования : x264 core 148 r2744kMod b97ae06
Настройки программы : cabac=1 / ref=11 / deblock=1:-1:-1 / analyse=0x3:0x113 / me=umh / subme=10 / psy=1 / fade_compensate=0.00 / psy_rd=1.05:0.10 / mixed_ref=1 / me_range=32 / chroma_me=1 / trellis=2 / 8x8dct=1 / cqm=0 / deadzone=21,11 / fast_pskip=0 / chroma_qp_offset=-3 / threads=12 / lookahead_threads=2 / sliced_threads=0 / nr=0 / decimate=0 / interlaced=0 / bluray_compat=0 / constrained_intra=0 / bframes=8 / b_pyramid=2 / b_adapt=2 / b_bias=0 / direct=3 / weightb=1 / open_gop=0 / weightp=2 / keyint=250 / keyint_min=25 / scenecut=40 / intra_refresh=0 / rc_lookahead=40 / rc=2pass / mbtree=0 / bitrate=7007 / ratetol=1.0 / qcomp=0.63 / qpmin=0 / qpmax=39 / qpstep=4 / cplxblur=20.0 / qblur=0.5 / vbv_maxrate=50000 / vbv_bufsize=62500 / nal_hrd=none / filler=0 / ip_ratio=1.25 / pb_ratio=1.30 / aq=2:0.80
Язык : English
Default : Да
Forced : Нет
Цветовой диапазон : Limited
Основные цвета : BT.709
Характеристики трансфера : BT.709
Коэффициенты матрицы : BT.709
Аудио #1
Идентификатор : 2
Формат : AC-3
Формат/Информация : Audio Coding 3
Параметр Endianness формата : Big
Идентификатор кодека : A_AC3
Продолжительность : 1 ч. 17 м.
Вид битрейта : Постоянный
Битрейт : 448 Кбит/сек
Каналы : 6 каналов
Расположение каналов : Front: L C R, Side: L R, LFE
Частота : 48,0 КГц
Частота кадров : 31,250 кадров/сек (1536 SPF)
Битовая глубина : 16 бит
Метод сжатия : С потерями
Задержка видео : 2 с. 798 мс.
Размер потока : 249 Мбайт (6%)
Язык : Russian
Default : Да
Forced : Нет
Аудио #2
Идентификатор : 3
Формат : AC-3
Формат/Информация : Audio Coding 3
Параметр Endianness формата : Big
Идентификатор кодека : A_AC3
Продолжительность : 1 ч. 17 м.
Вид битрейта : Постоянный
Битрейт : 128 Кбит/сек
Каналы : 1 канал
Расположение каналов : Front: C
Частота : 48,0 КГц
Частота кадров : 31,250 кадров/сек (1536 SPF)
Битовая глубина : 16 бит
Метод сжатия : С потерями
Задержка видео : 2 с. 798 мс.
Размер потока : 71,2 Мбайт (2%)
Язык : Russian
Default : Нет
Forced : Нет
Меню
00:00:00.000 : en:Chapter 1
00:04:16.800 : en:Chapter 2
00:12:55.800 : en:Chapter 3
00:17:21.000 : en:Chapter 4
00:25:13.800 : en:Chapter 5
00:30:16.800 : en:Chapter 6
00:37:14.400 : en:Chapter 7
00:43:09.000 : en:Chapter 8
00:45:43.200 : en:Chapter 9
00:53:09.600 : en:Chapter 10
01:00:51.000 : en:Chapter 11
01:07:56.400 : en:Chapter 12

admin

Post 23-Oct-2018 17:40

[Quote]

Информация о фильме
Название: Неуловимые мстители
Год выхода: 1966
Жанр: Приключения, боевик
Режиссер: Эдмонд Кеосаян
В ролях: Виктор Косых, Ефим Копелян, Владимир Трещалов, Борис Сичкин, Савелий Крамаров, Владимир Белокуров, Инна Чурикова, Василий Васильев, Валентина Курдюкова, Михаил Метёлкин
Описание: Бывший гимназист Валерка, веселый отчаянный Яшка-цыган, оставшиеся сиротами Данька и его сестренка Ксанка дали клятву внедриться в отряд к атаману Бурнашу и отомстить ему и его банде за смерть отца Даньки. Под видом сына старого друга атамана Данька проникает в отряд Бурнаша. Однако бандиты сумели узнать об этом. Даньку ждет казнь, но друзья на то и друзья, чтобы не бросить своего товарища в беде.

Выпущено: СССР
Продолжительность: 01:13:50
Перевод: Не требуется
Файл
Кодек: х264
Качество: WEBRip 720p
Видео: MPEG-4 AVC, 1280x568, 7007 Кбит/с, 25.000 fps
Аудио 1: AC3, 6 ch, 448 Кбит/с
Аудио 2: AC3, 1 ch, 128 Кбит/с
Субтитры: Нет
Навигация по главам: Есть

Скриншоты


MediaInfo

x264 [info]: frame I:615 Avg QP:18.61 size:148327
x264 [info]: frame P:33897 Avg QP:20.43 size: 72780
x264 [info]: frame B:76239 Avg QP:21.78 size: 22916
======================================
Общее
Уникальный идентификатор : 194604733039027021339914529969897914474 (0x9267821DD8ECCB5FA2AFF51407C2C06A)
Полное имя : Неуловимые.мстители.1966.WEBRip.720p.KORSAR.mkv
Формат : Matroska
Версия формата : Version 2
Размер файла : 3,91 Гбайт
Продолжительность : 1 ч. 13 м.
Общий поток : 7582 Кбит/сек
Дата кодирования : UTC 2017-03-12 15:22:34
Программа кодирования : mkvmerge v5.8.0 ('No Sleep / Pillow') built on Sep 2 2012 15:37:04
Библиотека кодирования : libebml v1.2.3 + libmatroska v1.3.0
Видео
Идентификатор : 1
Формат : AVC
Формат/Информация : Advanced Video Codec
Профиль формата : High@L4.1
Параметр CABAC формата : Да
Параметр RefFrames формата : 11 кадров
Идентификатор кодека : V_MPEG4/ISO/AVC
Продолжительность : 1 ч. 13 м.
Битрейт : 7007 Кбит/сек
Ширина : 1280 пикселей
Высота : 568 пикселей
Соотношение сторон : 2,25:1
Режим частоты кадров : Постоянный
Частота кадров : 25,000 кадров/сек
Цветовое пространство : YUV
Субдискретизация насыщенности : 4:2:0
Битовая глубина : 8 бит
Тип развёртки : Прогрессивная
Бит/(Пиксели*Кадры) : 0.386
Размер потока : 3,54 Гбайт (90%)
Заголовок : Неуловимые.мстители.1966.WEBRip.720p.KORSAR
Библиотека кодирования : x264 core 148 r2744kMod b97ae06
Настройки программы : cabac=1 / ref=11 / deblock=1:-1:-1 / analyse=0x3:0x113 / me=umh / subme=10 / psy=1 / fade_compensate=0.00 / psy_rd=1.05:0.10 / mixed_ref=1 / me_range=32 / chroma_me=1 / trellis=2 / 8x8dct=1 / cqm=0 / deadzone=21,11 / fast_pskip=0 / chroma_qp_offset=-3 / threads=12 / lookahead_threads=2 / sliced_threads=0 / nr=0 / decimate=0 / interlaced=0 / bluray_compat=0 / constrained_intra=0 / bframes=8 / b_pyramid=2 / b_adapt=2 / b_bias=0 / direct=3 / weightb=1 / open_gop=0 / weightp=2 / keyint=250 / keyint_min=25 / scenecut=40 / intra_refresh=0 / rc_lookahead=40 / rc=2pass / mbtree=0 / bitrate=7007 / ratetol=1.0 / qcomp=0.63 / qpmin=0 / qpmax=39 / qpstep=4 / cplxblur=20.0 / qblur=0.5 / vbv_maxrate=50000 / vbv_bufsize=62500 / nal_hrd=none / filler=0 / ip_ratio=1.25 / pb_ratio=1.30 / aq=2:0.80
Язык : English
Default : Да
Forced : Нет
Цветовой диапазон : Limited
Основные цвета : BT.709
Характеристики трансфера : BT.709
Коэффициенты матрицы : BT.709
Аудио #1
Идентификатор : 2
Формат : AC-3
Формат/Информация : Audio Coding 3
Параметр Endianness формата : Big
Идентификатор кодека : A_AC3
Продолжительность : 1 ч. 13 м.
Вид битрейта : Постоянный
Битрейт : 448 Кбит/сек
Каналы : 6 каналов
Расположение каналов : Front: L C R, Side: L R, LFE
Частота : 48,0 КГц
Частота кадров : 31,250 кадров/сек (1536 SPF)
Битовая глубина : 16 бит
Метод сжатия : С потерями
Задержка видео : 2 с. 107 мс.
Размер потока : 237 Мбайт (6%)
Язык : Russian
Default : Да
Forced : Нет
Аудио #2
Идентификатор : 3
Формат : AC-3
Формат/Информация : Audio Coding 3
Параметр Endianness формата : Big
Идентификатор кодека : A_AC3
Продолжительность : 1 ч. 13 м.
Вид битрейта : Постоянный
Битрейт : 128 Кбит/сек
Каналы : 1 канал
Расположение каналов : Front: C
Частота : 48,0 КГц
Частота кадров : 31,250 кадров/сек (1536 SPF)
Битовая глубина : 16 бит
Метод сжатия : С потерями
Задержка видео : 2 с. 303 мс.
Размер потока : 67,6 Мбайт (2%)
Язык : Russian
Default : Нет
Forced : Нет
Меню
00:00:00.000 : en:Chapter 1
00:06:30.600 : en:Chapter 2
00:11:01.800 : en:Chapter 3
00:18:51.000 : en:Chapter 4
00:26:24.000 : en:Chapter 5
00:28:53.400 : en:Chapter 6
00:40:48.600 : en:Chapter 7
00:45:22.800 : en:Chapter 8
00:48:29.400 : en:Chapter 9
00:55:09.600 : en:Chapter 10
01:00:57.600 : en:Chapter 11
01:05:46.200 : en:Chapter 12

admin

Post 18-Sep-2018 21:07

[Quote]

Неуловимые мстители. Трилогия
Год выпуска: 1966-1971
Страна: СССР
Жанр: детский, приключения, боевик
В ролях: Василий Васильев, Виктор Косых, Валентина Курдюкова, Михаил Метелкин, Борис Сичкин, Армен Джигарханян, Ефим Копелян, Савелий Крамаров..............
Продолжительность: 01:13:50 + 01:17:44 + 01:03:42 + 01:05:37
Перевод: не требуется
Субтитры: нет--

Неуловимые мстители (1966) DVDRip-AVC


Информация о фильме
Оригинальное название: Неуловимые мстители
Год выхода: 1966
Жанр: Приключения
Режиссер: Эдмонд Кеосаян, Леон Кочарян
В ролях: Василий Васильев, Виктор Косых, Валентина Курдюкова, Михаил Метелкин, Борис Сичкин, Владимир Белокуров, Надежда Федосова, Виктор Колпаков, Иван Жеваго, Александра Денисова, Лев Свердлин, Савелий Крамаров, Глеб Стриженов, Инна Чурикова, Павел Винник, Ефим Копелян, Владимир Трещалов, Геннадий Юхтин, Иван Савкин, Валентина Ананьина, Альбина Матвеева, Юрий Мартынов, Николай Горлов, Александр Милютин, Олег Савосин, Виктор Уральский, Леонид Пархоменко, Александр Пархоменко, Юрий Киреев, Владимир Протасенко
О фильме:
Бывший гимназист Валерка, веселый отчаянный Яшка-цыган, оставшиеся сиротами Данька и его сестренка Ксанка дали клятву внедриться в отряд к атаману Бурнашу и отомстить ему и его банде за смерть отца Даньки. Под видом сына старого друга атамана Данька проникает в отряд Бурнаша. Однако бандиты сумели узнать об этом. Даньку ждет казнь, но друзья на то и друзья, чтобы не бросить своего товарища в беде…

Выпущено: СССР
Продолжительность: 01:13:50
Субтитры: нет
Файл:
Формат: MKV
Качество: DVDRip-AVC (источник: DVD-5 / 576p)
Видео: 716x312 (2.25:1), 25 fps, High@L4.1, ~1310 kbps
Аудио: HE-AAC, 2 ch, ~96 kbps

MediaInfo

Unique ID : 6650795161609073131480221319983020625 (0x500E584AA80817C3C1601ECD3F43A51)
Complete name : G:Видео_1Неуловимые мстители_[Трилогия]_(1966-1971)_DVDRip-AVCНеуловимые_мстители_(1966)_DVDRip-AVC_[-=DoMiNo=-].mkv
Format : Matroska
Format version : Version 4
File size : 744 MiB
Duration : 1 h 13 min
Overall bit rate : 1 409 kb/s
Movie name : Неуловимые мстители
Deion : Бывший гимназист Валерка, веселый отчаянный Яшка-цыган, оставшиеся сиротами Данька и его сестренка Ксанка дали клятву внедриться в отряд к атаману Бурнашу и отомстить ему и его банде за смерть отца Даньки. Под видом сына старого друга атамана Данька проникает в отряд Бурнаша. Однако бандиты сумели узнать об этом. Даньку ждет казнь, но друзья на то и друзья, чтобы не бросить своего товарища в беде.
Attachments : poster.jpg / backdrop.jpg
ACTORS : Viktor Kosykh, Vasili Vasilyev, Mikhail Metyolkin, Valentina Kurdyukova, Efim Kopelyan, Boris Sichkin, Savely Kramarov, Inna Churikova, Lev Sverdlin, Ivan Savkin, Ivan Zhevago
COUNTRY : Russia, *nil*
DATE : 1966-06-06
DIRECTOR : Edmond Keosayan
ENCODING_INFO : DVD > MKV Пользовательский / MPEG2 > X264 VBR-2P
GENRE : боевик, приключения, семейный
MEDIA_TYPE : 9
PUBLISHER : Mosfilm
RATING : 7.10
Video
ID : 1
Format : AVC
Format/Info : Advanced Video Codec
Format profile : High@L4.1
Format settings : CABAC / 14 Ref Frames
Format settings, CABAC : Yes
Format settings, ReFrames : 14 frames
Codec ID : V_MPEG4/ISO/AVC
Duration : 1 h 13 min
Nominal bit rate : 1 310 kb/s
Width : 716 pixels
Height : 312 pixels
Display aspect ratio : 2.25:1
Frame rate mode : Constant
Frame rate : 25.000 FPS
Color space : YUV
Chroma subsampling : 4:2:0
Bit depth : 8 bits
Scan type : Progressive
Bits/(Pixel*Frame) : 0.235
Title : RIP_BY_-=DoMiNo=-
Writing library : x264 core 155 r2901M 7d0ff22
Encoding settings : cabac=1 / ref=14 / deblock=1:-3:-3 / analyse=0x3:0x133 / me=umh / subme=11 / psy=1 / psy_rd=1.05:0.20 / mixed_ref=1 / me_range=56 / chroma_me=1 / trellis=2 / 8x8dct=1 / cqm=0 / deadzone=21,11 / fast_pskip=0 / chroma_qp_offset=-3 / threads=6 / lookahead_threads=1 / sliced_threads=0 / nr=0 / decimate=1 / interlaced=0 / bluray_compat=0 / constrained_intra=0 / bframes=16 / b_pyramid=2 / b_adapt=2 / b_bias=0 / direct=3 / weightb=1 / open_gop=0 / weightp=2 / keyint=250 / keyint_min=25 / scenecut=40 / intra_refresh=0 / rc_lookahead=40 / rc=2pass / mbtree=0 / bitrate=1310 / ratetol=1.0 / qcomp=0.70 / qpmin=0 / qpmax=69 / qpstep=4 / cplxblur=20.0 / qblur=0.5 / vbv_maxrate=50000 / vbv_bufsize=62500 / nal_hrd=none / filler=0 / ip_ratio=1.40 / pb_ratio=1.30 / aq=3:0.90
Default : Yes
Forced : No
Color range : Limited
Audio
ID : 2
Format : AAC LC SBR
Format/Info : Advanced Audio Codec Low Complexity with Spectral Band Replication
Commercial name : HE-AAC
Format settings : Implicit
Codec ID : A_AAC-2
Duration : 1 h 13 min
Channel(s) : 2 channels
Channel layout : L R
Sampling rate : 48.0 kHz
Frame rate : 23.438 FPS (2048 SPF)
Compression mode : Lossy
Language : Russian
Default : Yes
Forced : No
Menu
00:00:00.000 : :Глава 1
00:06:30.600 : :Глава 2
00:11:01.800 : :Глава 3
00:18:51.000 : :Глава 4
00:26:24.000 : :Глава 5
00:28:53.400 : :Глава 6
00:40:48.600 : :Глава 7
00:45:22.800 : :Глава 8
00:48:29.400 : :Глава 9
00:55:09.600 : :Глава 10
01:00:57.600 : :Глава 11
01:05:46.200 : :Глава 12

Новые приключения неуловимых (1968) DVDRip-AVC


Информация о фильме
Оригинальное название: Новые приключения неуловимых
Год выхода: 1968
Жанр: Приключения
Режиссер: Эдмонд Кеосаян
В ролях: Виктор Косых, Михаил Метелкин, Василий Васильев, Армен Джигарханян, Ефим Копелян, Борис Сичкин, Валентина Курдюкова, Юрий Мартынов, Николай Федорцов, Владимир Белокуров, Эдуард Абалов, Ян Френкель, Алексей Бахарь, Владимир Ивашов, Константин Сорокин, Людмила Карауш, Иван Переверзев, Иван Савкин, Аркадий Толбузин, Светлана Светличная, Савелий Крамаров, Сергей Филиппов, Станислав Чекан, Евгений Весник
О фильме:
Крим накануне полного освобождения от белогвардейцев. Возвращаясь из дозора, четверка отважных "неуловимых" подбивает аэроплан. В полевой сумке взятого в плен летчика они обнаруживают секретное донесение, где говорится о существовании оборонительных укреплений вокруг приморского города, который красным еще предстоит взять. Юные герои получают задание добыть карту укреплений и едут в город.

Выпущено: СССР
Продолжительность: 01:17:44
Субтитры: нет
Файл:
Формат: MKV
Качество: DVDRip-AVC (источник: DVD-5 / 576p)
Видео: 716x312 (2.25:1), 25 fps, High@L4.1, ~1239 kbps
Аудио: HE-AAC, 2 ch, ~96 kbps

MediaInfo

Unique ID : 11983173024750615136127628808817129663 (0x903E00B83FE219C4BC889CB2226B8BF)
Complete name : G:Видео_1Неуловимые мстители_[Трилогия]_(1966-1971)_DVDRip-AVCНовые приключения неуловимых_(1968)_DVDRip-AVC_[-=DoMiNo=-].mkv
Format : Matroska
Format version : Version 4
File size : 744 MiB
Duration : 1 h 17 min
Overall bit rate : 1 339 kb/s
Movie name : Новые приключения неуловимых
Deion : Крим накануне полного освобождения от белогвардейцев. Возвращаясь из дозора, четверка отважных «неуловимых» подбивает аэроплан. В полевой сумке взятого в плен летчика они обнаруживают секретное донесение, где говорится о существовании оборонительных укреплений вокруг приморского города, который красным еще предстоит взять. Юные герои получают задание добыть карту укреплений и едут в город…
Attachments : poster.jpg / backdrop.jpg
ACTORS : Viktor Kosykh, Mikhail Metyolkin, Vasili Vasilyev, Valentina Kurdyukova, Efim Kopelyan, Boris Sichkin, Savely Kramarov, Stanislav Chekan, Sergei Filippov, Svetlana Svetlichnaya, Armen Dzhigarkhanyan, Alexey Bahar, Ivan Zhevago, Leonid Chubarov
COUNTRY : Russia, *nil*
DATE : 1968-06-06
DIRECTOR : Edmond Keosayan
ENCODING_INFO : DVD > MKV Пользовательский / MPEG2 > X264 VBR-2P
GENRE : боевик, приключения, семейный
MEDIA_TYPE : 9
ORIGINAL_TITLE : Novye Priklyucheniya Neulovimykh
PUBLISHER : Mosfilm
RATING : 6.60
Video
ID : 1
Format : AVC
Format/Info : Advanced Video Codec
Format profile : High@L4.1
Format settings : CABAC / 14 Ref Frames
Format settings, CABAC : Yes
Format settings, ReFrames : 14 frames
Codec ID : V_MPEG4/ISO/AVC
Duration : 1 h 17 min
Nominal bit rate : 1 239 kb/s
Width : 716 pixels
Height : 312 pixels
Display aspect ratio : 2.25:1
Frame rate mode : Constant
Frame rate : 25.000 FPS
Color space : YUV
Chroma subsampling : 4:2:0
Bit depth : 8 bits
Scan type : Progressive
Bits/(Pixel*Frame) : 0.222
Title : RIP_BY_-=DoMiNo=-
Writing library : x264 core 155 r2901M 7d0ff22
Encoding settings : cabac=1 / ref=14 / deblock=1:-3:-3 / analyse=0x3:0x133 / me=umh / subme=11 / psy=1 / psy_rd=1.05:0.20 / mixed_ref=1 / me_range=56 / chroma_me=1 / trellis=2 / 8x8dct=1 / cqm=0 / deadzone=21,11 / fast_pskip=0 / chroma_qp_offset=-3 / threads=6 / lookahead_threads=1 / sliced_threads=0 / nr=0 / decimate=1 / interlaced=0 / bluray_compat=0 / constrained_intra=0 / bframes=16 / b_pyramid=2 / b_adapt=2 / b_bias=0 / direct=3 / weightb=1 / open_gop=0 / weightp=2 / keyint=250 / keyint_min=25 / scenecut=40 / intra_refresh=0 / rc_lookahead=40 / rc=2pass / mbtree=0 / bitrate=1239 / ratetol=1.0 / qcomp=0.70 / qpmin=0 / qpmax=69 / qpstep=4 / cplxblur=20.0 / qblur=0.5 / vbv_maxrate=50000 / vbv_bufsize=62500 / nal_hrd=none / filler=0 / ip_ratio=1.40 / pb_ratio=1.30 / aq=3:0.90
Default : Yes
Forced : No
Color range : Limited
Audio
ID : 2
Format : AAC LC SBR
Format/Info : Advanced Audio Codec Low Complexity with Spectral Band Replication
Commercial name : HE-AAC
Format settings : Implicit
Codec ID : A_AAC-2
Duration : 1 h 17 min
Channel(s) : 2 channels
Channel layout : L R
Sampling rate : 48.0 kHz
Frame rate : 23.438 FPS (2048 SPF)
Compression mode : Lossy
Language : Russian
Default : Yes
Forced : No
Menu
00:00:00.000 : :Глава 1
00:04:16.800 : :Глава 2
00:12:55.800 : :Глава 3
00:17:21.000 : :Глава 4
00:25:13.800 : :Глава 5
00:30:16.800 : :Глава 6
00:37:14.400 : :Глава 7
00:43:09.000 : :Глава 8
00:45:43.200 : :Глава 9
00:53:09.600 : :Глава 10
01:00:51.000 : :Глава 11
01:07:56.400 : :Глава 12

Корона Российской империи, или Снова неуловимые (2-е части) (1971) DVDRip-AVC


Информация о фильме
Оригинальное название: Корона Российской империи, или Снова неуловимые
Год выхода: 1971
Жанр: Приключения
Режиссер: Эдмонд Кеосаян
В ролях: Армен Джигарханян, Михаил Метелкин, Виктор Косых, Василий Васильев, Валентина Курдюкова, Владислав Стржельчик, Юрий Мартынов, Владимир Белокуров, Эдмонд Кеосаян, Ян Френкель, Яков Беленький, Ефим Копелян, Николай Граббе, Лаврентий Масоха, Лариса Пашкова, Артем Карапетян, Лев Поляков, Станислав Чекан, Зоя Исаева, Данута Столярская, Вадим Гусев, Ролан Быков, Людмила Гурченко, Нина Агапова, Иван Переверзев, Аркадий Толбузин, Владимир Ивашов, Андрей Файт, Георгий Тусузов, Григорий Шпигель, Олег Савосин, Яков Ленц, Зинаида Занони, Ираклий Хизанишвили
О фильме:
Кончилась гражданская война. Четверка неуловимых мстителей (герои фильмов "Неуловимые мстители" и "Новые приключения неуловимых"), ставших теперь чекистами, получает новое задание. Им предстоит охранять музейные ценности - бывшие сокровища русских царей и в том числе Большую императорскую корону. А между тем в Париже два авнтюриста ведут борьбу за престол несуществующей империи, мечтая короноваться настоящей короной.

Выпущено: СССР
Продолжительность: 01:03:42 + 01:05:37
Субтитры: нет
Файл:
Формат: AVI
Качество: DVDRip-AVC (источник: DVD-5 / 576p)
Видео: 716x312 (2.25:1), 25 fps, High@L4.1, ~1500 kbps
Аудио: HE-AAC, 2 ch, ~96 kbps

MediaInfo

Unique ID : 143837908854997540499661868329199967866 (0x6C362C6FC04F6DD997B65C6CF0779E7A)
Complete name : G:Видео_1Неуловимые мстители_[Трилогия]_(1966-1971)_DVDRip-AVCКорона Российской империи_01_(1971)_DVDRip-AVC_[-=DoMiNo=-].mkv
Format : Matroska
Format version : Version 4
File size : 744 MiB
Duration : 1 h 3 min
Overall bit rate : 1 632 kb/s
Movie name : Корона Российской империи, или Снова неуловимые
Deion : Кончилась гражданская война. Четвёрка неуловимых мстителей, ставших чекистами, получает новое задание: охранять музейные ценности, в том числе и Большую императорскую корону. А между тем именно ею мечтают короноваться авантюристы, которые ведут в Париже борьбу за престол несуществующей Российской империи…
Attachments : poster.jpg / backdrop.jpg
ACTORS : Viktor Kosykh, Mikhail Metyolkin, Vasili Vasilyev, Valentina Kurdyukova, Rolan Bykov, Andrey Fayt, Vladislav Strzhelchik, Lyudmila Gurchenko, Grigoriy Shpigel, Armen Dzhigarkhanyan, E. Kharkevich, Zana Zanoni
COUNTRY : Russia
DATE : 1971-06-06
DIRECTOR : Edmond Keosayan
ENCODING_INFO : DVD > MKV Пользовательский / MPEG2 > X264 VBR-2P 1533kbps Пользовательский / AC3 > AAC CBR 96kbps HE
GENRE : боевик, приключения, семейный
MEDIA_TYPE : 9
ORIGINAL_TITLE : Korona Rossiyskoy Imperii, ili Snova Neulovimye
PUBLISHER : Mosfilm
RATING : 5.80
Video
ID : 1
Format : AVC
Format/Info : Advanced Video Codec
Format profile : High@L4.1
Format settings : CABAC / 14 Ref Frames
Format settings, CABAC : Yes
Format settings, ReFrames : 14 frames
Codec ID : V_MPEG4/ISO/AVC
Duration : 1 h 3 min
Nominal bit rate : 1 533 kb/s
Width : 716 pixels
Height : 312 pixels
Display aspect ratio : 2.25:1
Frame rate mode : Constant
Frame rate : 25.000 FPS
Color space : YUV
Chroma subsampling : 4:2:0
Bit depth : 8 bits
Scan type : Progressive
Bits/(Pixel*Frame) : 0.274
Title : RIP_BY_-=DoMiNo=-
Writing library : x264 core 155 r2901M 7d0ff22
Encoding settings : cabac=1 / ref=14 / deblock=1:-3:-3 / analyse=0x3:0x133 / me=umh / subme=11 / psy=1 / psy_rd=1.05:0.20 / mixed_ref=1 / me_range=56 / chroma_me=1 / trellis=2 / 8x8dct=1 / cqm=0 / deadzone=21,11 / fast_pskip=0 / chroma_qp_offset=-3 / threads=6 / lookahead_threads=1 / sliced_threads=0 / nr=0 / decimate=1 / interlaced=0 / bluray_compat=0 / constrained_intra=0 / bframes=16 / b_pyramid=2 / b_adapt=2 / b_bias=0 / direct=3 / weightb=1 / open_gop=0 / weightp=2 / keyint=250 / keyint_min=25 / scenecut=40 / intra_refresh=0 / rc_lookahead=40 / rc=2pass / mbtree=0 / bitrate=1533 / ratetol=1.0 / qcomp=0.70 / qpmin=0 / qpmax=69 / qpstep=4 / cplxblur=20.0 / qblur=0.5 / vbv_maxrate=50000 / vbv_bufsize=62500 / nal_hrd=none / filler=0 / ip_ratio=1.40 / pb_ratio=1.30 / aq=3:0.90
Default : Yes
Forced : No
Color range : Limited
Audio
ID : 2
Format : AAC LC SBR
Format/Info : Advanced Audio Codec Low Complexity with Spectral Band Replication
Commercial name : HE-AAC
Format settings : Implicit
Codec ID : A_AAC-2
Duration : 1 h 3 min
Channel(s) : 2 channels
Channel layout : L R
Sampling rate : 48.0 kHz
Frame rate : 23.438 FPS (2048 SPF)
Compression mode : Lossy
Language : Russian
Default : Yes
Forced : No
Menu
00:00:00.000 : :Глава 1
00:03:54.000 : :Глава 2
00:11:57.600 : :Глава 3
00:18:45.600 : :Глава 4
00:23:38.399 : :Глава 5
00:29:46.199 : :Глава 6
00:36:22.799 : :Глава 7
00:40:41.399 : :Глава 8
00:48:16.799 : :Глава 9
00:50:14.999 : :Глава 10
00:58:35.999 : :Глава 11
 

Current time is: 13-Jul 13:28

All times are UTC + 3