Search found 20 matches

Author Message

admin

Post 12-Aug-2019 02:02

[Quote]

Информация о фильме
Название: Терминатор
Оригинальное название: The Terminator
Год выхода: 1984
Жанр: Фантастика, боевик
Режиссер: Джеймс Кэмерон
В ролях: Арнольд Шварценеггер, Майкл Бьен, Линда Хэмилтон, Пол Уинфилд, Лэнс Хенриксен, Рик Россови, Бесс Мотта, Эрл Боэн,
О фильме:
История противостояния солдата Кайла Риза и киборга-терминатора, прибывших в 1984-й год из пост-апокалиптического будущего, где миром правят машины-убийцы, а человечество находится на грани вымирания. Цель киборга: убить девушку по имени Сара Коннор, чей ещё нерождённый сын к 2029 году выиграет войну человечества с машинами. Цель Риза: спасти Сару и остановить Терминатора любой ценой.

Страна: США
Продолжительность: 01:47:32
Перевод: Дублированный, Blu-ray CEE
Субтитры: Russian, English
Файл
Формат: Matroska
Качество: WEB-DLRip-AVC | Remastered | Open Matte
Видео: 1024x576 at 23.976 fps, x264, ~3427 kbps
Аудио: AC3, 6 ch, ~448 kbps - | Русский | -
Формат субтитров: softsub (SRT)

M/I

x264 [info]: frame I:991 Avg QP:16.57 size: 63416
x264 [info]: frame P:37600 Avg QP:17.83 size: 33327
x264 [info]: frame B:116115 Avg QP:19.71 size: 12137
x264 [info]: consecutive B-frames: 2.7% 3.9% 9.0% 33.9% 19.3% 24.9% 3.2% 1.7% 0.6% 0.3% 0.1% 0.1% 0.2%
General
Complete name : Терминатор.(1984).WEB-DLRip-AVC.O.M.Rmst.[-=DoMiNo=-].mkv
Format : Matroska
Format version : Version 4
File size : 2.91 GiB
Duration : 1 h 47 min
Overall bit rate : 3 875 kb/s
Encoded date : UTC 2019-08-11 17:31:55
Writing application : mkvmerge v36.0.0 ('Is That Jazz?') 64-bit
Writing library : libebml v1.3.9 + libmatroska v1.5.2
Attachments : poster.jpg / poster 2.jpg
Video
ID : 1
Format : AVC
Format/Info : Advanced Video Codec
Format profile : High@L4.1
Format settings : CABAC / 14 Ref Frames
Format settings, CABAC : Yes
Format settings, Reference : 14 frames
Codec ID : V_MPEG4/ISO/AVC
Duration : 1 h 47 min
Bit rate : 3 427 kb/s
Width : 1 024 pixels
Height : 576 pixels
Display aspect ratio : 16:9
Frame rate mode : Constant
Frame rate : 23.976 (24000/1001) FPS
Color space : YUV
Chroma subsampling : 4:2:0
Bit depth : 8 bits
Scan type : Progressive
Bits/(Pixel*Frame) : 0.242
Stream size : 2.57 GiB (88%)
Title : RIP_BY_-=DoMiNo=-
Writing library : x264 core 152 r2851 ba24899
Encoding settings : cabac=1 / ref=14 / deblock=1:-2:-2 / analyse=0x3:0x133 / me=umh / subme=11 / psy=1 / psy_rd=1.05:0.15 / mixed_ref=1 / me_range=48 / chroma_me=1 / trellis=2 / 8x8dct=1 / cqm=0 / deadzone=21,11 / fast_pskip=0 / chroma_qp_offset=-3 / threads=6 / lookahead_threads=2 / sliced_threads=0 / nr=0 / decimate=0 / interlaced=0 / bluray_compat=0 / constrained_intra=0 / bframes=12 / b_pyramid=2 / b_adapt=2 / b_bias=0 / direct=3 / weightb=1 / open_gop=0 / weightp=2 / keyint=250 / keyint_min=23 / scenecut=40 / intra_refresh=0 / rc_lookahead=40 / rc=2pass / mbtree=0 / bitrate=3427 / ratetol=1.0 / qcomp=0.70 / qpmin=0 / qpmax=69 / qpstep=4 / cplxblur=20.0 / qblur=0.5 / vbv_maxrate=50000 / vbv_bufsize=62500 / nal_hrd=none / filler=0 / ip_ratio=1.40 / pb_ratio=1.30 / aq=3:0.80
Language : English
Default : Yes
Forced : No
Audio
ID : 2
Format : AC-3
Format/Info : Audio Coding 3
Commercial name : Dolby Digital
Codec ID : A_AC3
Duration : 1 h 47 min
Bit rate mode : Constant
Bit rate : 448 kb/s
Channel(s) : 6 channels
Channel layout : L R C LFE Ls Rs
Sampling rate : 48.0 kHz
Frame rate : 31.250 FPS (1536 SPF)
Bit depth : 16 bits
Compression mode : Lossy
Stream size : 345 MiB (12%)
Title : DUB_[Blu-ray CEE]
Language : Russian
Service kind : Complete Main
Default : Yes
Forced : No
Text #1
ID : 3
Format : UTF-8
Codec ID : S_TEXT/UTF8
Codec ID/Info : UTF-8 Plain Text
Duration : 1 h 46 min
Bit rate : 44 b/s
Count of elements : 594
Stream size : 35.0 KiB (0%)
Language : Russian
Default : No
Forced : No
Text #2
ID : 4
Format : UTF-8
Codec ID : S_TEXT/UTF8
Codec ID/Info : UTF-8 Plain Text
Duration : 1 h 43 min
Bit rate : 27 b/s
Count of elements : 563
Stream size : 20.9 KiB (0%)
Language : English
Default : No
Forced : No
Menu
00:00:00.000 : en:Глава 01
00:07:30.000 : en:Глава 02
00:15:00.000 : en:Глава 03
00:22:30.000 : en:Глава 04
00:30:00.000 : en:Глава 05
00:37:30.000 : en:Глава 06
00:45:00.000 : en:Глава 07
00:52:30.000 : en:Глава 08
01:00:00.000 : en:Глава 09
01:07:30.000 : en:Глава 10
01:15:00.000 : en:Глава 11
01:22:30.000 : en:Глава 12
01:30:00.000 : en:Глава 13
01:37:30.000 : en:Глава 14
01:45:00.000 : en:Глава 15

Скриншоты

admin

Post 20-Jul-2019 06:13

[Quote]

Информация о фильме
Название: Цельнометаллическая оболочка
Оригинальное название: Full Metal Jacket
«Born to Kill»
Год выхода: 1987
Жанр: Драма, Военный
Режиссер: Стэнли Кубрик
В ролях: Мэтью Модайн, Адам Болдуин, Винсент Д`Онофрио, Р. Ли Эрми, Дориан Хэрвуд, Кевин Мейджор Ховард, Арлисс Ховард, Эд О`Росс, Джон Терри, Кирон Джеккинис
О фильме: Американская база подготовки новобранцев корпуса морской пехоты. Жесточайшая, бесчеловечная система призвана превратить домашних мальчишек в натренированных хладнокровных убийц. Их готовят к войне во Вьетнаме, где им придется часто задавать себе вопрос «Разве война — это не ад?», а иначе просто невозможно убивать каждый день, не понимая, для чего это?

Выпущено: США, Великобритания
Продолжительность: 01:56:31
Перевод: Профессиональный (многоголосый, закадровый) R5 + Оригинал (Английский)
Субтитры: Русские (2 вида), Английские.
Отдельно, http:
Авторский (одноголосый, закадровый) А. Гаврилов
48 Hz, AC3, 192 kbps, 2.0 ch
Авторский (одноголосый, закадровый) Goblin
48 Hz, AC3, 448 kbps, 5.1 ch
Авторский (одноголосый, закадровый) Goblin - поздний
48 Hz, AC3, 192 kbps, 2.0 ch
Авторский (одноголосый, закадровый) Л. Володарский
48 Hz, AC3, 448 kbps, 5.1 ch
Одноголосый (закадровый) А. Багичев
48 Hz, AC3, 448 kbps, 5.1 ch
Украинский профессиональный многоголосый перевод (ICTV)
48 Hz, AC3, 192 kbps, 2.0 ch
Файл:
Формат: AVI
Качество: BDRip (источник: BDRemux - vertex647)
Кодек: XviD, build 67 codec
Видео: 704 x 400; 23.976 fps; 1765 kbps; 0.261 bit/pixel
Аудио #1: AC3 Dolby Digital; 448 Kbps; 6 channels; 48 KHz
Аудио #2: AC3 Dolby Digital; 448 Kbps; 6 channels; 48 KHz
Размер: 2232 Mb (1/2 DVD)
Сэмпл: скачать

Скриншоты



admin

Post 17-Aug-2018 06:17

[Quote]

Информация о фильме
Название: Дом удовольствий / Интрига
Оригинальное название: Casa di piacere / Die Villa der Unersättlichen / Dirty Love 2: The Love Games
Год выпуска: 1989
Жанр: Мелодрама, эротика
Режиссер: Алекс Дамиано
В ролях: Валентина Деми, Алессандро Фрейбергер, Дэвид Д’Инжео, Алессандро Скотти, Морис Поли, Лучана Чиренеи, Элиза Майнарди, Мэри Максвелл, Людовико Делла Джо, Алессандро Марино
О фильме: Бывшая проститутка Ева, оставляет профессию, чтобы вступить в брак с одним богатым земельным собственником. Оставшись вдовой и испытывая экономические трудности, женщина тем не менее покупает у старьёвщика старый красный диван, на котором она проработала не один год, по своей прошлой профессии. С течением времени воспоминания вновь всплывают и Ева начинает приглашать в дом случайных партнеров.

Примечание: В середине отсутствует перевод (Юрий Сербин) минут пять. Вставки на пропущенные места - Николай Золотухин
Страна: Италия
Студия: Natmas Productions
Продолжительность: 01:33:59
Перевод: Авторский (одноголосый) Юрий Сербин, Антон Алексеев
Файл
Кодек: XviD
Качество: DVDRip
Видео: 1856 Кбит/с, 704x528
Звук: AC3, 2 ch, 192 Кбит/с
Внимание фильм содержит сцены эротического характера +18

Скриншоты



Аудио:

Перевод 1:
Авторский (одноголосый) Юрий Сербин
Дорожка с Ю. Сербиным синхронизирована, ремастерирована и наложена ale_x2008 при помощи Sony Vegas и VirtualDubMod
За оцифрованную с VHS дорожку благодарим Glowamy
В середине отсутствует перевод минут пять
Вставки на пропущенные места - Николай Золотухин
Перевод 2:
Авторский (одноголосый) Антон Алексеев
Дорожка с А. Алексеевым синхронизирована и наложена ale_x2008 при помощи Sony Vegas и VirtualDubMod
За предоставленную дорожку благодарим oops1974

admin

Post 07-Jul-2018 20:24

[Quote]

Информация о фильме
Название: Потерпевшие кораблекрушение / Отверженные
Оригинальное название: Castaway
Год выхода: 1986
Жанр: драма, приключения
Режиссер: Николас Роуг
В ролях: Оливер Рид, Аманда Донохью, Джорджина Хейл, Фрэнсис Барбер, Тони Рикардс, Тодд Риппон, Джон Сессионс, Вирджиния Хей, Сорел Джонсон, Лен Пейхопа
О фильме:
"Представьте: Лондон, холодно, дождь, сыро и противно. Что еще сделать девушке, как не ответить на письмо в газете от мужчины, ищущего жену пожить год на тропическом острове?
Новичок в кино, Аманда Донохью полфильма щеголяет голышом без бикини под солнышком, и она хорошо справляется с характером, чьи мотивы для поездки на крохотный необитаемый остров остаются двусмысленными. Фильм "Потерпевшие кораблекрушение" основан на двух непридуманных книгах - книга Люси Ирвин называется Отверженный, а книга Джералда Кингслэнда - Островитянин. Режиссер пытается проложить дорожку между двумя конфликтующими версиями на экране.Рид выдает лучшую в своей карьере роль сексуально разочарованного мужчины средних лет в поисках солнца и секса. Его прекрасно дополняет Аманда Донохью, решительный, но недоступный объект его сладострастия. Операторская работа великолепна (особенно подводные съемки)" © М. Иванов

Страна: Великобритания
Студия: Cannon Screen Entertainment, Castaway Films, United British Artists (UBA)
Продолжительность: 01:51:59
Перевод: Авторский (одноголосый) Григорий Либергал
Файл
Кодек: XviD
Качество: HDTVRip
Видео: 720x384 (1.88:1), 25 fps, XviD build 50 ~1650 kbps avg, 0.24 bit/pixel
Звук: 48 kHz, AC3 Dolby Digital, 2 ch, ~192.00 kbps avg
Субтитры: нет

Скриншоты

admin

Post 04-Jun-2018 07:45

[Quote]

Информация о фильме
Название: Королевская шлюха
Оригинальное название: La putain du roi / The king's whore
Год выхода: 1990
Жанр: драма, мелодрама, история
Режиссер: Аксель Корти
В ролях: Тимоти Далтон, Валерия Голино, Стефан Фрейсс, Робин Ренуччи, Леонардо Рута, Маргарет Тайзек, Элеанор Дэвид, Поль Кроше, Эми Верба, Франко Валобра, Луиджи Бонос, Элизабет Каза, Леа Падовани, Анна Бонаюто, Фёдор Шаляпин мл.
О фильме:
Действие фильма происходит в XVII веке. Граф Алессандро Веруа, пребывая во Франции, находит себе жену — красавицу Жанну Баптиста де Люинь, из знатного, но обедневшего рода, вместе с которой возвращается обратно на родину в королевство Пьемонт. Счастливый союз оказывается под угрозой, после того, как Жанна оказывается представлена королю Пьемонта — Витторио Амадео II. Витторио поражён красотой женщины и с этих пор желает лишь одного — обладать ею. Алессандро приходится столкнуться с давлением всего королевского двора, принуждающего его удовлетворить королевское желание... Когда король любит, он не может не быть первым...
Экранизация произведения Жака Турнье.
Полная версия фильма.

Каннский кинофестиваль, 1990 год
Номинации (1):
Золотая пальмовая ветвь
Благодарность smit009, Lisok, alex7691 и AlexTrud!

Страна: Великобритания, Австрия, Франция, Италия
Студия: AFC, Cinecittà, Cinema & Cinema, Cofimage, France 3 (FR 3)
Продолжительность: 02:06:50
Перевод: Профессиональный (двухголосый) + любительский (одноголосый) AlexTrud (на не переведённые ранее фрагменты около 14 мин.)
Файл
Кодек: XviD
Качество: DVDRip
Видео: 704x416 (1.69:1), 25 fps, XviD MPEG-4 ~2011 kbps avg, 0.27 bit/pixel
Звук:
1. 48 kHz, AC3 Dolby Digital, 2/0 (L,R) ch, ~192 kbps - рус.
2. 48 kHz, AC3 Dolby Digital, 2/0 (L,R) ch, ~192 kbps - fre.
Субтитры: русские (внешние) Lisok (только на не переведённые ранее фрагменты около 14 мин.)

Оригинальный постер

mihis

Post 11-Apr-2018 20:07

[Quote]

Охота за «Красным Октябрем» / The Hunt for Red October«The hunt is on.»Год выпуска: 1990
Страна: США, Paramount Pictures, Mace Neufeld Productions, Nina Saxon Film Design
Жанр: Боевик, триллер, приключения
Продолжительность: 02:15:08
Перевод: Профессиональный (многоголосый, закадровый) BD CEE,SuperBit + Авторский (одноголосый, закадровый) А. Гаврилов + Оригинал
Субтитры: Английские
Режиссер: Джон МакТирнан
В ролях: Шон Коннери, Алек Болдуин, Скотт Гленн, Сэм Нилл, Джеймс Эрл Джонс, Джосс Экланд, Ричард Джордан, Питер Фёрт, Тим Карри, Кортни Б. Вэнс, Стеллан Скарсгард, Джеффри Джонс, Тимоти Кархарт, Ларри Фергюсон, Фред Далтон Томпсон, Дэниэл Дэвис, Нед Вон, Энтони Пек, Mark Draxton, Том Фишер, Пит Антико
Описание: Экранизация одноимённого романа Тома Клэнси. В основе фильма лежит вымышленная история угона за рубеж советской атомной подводной лодки. Капитан сделавший карьеру в советском флоте, намеревается бежать в США на экспериментальной подводной лодке «Красный Октябрь», которой он командует. Лодка относится к типу «Тайфун» и оснащена революционной двигательной установкой. Главной особенностью двигателя является его очень низкая шумность, делающая обнаружение лодки крайне затруднительным. Подводная лодка способна скрытно подойти к побережью США и выпустить ракеты, не оставляя противнику времени на ответные действия. Кроме политических мотивов, Рамиусом движут трагические обстоятельства личной жизни — смерть жены Натальи, погибшей из-за врачебной ошибки. Виновный в её смерти врач избегает ответственности, так как является сыном члена Политбюро.

Качество: BDRip-AVC
Формат: MKV
Видео кодек: H.26x
Аудио кодек: AC3
Видео: MPEG-4 AVC, 2300 Кбит/с, 1024x436, 23,976 кадр/сек
Аудио: AC3, 6 ch, 448 Кбит/c MVO,AVO,Eng

Награды

Сатурн, 2004 год
Номинации (1):
Лучшая DVD-коллекция — «For The Jack Ryan Special Edition DVD Collection»
Оскар, 1991 год
Победитель (1):
Лучший монтаж звука
Номинации (2):
Лучший звук
Лучший монтаж
Британская академия, 1991 год
Номинации (3):
Лучшая мужская роль (Шон Коннери)
Лучший звук
Лучшая работа художника-постановщика

Скриншоты

mihis

Post 11-Apr-2018 20:03

[Quote]

Однажды в Америке / Once Upon a Time in America
Год выпуска: 1984
Страна: США, Италия
Выпущено: Embassy International Pictures, США
Продолжительность: 03:49:19
Жанр: Криминальная драма
Перевод: Профессиональный (многоголосый, закадровый) - "Киномания"
Режиссер: Сержио Леоне
В ролях: Роберт Де Ниро, Джеймс Вудс, Элизабет МакГоверн, Тьюсдей Велд, Трит Уильямс, Джеймс Хэйден, Джо Пеши, Ларри Рэпп, Дэнни Айелло, Уильям Форсит, Берт Янг, Дарланн Флюгель, Датч Миллер, Роберт Харпер, Ричард Брайт
Описание: В бурные двадцатые годы, когда Америка веселилась под звуки джаза и каждый бродяга мечтал стать миллионером, в трущобах Нью-Йорка встретились несколько отчаянных парней. Не желая быть как все, в стремлении добиться успеха и свято веря в свое братство, они нагло проворачивали хитроумные аферы, убирали с пути конкурентов и безжалостно карали предателей, став в конце концов королями преступного мира эпохи сухого закона. Еще в юности они поклялись отдать жизнь друг за друга, сознавая, что самое главное для них - дружба, которую нельзя утопить в реках крови, в бездонном океане денег. Но время проходит, унося с собой юность и ее идеалы...
Спустя много лет судьба жестоко обошлась с легендарными гангстерами, заставив их исполнить свою клятву. Это случилось однажды в Америке...

Качество: HDRip

Формат: AVI
Видео кодек: XviD
Аудио кодек: AC3
Видео: 688x384 (1.79:1), 23.976 fps, XviD build 50 ~1166 kbps avg, 0.18 bit/pixel
Аудио: 48 kHz, AC3 Dolby Digital, 2/0 (L,R) ch, ~192.00 kbps avg

Награды

Золотой глобус, 1985 год
Номинации (2):
Лучший режиссер (Серджио Леоне)
Лучший саундтрек
Британская академия, 1985 год
Победитель (2):
Лучшие костюмы
Лучший саундтрек
Номинации (3):
Лучшая женская роль второго плана (Тьюзди Уэлд)
Лучший режиссер (Серджио Леоне)
Лучшая работа оператора

Скриншоты

mihis

Post 11-Apr-2018 19:53

[Quote]

Миссисипи в огне / Mississippi Burning«1964. When America was at war with itself.»Год выпуска: 1988
Страна: США, Orion Pictures Corporation
Жанр: Триллер, драма, криминал, детектив
Продолжительность: 02:06:46
Перевод: Профессиональный (полное дублирование) (Советский дубляж) + Профессиональный двухголосый + Авторский одноголосый (Юрий Сербин) + Оригинал
Режиссер: Алан Паркер
В ролях: Джин Хэкмен, Уиллем Дефо, Фрэнсис МакДорманд, Брэд Дуриф, Р. Ли Эрми, Гейлард Сартейн, Стивен Тоболовски, Майкл Рукер, Прюитт Тэйлор Винс, Баджа Джола, Кевин Данн, Фрэнки Фэйзон, Том Мэйсон, Джеффри Ноффтс, Рик Зефф, Кристофер Уайт, Глэдис Грир, Джэйк Гипсон, Дайян Ланкастер
Описание: Фильм основан на реальных событиях того времени. Миссисипи 1964 г. Пропажа трех борцов за права человека поднимает волну массовых беспорядков. Два агента ФБР — Андерсон и Уорд получают задание — расследовать дело. Жена местного помощника шерифа открывает секрет, бросающий тень на главных людей в городе, делая тех участниками кровавого заговора. Но это не останавливает Андерсона, агента с многолетним опытом. Он знает, что иногда для достижения цели необходимо преступить закон...

Качество: HDTVRip-AVC
Формат: MKV
Видео кодек: H.26x
Аудио кодек: AC3
Видео: MPEG-4 AVC, 1024x554, 2850 Кбит/с, 23.976 кадр/с
Аудио: AC3, 2 ch, 192 Кбит/с Dub, DVO, AVO
Аудио: AC3, 2 ch, 384 Кбит/с Eng

Награды

4 приза Национального совета обозревателей — за лучший англоязычный фильм, режиссуру, главную мужскую роль и второплановую женскую роль (Фрэнсис МакДорменд).
Британская академия, 1990 год
Победитель (3):
Лучшая работа оператора
Лучший звук
Лучший монтаж
Номинации (2):
Лучший режиссер (Алан Паркер)
Лучший саундтрек
Оскар, 1989 год
Победитель (1):
Лучшая работа оператора
Номинации (6):
Лучший фильм
Лучшая мужская роль (Джин Хэкмен)
Лучшая женская роль второго плана (Фрэнсис МакДорманд)
Лучший режиссер (Алан Паркер)
Лучший звук
Лучший монтаж
Золотой глобус, 1989 год
Номинации (4):
Лучший фильм (драма)
Лучшая мужская роль (драма) (Джин Хэкмен)
Лучший режиссер (Алан Паркер)
Лучший сценарий
Берлинский кинофестиваль, 1989 год
Победитель (1):
Серебряный Медведь за лучшую мужскую роль (Джин Хэкмен)
Номинации (1):
Золотой Медведь

Скриншоты

mihis

Post 11-Apr-2018 19:43

[Quote]

Вдали от дома / Miles from Home
Год выпуска: 1988
Страна: США, Braveworld Productions, J&M Entertainment
Жанр: Криминальная драма
Продолжительность: 01:43:33
Перевод: Профессиональный (двухголосый, закадровый) НТВ+
Субтитры: Нет
Режиссер: Гэри Синиз
В ролях: Ричард Гир, Брайан Деннехи, Пенелопа Энн Миллер, Хелен Хант, Джейсон Кэмпбелл, Остин Бемгарнер, Ларри Полинг, Кевин Андерсон, Терри Кинни, Френсис Гуинан, Джудит Айви, Роберт Отис, Лори Меткаф, Джон Малкович, Майкл Толбот, Джеймс Клэнси
Описание: 20 лет ферма Робертсов процветала, но после смерти отца дела семьи пришли в упадок. И когда банк за долги решил отнять ферму, братья Фрэнк и Терри сожгли ее и пустились в бега. Но однажды, переступив опасную черту, остановиться будет очень сложно.

Качество: HDTVRip
Формат: AVI
Видео кодек: XviD
Аудио кодек: AC3
Видео: 720x400 (1.80:1), 25 fps, XviD build 50 ~1799 kbps avg, 0.25 bit/pixel
Аудио: 48 kHz, AC3 Dolby Digital, 2/0 (L,R) ch, ~192 kbps

Награды

Каннский кинофестиваль, 1988 год
Номинации (1):
Золотая пальмовая ветвь

MediaInfo

Общее
Полное имя : D:\Video\Вдали от дома - Miles from Home [Rip by Ledy_X].avi
Формат : AVI
Формат/Информация : Audio Video Interleave
Размер файла : 1,45 Гбайт
Продолжительность : 1 ч. 43 м.
Общий поток : 2002 Кбит/сек
Название фильма : Вдали от дома - Miles from Home [Rip by Ledy_X]
Режиссёр : Rip by Ledy_X
Программа кодирования : VirtualDubMod 1.5.10.3 | www.virtualdub-fr.org || (build 2550/release)
Правообладатель : Edich2
Примечание : RuTracker.org
Видео
Идентификатор : 0
Формат : MPEG-4 Visual
Профиль формата : Advanced Simple@L5
Параметр BVOP формата : 2
Параметр QPel формата : Нет
Параметр GMC формата : Без точки перехода
Параметр матрицы формата : Выборочная
Идентификатор кодека : XVID
Идентификатор кодека/Подсказка : XviD
Продолжительность : 1 ч. 43 м.
Битрейт : 1800 Кбит/сек
Ширина : 720 пикселей
Высота : 400 пикселей
Соотношение сторон : 16:9
Частота кадров : 25,000 кадров/сек
Цветовое пространство : YUV
Субдискретизация насыщенности : 4:2:0
Битовая глубина : 8 бит
Тип развёртки : Прогрессивная
Метод сжатия : С потерями
Бит/(Пиксели*Кадры) : 0.250
Размер потока : 1,30 Гбайт (90%)
Библиотека кодирования : XviD 1.2.1 (UTC 2008-12-04)
Аудио
Идентификатор : 1
Формат : AC-3
Формат/Информация : Audio Coding 3
Расширение режима : CM (complete main)
Параметр Endianness формата : Big
Идентификатор кодека : 2000
Продолжительность : 1 ч. 43 м.
Вид битрейта : Постоянный
Битрейт : 192 Кбит/сек
Каналы : 2 канала
Расположение каналов : Front: L R
Частота : 48,0 КГц
Битовая глубина : 16 бит
Метод сжатия : С потерями
Размер потока : 142 Мбайт (10%)
Выравнивание : Разделение по промежуткам
Продолжительность промежутка : 40 мс. (1,00 видеокадр)
Время предзагрузки промежутка : 500 мс.

Скриншоты

admin

Post 21-Feb-2018 22:15

[Quote]

Грейстоук: Легенда о Тарзане, повелителе обезьянGreystoke: The Legend of Tarzan, Lord of the Apes«A legendary hero - and the tale that's never been told!»

Страна: Великобритания, США
Жанр: Драма, приключения
Год выпуска: 1984
Продолжительность: 02:17:00
Перевод: Профессиональный (дублированный) Bluray
Перевод 2: Авторский (одноголосый закадровый) Леонид Володарский
Субтитры: русские, английские
Оригинальная аудиодорожка: английский
Режиссер: Хью Хадсон / Hugh Hudson
В ролях: Кристофер Ламберт, Энди МакДауэлл, Ральф Ричардсон, Иэн Холм, Джеймс Фокс, Шерил Кэмпбелл, Иэн Чарлсон, Найджел Девенпорт, Николас Фэррел, Пол Джефри
Описание: Мальчик, выросший среди диких обезьян, возвращается к людям, чтобы заявить свои права на жизнь среди людей. Удивительная сага о Тарзане, созданная писателем Эдгаром Райсом Берроузом, - это волнующий рассказ о столкновении двух миров, дикого и цивилизованного.
Доп. информация:
Релиз группы:
Автор рипа: IVAN@190282
Качество видео: BDRip-AVC Greystoke: The Legend of Tarzan, Lord of the Apes (1984) Blu-ray- (Custom) 1080p AVC DD2.0
Формат видео: MKV
Видео: 1080x450 (2:40:1), 23,976 fps, 4312 Кbps, 0.370 bit/pixe
Аудио: 48 kHz, AC3 Dolby Digital, 2/0 (L,R) ch, ~192.00 kbps avg DUB
Аудио 2: 48 kHz, AC3 Dolby Digital, 2/0 (L,R) ch, ~192.00 kbps avg AVO
Аудио 3: 48 kHz, AC3 Dolby Digital, 3/2 (L,C,R,l,r) + LFE ch, ~448.00 kbps avg ENG
Формат субтитров: softsub (SRT)
Доп. информация о субтитрах: отключаемые srt

Знаете ли Вы что..

Сценарист Роберт Таун первоначально должен был стать и режиссёром картины, но был отстранён от дела после полного провала его режиссёрского дебюта, спортивной драмы «Личный лучший» (1982). В негодовании от этого и к тому же будучи разочарованным получившимся фильмом, Роберт Таун потребовал, чтобы в титрах в качестве автора сценария была указана его собака P.H. Vazak. По иронии судьбы P.H. Vazak получил номинацию американской Киноакадемии за лучший адаптированный сценарий года.
СПОЙЛЕРОШИБКА
Первая англоязычная роль Кристофера Ламберта, выросшего в Швейцарии и Франции в семье американского дипломата.
Британский актёр Ральф Ричардсон, который сыграл роль старого лорда Грейстоука, скончался вскоре после окончания съёмок 10 октября 1983 года. Впоследствии он был посмертно номинирован на награду американской Киноакадемии за лучшую роль второго плана, а фильм был посвящён его памяти.
Первый фильм, снятый в формате Super 35.
Актёрский дебют американской актрисы Энди МакДауэлл.
На роль Джейн Портер в какой-то момент претендовала Бриджитт Нильсен.
Одним из продюсеров картины должен был стать Дэвид Путтнэм, который отказался от участия в проекте из-за серьёзных креативных разногласий с Хью Хадсоном.
Хотя имя «Тарзан» присутствует в названии («Грейстоук: Легенда о Тарзане, повелителе обезьян») оно ни разу не упоминается в самом фильме. Во всех случаях к главному герою обращаются либо Джон, либо лорд Грейстоук.
Съёмки фильма проходили в национальном парке Корут в Камеруне, Англии (графства Оксфордшир и Хертфордшир) и шотландском замке Floors Castle.
Дэнни Поттс (Тарзан в 5 лет) и Эрик Ланглуа (Тарзан в 12 лет) снялись полностью обнажёнными во всех своих сценах.
Все диалоги Энди МакДауэлл (Джейн) на стадии пост-продакшна были дублированы Гленн Клоуз по причине сильного южного акцента актрисы, который посчитали неприемлемым для её персонажа.
В кастинге на роль Тарзана участвовало 400 претендентов. Режиссёр выбрал молодого неизвестного французского актера Кристофа Ламбера, внешний вид которого сочетал в себе черты свободолюбивого дикаря Тарзана и врожденный аристократизм графа Грейстока. Хадсон поставил перед актером жесткие условия — за полгода накачать мышцы, научиться лазать по лианам и избавиться от французского акцента.
Так как это была первая английская роль Кристофа Ламбера, он взял себе псевдоним для англоязычных стран — Кристофер Ламберт.
Часть африканских сцен были сняты в национальном парке Koруп на юго-западе Камеруна среди пышных тропических лесов. Изящный двухструйный водопад Эком, перепад высот которого достигает 100 метров, присутствует во многих кадрах фильма, в том числе и в финале.
Для показа роскошного убранства фамильного замка Грейсток были сняты следующие английские достопримечательности. Внешнй вид особняка — замок Флорс Келсо в Шотландии. Сцены внутри — особняк Хатфилд в Хартфордшире.
Джон Клейтон (имя Тарзан никогда не упоминается в фильме), открывает «Грейсток экспозицию» в лондонском музее естественной истории, в главном зале динозавров.

MediaInfo

General
Unique ID : 210228912955071832687804727631695309281 (0x9E289DA93CE574389EA0625F507FE9E1)
Complete name : F:\Мои рипы\Грейстоук Легенда о Тарзане повелителе обезьян\Greystoke The Legend of Tarzan, Lord of the Apes by_IVAN@190282.mkv
Format : Matroska
Format version : Version 4 / Version 2
File size : 5.02 GiB
Duration : 2h 17mn
Overall bit rate : 5 244 Kbps
Movie name : Greystoke The Legend of Tarzan, Lord of the Apes by_IVAN@190282
Encoded date : UTC 2018-02-21 18:44:55
Writing application : mkvmerge v17.0.0 ('Be Ur Friend') 64-bit
Writing library : libebml v1.3.5 + libmatroska v1.4.8
DURATION : 02:14:59.717000000
NUMBER_OF_FRAMES : 914
NUMBER_OF_BYTES : 25418
_STATISTICS_WRITING_APP : mkvmerge v17.0.0 ('Be Ur Friend') 64-bit
_STATISTICS_WRITING_DATE_UTC : 2018-02-21 18:44:55
_STATISTICS_TAGS : BPS DURATION NUMBER_OF_FRAMES NUMBER_OF_BYTES
Attachment : Yes
Video
ID : 1
Format : AVC
Format/Info : Advanced Video Codec
Format profile : High@L4.1
Format settings, CABAC : Yes
Format settings, ReFrames : 11 frames
Codec ID : V_MPEG4/ISO/AVC
Duration : 2h 17mn
Bit rate : 4 308 Kbps
Width : 1 080 pixels
Height : 450 pixels
Display aspect ratio : 2.40:1
Frame rate mode : Constant
Frame rate : 23.976 fps
Color space : YUV
Chroma subsampling : 4:2:0
Bit depth : 8 bits
Scan type : Progressive
Bits/(Pixel*Frame) : 0.370
Stream size : 4.12 GiB (82%)
Title : Greystoke The Legend of Tarzan, Lord of the Apes by_IVAN@190282
Writing library : x264 core 155 r2901 7d0ff22
Encoding settings : cabac=1 / ref=11 / deblock=1:-3:-3 / analyse=0x3:0x113 / me=umh / subme=11 / psy=1 / psy_rd=1.00:0.05 / mixed_ref=1 / me_range=48 / chroma_me=1 / trellis=2 / 8x8dct=1 / cqm=0 / deadzone=21,11 / fast_pskip=0 / chroma_qp_offset=-3 / threads=6 / lookahead_threads=6 / sliced_threads=0 / nr=0 / decimate=1 / interlaced=0 / bluray_compat=0 / constrained_intra=0 / bframes=16 / b_pyramid=2 / b_adapt=2 / b_bias=0 / direct=3 / weightb=1 / open_gop=0 / weightp=2 / keyint=240 / keyint_min=23 / scenecut=40 / intra_refresh=0 / rc_lookahead=60 / rc=crf / mbtree=0 / crf=17.5 / qcomp=0.60 / qpmin=0 / qpmax=69 / qpstep=4 / vbv_maxrate=50000 / vbv_bufsize=62500 / crf_max=0.0 / nal_hrd=none / filler=0 / ip_ratio=1.40 / pb_ratio=1.30 / aq=3:0.80
Language : English
Default : Yes
Forced : No
Color primaries : BT.709
Transfer characteristics : BT.709
Matrix coefficients : BT.709
DURATION : 02:17:00.254000000
NUMBER_OF_FRAMES : 197089
NUMBER_OF_BYTES : 4530929619
_STATISTICS_WRITING_APP : mkvmerge v17.0.0 ('Be Ur Friend') 64-bit
_STATISTICS_WRITING_DATE_UTC : 2018-02-21 18:44:55
_STATISTICS_TAGS : BPS DURATION NUMBER_OF_FRAMES NUMBER_OF_BYTES
Audio #1
ID : 2
Format : AC-3
Format/Info : Audio Coding 3
Format profile : Dolby Digital
Mode extension : CM (complete main)
Format settings, Endianness : Big
Codec ID : A_AC3
Duration : 2h 17mn
Bit rate mode : Constant
Bit rate : 192 Kbps
Channel(s) : 2 channels
Channel positions : Front: L R
Sampling rate : 48.0 KHz
Bit depth : 16 bits
Compression mode : Lossy
Stream size : 188 MiB (4%)
Title : Dub Bluray
Language : Russian
Default : Yes
Forced : No
Audio #2
ID : 3
Format : AC-3
Format/Info : Audio Coding 3
Mode extension : CM (complete main)
Format settings, Endianness : Big
Codec ID : A_AC3
Duration : 2h 17mn
Bit rate mode : Constant
Bit rate : 192 Kbps
Channel(s) : 2 channels
Channel positions : Front: L R
Sampling rate : 48.0 KHz
Bit depth : 16 bits
Compression mode : Lossy
Stream size : 188 MiB (4%)
Title : Avo Леонид Володарский
Language : Russian
Default : No
Forced : No
Audio #3
ID : 4
Format : AC-3
Format/Info : Audio Coding 3
Mode extension : CM (complete main)
Format settings, Endianness : Big
Codec ID : A_AC3
Duration : 2h 17mn
Bit rate mode : Constant
Bit rate : 448 Kbps
Channel(s) : 6 channels
Channel positions : Front: L C R, Side: L R, LFE
Sampling rate : 48.0 KHz
Bit depth : 16 bits
Compression mode : Lossy
Stream size : 439 MiB (9%)
Title : Eng
Language : English
Default : No
Forced : No
Text #1
ID : 5
Format : UTF-8
Codec ID : S_TEXT/UTF8
Codec ID/Info : UTF-8 Plain Text
Title : Rus
Language : Russian
Default : No
Forced : No
Text #2
ID : 6
Format : UTF-8
Codec ID : S_TEXT/UTF8
Codec ID/Info : UTF-8 Plain Text
Title : Eng SDH
Language : English
Default : No
Forced : No
Menu
00:00:00.000 : en:Overture
00:01:41.100 : en:Jungle Storm Prologue
00:03:37.926 : en:Greystoke Estate Credits
00:05:52.185 : en:Farewells
00:08:40.478 : en:Shipwrecked
00:11:14.590 : en:Death of the Claytons
00:16:04.838 : en:Aopted by Apes
00:18:53.006 : en:Age 5; Panther Attack
00:22:55.874 : en:Age 12; Beaten by White Eyes
00:27:50.460 : en:Kala Mortally Wounded
00:32:18.853 : en:An Expedition; Day's Sport
00:37:13.648 : en:The Treehouse; Attacked
00:41:54.929 : en:D'Arnot Meets Tarzan
00:44:56.110 : en:White Eyes vs. Silverbeard
00:49:41.311 : en:Tarzan vs. White Eyes
00:53:28.872 : en:Singing Lesson
00:55:54.976 : en:Shaving and Mimicry
00:59:53.881 : en:New Identity
01:04:40.501 : en:Edge of Civilization
01:09:12.064 : en:D'Arnot Menaced
01:13:34.076 : en:Greystoke at a Glance
01:17:00.907 : en:Getting Acquainted
01:20:31.409 : en:Dinner With the Animal Kingdom
01:24:52.337 : en:Au Revoir; Restless Night
01:28:47.572 : en:Jane's Tutelage
01:31:58.387 : en:Lord Esker Proposes
01:34:52.019 : en:A Lot to Learn
01:36:04.341 : en:Out With Lord Greystoke
01:38:31.906 : en:Christmas Eve Festivity
01:41:44.932 : en:Fatal Mischief
01:46:33.261 : en:Man With No Home
01:52:07.637 : en:Lovers
01:55:25.919 : en:Greystoke Gallery
01:58:10.917 : en:Unhappy Reunion
02:05:33.734 : en:His Place In Society?
02:10:56.598 : en:Home
02:13:18.657 : en:End Credits

x264 log

VIDEO ENCODING
x264 [info]: frame I:1361 Avg QP:15.63 size: 92286 PSNR Mean Y:45.03 U:47.59 V:47.99 Avg:45.77 Global:45.20
x264 [info]: frame P:39510 Avg QP:17.01 size: 40699 PSNR Mean Y:43.25 U:46.37 V:46.94 Avg:44.10 Global:43.47
x264 [info]: frame B:156218 Avg QP:19.31 size: 17906 PSNR Mean Y:42.06 U:45.88 V:46.68 Avg:43.03 Global:42.41
x264 [info]: consecutive B-frames: 1.7% 2.4% 4.6% 18.5% 17.7% 31.3% 10.0% 5.1% 3.8% 1.8% 1.2% 0.6% 0.5% 0.4% 0.1% 0.1% 0.2%
x264 [total]: encoded 197089 frames, 1.35 fps, 4409.53 kb/s

Скриншот c названием фильма

Скриншоты

Сравнения с исходником

Source by_IVAN@190282 http://screenshotcomparison.com/comparison/132411/picture:0
Убедительная просьба пожалуйста кто скачал не бросайте раздачу!!!

admin

Post 15-Feb-2018 06:11

[Quote]

Информация о фильме
Название: Проезжайте мимо / Повернитесь, ничего не видно!
Оригинальное название: Circulez y a rien à voir!
Год выхода: 1983
Жанр: комедия
Режиссер: Патрис Леконт
В ролях: Джейн Биркин, Мишель Блан, Жак Вильре, Мишель Робб, Доминик Фэсс, Гаэлль Легран, Луис Рего, Алан Эдейр, Мартен Ламотт, Уилфрид Дерри
О фильме:
Полицейский Леру — лысый коротышка и большой чудак! А с чудаками, как известно, вечно что-нибудь случается. Наш герой влюбляется в шикарную даму Элен Дювернье. Да вот беда — она не обращает на него внимания! Но полицейскому терпения не занимать. Он берётэту «крепость» измором. Леру преследует девушку днём и ночью и, как всегда, попадает в историю, но на этот раз криминальную. Теперь он вынужден скрывать преступление Элен и даже прятать труп. Чего только ни сделаешь ради любви!..

Страна: Франция
Студия: Films A2, Les Films Christian Fechner
Продолжительность: 01:24:43
Перевод: Профессиональный (двухголосый) ОРТ
Файл
Кодек: XviD
Качество: DVDRip
Видео: 720x432 (1.67:1), 25 fps, XviD build 50 ~2058 kbps avg, 0.26 bit/pixel
Звук:
1. 48 kHz, AC3 Dolby Digital, 2/0 (L,R) ch, ~192 kbps - рус.
2. 48 kHz, AC3 Dolby Digital, 2/0 (L,R) ch, ~192 kbps - fre.
Субтитры: нет

admin

Post 10-Dec-2017 04:17

[Quote]

Информация о фильме
Название: Полет навигатора
Оригинальное название: Flight of the Navigator
Год выхода: 1986
Жанр: Фантастика, приключения, семейный
Режиссер: Рэндэл Клайзер
В ролях: Джои Крамер, Пол Рубенс, Вероника Картрайт, Клифф Де Янг, Сара Джессика Паркер, Мэтт Адлер, Ховард Хессеман, Роберт Смолл, Элби Уайтакер, Джонатан Сэнгер, Ирис Экер, Ричард Либерти, Рэймонд Форчион, Синтия Сакелин, Тед Бартщ, Жизелль Эллиотт, Бриджид Клири, Майкл Страно, Пэрррис Бакнер, Робин Питерсон
О фильме :
Дэвиду было всего двенадцать, когда его объявили пропавшим без вести. Через долгих восемь лет он вернулся, также внезапно, как когда-то пропал. Дэвид совсем не изменился за это время. Сразу после его появления в окрестностях города обнаруживают НЛО. И это совсем не случайность. Все эти годы мальчик провел у инопланетян и получил огромное количество знаний, которыми не обладает ни один человек в мире. Кроме всего этого, Дэвид стал отличным пилотом космического корабля, на котором он может отправиться в любую точку вселенной. Он уже не может прожить без приключений, вот и на этот раз, на своем корабле он отправляется в очередное путешествие...

Страна: США, Норвегия
Студия: New Star, Producers Sales Organization (PSO), Viking Films, Walt Disney Pictures
Продолжительность: 01:29:33
Перевод: Профессиональный (полное дублирование) | Киностудия им. Горького
Файл
Формат: MKV
Качество: BDRip-AVC (Blu-Ray Remux 1080p)
Видео: MPEG-4 AVC, 752x424, ~ 1087 Кбит/с
Аудио: AAC-LC, 2 ch, ~ 76 Кбит/с
Субтитры: Русские, украинские, английские

MI

Общее
Уникальный идентификатор : 198807397627493790733713069469139830915 (0x9590E97A834FA79A94F167E148558883)
Полное имя : D:MOVIESFlight of the Navigator.1986.ExKinoRay.mkv
Формат : Matroska
Версия формата : Version 4 / Version 2
Размер файла : 747 Мбайт
Продолжительность : 1 ч. 29 м.
Общий поток : 1165 Кбит/сек
Дата кодирования : UTC 2017-12-09 19:05:03
Программа кодирования : mkvmerge v15.0.0 ('Duel with the Devil') 64-bit
Библиотека кодирования : libebml v1.3.5 + libmatroska v1.4.5
Видео
Идентификатор : 1
Формат : AVC
Формат/Информация : Advanced Video Codec
Профиль формата : High@L4.1
Параметр CABAC формата : Да
Параметр RefFrames формата : 10 кадров
Идентификатор кодека : V_MPEG4/ISO/AVC
Продолжительность : 1 ч. 29 м.
Битрейт : 1087 Кбит/сек
Ширина : 752 пикселя
Высота : 424 пикселя
Соотношение сторон : 16:9
Режим частоты кадров : Постоянный
Частота кадров : 23,976 (24000/1001) кадра/сек
Цветовое пространство : YUV
Субдискретизация насыщенности : 4:2:0
Битовая глубина : 8 бит
Тип развёртки : Прогрессивная
Бит/(Пиксели*Кадры) : 0.142
Размер потока : 696 Мбайт (93%)
Библиотека кодирования : x264 core 152 r2851kMod ba24899
Настройки программы : cabac=1 / ref=10 / deblock=1:-3:-2 / analyse=0x3:0x133 / me=umh / subme=11 / psy=1 / fade_compensate=0.00 / psy_rd=1.00:0.15 / mixed_ref=1 / me_range=32 / chroma_me=1 / trellis=2 / 8x8dct=1 / cqm=0 / deadzone=21,11 / fast_pskip=0 / chroma_qp_offset=-3 / threads=6 / lookahead_threads=1 / sliced_threads=0 / nr=0 / decimate=0 / interlaced=0 / bluray_compat=0 / constrained_intra=0 / bframes=10 / b_pyramid=2 / b_adapt=2 / b_bias=0 / direct=3 / weightb=1 / open_gop=0 / weightp=2 / keyint=240 / keyint_min=23 / scenecut=40 / intra_refresh=0 / rc_lookahead=40 / rc=2pass / mbtree=1 / bitrate=1087 / ratetol=1.0 / qcomp=0.60 / qpmin=0 / qpmax=69 / qpstep=4 / cplxblur=20.0 / qblur=0.5 / vbv_maxrate=50000 / vbv_bufsize=62500 / nal_hrd=none / filler=0 / ip_ratio=1.40 / aq=3:1.00
Default : Да
Forced : Нет
Аудио
Идентификатор : 2
Формат : AAC
Формат/Информация : Advanced Audio Codec
Профиль формата : LC
Идентификатор кодека : A_AAC
Продолжительность : 1 ч. 29 м.
Битрейт : 76,0 Кбит/сек
Каналы : 2 канала
Расположение каналов : Front: L R
Частота : 48,0 КГц
Частота кадров : 46,875 кадров/сек (1024 SPF)
Метод сжатия : С потерями
Задержка видео : 9 мс.
Размер потока : 48,7 Мбайт (7%)
Язык : Russian
Default : Да
Forced : Нет
Текст #1
Идентификатор : 3
Формат : UTF-8
Идентификатор кодека : S_TEXT/UTF8
Идентификатор кодека/Информация : UTF-8 Plain Text
Продолжительность : 1 ч. 23 м.
Битрейт : 91 бит/сек
ElementCount : 948
Размер потока : 55,7 Кбайт (0%)
Заголовок : TEXT_01_SUB_RUS
Язык : Russian
Default : Нет
Forced : Нет
Текст #2
Идентификатор : 4
Формат : UTF-8
Идентификатор кодека : S_TEXT/UTF8
Идентификатор кодека/Информация : UTF-8 Plain Text
Продолжительность : 1 ч. 23 м.
Битрейт : 100 бит/сек
ElementCount : 983
Размер потока : 61,1 Кбайт (0%)
Заголовок : TEXT_02_SUB_UKR
Язык : Ukrainian
Default : Нет
Forced : Нет
Текст #3
Идентификатор : 5
Формат : UTF-8
Идентификатор кодека : S_TEXT/UTF8
Идентификатор кодека/Информация : UTF-8 Plain Text
Продолжительность : 1 ч. 23 м.
Битрейт : 62 бит/сек
ElementCount : 992
Размер потока : 38,3 Кбайт (0%)
Заголовок : TEXT_03_SUB_ENG
Язык : English
Default : Нет
Forced : Нет
Меню
00:00:00.000 : en:00:00:00.000
00:11:05.706 : en:00:11:05.706
00:21:46.138 : en:00:21:46.138
00:33:04.857 : en:00:33:04.857
00:39:57.186 : en:00:39:57.186
00:48:51.386 : en:00:48:51.386
01:00:58.363 : en:01:00:58.363
01:09:28.163 : en:01:09:28.163
01:19:17.752 : en:01:19:17.752
01:26:01.155 : en:01:26:01.155
01:29:32.950 : en:01:29:32.950

Скриншоты


admin

Post 08-Nov-2017 23:52

[Quote]

Информация о фильме
Название: Почти ангел
Оригинальное название: Almost an Angel
Год выхода: 1990
Жанр: драма, комедия
Режиссер: Джон Корнелл
В ролях: Пол Хоган, Элиас Котеас, Линда Козловски, Дарлин Лэнг, Дуглас Сил, Рут Варшавски, Парли Баэр, Майкл Олдредж, Дэвид Алан Грир, Ларри Миллер
О фильме:
Главный герой Терри Дин — не от мира сего, чудак и добряга! И это не смотря на то, что Терри — профессиональный грабитель, технически подкованный в электронике. «Откинулся» мистер Дин на свободу, и опять за свое! Не удержался, ограбил банк. Но происходит невероятное, он спасает из под колес автомобиля мальчика, однако ценой собственного здоровья. Сбитого грабителя везут в больницу. Находясь или в коме, или просто во сне, он разговаривает с Богом и Тот отправляет Терри обратно на Землю в качестве Ангела. Когда это видение проходит, Терри остается в убеждении, что он стал Ангелом. И это убеждение ввергает его в весьма забавные переделки...

Страна: США
Студия: Ironbark Films
Продолжительность: 01:35:22
Перевод: Любительский (одноголосый закадровый)
Профессиональный (одноголосый) Малое предприятие "Мега" со вставками перевода Андрея Лагуты
Файл
Кодек: XviD
Качество: DVDRip
Видео: 720x400 (1.80:1), 23.976 fps, XviD build 50 ~1798 kbps avg, 0.26 bit/pixel
Звук:
1. 48 kHz, AC3 Dolby Digital, 2/0 (L,R) ch, ~192 kbps - рус. (любительский)
2. 48 kHz, AC3 Dolby Digital, 2/0 (L,R) ch, ~192 kbps - рус. (профессиональный)
Субтитры: нет

admin

Post 08-Nov-2017 23:38

[Quote]

Информация о фильме
Название: Лангуст на завтрак / Омары на обед
Оригинальное название: Aragosta a colazione
Год выхода: 1979
Жанр: комедия
Режиссер: Джорджо Капитани
В ролях: Энрико Монтезано, Клод Брассёр, Джанет Агрен, Клодин Оже, Сильвия Дионисио, Роберто Делла Каза, Джефри Коплстон, Летиция Д' Аддерио, Чезаре Джелли, Адриана Инноченти
О фильме:
Марио женат на Карле, богатой деловой даме. Она уезжает на пару дней в Женеву, а у него свидание с Моник, шведской стюардессой. Рейс Карлы отменён, она направляется домой, и вот-вот застанет Марио на месте преступления. Спасает Марио его старый школьный товарищ Энрико, неудачливый продавец, пришедший убедить Марио купить у него унитаз, чтобы его не уволили. Марио подписывает заказ в обмен на то, что Энрико согласится выдать Моник за свою жену. Карла приглашает их остаться и принять участие в деловом обеде, который обслуживает жена Энрико, Матильда. Энрико весь вечер от неё прячется, Марио преследует Моник, а Карла хочет заключить сделку...

Страна: Италия, Франция
Студия: Italian International Film, U.C.E.
Продолжительность: 01:28:46
Перевод: Профессиональный (многоголосый)
Файл
Кодек: DivX
Качество: DVDRip (исходник DVD9)
Видео: 720x384 (1.88:1), 25 fps, DivX 5 ~2144 kbps avg, 0.31 bit/pixel
Звук: 48 kHz, AC3 Dolby Digital, 2/0 (L,R) ch, ~192 kbps
Субтитры: нет

admin

Post 07-Nov-2017 10:11

[Quote]

Информация о фильме
Название: Дюна
Оригинальное название: Dune
Год выхода: 1984
Жанр: Фантастика, приключения
Режиссер: Дэвид Линч
В ролях: Кайл МакЛахлан, Юрген Прохнов, Франческа Эннис, Патрик Стюарт, Ричард Джордан, Фредди Джонс, Дин Стокуэлл, Кеннет МакМиллан, Стинг, Леонардо Чимино
О фильме: Планета Арракис, также известная под названием Дюна, год 10991. Это арена борьбы между злом и благородством, мир тончайших и опаснейших интриг. Гигантские песчаные черви длиной в целую милю сторожат бесценное сокровище — меланжевую пряность, позволяющую путешествовать сквозь Пространство и Время. Тот, кто контролирует пряность, контролирует Вселенную. Народ Дюны ожидает пришествия Мессии, который поведет их на священную войну против династии злобных Харконненов. И Мессия является. Им становится юный Пол Атрейдес, сын герцога Лито, предательски убитого Харконненами с одобрения Императора. Полу предстоит великая миссия, которая навсегда изменит судьбу всей галактической империи…

Страна: США
Студия: De Laurentiis
Продолжительность: 02:16:34
Перевод: Профессиональный многоголосый (R5), (Нева-1), (СТС) / Профессиональный двухголосый (НТВ) / Авторский одноголосый (А.Гаврилов), (А.Михалёв), (Л.Володарский)
Дата релиза: 06.11.2017
Файл
Кодек: x264
Качество: BDRip-AVC
Видео: MPEG-4 AVC, 2269 Кбит/с, 1024x436
Звук: Русский (АС3, 6 ch, 448 Кбит/с), (АС3, 2 ch, 192 Кбит/с), английский (АС3, 6 ch, 448 Кбит/с)
Субтитры: Русские, английские
Семпл

Скриншоты

MediaInfo

Формат : Matroska
Размер файла : 4,61 Гигабайт
Продолжительность : 2ч 16мин
Общий поток : 4 832 Кбит/сек
Фильм : группа ExKinoRay, автор morfyi
Дата кодирования : UTC 2017-11-06 12:36:21
Программа-кодировщик : mkvmerge v5.8.0 ('No Sleep / Pillow') built on Sep 2 2012 15:37:04
Библиотека кодирования : libebml v1.2.3 + libmatroska v1.3.0
Видео
Формат : AVC
Формат/Информация : Advanced Video Codec
Профайл формата : High@L4.1
Настройка CABAC формата : Да
Настройка ReFrames формата : 13 кадры
Режим смешивания : Container profile=Unknown@4.1
Идентификатор кодека : V_MPEG4/ISO/AVC
Продолжительность : 2ч 16мин
Битрейт : 2 056 Кбит/сек
Номинальный битрейт : 2 269 Кбит/сек
Ширина : 1 024 пикс.
Высота : 436 пикс.
Соотношение кадра : 2.35
Частота кадров : 23,976 кадр/сек
Разрешение : 24 бит
Колориметрия : 4:2:0
Тип развёртки : Прогрессивная
Бит/(Пиксели*Кадры) : 0.212
Библиотека кодирования : x264 core 148 r2638 7599210
Настройки программы : cabac=1 / ref=13 / deblock=1:-3:-2 / analyse=0x3:0x113 / me=umh / subme=11 / psy=1 / psy_rd=1.00:0.15 / mixed_ref=1 / me_range=48 / chroma_me=1 / trellis=2 / 8x8dct=1 / cqm=0 / deadzone=21,11 / fast_pskip=0 / chroma_qp_offset=-3 / threads=6 / lookahead_threads=1 / sliced_threads=0 / nr=0 / decimate=0 / interlaced=0 / bluray_compat=0 / constrained_intra=0 / bframes=12 / b_pyramid=2 / b_adapt=2 / b_bias=0 / direct=3 / weightb=1 / open_gop=0 / weightp=2 / keyint=240 / keyint_min=23 / scenecut=40 / intra_refresh=0 / rc_lookahead=40 / rc=2pass / mbtree=0 / bitrate=2269 / ratetol=1.0 / qcomp=0.60 / qpmin=0 / qpmax=69 / qpstep=4 / cplxblur=20.0 / qblur=0.5 / vbv_maxrate=50000 / vbv_bufsize=62500 / nal_hrd=none / filler=0 / ip_ratio=1.40 / pb_ratio=1.30 / aq=3:1.00
Аудио #1
Формат : AC-3
Формат/Информация : Audio Coding 3
Идентификатор кодека : A_AC3
Продолжительность : 2ч 16мин
Режим расчёта битрейта : Постоянный
Битрейт : 448 Кбит/сек
Канал(ы) : 6 канала(ов)
Расположение каналов : Front: L C R, Rear: L R, LFE
Частота : 48,0 КГц
Заголовок : Профессиональный многоголосый (R5)
Язык : Russian
Аудио #2
Формат : AC-3
Формат/Информация : Audio Coding 3
Идентификатор кодека : A_AC3
Продолжительность : 2ч 16мин
Режим расчёта битрейта : Постоянный
Битрейт : 192 Кбит/сек
Канал(ы) : 2 канала(ов)
Расположение каналов : L R
Частота : 48,0 КГц
Заголовок : Профессиональный многоголосый (Нева-1)
Язык : Russian
Аудио #3
Формат : AC-3
Формат/Информация : Audio Coding 3
Идентификатор кодека : A_AC3
Продолжительность : 2ч 16мин
Режим расчёта битрейта : Постоянный
Битрейт : 192 Кбит/сек
Канал(ы) : 2 канала(ов)
Расположение каналов : L R
Частота : 48,0 КГц
Заголовок : Профессиональный многоголосый (СТС)
Язык : Russian
Аудио #4
Формат : AC-3
Формат/Информация : Audio Coding 3
Идентификатор кодека : A_AC3
Продолжительность : 2ч 16мин
Режим расчёта битрейта : Постоянный
Битрейт : 192 Кбит/сек
Канал(ы) : 2 канала(ов)
Расположение каналов : L R
Частота : 48,0 КГц
Заголовок : Профессиональный двухголосый (НТВ)
Язык : Russian
Аудио #5
Формат : AC-3
Формат/Информация : Audio Coding 3
Идентификатор кодека : A_AC3
Продолжительность : 2ч 16мин
Режим расчёта битрейта : Постоянный
Битрейт : 448 Кбит/сек
Канал(ы) : 6 канала(ов)
Расположение каналов : Front: L C R, Rear: L R, LFE
Частота : 48,0 КГц
Заголовок : Авторский одноголосый (А.Гаврилов)
Язык : Russian
Аудио #6
Формат : AC-3
Формат/Информация : Audio Coding 3
Идентификатор кодека : A_AC3
Продолжительность : 2ч 16мин
Режим расчёта битрейта : Постоянный
Битрейт : 448 Кбит/сек
Канал(ы) : 6 канала(ов)
Расположение каналов : Front: L C R, Rear: L R, LFE
Частота : 48,0 КГц
Заголовок : Авторский одноголосый (А.Михалёв)
Язык : Russian
Аудио #7
Формат : AC-3
Формат/Информация : Audio Coding 3
Идентификатор кодека : A_AC3
Продолжительность : 2ч 16мин
Режим расчёта битрейта : Постоянный
Битрейт : 192 Кбит/сек
Канал(ы) : 2 канала(ов)
Расположение каналов : L R
Частота : 48,0 КГц
Заголовок : Авторский одноголосый (Л.Володарский)
Язык : Russian
Аудио #8
Формат : AC-3
Формат/Информация : Audio Coding 3
Идентификатор кодека : A_AC3
Продолжительность : 2ч 16мин
Режим расчёта битрейта : Постоянный
Битрейт : 448 Кбит/сек
Канал(ы) : 6 канала(ов)
Расположение каналов : Front: L C R, Rear: L R, LFE
Частота : 48,0 КГц
Заголовок : Оригинал
Текст #1
Формат : UTF-8
Идентификатор кодека : S_TEXT/UTF8
Идентификатор кодека/Информация : UTF-8 Plain Text
Язык : Russian
Текст #2
Формат : UTF-8
Идентификатор кодека : S_TEXT/UTF8
Идентификатор кодека/Информация : UTF-8 Plain Text
Разделы
Язык : English
1 : 00:00:00.000 00:00:00.000
2 : 00:05:38.505 00:05:38.505
3 : 00:10:36.302 00:10:36.302
4 : 00:30:31.705 00:30:31.705
5 : 00:49:55.409 00:49:55.409
6 : 01:05:07.278 01:05:07.278
7 : 01:25:45.307 01:25:45.307
8 : 01:37:31.971 01:37:31.971
9 : 01:41:20.741 01:41:20.741
10 : 01:45:08.511 01:45:08.511
11 : 01:49:46.246 01:49:46.246
12 : 01:56:56.551 01:56:56.551
13 : 02:02:19.165 02:02:19.165
14 : 02:05:37.530 02:05:37.530
15 : 02:06:50.478 02:06:50.478
16 : 02:10:51.385 02:10:51.385
 

Current time is: 09-Jul 17:51

All times are UTC + 3