Search found 43 matches

Author Message

admin

Post 07-Apr-2022 07:24

[Quote]

Информация о фильме
Название: Слуга дьявола
Оригинальное название: The Unholy
Год выхода: 1988.
Жанр: Ужасы
Режиссер: Камило Вила
В ролях: Рубен Рабаса, Николь Фортье, Питер Фречетт, Фил Бекер, Нед Битти, Сьюзэн Берден, Лари Уайт, Джефф Д’Онофрио, Бен Кросс
Сюжет фильма:
Церковь Святой Агнессы пользуется в Новом Орлеане дурной славой. После того, как в ней во время службы погиб уже второй настоятель, ее закрыли. По слухам, в церкви орудует могущественный демон по прозвищу «Нечестивый». Противостоять ему сможет лишь священник, на котором лежит Божье благословение.
И, по мнению местного архиепископа, такой избранный есть — это молодый священник отец Майкл. Сам он не верит ни в демонов, ни в свою избранность и без малейших колебаний принимает назначение настоятелем церкви Святой Агнессы. Но в ночь перед Пасхой слуга дьявола является отцу Майклу в образе прекрасной соблазнительной женщины.
Священник не поддается искушению, и разъяренный демон предстает перед отцом Майклом во всем своем дьявольском облике.

Выпущено: США
Продолжительность: 1:42:16
Перевод: Профессиональный двухголосый закадровый | Екатеринбург Арт|
Субтитры: Нет
Файл
Формат: BDRip-AVC
Источник: [The.Unholy.1988.BDRemux.HDCLUB]
Видео: 1014x548 at 23.976 fps, High@L4.1, ~1838 kbps
Аудио: 48 kHz, AC3, 2/0 (L,R) ch, ~192 kbps

M/I

General
Unique ID : 18129118996243600934072613887247800811 (0xDA38A938E4783158EB100D28C0259EB)
Complete name : Слуга дьявола.(1988).BDRIP-AVC.[-=DoMiNo=-].mkv
Format : Matroska
Format version : Version 4 / Version 2
File size : 1.45 GiB
Duration : 1 h 42 min
Overall bit rate : 2 032 kb/s
Movie name : Слуга дьявола
Deion : Церковь Святой Агнессы пользуется в Новом Орлеане дурной славой. После того, как в ней во время службы погиб уже второй настоятель, ее закрыли. По слухам, в церкви орудует могущественный демон по прозвищу «Нечестивый». Противостоять ему сможет лишь священник, на котором лежит Божье благословение. / / И, по мнению местного архиепископа, такой избранный есть — это молодый священник отец Майкл. Сам он не верит ни в демонов, ни в свою избранность и без малейших колебаний принимает назначение настоятелем церкви Святой Агнессы. Но в ночь перед Пасхой слуга дьявола является отцу Майклу в образе прекрасной соблазнительной женщины. / / Священник не поддается искушению, и разъяренный демон предстает перед отцом Майклом во всем своем дьявольском облике.
Attachments : poster.jpg
ACTORS : Рубен Рабаса, Николь Фортье, Питер Фречетт, Фил Бекер, Нед Битти, Сьюзэн Берден, Xavier Barquet, Лари Уайт, Джефф Д’Онофрио, Бен Кросс, Хэл Холбрук, Тревор Ховард, Марта Хестер, Джон Бойлэнд, Клаудия Робинсон, Норма Дональдсон, Уильям Расс, Ирлин Кэри, Джилл Кэрролл, Энтони Динс мл., Фрэнк Барнс, Сэльма Джонс, Willemina Riley, Стивен Хэдли, Энтони Динс, Laura Pivacco, Джошуа Суссман, Дэвид Сэндерсон, Алан Вархафтиг, Сэнди Квин, Эллен Коуди, Донна Бароне, Ruth Waytz
COMPOSER : Роджер Беллон
COUNTRY : США
DATE : 1988
DIRECTOR : Камило Вила
GENRE : ужасы
IMDB_RATING : 4.90
ITUNEXTC : mpaa|R|400|
ORIGINAL_ACTORS : Ruben Rabasa, Nicole Fortier, Peter Frechette, Phil Becker, Ned Beatty, Susan Bearden, Lari White, Jeff D'Onofrio, Ben Cross, Hal Holbrook, Trevor Howard, Martha Hester, John Boyland, Claudia Robinson, Norma Donaldson, William Russ, Earleen Carey, Jill Carroll, Anthony Deans Jr., Frank Barnes, Selma Jones, Steven Hadley, Anthony Deans, Joshua Sussman, David Sanderson, Alan Warhaftig, Sandy Queen, Ellen Cody, Donna Barone
ORIGINAL_TITLE : The Unholy
PRODUCER : Мэтью Хейден, Оскар Л. Косто, Майкл Эконому, Дэн Айрлэнд, Уильям Дж. Куигли, Ванда С. Райл, Duke Siotkas, Frank D. Tolin
WRITER : Филип Йордан, Фернандо Фонсека
Video
ID : 1
Format : AVC
Format/Info : Advanced Video Codec
Format profile : High@L4.1
Format settings, CABAC : Yes
Format settings, RefFrames : 11 frames
Codec ID : V_MPEG4/ISO/AVC
Duration : 1 h 42 min
Bit rate : 1 838 kb/s
Width : 1 014 pixels
Height : 548 pixels
Display aspect ratio : 1.85:1
Frame rate mode : Constant
Frame rate : 23.976 (24000/1001) FPS
Color space : YUV
Chroma subsampling : 4:2:0
Bit depth : 8 bits
Scan type : Progressive
Bits/(Pixel*Frame) : 0.138
Stream size : 1.29 GiB (89%)
Title : RIP_BY_-=DoMiNo=-
Writing library : x264 core 152 r2851M ba24899
Encoding settings : cabac=1 / ref=11 / deblock=1:-3:-3 / analyse=0x3:0x133 / me=umh / subme=11 / psy=1 / psy_rd=1.00:0.10 / mixed_ref=1 / me_range=32 / chroma_me=1 / trellis=2 / 8x8dct=1 / cqm=0 / deadzone=21,11 / fast_pskip=0 / chroma_qp_offset=-3 / threads=6 / lookahead_threads=1 / sliced_threads=0 / nr=0 / decimate=1 / interlaced=0 / bluray_compat=0 / constrained_intra=0 / bframes=12 / b_pyramid=2 / b_adapt=2 / b_bias=0 / direct=3 / weightb=1 / open_gop=0 / weightp=2 / keyint=230 / keyint_min=23 / scenecut=40 / intra_refresh=0 / rc_lookahead=60 / rc=2pass / mbtree=1 / bitrate=1838 / ratetol=1.0 / qcomp=0.65 / qpmin=0 / qpmax=69 / qpstep=4 / cplxblur=20.0 / qblur=0.5 / ip_ratio=1.40 / aq=1:1.00
Default : Yes
Forced : No
Color range : Limited
Color primaries : BT.709
Transfer characteristics : BT.709
Matrix coefficients : BT.709
DURATION : 01:42:16.672000000
Audio
ID : 2
Format : AC-3
Format/Info : Audio Coding 3
Format settings, Endianness : Big
Codec ID : A_AC3
Duration : 1 h 42 min
Bit rate mode : Constant
Bit rate : 192 kb/s
Channel(s) : 2 channels
Channel positions : Front: L R
Sampling rate : 48.0 kHz
Frame rate : 31.250 FPS (1536 SPF)
Bit depth : 16 bits
Compression mode : Lossy
Stream size : 140 MiB (9%)
Title : P_DVO_| Екатеринбург Арт|
Language : Russian
Service kind : Complete Main
Default : Yes
Forced : No
DURATION : 01:42:16.704000000
Menu
00:00:00.000 : :Глава 1
00:08:37.600 : :Глава 2
00:17:10.945 : :Глава 3
00:28:23.952 : :Глава 4
00:37:08.809 : :Глава 5
00:46:15.105 : :Глава 6
00:55:31.202 : :Глава 7
01:01:02.867 : :Глава 8
01:11:48.679 : :Глава 9
01:21:45.859 : :Глава 10
01:28:39.397 : :Глава 11
01:38:40.581 : :Глава 12
01:42:16.672 : :Глава 13

Скриншоты

admin

Post 20-Mar-2022 07:04

[Quote]

Информация о фильме
Название: Класс 1984
Оригинальное название: Class of 1984
Год выхода: 1982
Жанр: боевик, триллер, драма, криминал
Режиссер: Марк Л. Лестер
В ролях: Перри Кинг, Мерри Линн Росс, Родди МакДауэлл, Тимоти Ван Паттен, Майкл Джей Фокс, Эл Уэксмэн
О фильме:
Банда оголтелых школьников преследует нового учителя, решившего навести в классе порядок. Озверевшие панки-школьники во главе с учеником-психопатом избивают его, а жену насилуют. Месть учителя не уступает по жестокости выходкам банды, но заметно превосходит их по изощренности.

Страна: Канада
Продолжительность: 01:38:13
Перевод: Авторский (одноголосый, закадровый) Андрей Гаврилов
Файл
Качество: BDRip-AVC [Класс 1984 (BDRemux 1080p, 1982).mkv]
Видео: High@L4.1, 1026x576 (16:9), 23.976 fps, ~2728 kbps
Аудио: AC3, 5.1 ch, 48KHz, 16-bit, 448 Kbps
Субтитры: английские

Скриншоты

M/I

x264 info: frame I:1134 Avg QP:16.93 size: 91423
x264 info: frame P:30448 Avg QP:19.17 size: 28160
x264 info: frame B:109698 Avg QP:21.40 size: 9558
x264 info: consecutive B-frames: 1.4% 1.2% 7.4% 26.6% 23.9% 35.5% 2.9% 0.6% 0.1% 0.1% 0.0% 0.1% 0.2%
General
Unique ID : 69350562848363610589747528360659444241 (0x342C6EBC940EA7B68C482FDA41F6E211)
Complete name : F:FILMSКласс_1984.(1982).BDRIP-AVC.[-=DoMiNo=-].mkv
Format : Matroska
Format version : Version 4 / Version 2
File size : 2.18 GiB
Duration : 1 h 38 min
Overall bit rate : 3 180 kb/s
Movie name : Класс 1984
Deion : Банда оголтелых школьников преследует нового учителя, решившего навести в классе порядок. Озверевшие панки-школьники во главе с учеником-психопатом избивают его, а жену насилуют. Месть учителя не уступает по жестокости выходкам банды, но заметно превосходит их по изощренности.
Cover : Yes
ErrorDetectionType : Per level 1
Attachments : cover.jpg
COMPOSER : Лало Шифрин
COUNTRY : Канада
DATE : 1982
DIRECTOR : Марк Л. Лестер
HD_VIDEO : 1
IMDB_RATING : 6.60
ITUNEXTC : mpaa|R|400|
Language : und
MEDIA_TYPE : 9
ORIGINAL_TITLE : Class of 1984
PRODUCER : Артур Кент, Марк Л. Лестер, Мерри Линн Росс
RATING : 6.921
WRITER : Том Холланд, Марк Л. Лестер, Джон С. Сэкстон, Бэрри Шнайдер
Video
ID : 1
Format : AVC
Format/Info : Advanced Video Codec
Format profile : High@L4.1
Format settings, CABAC : Yes
Format settings, RefFrames : 10 frames
Codec ID : V_MPEG4/ISO/AVC
Duration : 1 h 38 min
Bit rate : 2 728 kb/s
Width : 1 026 pixels
Height : 576 pixels
Display aspect ratio : 16:9
Frame rate mode : Constant
Frame rate : 23.976 (24000/1001) FPS
Color space : YUV
Chroma subsampling : 4:2:0
Bit depth : 8 bits
Scan type : Progressive
Bits/(Pixel*Frame) : 0.193
Stream size : 1.83 GiB (84%)
Title : RIP_BY_-=DoMiNo=-
Writing library : x264 core 152 r2851M ba24899
Encoding settings : cabac=1 / ref=10 / deblock=1:-3:-3 / analyse=0x3:0x133 / me=umh / subme=11 / psy=1 / psy_rd=1.00:0.05 / mixed_ref=1 / me_range=32 / chroma_me=1 / trellis=2 / 8x8dct=1 / cqm=0 / deadzone=21,11 / fast_pskip=1 / chroma_qp_offset=-3 / threads=6 / lookahead_threads=1 / sliced_threads=0 / nr=0 / decimate=1 / interlaced=0 / bluray_compat=0 / constrained_intra=0 / bframes=12 / b_pyramid=2 / b_adapt=2 / b_bias=0 / direct=3 / weightb=1 / open_gop=0 / weightp=2 / keyint=230 / keyint_min=23 / scenecut=40 / intra_refresh=0 / rc_lookahead=60 / rc=2pass / mbtree=1 / bitrate=2728 / ratetol=1.0 / qcomp=0.70 / qpmin=0 / qpmax=69 / qpstep=4 / cplxblur=20.0 / qblur=0.5 / ip_ratio=1.40 / aq=1:1.00
Default : Yes
Forced : No
Audio
ID : 2
Format : AC-3
Format/Info : Audio Coding 3
Format settings, Endianness : Big
Codec ID : A_AC3
Duration : 1 h 38 min
Bit rate mode : Constant
Bit rate : 448 kb/s
Channel(s) : 6 channels
Channel positions : Front: L C R, Side: L R, LFE
Sampling rate : 48.0 kHz
Frame rate : 31.250 FPS (1536 SPF)
Bit depth : 16 bits
Compression mode : Lossy
Stream size : 314 MiB (14%)
Title : AVO_Гаврилов А. Ю.
Language : Russian
Service kind : Complete Main
Default : Yes
Forced : No
Text
ID : 3
Format : UTF-8
Codec ID : S_TEXT/UTF8
Codec ID/Info : UTF-8 Plain Text
Duration : 1 h 34 min
Title : ENG
Language : English
Default : Yes
Forced : No
Menu
00:00:00.000 : :Глава 1
00:10:40.264 : :Глава 2
00:17:39.141 : :Глава 3
00:26:31.840 : :Глава 4
00:35:56.696 : :Глава 5
00:45:00.864 : :Глава 6
00:53:28.121 : :Глава 7
01:00:39.510 : :Глава 8
01:07:26.208 : :Глава 9
01:16:55.027 : :Глава 10
01:22:54.427 : :Глава 11
01:30:46.399 : :Глава 12

admin

Post 18-Jan-2022 04:52

[Quote]

Информация о фильме
Название: Как возбудить женщину / Разворот
Оригинальное название: The Turn-On / Le Declic
Год выхода: 1989
Жанр: триллер, комедия
Режиссер: Жан-Луи Ришар
В ролях: Флоранс Герен, Жан-Пьер Кальфон, Берни Каби, Жеральдин Перне, Жаклин Шове, Корин Коррон, Жерар-Антуан Юар, Фабрис Джоссо, Крофтон Хардестер, Жасмин Маймоне
О фильме:
Талантливый биомеханик Фец настолько ненавидит своего богатого, но (как он сам его характеризует) «гнилого» шефа Кристиана, что готов подстроить ему любую гадость. Например, овладеть его абсолютно фригидной женой. С этой целью ученый создает уникальный прибор, способный на расстоянии возбудить любую женщину, превратить ее в ненасытную тигрицу любви, одержимую страстью...
Английская версия фильма 1989г. (французский оригинал 1985г. найти не удалось)

Страна: Франция
Продолжительность: 01:13:51
Перевод: 1. Авторский (одноголосый закадровый) Володарский
2. Авторский (одноголосый закадровый) Дольский
Файл
Кодек: XviD
Качество: VHSRip
Видео: 512x384 (1.33:1), 25 fps, XviD MPEG-4 ~1754 kbps avg, 0.36 bit/pixel
Звук:
1. 48 kHz, MPEG Layer 3, 2 ch, ~192.00 kbps avg Володарский
2. 48 kHz, MPEG Layer 3, 2 ch, ~192.00 kbps avg Дольский
Субтитры: нет
Семпл

Скриншоты

admin

Post 23-Jul-2021 05:35

[Quote]

Информация о фильме
Название: Внутреннее пространство
Оригинальное название: Innerspace
Год выхода: 1987
Жанр: фантастика, фэнтези, боевик, триллер, комедия, приключения
Режиссер: Джо Данте
В ролях: Деннис Куэйд, Мартин Шорт, Мег Райан, Кевин МакКарти, Фиона Льюис, Вернон Уэллс, Роберт Пикардо, Уэнди Шаал, Гарольд Сильвестр, Уильям Шэллерт
О фильме:
Американский пилот лейтенант Так Пендлтон принимает участие в эксперименте, в процессе которого он должен быть очень сильно уменьшен в размерах и в летательном аппарате, похожем на подлодку обследовать внутреннее пространство кролика. Но технотеррористы рушат все планы и похищают шприц, в котором находился миниатюризированый Так.
По ошибке содержимое шприца попадает в ипохондрика Джека Паттера. Теперь террористы начинают охотиться за ничего не подозревающим Джеком. Единственная, кто ему может помочь, это девушка Така — журналистка Лидия…

Выпущено: Warner Bros.
Продолжительность: 01:59:49
Перевод: Дублированный (Варус-видео) + Многоголосый закадровый.
Файл
Кодек: x264
Качество: HDRip-AVC
Видео: 1024x576 (16:9), 23.976 fps, ~2018 kbps
Аудио #1: AC-3, 2 ch, 192 kbps (Дубляж, Варус-видео)
Аудио #2: AC-3, 6 ch, 384 kbps (Многоголосый закадровый)
Субтитры: Русские, Английские

M/I

General
Complete name : Внутреннее пространство.(1989).HDRIP-AVC.(576p).[-=DoMiNo=-].mkv
Format : Matroska
Format version : Version 4 / Version 2
File size : 2.17 GiB
Duration : 1 h 59 min
Overall bit rate : 2 598 kb/s
Movie name : Внутреннее пространство
Cover : Yes
Attachments : cover.jpg
COMPOSER : Джерри Голдсмит
COUNTRY : США
DATE : 1987
DIRECTOR : Джо Данте
GENRE : фантастика, фэнтези, боевик, триллер, комедия, приключения
IMDB_RATING : 6.70
ITUNEXTC : mpaa|PG|200|
ORIGINAL_TITLE : Innerspace
RATING : 7.297
WRITER : Чип Прозер, Джефри Боум
Video
ID : 1
Format : AVC
Format/Info : Advanced Video Codec
Format profile : High@L4.1
Format settings, CABAC : Yes
Format settings, ReFrames : 12 frames
Codec ID : V_MPEG4/ISO/AVC
Duration : 1 h 59 min
Bit rate : 2 018 kb/s
Width : 1 024 pixels
Height : 576 pixels
Display aspect ratio : 16:9
Frame rate mode : Constant
Frame rate : 23.976 (24000/1001) FPS
Color space : YUV
Chroma subsampling : 4:2:0
Bit depth : 8 bits
Scan type : Progressive
Bits/(Pixel*Frame) : 0.143
Stream size : 1.65 GiB (76%)
Title : RIP by -=DoMiNo=-
Writing library : x264 core 148 r2721M 72d53ab
Encoding settings : cabac=1 / ref=12 / deblock=1:-3:-3 / analyse=0x3:0x133 / me=umh / subme=11 / psy=1 / psy_rd=1.00:0.10 / mixed_ref=1 / me_range=32 / chroma_me=1 / trellis=2 / 8x8dct=1 / cqm=0 / deadzone=21,11 / fast_pskip=0 / chroma_qp_offset=-3 / threads=5 / lookahead_threads=1 / sliced_threads=0 / nr=0 / decimate=1 / interlaced=0 / bluray_compat=0 / constrained_intra=0 / bframes=11 / b_pyramid=2 / b_adapt=2 / b_bias=0 / direct=3 / weightb=1 / open_gop=0 / weightp=2 / keyint=230 / keyint_min=23 / scenecut=40 / intra_refresh=0 / rc_lookahead=60 / rc=2pass / mbtree=1 / bitrate=2018 / ratetol=1.0 / qcomp=0.70 / qpmin=0 / qpmax=69 / qpstep=4 / cplxblur=20.0 / qblur=0.5 / ip_ratio=1.40 / aq=1:1.00
Language : English
Default : Yes
Forced : No
DURATION : 01:59:48.598000000
Audio #1
ID : 2
Format : AC-3
Format/Info : Audio Coding 3
Mode extension : CM (complete main)
Format settings, Endianness : Big
Codec ID : A_AC3
Duration : 1 h 59 min
Bit rate mode : Constant
Bit rate : 192 kb/s
Channel(s) : 2 channels
Channel positions : Front: L R
Sampling rate : 48.0 kHz
Frame rate : 31.250 FPS (1536 spf)
Bit depth : 16 bits
Compression mode : Lossy
Stream size : 165 MiB (7%)
Title : Дубляж, Варус-видео
Language : Russian
Default : Yes
Forced : No
DURATION : 01:59:42.048000000
Audio #2
ID : 3
Format : AC-3
Format/Info : Audio Coding 3
Mode extension : CM (complete main)
Format settings, Endianness : Big
Codec ID : A_AC3
Duration : 1 h 59 min
Bit rate mode : Constant
Bit rate : 384 kb/s
Channel(s) : 6 channels
Channel positions : Front: L C R, Side: L R, LFE
Sampling rate : 48.0 kHz
Frame rate : 31.250 FPS (1536 spf)
Bit depth : 16 bits
Compression mode : Lossy
Stream size : 329 MiB (15%)
Title : Многоголосый закадровый
Language : Russian
Default : No
Forced : No
DURATION : 01:59:42.016000000
Text #1
ID : 4
Format : UTF-8
Codec ID : S_TEXT/UTF8
Codec ID/Info : UTF-8 Plain Text
Title : Rus
Language : Russian
Default : Yes
Forced : No
DURATION : 01:55:45.340000000
Text #2
ID : 5
Format : UTF-8
Codec ID : S_TEXT/UTF8
Codec ID/Info : UTF-8 Plain Text
Title : Eng
Language : English
Default : No
Forced : No
DURATION : 01:55:28.011000000
Menu
00:00:00.000 : :Chapter 01
00:02:21.056 : :Chapter 02
00:05:02.509 : :Chapter 03
00:08:28.173 : :Chapter 04
00:11:24.057 : :Chapter 05
00:16:48.631 : :Chapter 06
00:19:44.557 : :Chapter 07
00:22:41.942 : :Chapter 08
00:24:48.653 : :Chapter 09
00:28:13.566 : :Chapter 10
00:31:43.483 : :Chapter 11
00:35:53.818 : :Chapter 12
00:40:01.190 : :Chapter 13
00:46:02.300 : :Chapter 14
00:50:30.360 : :Chapter 15
00:55:33.121 : :Chapter 16
00:57:13.972 : :Chapter 17
01:00:05.643 : :Chapter 18
01:03:38.940 : :Chapter 19
01:07:55.320 : :Chapter 20
01:12:48.238 : :Chapter 21
01:17:06.912 : :Chapter 22
01:18:27.536 : :Chapter 23
01:21:35.930 : :Chapter 24
01:24:37.780 : :Chapter 25
01:27:15.896 : :Chapter 26
01:30:15.368 : :Chapter 27
01:33:46.453 : :Chapter 28
01:39:12.654 : :Chapter 29
01:41:43.095 : :Chapter 30
01:46:22.292 : :Chapter 31
01:49:15.047 : :Chapter 32
01:52:21.024 : :Chapter 33
01:55:39.890 : :Chapter 34
01:59:48.389 : :Chapter 35

Скриншоты

admin

Post 16-Jul-2021 04:09

[Quote]

Информация о фильме
Название: Гонки «Пушечное ядро»
Оригинальное название: The Cannonball Run
Год выхода: 1981
Жанр: Боевик, комедия
Режиссер: Хэл Нидэм
В ролях: Берт Рейнолдс, Роджер Мур, Фарра Фосетт, Дом ДеЛуиз, Дин Мартин, Сэмми Дэвис мл., Джек Илэм, Эдриенн Барбо, Терри Брэдшоу, Джеки Чан
О фильме:
Приз в кругленькую сумму получит тот из участников транснациональной автомобильной гонки, кто первым придет к финишу. Гонки, как обычно, без правил, и участвуют в них самые отчаянные и бесшабашные гонщики мира. Главное — стать первым любой ценой.

Страна: США, Гонконг
Продолжительность: 01:35:35
Перевод: Профессиональный многоголосый, профессиональный двухголосый, авторский одноголосый
Дата релиза: 31.08.2012
Файл
Кодек: H.264
Качество: BDRip (AVC) (BDRemux (1080p))
Видео: MPEG-4 AVC, 2500 Кбит/с, 1024x576
Звук:
Аудио#1: Russian (AC3, 2 ch, 192 Кбит/с) [Многоголосый]
Аудио#2: Russian (AC3, 2 ch, 192 Кбит/с) [Двухголосый]
Аудио#3: Russian (AC3, 6 ch, 448 Кбит/с) [авторский одноголосый, Михалёв]
Аудио#4: English (AC3, 6 ch, 448 Кбит/с)

Скриншоты

Борисыч

Post 01-Jan-2021 07:46

[Quote]

- - -
Год выпуска: 1990
Страна: США
Жанр: Комедия, детский
Продолжительность: 01:42:54
Перевод: Профессиональный (полное дублирование)
Режиссер: Крис Коламбус / Chris Columbus
В ролях: Маколэй Калкин, Энджела Геталс, Хиллэри Вулф, Джерри Бэмман, Дэниэл Стерн, Джон Херд, Джо Пеши...
Описание: Восьмилетнего мальчика Кевина не воспринимают братья и сестры, все считают его маленьким и несамостоятельным, в том числе его родители и все его родственники, но Кевину очень хочется, чтобы к нему относились как к взрослому. Поэтому он хочет жить один и мечтает, чтобы вся его семья взяла и исчезла. Большой семье Мак-Каллистеров накануне рождества предстоит поездка во Францию, но так получается, что Кевина забывают дома и он остается совсем один. Пока родители, дядя и тетя Кевина, его братишки и сестренки находятся в поездке, в распоряжении Кевина огромный дом. Мечта маленького ребенка наконец-то сбылась!
Качество: BDRip
Формат: AVI
Видео кодек: XviD
Аудио кодек: AC3
Видео: 720x384, 23,976 fps, 1823 kbps
Аудио: 48 kHz, 2 ch, 192 kbps

Скриншоты

admin

Post 11-Oct-2020 19:14

[Quote]

28317Зрелищная картина. помню на улице показывали - частники показывали. билет стоил 1 рубль. это было что то. теперь эти фильмы забываются поколение меняется. молодёжь такие фильмы на отказ не смотрят.
Не знаю как молодежь,а эти фильмы я обожал.Эти фильмы моей молодости.Спасибо Борисыч!

Борисыч

Post 11-Oct-2020 17:15

[Quote]

Зрелищная картина. помню на улице показывали - частники показывали. билет стоил 1 рубль. это было что то. теперь эти фильмы забываются поколение меняется. молодёжь такие фильмы на отказ не смотрят.

Борисыч

Post 11-Oct-2020 17:11

[Quote]

- Год выпуска: 1985
Страна:
Жанр: Боевик, приключения
Продолжительность: 01:31:35
Перевод: Профессиональный ( многоголосный )
Режиссер: Сэм Фёрстенберг / Sam Firstenberg
В ролях: Тони Кэрреон, Фил Брок, Тадаши Йамашита, Дон Стюарт, Джон ЛаМотта, Гуч Кук, Джуди Аронсон, Стив Джеймс, Майкл Дудикофф, Джон Фудзиока
Описание: Джо Армстронг, 18 — летний рядовой филиппинского отряда армии США, сопровождает военный конвой, который подвергается нападению бандитов. В одном из них Джо узнает черного воина — ниндзя. Обороняясь, он инстинктивно начинает использовать технику ниндзюцу. Эта неожиданно проявившаяся способность вызывает подозрение у командира его отряда и остальных солдат. Распутывая паутину темных интриг, Джо остается один в битве с окружающей его коррупцией. В конце концов, в глубине непроходимых джунглей, Джо раскрывает тайну собственного прошлого, тайну, ведущую его к последнему бою со зловещим предводителем Черных Ниндзя.
Качество: HDRip
Формат: AVI
Видео кодек: XviD
Аудио кодек: АС3
Видео: 720x400, 23,976 fps, 2084 kbps
Аудио: 48 kHz, 2 ch, 192 kbps

Скриншоты

Борисыч

Post 11-Oct-2020 18:10

[Quote]

- Год выпуска: 1990
Страна:
Жанр: Боевик
Продолжительность: 01:35:25
Перевод: Профессиональный ( многоголосный )
Режиссер: Седрик Сандстром / Cedric Sundstrom
В ролях: Джоди Абрахамс, Кили МакКланг, Рон Смержак, Франц Добровски, Робин Стилл, Кен Гампу, Дуэйн Александр, Джеймс Бут, Дэвид Брэдли, Майкл Дудикофф...
Описание:
Бывший полковник, садист и убийца, тренирует террористов и ниндзя шейха из какого-то арабского государства, задумавшего взорвать Нью-Йорк при помощи изготовленной в тайной лаборатории миниатюрной атомной бомбы. Команда подразделения «Дельта», посланная уничтожить злодеев, потерпела поражение, а оставшиеся в живых стали заложниками. Полицейского-ниндзю вместе с напарником посылают с заданием обезвредить маньяков. В самый тяжелый момент к нашим героям присоединится самый первый и главный американский ниндзя. Вместе они разносят на куски целую армию ниндзя и прочих бандитов.
Качество: HDTVRip
Формат: AVI
Видео кодек: XviD
Аудио кодек: МР3
Видео: 624x352, 25 fps, 893 kbps
Аудио: 48 kHz, 2 ch, 192 kbps

Скриншоты

Борисыч

Post 11-Oct-2020 17:55

[Quote]

- Год выпуска: 1989
Страна:
Жанр: Боевик
Продолжительность: 01:29:52
Перевод: Профессиональный ( Многоголосый ) ( СТС )
Режиссер: Седрик Сандстром / Cedric Sundstrom
В ролях: Экард Раби, Тапело Мофокенг, Элан Свердлов, Майк Хафф, Грэнт Престон, Ивэн Дж. Клиссер, Эдриэнн Пирс, Кэлвин Йюнг, Йехуда Эфрони, Мишель Б. Чэн, Марджо Гортнер, Дэвид Брэдли, Стив Джеймс
Описание:
Шон Дэвидсон, потерявший родителей и воспитанный учителем-японцем в традициях ниндзя, приезжает на международный турнир каратэ. Злоумышленники разрабатывают здесь в секретной лаборатории смертоносный вирус, чтобы испытать его на победителе чемпионата. Но американский ниндзя и двое его друзей сокрушают лабораторию, спасая мир
Качество: BDRip
Формат: AVI
Видео кодек: XviD
Аудио кодек: АС3
Видео: 704x384, 23,976 fps, 957 kbps
Аудио: 48 kHz, 2 ch, 192 kbps

Скриншоты

Борисыч

Post 11-Oct-2020 17:42

[Quote]

- Год выпуска: 1987
Страна:
Жанр: Боевик
Продолжительность: 01:29:41
Перевод: Профессиональный ( многоголосный )+Оригинал
Режиссер: Сэм Фёрстенберг / Sam Firstenberg
В ролях: Билл Керри, Джонатан Пиенаар, Лен Спэрроухок, Майкл Стоун, Мишель Боутс, Джефф Челентано, Гэри Конуэй, Ларри Поиндекстер, Стив Джеймс, Майкл Дудикофф...
Описание:
Действие происходит на острове Святого Томаса в Карибском море, куда американский наемник Джо Армстронг и сержант Кертис Джексон прибывают для расследования таинственного исчезновения группы морских пехотинцев. Очень скоро они натыкаются на следы чудовищной операции с наркотиками, руководимой могущественным наркодилером по прозвищу Лев. Он похитил пехотинцев, чтобы с помощью генетики создать из них бойцов — ниндзя. Пара искателей приключений, на помощь к которым приходит дочь местного ученого Алисия Санборн, сражаются со Львом и его армией ниндзя, чтобы навсегда разрушить его дьявольскую империю.
Качество: BDRip
Формат: AVI
Видео кодек: XviD
Аудио кодек: АС3
Видео: 704x384, 23,976 fps, 2083 kbps
Аудио - 1: 48 kHz, 2 ch, 192 kbps - MVO
Аудио - 2: 48 kHz, 2 ch, 192 kbps - Original

Скриншоты

admin

Post 10-Oct-2020 17:32

[Quote]

28311и они всё вместе. ей 75 ему 69.живут тихой семейной жизнью.
Прям старички счастливы вместе, ей богу.

Борисыч

Post 10-Oct-2020 17:12

[Quote]

и они всё вместе. ей 75 ему 69. живут тихой семейной жизнью.

Борисыч

Post 10-Oct-2020 17:08

[Quote]

- Год выпуска: 1987
Страна: США
Жанр: Комедия, мелодрама
Продолжительность: 01:52:10
Перевод: Профессиональный (многоголосый, закадровый)
Режиссер: Гарри Маршалл / Garry Marshall
В ролях: Голди Хоун, Курт Рассел, Эдвард Херрманн, Кэтрин Хелмонд, Майкл Дж. Хэгерти, Родди МакДауэлл, Джэред Раштон, Джефри Уайзмен, Брайан Прайс, Джэми Вайлд, Фрэнк Кампанелла, Генри Алан Миллер...
Описание: Джоанна Стейтон - властная, заносчивая и несговорчивая жена самоуверенного владельца яхты. Когда их посудина останавливается для ремонта в небольшом городке, сварливая и взбалмошная Джоанна нанимает плотника Дина Проффитта, чтобы тот смастерил ей новый шкафчик. Но вместо платы за работу Дин получает от ворот поворот - ведь Джоанна никогда ничем не бывает довольна. Но на этот раз ее фирменные выкрутасы заканчиваются тем, что она падает за борт и напрочь теряет память. А Дин тем временем осуществляет бесподобный план мести: он забирает Джоанну к себе, переименовывает ее в Энни и объявляет своей женой и матерью своих четверых непослушных сыновей...
Качество: HDRip
Формат: AVI
Видео кодек: XviD
Аудио кодек: AC3
Видео: 704x384, 23.976 fps, 2188 kbps
Аудио - 1: 48 kHz, 2 ch, 192 kbps MVO
Аудио - 2: 48 kHz, 2 ch, 192 kbps MVO - НТВ
Аудио - 3: 48 kHz, 2 ch, 224 kbps MVO - ОРТ

Скриншоты

 

Current time is: 25-Jun 11:24

All times are UTC + 3