Search found 47 matches

Author Message

Борисыч

Post 26-Mar-2020 13:03

[Quote]

- Год выпуска: 1980
Страна: США
Жанр: Триллер, фантастика
Продолжительность: 01:37:29
Перевод: Профессиональный (полное дублирование)
Режиссер: Джеймс Л. Конуэй
В ролях: Памела Беллвуд, Том Холлик, Стивен Китс, Джозеф Кампанелла, Филип Эбботт, Джеймс Хэмптон, Гари Коллинз, Уильям Шэллерт, Даррен МакГейвин, Роберт Вон
Описание:
С Земли стартует космический корабль, через несколько минут после запуска он сталкивается с неопознанным летающим объектом. Поврежденный корабль пришельцев вынужден совершить посадку на Землю, где он попадает в руки военных. Военные держат находку в тайне и помешают летающую тарелку с секретный Ангар номер восемнадцать. Вернувшиеся на землю астронавты начинают проявлять интерес к загадочному столкновению, произошедшему во время взлета их корабля, но военные готовы пойти на все, чтобы тайна Ангара восемнадцать осталась не раскрыта.
Качество: BDRip
Формат: AVI
Видео кодек: XviD
Аудио кодек: AC3
Видео: 720x400, 23,976 fps, 1937 kbps
Аудио: 48 kHz, 2 ch, 192 kbps

Скриншоты:

Борисыч

Post 24-Mar-2020 16:35

[Quote]

Классная картина.

Борисыч

Post 24-Mar-2020 16:34

[Quote]

- Год выпуска: 1977
Страна: США
Жанр: Драма, триллер, фантастика
Продолжительность: 02:03:08
Перевод: Профессиональный ( многоголосый)
Режиссер: Питер Хайамс
В ролях: Дэвид Хадлстон, Телли Савалас, О. Джей Симпсон, Сэм Уотерстон, Бренда Ваккаро, Хэл Холбрук, Эллиотт Гулд, Дэвид Дойл, Карен Блэк, Джеймс Бролин
Описание:
Вся планета, затаив дыхание, следит за тем, как идет подготовка к первому полету человека на Марс. Перед самым стартом, астронавтов вызывает к себе директор НАСА и сообщает, что в связи с техническими проблемами полет не состоится. Но обычные граждане знать об этом не должны, все должны считать, что астронавтам удалось достичь Марса. Путем угроз и шантажа директор НАСА заставляет астронавтов принять участие в съемках высадки на Марс, которая на самом деле проводится на Земле. Совершенно случайно об этой афере космического масштаба узнает один из журналистов… .
Качество: DVDRip
Формат: AVI
Видео кодек: XviD
Аудио кодек: AC3
Видео: 720x304, 24 fps, 1236 kbps
Аудио: 48 kHz, 6 ch, 448 kbps

Скриншоты

Борисыч

Post 21-Mar-2020 17:20

[Quote]

- - Год выпуска: 1989
Страна: США
Жанр: Приключения
Продолжительность: 3 x 01:30:00
Перевод: Профессиональный ( Многоголосый )+Профессиональный ( Двухголосый )
Режиссер: Базз Кулик
В ролях: Пирс Броснан, Эрик Айдл, Джулия Никсон-Соул, Питер Устинов, Джек Клагман, Родди МакДауэлл, Даррен МакГейвин, Роберт Морли, Стивен Николс, Ли Ремик
Описание: Филеас Фогг — настоящий английский джентльмен, состоятельный и немногословный. Он никогда не спешит, но всегда успевает. Его совершенно невозможно застать врасплох, ибо, кажется, нет таких ситуаций, которых бы он не предусмотрел. Редкий домосед и консерватор, он посещает лишь любимый Реформ-клуб, где проводит время за чтением газет и игрой в вист. Но вот однажды, вернувшись вечером домой, Фогг объявляет новому слуге — французу Жану Паспарту (уже настроившемуся на такую же размеренную жизнь в викторианском стиле), что они немедленно отправляются в кругосветное путешествие. С собой Паспарту разрешается взять лишь ручной саквояж с рубашками и сменным нижним бельем. А остальное, дескать, они приобретут в дороге… Между тем, за три дня до этого был ограблен Английский банк. И приметы преступника, разосланные по всем уголкам земного шара, полностью совпали с внешностью Фогга! На что и обращает внимание детектив Фикс, который решает пуститься за нашими героями по пятам…
Качество: DVDRip
Формат: AVI
Видео кодек: XviD
Аудио кодек: АС3
Видео: 704x528, 25 fps, 1741 kbps
Аудио - 1: 48 kHz, 2 ch, 192 kbps - MVO
Аудио - 2: 48 kHz, 2 ch, 192 kbps - DVO

Скриншоты

admin

Post 19-Mar-2020 11:38

[Quote]

Фантазм 2Phantasm II«After ten years... the ball is back!»

Страна: США
Жанр: Ужасы, фантастика, боевик, триллер
Год выпуска: 1988
Продолжительность: 01:36:37
Перевод: Профессиональный (многоголосый закадровый) D2Lab
Перевод 2: Авторский (одноголосый закадровый) А.Гаврилов-поздний
Перевод 3: Авторский (одноголосый закадровый) В.Горчаков
Перевод 4: Авторский (одноголосый закадровый) Ю.Немахов
Перевод 5: Авторский (одноголосый закадровый) В.Дохалов
Субтитры: русские,английские
Оригинальная аудиодорожка: английский
Режиссер: Дон Коскарелли / Don Coscarelli
В ролях: Джеймс ЛеГрос, Рэджи Бэннистер, Энгус Скримм, Паула Ирвин, Саманта Филлипс, Кеннет Тайгар, Рут С. Энджел, Марк Энтони Мейджор, Рубин Кушнер, Стэйси Трэвис
Описание: «Верзила» возвращается! Смертельным вихрем мчится он по Западу США, окруженный на сей раз целым легионом Серебряных Сфер и демонов, ставших еще быстрее и опаснее.
Только его противники, Майк и Реджи, способны сполна оценить угрозу, исходящую от зловещего мертвеца. Приняв в свою команду ясновидящую красавицу Лиз, друзья решают навеки покончить с «Верзилой». Если он не уничтожит их раньше...
Доп. информация:
Релиз группы:
Качество видео: BDRip-AVC | Фантазм 2 / Phantasm II (1988) 1080p BD-Remux| HD club
Формат видео: MKV
Видео: 1144x620 (1:85:1), 23,976 fps, 4354 Кbps, 0.256 bit/pixe
Аудио: 48 kHz, AC3 Dolby Digital, 3/2 (L,C,R,l,r) + LFE ch, ~384.00 kbps avg | MVO
Аудио 2: 48 kHz, AC3 Dolby Digital, 3/2 (L,C,R,l,r) + LFE ch, ~448.00 kbps avg | AVO отдельно
Аудио 3: 48 kHz, AC3 Dolby Digital, 3/2 (L,C,R,l,r) + LFE ch, ~448.00 kbps avg | AVO отдельно
Аудио 4: 48 kHz, AC3 Dolby Digital, 3/2 (L,C,R,l,r) + LFE ch, ~448.00 kbps avg | AVO
Аудио 5: 48 kHz, AC3 Dolby Digital, 3/2 (L,C,R,l,r) + LFE ch, ~448.00 kbps avg AVO отдельно
Аудио 6: 48 kHz, AC3 Dolby Digital, 3/2 (L,C,R,l,r) + LFE ch, ~448.00 kbps avg | ENG
Формат субтитров: softsub (SRT)
Доп. информация о субтитрах: отключаемые

MediaInfo

General
Unique ID : 179636783544523017731893111787829445171 (0x8724C93AD8C6311887E274F9D875C233)
Complete name : E:\Мои рипы\Фантазм 2\Phantasm II by_IVAN@190282.mkv
Format : Matroska
Format version : Version 4 / Version 2
File size : 3.88 GiB
Duration : 1h 36mn
Overall bit rate : 5 749 Kbps
Movie name : Phantasm II by_IVAN@190282
Encoded date : UTC 2015-12-10 16:52:43
Writing application : mkvmerge v8.6.1 ('Flying') 64bit
Writing library : libebml v1.3.3 + libmatroska v1.4.4
Attachements : cover.jpg
DURATION : 01:31:42.998000000
NUMBER_OF_FRAMES : 668
NUMBER_OF_BYTES : 16125
_STATISTICS_WRITING_APP : mkvmerge v8.6.1 ('Flying') 64bit
_STATISTICS_WRITING_DATE_UT : 2015-12-10 16:52:43
_STATISTICS_TAGS : BPS DURATION NUMBER_OF_FRAMES NUMBER_OF_BYTES
Video
ID : 1
Format : AVC
Format/Info : Advanced Video Codec
Format profile : High@L4.1
Format settings, CABAC : Yes
Format settings, ReFrames : 11 frames
Codec ID : V_MPEG4/ISO/AVC
Duration : 1h 36mn
Bit rate : 4 354 Kbps
Width : 1 144 pixels
Height : 620 pixels
Display aspect ratio : 1.85:1
Frame rate mode : Constant
Frame rate : 23.976 fps
Color space : YUV
Chroma subsampling : 4:2:0
Bit depth : 8 bits
Scan type : Progressive
Bits/(Pixel*Frame) : 0.256
Stream size : 2.94 GiB (76%)
Title : Phantasm II by_IVAN@190282
Writing library : x264 core 148 r2638kMod 7599210
Encoding settings : cabac=1 / ref=11 / deblock=1:-3:-2 / analyse=0x3:0x133 / me=umh / subme=11 / psy=1 / fade_compensate=0.00 / psy_rd=1.00:0.05 / mixed_ref=1 / me_range=48 / chroma_me=1 / trellis=2 / 8x8dct=1 / cqm=0 / deadzone=21,11 / fast_pskip=0 / chroma_qp_offset=-3 / threads=6 / lookahead_threads=6 / sliced_threads=0 / nr=0 / decimate=1 / interlaced=0 / bluray_compat=0 / constrained_intra=0 / fgo=0 / bframes=16 / b_pyramid=2 / b_adapt=2 / b_bias=0 / direct=3 / weightb=1 / open_gop=0 / weightp=2 / keyint=240 / keyint_min=23 / scenecut=40 / intra_refresh=0 / rc_lookahead=60 / rc=crf / mbtree=0 / crf=17.0000 / qcomp=0.60 / qpmin=0 / qpmax=69 / qpstep=4 / vbv_maxrate=50000 / vbv_bufsize=62500 / crf_max=0.0 / nal_hrd=none / filler=0 / ip_ratio=1.40 / pb_ratio=1.30 / aq=2:1.10
Language : English
Default : Yes
Forced : No
Color range : Limited
Color primaries : BT.709
Transfer characteristics : BT.709
Matrix coefficients : BT.709
DURATION : 01:36:37.208000000
NUMBER_OF_FRAMES : 138994
NUMBER_OF_BYTES : 3236854498
_STATISTICS_WRITING_APP : mkvmerge v8.6.1 ('Flying') 64bit
_STATISTICS_WRITING_DATE_UT : 2015-12-10 16:52:43
_STATISTICS_TAGS : BPS DURATION NUMBER_OF_FRAMES NUMBER_OF_BYTES
Audio #1
ID : 2
Format : AC-3
Format/Info : Audio Coding 3
Mode extension : CM (complete main)
Format settings, Endianness : Big
Codec ID : A_AC3
Duration : 1h 36mn
Bit rate mode : Constant
Bit rate : 384 Kbps
Channel(s) : 6 channels
Channel positions : Front: L C R, Side: L R, LFE
Sampling rate : 48.0 KHz
Compression mode : Lossy
Stream size : 265 MiB (7%)
Title : Mvo D2Lab
Default : Yes
Forced : No
Audio #2
ID : 3
Format : AC-3
Format/Info : Audio Coding 3
Mode extension : CM (complete main)
Format settings, Endianness : Big
Codec ID : A_AC3
Duration : 1h 36mn
Bit rate mode : Constant
Bit rate : 448 Kbps
Channel(s) : 6 channels
Channel positions : Front: L C R, Side: L R, LFE
Sampling rate : 48.0 KHz
Compression mode : Lossy
Stream size : 310 MiB (8%)
Title : Nemahov
Default : No
Forced : No
Audio #3
ID : 4
Format : AC-3
Format/Info : Audio Coding 3
Mode extension : CM (complete main)
Format settings, Endianness : Big
Codec ID : A_AC3
Duration : 1h 36mn
Bit rate mode : Constant
Bit rate : 448 Kbps
Channel(s) : 6 channels
Channel positions : Front: L C R, Side: L R, LFE
Sampling rate : 48.0 KHz
Compression mode : Lossy
Stream size : 310 MiB (8%)
Title : Eng
Language : English
Default : No
Forced : No
Text #1
ID : 5
Format : UTF-8
Codec ID : S_TEXT/UTF8
Codec ID/Info : UTF-8 Plain Text
Title : Rus
Default : No
Forced : No
Text #2
ID : 6
Format : UTF-8
Codec ID : S_TEXT/UTF8
Codec ID/Info : UTF-8 Plain Text
Title : Eng
Language : English
Default : No
Forced : No
Menu
00:00:00.000 : en:Chapter 1
00:07:33.411 : en:Chapter 2
00:12:00.302 : en:Chapter 3
00:12:59.445 : en:Chapter 4
00:15:55.370 : en:Chapter 5
00:20:56.922 : en:Chapter 6
00:23:15.434 : en:Chapter 7
00:25:52.675 : en:Chapter 8
00:29:59.255 : en:Chapter 9
00:38:14.041 : en:Chapter 10
00:46:43.842 : en:Chapter 11
00:49:46.315 : en:Chapter 12
00:53:19.528 : en:Chapter 13
00:55:10.222 : en:Chapter 14
00:58:07.858 : en:Chapter 15
01:08:42.326 : en:Chapter 16
01:12:22.337 : en:Chapter 17
01:15:45.707 : en:Chapter 18
01:19:10.162 : en:Chapter 19
01:22:46.836 : en:Chapter 20
01:25:09.686 : en:Chapter 21
01:28:07.738 : en:Chapter 22
01:31:15.552 : en:Chapter 23

x264 log

VIDEO ENCODING
x264 [info]: frame I:855 Avg QP:14.62 size: 77876 PSNR Mean Y:50.72 U:53.31 V:53.16 Avg:51.40 Global:50.55
x264 [info]: frame P:28399 Avg QP:15.80 size: 41293 PSNR Mean Y:49.29 U:52.09 V:51.90 Avg:50.00 Global:49.17
x264 [info]: frame B:109740 Avg QP:17.38 size: 18203 PSNR Mean Y:48.09 U:51.31 V:51.23 Avg:48.90 Global:47.87
x264 [info]: consecutive B-frames: 1.6% 2.4% 6.8% 14.4% 17.3% 43.7% 7.3% 1.9% 1.9% 0.6% 0.5% 0.4% 0.2% 0.2% 0.1% 0.1% 0.6%
x264 [total]: encoded 138994 frames, 5.91 fps, 4466.78 kb/s, duration 6:32:01.83

Скриншот c названием фильма

Скриншоты

Сравнения

Source by_IVAN@190282 Source VS by_IVAN@190282 http://screenshotcomparison.com/comparison/153958
Убедительная просьба пожалуйста кто скачал не бросайте раздачу!!!

admin

Post 03-Mar-2020 19:38

[Quote]

26255Уморная комедия. ap
Подтверждаю! Особенно момент понравился когда монашки из душа выходили и момент когда толстый(я) показывала как в баскетбол нужно играть!

Борисыч

Post 03-Mar-2020 18:07

[Quote]

Уморная комедия. ap

Борисыч

Post 03-Mar-2020 18:05

[Quote]

- Год выпуска: 1990
Страна:
Жанр: Комедия
Продолжительность: 01:28:19
Перевод: Профессиональный (многоголосый закадровый)
Режиссер: Джонатан Линн
В ролях: Эрик Айдл, Робби Колтрейн, Камилла Кодури, Джанет Сузман, Дорис Хэа, Лила Кэй, Роберт Паттерсон, Роберт Морган, Уинстон Дэннис, Том Хикки
Описание: Львиная доля событий разворачивается в стенах женского монастыря. Сюда судьба забрасывает двух незадачливых преступников Брайена Хоупа и Чарли МакМануса, которые украли у своих «сотоварищей» пару чемоданов с деньгами и попытались найти местечко, где можно было бы пересидеть. В монастыре им пришлось не только переодеться, но и поменять имена…
Качество видео: DVDRip
Формат видео: AVI
Видео кодек: DviX
Аудио кодек: АС3
Видео: 720x400, 25 fps, 1824 kbps
Аудио: 48 kHz, 6 ch, 384 kbps

Скриншоты

admin

Post 02-Mar-2020 19:28

[Quote]

26230Уморная комедия. ag неоднократно смотрел.
фото 68-летний Курт и 74-летняя Голди делают покупки к Рождеству, декабрь 2019. Семейная пара уже 37 лет.
http://i111.fastpic.ru/big/2020/0302/4d/6c787322f4e...556c98a0684d.jpg
Да, у Рассела бородища как у Санта Клауса! Прикол, давненько не видел его, со времен Глубоководного горизонта.

Борисыч

Post 02-Mar-2020 18:12

[Quote]

Уморная комедия. ag неоднократно смотрел.
фото 68-летний Курт и 74-летняя Голди делают покупки к Рождеству, декабрь 2019. Семейная пара уже 37 лет.
http://i111.fastpic.ru/big/2020/0302/4d/6c787322f4e...556c98a0684d.jpg

Борисыч

Post 02-Mar-2020 16:11

[Quote]

- Год выпуска: 1987
Страна: США
Жанр: Мелодрама, комедия
Продолжительность: 01:52:10
Перевод: Профессиональный (многоголосый, закадровый)
Режиссер: Гарри Маршалл
В ролях: Голди Хоун, Курт Рассел, Эдвард Херрманн, Кэтрин Хелмонд, Майкл Дж. Хэгерти, Родди МакДауэлл, Джэред Раштон, Джефри Уайзмен, Брайан Прайс, Джэми Вайлд...
Описание: Джоанна Стейтон — властная, заносчивая и несговорчивая жена самоуверенного владельца яхты. Когда их посудина останавливается для ремонта в небольшом городке, сварливая и взбалмошная Джоанна нанимает плотника Дина Проффитта, чтобы тот смастерил ей новый шкафчик. Но вместо платы за работу Дин получает от ворот поворот — ведь Джоанна никогда ничем не бывает довольна.
Качество видео: HDRip
Формат видео: AVI
Видео кодек: XviD
Аудио кодек: АС3
Видео: 704x384, 23.976 fps, 1645 kbps
Аудио: 48 kHz, 2 ch, 192 kbps

Скриншоты

admin

Post 12-Aug-2019 02:02

[Quote]

Информация о фильме
Название: Терминатор
Оригинальное название: The Terminator
Год выхода: 1984
Жанр: Фантастика, боевик
Режиссер: Джеймс Кэмерон
В ролях: Арнольд Шварценеггер, Майкл Бьен, Линда Хэмилтон, Пол Уинфилд, Лэнс Хенриксен, Рик Россови, Бесс Мотта, Эрл Боэн,
О фильме:
История противостояния солдата Кайла Риза и киборга-терминатора, прибывших в 1984-й год из пост-апокалиптического будущего, где миром правят машины-убийцы, а человечество находится на грани вымирания. Цель киборга: убить девушку по имени Сара Коннор, чей ещё нерождённый сын к 2029 году выиграет войну человечества с машинами. Цель Риза: спасти Сару и остановить Терминатора любой ценой.

Страна: США
Продолжительность: 01:47:32
Перевод: Дублированный, Blu-ray CEE
Субтитры: Russian, English
Файл
Формат: Matroska
Качество: WEB-DLRip-AVC | Remastered | Open Matte
Видео: 1024x576 at 23.976 fps, x264, ~3427 kbps
Аудио: AC3, 6 ch, ~448 kbps - | Русский | -
Формат субтитров: softsub (SRT)

M/I

x264 [info]: frame I:991 Avg QP:16.57 size: 63416
x264 [info]: frame P:37600 Avg QP:17.83 size: 33327
x264 [info]: frame B:116115 Avg QP:19.71 size: 12137
x264 [info]: consecutive B-frames: 2.7% 3.9% 9.0% 33.9% 19.3% 24.9% 3.2% 1.7% 0.6% 0.3% 0.1% 0.1% 0.2%
General
Complete name : Терминатор.(1984).WEB-DLRip-AVC.O.M.Rmst.[-=DoMiNo=-].mkv
Format : Matroska
Format version : Version 4
File size : 2.91 GiB
Duration : 1 h 47 min
Overall bit rate : 3 875 kb/s
Encoded date : UTC 2019-08-11 17:31:55
Writing application : mkvmerge v36.0.0 ('Is That Jazz?') 64-bit
Writing library : libebml v1.3.9 + libmatroska v1.5.2
Attachments : poster.jpg / poster 2.jpg
Video
ID : 1
Format : AVC
Format/Info : Advanced Video Codec
Format profile : High@L4.1
Format settings : CABAC / 14 Ref Frames
Format settings, CABAC : Yes
Format settings, Reference : 14 frames
Codec ID : V_MPEG4/ISO/AVC
Duration : 1 h 47 min
Bit rate : 3 427 kb/s
Width : 1 024 pixels
Height : 576 pixels
Display aspect ratio : 16:9
Frame rate mode : Constant
Frame rate : 23.976 (24000/1001) FPS
Color space : YUV
Chroma subsampling : 4:2:0
Bit depth : 8 bits
Scan type : Progressive
Bits/(Pixel*Frame) : 0.242
Stream size : 2.57 GiB (88%)
Title : RIP_BY_-=DoMiNo=-
Writing library : x264 core 152 r2851 ba24899
Encoding settings : cabac=1 / ref=14 / deblock=1:-2:-2 / analyse=0x3:0x133 / me=umh / subme=11 / psy=1 / psy_rd=1.05:0.15 / mixed_ref=1 / me_range=48 / chroma_me=1 / trellis=2 / 8x8dct=1 / cqm=0 / deadzone=21,11 / fast_pskip=0 / chroma_qp_offset=-3 / threads=6 / lookahead_threads=2 / sliced_threads=0 / nr=0 / decimate=0 / interlaced=0 / bluray_compat=0 / constrained_intra=0 / bframes=12 / b_pyramid=2 / b_adapt=2 / b_bias=0 / direct=3 / weightb=1 / open_gop=0 / weightp=2 / keyint=250 / keyint_min=23 / scenecut=40 / intra_refresh=0 / rc_lookahead=40 / rc=2pass / mbtree=0 / bitrate=3427 / ratetol=1.0 / qcomp=0.70 / qpmin=0 / qpmax=69 / qpstep=4 / cplxblur=20.0 / qblur=0.5 / vbv_maxrate=50000 / vbv_bufsize=62500 / nal_hrd=none / filler=0 / ip_ratio=1.40 / pb_ratio=1.30 / aq=3:0.80
Language : English
Default : Yes
Forced : No
Audio
ID : 2
Format : AC-3
Format/Info : Audio Coding 3
Commercial name : Dolby Digital
Codec ID : A_AC3
Duration : 1 h 47 min
Bit rate mode : Constant
Bit rate : 448 kb/s
Channel(s) : 6 channels
Channel layout : L R C LFE Ls Rs
Sampling rate : 48.0 kHz
Frame rate : 31.250 FPS (1536 SPF)
Bit depth : 16 bits
Compression mode : Lossy
Stream size : 345 MiB (12%)
Title : DUB_[Blu-ray CEE]
Language : Russian
Service kind : Complete Main
Default : Yes
Forced : No
Text #1
ID : 3
Format : UTF-8
Codec ID : S_TEXT/UTF8
Codec ID/Info : UTF-8 Plain Text
Duration : 1 h 46 min
Bit rate : 44 b/s
Count of elements : 594
Stream size : 35.0 KiB (0%)
Language : Russian
Default : No
Forced : No
Text #2
ID : 4
Format : UTF-8
Codec ID : S_TEXT/UTF8
Codec ID/Info : UTF-8 Plain Text
Duration : 1 h 43 min
Bit rate : 27 b/s
Count of elements : 563
Stream size : 20.9 KiB (0%)
Language : English
Default : No
Forced : No
Menu
00:00:00.000 : en:Глава 01
00:07:30.000 : en:Глава 02
00:15:00.000 : en:Глава 03
00:22:30.000 : en:Глава 04
00:30:00.000 : en:Глава 05
00:37:30.000 : en:Глава 06
00:45:00.000 : en:Глава 07
00:52:30.000 : en:Глава 08
01:00:00.000 : en:Глава 09
01:07:30.000 : en:Глава 10
01:15:00.000 : en:Глава 11
01:22:30.000 : en:Глава 12
01:30:00.000 : en:Глава 13
01:37:30.000 : en:Глава 14
01:45:00.000 : en:Глава 15

Скриншоты

admin

Post 20-Jul-2019 06:13

[Quote]

Информация о фильме
Название: Цельнометаллическая оболочка
Оригинальное название: Full Metal Jacket
«Born to Kill»
Год выхода: 1987
Жанр: Драма, Военный
Режиссер: Стэнли Кубрик
В ролях: Мэтью Модайн, Адам Болдуин, Винсент Д`Онофрио, Р. Ли Эрми, Дориан Хэрвуд, Кевин Мейджор Ховард, Арлисс Ховард, Эд О`Росс, Джон Терри, Кирон Джеккинис
О фильме: Американская база подготовки новобранцев корпуса морской пехоты. Жесточайшая, бесчеловечная система призвана превратить домашних мальчишек в натренированных хладнокровных убийц. Их готовят к войне во Вьетнаме, где им придется часто задавать себе вопрос «Разве война — это не ад?», а иначе просто невозможно убивать каждый день, не понимая, для чего это?

Выпущено: США, Великобритания
Продолжительность: 01:56:31
Перевод: Профессиональный (многоголосый, закадровый) R5 + Оригинал (Английский)
Субтитры: Русские (2 вида), Английские.
Отдельно, http:
Авторский (одноголосый, закадровый) А. Гаврилов
48 Hz, AC3, 192 kbps, 2.0 ch
Авторский (одноголосый, закадровый) Goblin
48 Hz, AC3, 448 kbps, 5.1 ch
Авторский (одноголосый, закадровый) Goblin - поздний
48 Hz, AC3, 192 kbps, 2.0 ch
Авторский (одноголосый, закадровый) Л. Володарский
48 Hz, AC3, 448 kbps, 5.1 ch
Одноголосый (закадровый) А. Багичев
48 Hz, AC3, 448 kbps, 5.1 ch
Украинский профессиональный многоголосый перевод (ICTV)
48 Hz, AC3, 192 kbps, 2.0 ch
Файл:
Формат: AVI
Качество: BDRip (источник: BDRemux - vertex647)
Кодек: XviD, build 67 codec
Видео: 704 x 400; 23.976 fps; 1765 kbps; 0.261 bit/pixel
Аудио #1: AC3 Dolby Digital; 448 Kbps; 6 channels; 48 KHz
Аудио #2: AC3 Dolby Digital; 448 Kbps; 6 channels; 48 KHz
Размер: 2232 Mb (1/2 DVD)
Сэмпл: скачать

Скриншоты



admin

Post 26-May-2019 07:11

[Quote]

Информация о фильме
Название: Взрослая любовь / Жизнь с детьми
Оригинальное название: Vita coi figli / Life with the Kids
Год выхода: 1990
Жанр: драма
Режиссер: Дино Ризи
В ролях: Джанкарло Джаннини, Моника Беллуччи, Корин Клери, Лаура Лингуити, Тамара Дона, Валерия Чанготтини, Никола Фаррон, Джанна Мария Гарбелли, Ринальдо Рокко
О фильме:
Большая часть жизни пятерых детей Адриано Ферри прошла мимо него. Постоянно оставляя семью ради продолжительных командировок, он предоставлял своей жене заботиться об их воспитании. Смерть супруги заставила уже немолодого мужчину примерить на себя ранее незнакомую ему роль родителя, что оказалось гораздо сложнее, чем он мог себе представить...
* Дебют в кино Моники Беллуччи.

Страна: Италия
Студия: International Video 80, Reteitalia
Продолжительность: 01:46:42
Перевод: Профессиональный (двухголосый) ТВИН + субтитры
Файл
Кодек: DivX
Качество: DVDRip
Видео: 704x528 (1.33:1), 25 fps, DivX Codec 6.8.5/6.9.1 ~1682 kbps avg, 0.18 bit/pixel
Звук:
1. 48 kHz, AC3 Dolby Digital, 2/0 (L,R) ch, ~128 kbps - рус.
2. 48 kHz, AC3 Dolby Digital, 2/0 (L,R) ch, ~128 kbps - ita.
Субтитры: русские (внешние)

Русский постер

admin

Post 19-May-2019 08:35

[Quote]

Информация о фильме
Название: Насилие в женской тюрьме
Оригинальное название: Violenza in un carcere femminile / Violence in a Women's Prison
Год выхода: 1982
Жанр: боевик, криминал, драма
Режиссер: Бруно Маттеи
В ролях: Лаура Гемсер, Габриэле Тинти, Мария Романо, Урсула Флорес, Антонелла Джакомини, Франко Карачиоло, Франсуаза Перро, Лоррейн Де Селле, Jacques Stany, Лейла Дуранте
О фильме:
Эмануэль расследует нарушения закона и случаи пыток и жестокого обращения в тюрьмах небольшой страны с диктаторским режимом. По фальшивым документам ей удается проникнуть в самую крупную женскую тюрьму. Ее первый контакт с жесткостью режима травмирует ее… То, что она видит и вынуждена переносить, превосходит все ожидания!

Страна: Италия, Франция
Продолжительность: 01:38:39
Перевод 1: профессиональный (многоголосый закадровый) - СВ-Дубль
Перевод 2: авторский (одноголосый закадровый) - Антон Алексеев
Субтитры: английские
Оригинальная аудиодорожка: английский
Файл
Качество: HDRip
Видео: 704x400 (1.76:1), 24 fps, XviD build 73 ~1910 kbps avg, 0.28 bit/pixel
Аудио: 48 kHz, AC3 Dolby Digital, 2/0 (L,R) ch, ~192 kbps - многоголосый
отдельными файлами:
Аудио: 48 kHz, AC3 Dolby Digital, 2/0 (L,R) ch, ~192 kbps - авторский
Аудио: 48 kHz, AC3 Dolby Digital, 2/0 (L,R) ch, ~192 kbps - оригинал

Скриншоты

 

Current time is: 02-Apr 19:20

All times are UTC + 3