Search found 26 matches

Author Message

admin

Post 29-Nov-2018 05:48

[Quote]

Информация о фильме
Название: Парфюм Эммануэль
Оригинальное название: Le Parfum d'Emmanuelle / Emmanuelle's Perfume
Год выхода: 1993
Жанр: Драма, мелодрама, эротика
Режиссер: Франсис Леруа
В ролях: Марсела Валерстейн, Джордж Лэзенби, Сильвия Кристель, Джоэль Буи, Джей Хаусман, Пэм Дук-Ту, Дэниел Хун Мис, Виббе Хаугорд, Тони Сенегал
О фильме: Эмманюэль приехала на Каннский кинофестиваль и узнала от известного продюсера, получившего годом ранее «Золотую пальмовую ветвь» за фильм «Полночная птица», что писатель Сэм, по книге которого была поставлена та картина, избегает контактов с людьми. Эмманюэль пообещала привезти Сэма в Канн и отправилась на остров Бали, где жил Сэм, не покидавший стен своего дома, в котором и располагался бар «Полночная птица». Туда же на 50-летие своей супружеской жизни прилетели и родители Сэма. В гостиничном номере, где они остановились, Эмманюэль оставила в подарок книгу их сына и совершенно необыкновенные духи. Одна капелька этого волшебного снадобья вмиг сделала стариков-супругов молодыми и страстными…

Страна: Франция
Студия: 21st Century Film France, Lions of the Sea, M6 Métropole Télévision
Продолжительность: 01:29:37
Перевод: Авторский одноголосый
Файл
Кодек: MPEG-4 AVC
Качество: DVDRip- AVC
Видео: 2124 Кбит/с, 704x416
Звук: Русский, французский (АС3, 2 ch, 192 Кбит/с), английский (АС3, 6 ch, 384 Кбит/с)
Субтитры: Голландские
Релиз от: Voyeurist
Благодарность: За подготовку релиза спасибо tolkev111

Скриншоты



admin

Post 26-Nov-2018 05:01

[Quote]

Информация о фильме
Название: Животные инстинкты 2 / Животный инстинкт 2 / Дикий инстинкт 2
Оригинальное название: Animal Instincts II
Год выпуска: 1994
Жанр: Триллер, мелодрама, эротика
Режиссер: Грегори Дарк
В ролях: Шэннон Уирри, Вуди Браун, Ал Сапиенца, Элизабет Сандифер, Дженнифер Кэмпбелл, Эрик Фликс, Дэвид Готрео, Том Райли, Дин Скофилд, Алекс Уолтерс
О фильме: Главная героиня Джоанна имеет одну особенность — она сильно заводится от того, что за ней наблюдают в то время, когда она занимается с кем-либо любовью. В настоящий момент Джоанна переезжает из пригорода в город. Там она устраивается помощником фотографа Эрика в одном из журналов мод. Джоанне везёт не только с работой, но и с соседями — это молодая семейная пара: красивый Стив, эксперт по безопасности, и его прелестная жена Кэтрин. Джоанна также обнаруживает что её квартира оборудована устройствами слежения, а следит за ней именно Стив. Его вуайеризм позволяет получить Джоанне во время секса новые удовольствия.

Страна: США
Студия: Axis Films International/Davis Joint Venture
Продолжительность: 01:28:45
Перевод: Авторский (одноголосый закадровый) Василий Горчаков, Профессиональный (двухголосый закадровый) (на uncut версию)
Файл
Кодек: XviD
Качество: DVDRip
Видео: 1750 Кбит/с, 640x472
Звук: AC3, 2 ch, 192 Кбит/с
Релиз от: edich2
Доп. информация: Дорожка с В. Горчаковым синхронизирована и наложена ale_x2008 при помощи Sony Vegas и VirtualDubMod.
За оцифрованную с VHS дорожку благодарим - alenavova.
P.S. Видео, якобы в PAL, а с рипом DVD-версии в NTSC идёт синхронно, но DVD-версия укороченная, с купюрами.
DVDRip (из коллекции ale_x2008)

Скриншоты



admin

Post 26-Nov-2018 04:46

[Quote]

Информация о фильме
Название: Цитадель / Лунная крепость
Оригинальное название: Moonbase
Год выхода: 1997
Жанр: фантастика, боевик
Режиссер: Паоло Маццукато
В ролях: Скотт Планк, Жослин Сигрейв, Роберт О’Рейли, Курт Фуллер, Рэнди Васкес, Гретхен Палмер
О фильме: 2065 год. Тёмная сторона Луны превращена во всемирную свалку, сюда свозят опасные токсичные отходы со всех уголков Галактики. Для переработки этих отходов здесь же построена космическая станция. А на орбите Луны располагается суперсовременная каторжная тюрьма для особо опасных преступников. Группе рецидивистов удаётся совершить из неё дерзкий побег, и в трюме космического мусоровоза они добираются до Луны.
Дальше всё просто — отсидевшись на Лунной станции, дождаться транспорта с Земли и покинуть Луну. Но информация, попавшая в их руки, меняет всё. И теперь цель бандитов — поиск ядерной боеголовки, где-то здесь спрятанной, и захват космического корабля, приближающегося к Луне. Лишь одно не учтено в их преступных планах — неожиданно жёсткое сопротивление сотрудников мирной станции…


Страна: США / Live Entertainment,Planet Productions
Продолжительность: 01:25:01
Перевод: Авторский (одноголосый закадровый) [Пётр Карцев]
Файл
Качество: DVDRip
Формат: AVI
Видео: XviD, 2190 Кбит/сек, 720x528
Звук: AC3, 2 ch, 256 Кбит/сек
Субтитры: нетСЕМПЛ
Без рекламы

admin

Post 18-Nov-2018 04:58

[Quote]

Информация о фильме
Название: Эммануэль в Венеции
Оригинальное название: Emmanuelle in Veniсe
Год выхода: 1993
Жанр: драма, мелодрама, эротика
Режиссер: Франсис Леруа
В ролях: Марсела Валерстейн, Джордж Лэзенби, Сильвия Кристель, Джоэль Буи, Джей Хаусман, Пэм Дук-Ту, Дэниел Хун Мис, Виббе Хаугорд, Тони Сенегал, Frederic Fratini
О фильме:
В салоне авиалайнера Эмманюэль рассказывает Марио историю о девушке Анаис. В 22-летнем возрасте Анаис получила в подарок от своего возлюбленного Джона одно из старинных зданий в исторической части Венеции. Спустя несколько лет она осталась одна. Многие кавалеры делали ей предложения руки и сердца, но Анаис не могла забыть погибшего Джона. Жизнь окончилась для нее навсегда. Так она считала… пока в ее доме не появилась Эмманюэль.

Страна: Франция
Студия: 21st Century Film France, Lions of the Sea, M6 Metropole Television
Продолжительность: 01:27:50
Перевод: профессиональный двухголосный, закадровый [REN-TV], авторский [А.Гаврилов]
Файл
Кодек: H.264
Качество: DVDRip-AVC
Видео: AVC, 704x416 (1.692), 25 fps ~ 2120 Kbps
Звук:
AC3, 48 KHz, 2 ch ~ 192 Kb/s [REN-TV]
AC3, 48 KHz, 2 ch ~ 192 Kb/s [Гаврилов]
MP3, 22.05 KHz, 2 ch ~ 160 Kb/s (французский)
MP3, 22.05 KHz, 2 ch ~ 160 Kb/s (немецкий)
AC3, 48 KHz, 6 ch ~ 384 Kb/s (английский)
Субтитры: голландские

MI:

Общее
Уникальный идентификатор : 190628494522425842615390118310269273131 (0x8F69B66BFF81B0769124A00F7C75C42B)
Полное имя : Q:TorFЭммануэль в Венеции [rus].mkv
Формат : Matroska
Версия формата : Version 4 / Version 2
Размер файла : 1,97 Гбайт
Продолжительность : 1 ч. 27 м.
Общий поток : 3213 Кбит/сек
Дата кодирования : UTC 2018-11-06 17:39:04
Программа кодирования : mkvmerge v7.7.0 ('Six Voices') 64bit built on Feb 28 2015 23:39:33
Библиотека кодирования : libebml v1.3.1 + libmatroska v1.4.2
DURATION : 01:21:58.829000000
NUMBER_OF_FRAMES : 516
NUMBER_OF_BYTES : 980512
_STATISTICS_WRITING_APP : mkvmerge v7.7.0 ('Six Voices') 64bit built on Feb 28 2015 23:39:33
_STATISTICS_WRITING_DATE_UTC : 2018-11-06 17:39:04
_STATISTICS_TAGS : BPS DURATION NUMBER_OF_FRAMES NUMBER_OF_BYTES
Видео
Идентификатор : 1
Формат : AVC
Формат/Информация : Advanced Video Codec
Профиль формата : High@L3.0
Параметр CABAC формата : Да
Параметр ReFrames формата : 4 кадра
Идентификатор кодека : V_MPEG4/ISO/AVC
Продолжительность : 1 ч. 27 м.
Битрейт : 2120 Кбит/сек
Ширина : 704 пикселя
Высота : 416 пикселей
Соотношение сторон : 1,692
Частота кадров : 25,000 кадров/сек
Цветовое пространство : YUV
Субдискретизация насыщенности : 4:2:0
Битовая глубина : 8 бит
Тип развёртки : Прогрессивная
Бит/(Пиксели*Кадры) : 0.290
Размер потока : 1,27 Гбайт (64%)
Библиотека кодирования : x264 core 146 r2538 121396c
Настройки программы : cabac=1 / ref=4 / deblock=1:0:0 / analyse=0x3:0 / me=dia / subme=1 / psy=1 / psy_rd=1.00:0.00 / mixed_ref=0 / me_range=16 / chroma_me=1 / trellis=1 / 8x8dct=1 / cqm=0 / deadzone=21,11 / fast_pskip=1 / chroma_qp_offset=0 / threads=12 / lookahead_threads=2 / sliced_threads=0 / nr=0 / decimate=1 / interlaced=0 / bluray_compat=0 / constrained_intra=0 / bframes=4 / b_pyramid=2 / b_adapt=1 / b_bias=0 / direct=3 / weightb=1 / open_gop=0 / weightp=2 / keyint=250 / keyint_min=25 / scenecut=40 / intra_refresh=0 / rc_lookahead=40 / rc=2pass / mbtree=1 / bitrate=2120 / ratetol=1.0 / qcomp=0.60 / qpmin=0 / qpmax=69 / qpstep=4 / cplxblur=20.0 / qblur=0.5 / ip_ratio=1.40 / aq=1:1.00
Язык : English
Default : Да
Forced : Нет
DURATION : 01:27:56.680000000
NUMBER_OF_FRAMES : 131917
NUMBER_OF_BYTES : 1398422091
_STATISTICS_WRITING_APP : mkvmerge v7.7.0 ('Six Voices') 64bit built on Feb 28 2015 23:39:33
_STATISTICS_WRITING_DATE_UTC : 2018-11-06 17:39:04
_STATISTICS_TAGS : BPS DURATION NUMBER_OF_FRAMES NUMBER_OF_BYTES
Аудио #1
Идентификатор : 2
Формат : AC-3
Формат/Информация : Audio Coding 3
Расширение режима : CM (complete main)
Идентификатор кодека : A_AC3
Продолжительность : 1 ч. 27 м.
Вид битрейта : Постоянный
Битрейт : 192 Кбит/сек
Каналы : 2 канала
Расположение каналов : Front: L R
Частота : 48,0 КГц
Битовая глубина : 16 бит
Метод сжатия : С потерями
Размер потока : 121 Мбайт (6%)
Заголовок : REN-TV
Язык : Russian
Default : Да
Forced : Нет
Аудио #2
Идентификатор : 3
Формат : AC-3
Формат/Информация : Audio Coding 3
Расширение режима : CM (complete main)
Идентификатор кодека : A_AC3
Продолжительность : 1 ч. 27 м.
Вид битрейта : Постоянный
Битрейт : 192 Кбит/сек
Каналы : 2 канала
Расположение каналов : Front: L R
Частота : 48,0 КГц
Битовая глубина : 16 бит
Метод сжатия : С потерями
Размер потока : 121 Мбайт (6%)
Заголовок : AVO
Язык : Russian
Default : Нет
Forced : Нет
Аудио #3
Идентификатор : 4
Формат : MPEG Audio
Версия формата : Version 2
Профиль формата : Layer 3
Режим : Joint stereo
Расширение режима : MS Stereo
Идентификатор кодека : A_MPEG/L3
Идентификатор кодека/Подсказка : MP3
Продолжительность : 1 ч. 27 м.
Вид битрейта : Постоянный
Битрейт : 160 Кбит/сек
Каналы : 2 канала
Частота : 22,05 КГц
Метод сжатия : С потерями
Размер потока : 101 Мбайт (5%)
Библиотека кодирования : LAME3.98.4
Язык : French
Default : Нет
Forced : Нет
Аудио #4
Идентификатор : 5
Формат : MPEG Audio
Версия формата : Version 2
Профиль формата : Layer 3
Режим : Joint stereo
Расширение режима : MS Stereo
Идентификатор кодека : A_MPEG/L3
Идентификатор кодека/Подсказка : MP3
Продолжительность : 1 ч. 27 м.
Вид битрейта : Постоянный
Битрейт : 160 Кбит/сек
Каналы : 2 канала
Частота : 22,05 КГц
Метод сжатия : С потерями
Размер потока : 101 Мбайт (5%)
Библиотека кодирования : LAME3.98.4ЄЄЄЄЄЄЄЄЄЄ
Язык : German
Default : Нет
Forced : Нет
Аудио #5
Идентификатор : 6
Формат : AC-3
Формат/Информация : Audio Coding 3
Расширение режима : CM (complete main)
Идентификатор кодека : A_AC3
Продолжительность : 1 ч. 27 м.
Вид битрейта : Постоянный
Битрейт : 384 Кбит/сек
Каналы : 6 каналов
Расположение каналов : Front: L C R, Side: L R, LFE
Частота : 48,0 КГц
Битовая глубина : 16 бит
Метод сжатия : С потерями
Размер потока : 242 Мбайт (12%)
Язык : English
Default : Нет
Forced : Нет
Текст
Идентификатор : 7
Формат : VobSub
Режим смешивания : zlib
Идентификатор кодека : S_VOBSUB
Идентификатор кодека/Информация : The same subtitle format used on DVDs
Язык : Dutch
Default : Да
Forced : Нет
Меню
00:00:00.000 : en:
00:15:30.160 : en:
00:30:10.480 : en:
00:43:23.440 : en:
00:59:52.960 : en:
01:15:14.160 : en:

Скриншоты

admin

Post 26-Aug-2018 19:00

[Quote]

Информация о фильме
Название: Дикари
Оригинальное название: Selvaggi
Год выхода: 1995
Жанр: комедия, приключения
Режиссер: Карло Ванцина
В ролях: Эцио Греджо, Лео Гульотта, Антонелло Фассари, Моника Скаттини, Чинция Леоне, Эмилио Солфрицци, Кармела Винченти, Кэш Касия, Мишель Меркин, Франко
О фильме:
Героев этой великолепной комедии связывает вместе слепой случай. Авиалайнер, на котором они летели, терпит крушение, и вся группа «туристов» оказывается на необитаемом острове в Карибском море.Новоявленные робинзоны, привыкшие к уюту и цивилизации, вынуждены проявлять изобретательность, чтобы приспособиться к новым условиям и найти способ возвращения домой...

Страна: Италия
Студия: Medusa Film S.p.a., Video 80
Продолжительность: 01:27:14
Перевод: Авторский (одноголосый) Владимир Штейн
Файл
Кодек: AVC
Качество: WEB-DLRip-AVC
Видео: AVC (H264), 1152x624 (1.85:1), 25 fps, 2970 kbps, 0.165 Bits/Pixel
Звук:
1. 44 kHz, AC3 Dolby Digital, 2/0 (L,R) ch, ~224 kbps - рус.
2. 48 kHz, AC3 Dolby Digital, 2/0 (L,R) ch, ~192 kbps - ita.
Субтитры: нет

admin

Post 16-Jul-2018 17:48

[Quote]

Информация о фильме
Название: Механика женщины
Оригинальное название: La Mécanique des femmes
Год выхода: 2000
Жанр: драма
Режиссер: Жером де Миссольц / Jérôme de Missolz
В ролях: Реми Мартен, Кристин Буассон, Фабьен Бабэ, Флоранс Луаре, Амина Аннаби, Тина Омон, Арбен Бажрактараж
О фильме:
Человек сталкивается с ненасытным желанием женщин, с их хищными и чувственными инстинктами, с их веселой игрой обольщения, благодатью и непристойностью. Они нуждаются в любви...
ВНИМАНИЕ! В переводе употребляется ненормативная лексика!

Страна: Франция
Студия: Centre National de la Cinématographie (CNC)
Продолжительность: 01:31:56
Перевод: Любительский (одноголосый)
Файл
Кодек: DivX
Качество: DVDRip
Видео: 672x352 (1.91:1), 25 fps, DivX Codec 5.2.1 build 1328 ~1474 kbps avg, 0.25 bit/pixel
Звук:
1. 48 kHz, AC3 Dolby Digital, 2/0 (L,R) ch, ~192.00 kbps avg - рус.
2. 48 kHz, AC3 Dolby Digital, 3/2 (L,C,R,l,r) + LFE ch, ~448.00 kbps avg - fre.
Субтитры: нет

admin

Post 03-Jun-2018 04:02

[Quote]

Информация о фильме
Название: Космические дальнобойщики
Оригинальное название: Space Truckers
Год выхода: 1996
Жанр: Фантастика, Триллер, Приключения
Режиссер: Stuart Gordon / Стюарт Гордон
Оператор: Mac Ahlberg / Мак Олберг
Композитор: Colin Towns / Колин Таунс
В ролях: Деннис Хоппер / Dennis Hopper ( John Canyon ), Деби Мейзар / Debi Mazar ( Cindy ), Олвен Фуэр / Olwen Fouere ( Building Commander ), Чарльз Дэнс / Charles Dance ( Nabel / Macanudo ), Шэйн Риммер / Shane Rimmer ( E. J. Saggs ), Джордж Уэндт / George Wendt ( Keller ) и другие.
О фильме:
2196 год. Водитель, перевозящий грузы на далекие планеты, хочет остаться независимым от могущественной корпорации. Поэтому за большие деньги он берётся перевезти сомнительный груз. Чтобы сократить путь, он направляется через Галактику, где царит разбой и пиратство. С самого начала у Джона возникают сомнения относительно перевозимого им груза, но он пытается себя побороть и отвезти мысли о вскрытии контейнеров...

Страна: Великобритания, США, Ирландия
Выпущено: Goldcrest Films International, Peter Newman Productions, InterAL, Mary Breen-Farrelly Productions, Investment Incentives for the Irish Film Industry, Pachyderm Production
Графика: Electric Image, Cannom Creations, Optic Nerve Studios, SMG Effects
Продолжительность: 01:36:21
Перевод: Профессиональный (многоголосый, закадровый) ТВЦ
Субтитры: Нет
Файл
Кодек: XviD
Качество: HDRip
Видео: 24.000 fps; ~1700 Кбит/с; 720x304
Аудио: AC3; 48.0 KHz; 6ch; 448 Kbps--

Интересно

- Дизайн биомеханических воинов был разработан японским иллюстратором Хадзиме Сораямой, известным своими нарисованными вручную фотореалистичными эротическими изображениями женщин и женоподобных роботов-гиноидов, автором дизайна AIBO.
Бывший монтажер серии "National Lampoons" Тед Манн, написавший сценарий к этому фильму, назвал его "Первым космическим дорожным фильмом". По словам Манна, в фильме нет ученых, ни техников, ни блестящего и стерильного окружения, которое обычно используется в фильмах про космос. Космос такой же, как и всё вокруг - люди, которые там находятся, малооплачиваемы и никем не уважаемы.
Фильм снимался на студии Ардмор, графство Уиклоу, Ирландия.
Вернон Уэллс сыграл эпизодическую роль космического пирата.
- В фильме пренебрегают законами гравитации и физикой. Наиболее ярким примером является вертикальное пламя зажигалки в месте, где нет воздуха и силы тяжести.
--

mihis

Post 09-Apr-2018 19:49

[Quote]

Брат якудзы / Brother«А ты Японец?..»Год выпуска: 2000
Страна: США, Великобритания, Япония
Жанр: триллер, драма, криминал
Продолжительность: 01:53:20
Перевод: Профессиональный (двухголосый) + Авторский (Дмитрий «Гоблин» Пучков) + Оригинал
Cубтитры: русские, английские
Режиссер: Такеши Китано
В ролях: Такеши Китано, Омар Эппс, Куроудо Маки, Масая Като, Сусуму Тэрадзима, Ройял Уоткинс, Ломбардо Бойяр, Рен Осуги, Рё Исибаси, Джеймс Шигета, Татьяна Али, Макото Отакэ
Описание: После разгрома родного мафиозного клана боевик Аники Ямамото по прозвищу Старший Брат бежит из Японии в Америку. Здесь его встречает чужой, но не менее жестокий мир безжалостной борьбы за власть в преступной среде, в которой Ямамото решительно отвоевывает себе место, следуя древнему кодексу «якудзы».
Полагаясь только на свои силы и дорожа верными друзьями, он в одиночку ведет войну с врагами, зная, что в самом конце кровавого пути его ждет триумф или смерть...

Качество: HDRip-AVC
Формат: MKV
Видео кодек: H.264
Аудио кодек: AC3
Видео: 1024х552 (1,855:1), 24 fps, H264 ~ 2333 kbps avg, 0.172 bit/pixel
Аудио: 48 kHz, AC3, 6 ch, 448.00 kbps DVO AVO ENG

Скриншоты

KSA

Post 04-Apr-2018 11:58

[Quote]

Армейские приключения / In the Army Now
Название: Армейские приключения
Оригинальное название: In the Army Now
Год выпуска: 1994
Выпущено: США, Hollywood Pictures
Жанр: Комедия, военный
Режиссер: Дэниел Питри мл.
В ролях: Поли Шор, Энди Дик, Лори Петти, Дэвид Алан Грир, Эсай Моралес, Линн Уитфилд, Арт ЛаФлёр, Фабиана Уденио, Гленн Моршауэр, Биу Биллингсли
О фильме: Закадычные друзья Боунз и Джек вовсе не думали становиться героями. Они записались в резервисты американской армии, чтобы заработать денег и открыть собственный магазин. Но тихой службы в тылу не получилось. Свободный мир опять в опасности, и вот уже бравые вояки отправляются сражаться в Африку.Это совсем не входило в планы Боунза и Джека, которых по уровню героизма в крови обогнал бы и кролик. Но тут, по иронии судьбы, дело обернулось так, что именно этому эксцентричному дуэту предстоит внести основной вклад в победу.

Продолжительность: 01:32:15
Перевод: Профессиональный многоголосый, профессиональный двухголосый
Субтитры: Нет
Файл
Формат: AVI
Качество: WEB-DLRip
Видео: XviD, 1851 Кбит/сек, 720x400, 23,976 кадра/сек
Аудио #1: AC3, 2 ch, 192 Кбит/сек | Русский, профессиональный (многоголосый закадровый) «CTC», DVD
Аудио #2: AC3, 2 ch, 192 Кбит/сек | Русский, профессиональный (двухголосый закадровый) Видеосервис, VHS
Релиз от:

Скриншоты

Инфо-файл

Общее
Полное имя : Armeyskie.priklyucheniya.1994.WEB-DLRip.KORSAR.avi
Формат : AVI
Формат/Информация : Audio Video Interleave
Размер файла : 1,45 Гбайт
Продолжительность : 1 ч. 32 м.
Общий поток : 2249 Кбит/сек
Программа кодирования : VirtualDubModRus 1.5.10.2 (build 2542/release)
Библиотека кодирования : VirtualDubMod build 2542/release
Видео
Идентификатор : 0
Формат : MPEG-4 Visual
Профиль формата : Advanced Simple@L5
Настройки формата : BVOP1 / Custom Matrix
Параметр BVOP формата : 1
Параметр QPel формата : Нет
Параметр GMC формата : Без точки перехода
Параметр матрицы формата : Выборочная
Идентификатор кодека : XVID
Идентификатор кодека/Подсказка : XviD
Продолжительность : 1 ч. 32 м.
Битрейт : 1851 Кбит/сек
Ширина : 720 пикселей
Высота : 400 пикселей
Соотношение сторон : 16:9
Частота кадров : 23,976 (24000/1001) кадра/сек
Частота кадров в оригинале : 23,976 (23976/1000) кадра/сек
Цветовое пространство : YUV
Субдискретизация насыщенности : 4:2:0
Битовая глубина : 8 бит
Тип развёртки : Прогрессивная
Метод сжатия : С потерями
Бит/(Пиксели*Кадры) : 0.268
Размер потока : 1,19 Гбайт (82%)
Библиотека кодирования : XviD 1.2.1 (UTC 2008-12-04)
Аудио #1
Идентификатор : 1
Формат : AC-3
Формат/Информация : Audio Coding 3
Идентификатор кодека : 2000
Продолжительность : 1 ч. 32 м.
Вид битрейта : Постоянный
Битрейт : 192 Кбит/сек
Каналы : 2 канала
Расположение каналов : Front: L R
Частота : 48,0 КГц
Частота кадров : 31,250 кадров/сек (1536 SPF)
Битовая глубина : 16 бит
Метод сжатия : С потерями
Размер потока : 127 Мбайт (9%)
Выравнивание : Соединение по промежуткам
Продолжительность промежутка : 42 мс. (1,00 видеокадр)
Время предзагрузки промежутка : 512 мс.
Заголовок : MVO | «CTC», DVD
Аудио #2
Идентификатор : 2
Формат : AC-3
Формат/Информация : Audio Coding 3
Идентификатор кодека : 2000
Продолжительность : 1 ч. 32 м.
Вид битрейта : Постоянный
Битрейт : 192 Кбит/сек
Каналы : 2 канала
Расположение каналов : Front: L R
Частота : 48,0 КГц
Частота кадров : 31,250 кадров/сек (1536 SPF)
Битовая глубина : 16 бит
Метод сжатия : С потерями
Размер потока : 127 Мбайт (9%)
Выравнивание : Соединение по промежуткам
Продолжительность промежутка : 42 мс. (1,00 видеокадр)
Время предзагрузки промежутка : 512 мс.
Заголовок : DVO | Видеосервис, VHS

Благодарности

За дорожку Видеосервис, VHS - спасибо alenavova.

admin

Post 10-Dec-2017 05:10

[Quote]

Информация о фильме
Название: Ронин
Оригинальное название: Ronin
Год выхода: 1998
Жанр: боевик, триллер, криминал
Режиссер: Джон Франкенхаймер
В ролях: Роберт Де Ниро, Жан Рено, Наташа МакЭлхоун, Стеллан Скарсгард, Шон Бин, Скипп Саддат, Микаэль Лонсдаль, Ян Триска, Джонатан Прайс, Рон Перкинс
О фильме:
Хотя холодная война давно закончена, тайные наемники, чьи навыки в слежке, шпионаже и силовых схватках буквально легендарны, остаются востребованными при новом мировом порядке и всегда находят высокооплачиваемую работу. Некий таинственный клиент собирает в Париже команду таких «платных оперативников», известных как «Ронины», для похищения сверхсекретного портфеля.
Вскоре выясняется, что это, на первый взгляд простое, задание почти невыполнимо: та же цена обещана за тот же портфель еще нескольким нелегальным группам.
Чтобы справиться с работой, бывший агент ЦРУ по кличке «Сэм» и его наспех сколоченный отряд должны делать то, чего им не приходилось делать никогда раньше: довериться друг другу.

Выпущено: Великобритания, Франция, США / MGM - United Artists
Продолжительность: 02:01:34
Перевод: Дублированный (Невафильм)
Файл
Кодек: x264
Тип релиза: HDRip-AVC [Ронин / Ronin (1998) Hybrid 1080p [Open Matte] - Bluray поверх HDTV]
Видео: 1024x576 (16:9), ~2374 Kbps, 23.976 fps
Звук: AC3, 48 kHz, 192 kbps, 2.0 ch
Субтитры: русские (R5, Uncle KiLler, unknown), украинские, английские (форсированные на иностранную речь, полные) - SRT
ЦитатаКто-то писал:Гибрид получен путем автоматического совмещения нескольких HDTV-трансляций и широкоэкранного BD (старый, неремастированный трансфер). Чистый видеоряд.
Звуковые дорожки и субтитры от HDClub--

M/I

General
Unique ID : 325532729544129336500087078990798276088 (0xF4E752BB50E3FE7C86DFADCBFC3E45F8)
Complete name : F:FILMSРонин.1998.Open.Matte.HybridRIP-AVC.[-=DoMiNo=-].mkv
Format : Matroska
Format version : Version 4 / Version 2
File size : 2.18 GiB
Duration : 2 h 1 min
Overall bit rate : 2 569 kb/s
Movie name : Ронин
Deion : Хотя холодная война давно закончена, тайные наемники, чьи навыки в слежке, шпионаже и силовых схватках буквально легендарны, остаются востребованными при новом мировом порядке и всегда находят высокооплачиваемую работу. Некий таинственный клиент собирает в Париже команду таких «платных оперативников», известных как «Ронины», для похищения сверхсекретного портфеля. / Вскоре выясняется, что это, на первый взгляд простое, задание почти невыполнимо: та же цена обещана за тот же портфель еще нескольким нелегальным группам. / Чтобы справиться с работой, бывший агент ЦРУ по кличке «Сэм» и его наспех сколоченный отряд должны делать то, чего им не приходилось делать никогда раньше: довериться друг другу.
Writing application : XviD4PSP 7.0.431 DAILY
Writing library : Lavf57.71.100
Cover : Yes
ErrorDetectionType : Per level 1
Attachments : cover.jpg
COMPOSER : Элиа Кмирал
COUNTRY : Великобритания, Франция, США
DATE : 1998
DIRECTOR : Джон Франкенхаймер
ENCODING_INFO : MATROSKA,WEBM > MKV Пользовательский / H264 > X264 VBR-2P 2374kbps Пользовательский / AC3 > COPY Безопасное
GENRE : боевик, триллер, криминал, приключения
HD_VIDEO : 1
IMDB_RATING : 7.30
ITUNEXTC : mpaa|R|400|
Language : und
MEDIA_TYPE : 9
ORIGINAL_TITLE : Ronin
PRODUCER : Фрэнк Манкузо мл., Пол Келменсон, Этель Уинант
RATING : 7.298
WRITER : Дж. Д. Зайк, Дэвид Мэмет
Video
ID : 1
Format : AVC
Format/Info : Advanced Video Codec
Format profile : High@L4.1
Format settings : CABAC / 11 Ref Frames
Format settings, CABAC : Yes
Format settings, ReFrames : 11 frames
Codec ID : V_MPEG4/ISO/AVC
Duration : 2 h 1 min
Bit rate : 2 374 kb/s
Width : 1 024 pixels
Height : 576 pixels
Display aspect ratio : 16:9
Frame rate mode : Constant
Frame rate : 23.976 (24000/1001) FPS
Color space : YUV
Chroma subsampling : 4:2:0
Bit depth : 8 bits
Scan type : Progressive
Bits/(Pixel*Frame) : 0.168
Stream size : 1.98 GiB (91%)
Title : HybridRIP-AVC_BY_-=DoMiNo=-_Open Matte
Writing library : x264 core 152 r2851M ba24899
Encoding settings : cabac=1 / ref=11 / deblock=1:-3:-3 / analyse=0x3:0x133 / me=umh / subme=11 / psy=1 / psy_rd=1.00:0.05 / mixed_ref=1 / me_range=32 / chroma_me=1 / trellis=2 / 8x8dct=1 / cqm=0 / deadzone=21,11 / fast_pskip=1 / chroma_qp_offset=-3 / threads=5 / lookahead_threads=1 / sliced_threads=0 / nr=0 / decimate=1 / interlaced=0 / bluray_compat=0 / constrained_intra=0 / bframes=12 / b_pyramid=2 / b_adapt=2 / b_bias=0 / direct=3 / weightb=1 / open_gop=0 / weightp=2 / keyint=240 / keyint_min=24 / scenecut=40 / intra_refresh=0 / rc_lookahead=60 / rc=2pass / mbtree=1 / bitrate=2374 / ratetol=1.0 / qcomp=0.60 / qpmin=0 / qpmax=69 / qpstep=4 / cplxblur=20.0 / qblur=0.5 / ip_ratio=1.40 / aq=1:1.00
Language : English
Default : Yes
Forced : No
Color range : Limited
Color primaries : BT.709
Transfer characteristics : BT.709
Matrix coefficients : BT.709
Audio
ID : 2
Format : AC-3
Format/Info : Audio Coding 3
Codec ID : A_AC3
Duration : 2 h 1 min
Bit rate mode : Constant
Bit rate : 192 kb/s
Channel(s) : 2 channels
Channel positions : Front: L R
Sampling rate : 48.0 kHz
Frame rate : 31.250 FPS (1536 SPF)
Bit depth : 16 bits
Compression mode : Lossy
Stream size : 167 MiB (7%)
Title : Dub Nevafilm
Language : Russian
Service kind : Complete Main
Default : Yes
Forced : No
Text #1
ID : 3
Format : UTF-8
Codec ID : S_TEXT/UTF8
Codec ID/Info : UTF-8 Plain Text
Title : R5
Language : Russian
Default : Yes
Forced : No
Text #2
ID : 4
Format : UTF-8
Codec ID : S_TEXT/UTF8
Codec ID/Info : UTF-8 Plain Text
Title : Uncle KiLler
Language : Russian
Default : No
Forced : No
Text #3
ID : 5
Format : UTF-8
Codec ID : S_TEXT/UTF8
Codec ID/Info : UTF-8 Plain Text
Title : Unknown
Language : Russian
Default : No
Forced : No
Text #4
ID : 6
Format : UTF-8
Codec ID : S_TEXT/UTF8
Codec ID/Info : UTF-8 Plain Text
Title : Ukrainian
Language : Ukrainian
Default : No
Forced : No
Text #5
ID : 7
Format : UTF-8
Codec ID : S_TEXT/UTF8
Codec ID/Info : UTF-8 Plain Text
Title : English forced
Language : English
Default : No
Forced : No
Text #6
ID : 8
Format : UTF-8
Codec ID : S_TEXT/UTF8
Codec ID/Info : UTF-8 Plain Text
Title : English
Language : English
Default : No
Forced : No
Menu
00:00:00.000 : :Start
00:07:01.796 : :Team Dynamics
00:10:28.961 : :Botched Exchange
00:15:23.339 : :New Negotiations
00:17:22.082 : :Photographic Study
00:18:55.050 : :Remote Sensor Tracking
00:24:12.784 : :In Search Of Gregor
00:26:20.662 : :Answering To The Boss
00:27:20.138 : :Those Who Wait...
00:31:22.171 : :The Link To The Case
00:33:54.490 : :Ice-Skating Gala
00:39:19.899 : :Farewell
00:41:19.351 : :Bull's-Eye Bombing
00:45:21.719 : :Chasing The Target
00:49:51.238 : :Crashing The Case
00:51:35.842 : :Spiritual Doctor
00:54:35.563 : :"Life Is Uncertain"
00:57:32.240 : :Gregor's Icy Ring
00:58:53.238 : :"I Need Your Help!"
01:01:21.344 : :The Arena Massacre
01:09:04.598 : :Directing Surgery
01:14:48.275 : :Seamus' Hostility
01:20:06.051 : :Masterless Samurai
01:24:01.494 : :Fragile Hesitation
01:27:05.345 : :Chases To Die For
01:35:04.323 : :A Questionable Case
01:39:31.924 : :Scary Ice Skating
01:45:25.110 : :Gregor's Gunned Down
01:49:22.264 : :A Frenzy Of Fleeing
01:51:49.411 : :Showdown With Seamus
01:53:46.402 : :"Peaceful" Closure
01:56:02.580 : :Credits
--

admin

Post 28-Nov-2017 04:01

[Quote]

Пока ты спалWhile You Were Sleeping«Любовь - прекрасный сон, когда так не хочется просыпаться»- Страна: США
Жанр: драма, мелодрама, комедия
Год выпуска: 1995
Продолжительность: 01:43:15
Перевод: Профессиональный (многоголосый, закадровый) [Видеосервис]
Перевод 2: Авторский (Санаев Павел)
Субтитры: Russian, English
Оригинальная аудиодорожка: английский
Режиссер: Джон Тёртелтауб / Jon Turteltaub
В ролях: Сандра Буллок, Билл Пуллман, Питер Галлахер, Питер Бойл, Джек Уорден, Глинис Джонс, Миколе Миркурио, Джейсон Бернард, Майкл Рисполи, Элли Уокер, Моника Кина, Рут Рудник, Марша Райт, Дик Кьюсак, Томас К. Моррис, Берни Лэндис, Джеймс Крэг, Рик Уорси, Марк Грэйпи, Джоэль Хэтч, Майк Бакарелла, Питер Сирагуса, Джин Янсон, Криста Лэлли, Кевин Гудал
Описание: Застенчивость мешает одинокой Люси познакомиться с мужчиной своей мечты, которого она видит каждое утро. Зато помогает случай, и девушка спасает незнакомцу жизнь. Теперь она может любоваться им целыми днями: спасенный Питер лежит в больнице без сознания.
Семья по ошибке принимает ее за невесту, и Люси не хочет разубеждать этих милых людей. Ведь она уже успела привязаться к ним, особенно к брату Питера. И пока ничего не подозревающий «жених» спит, его «невеста» уже не верит в прекрасный сон. Скоро Люси придется выбирать между волшебной сказкой и такой реальной любовью...

Автор рипа: IVAN@190282
Качество: BDRip-AVC |Пока ты спал / While You Were Sleeping (1995) 1080p Blu-ray 1080р|
Контейнер: MKV
Видео : 1132x612 (1:85:1), 24.00 fps, 3467 Кbps, 0.209 bit/pixe
Аудио: 48 kHz, AC3 Dolby Digital, 3/2 (L,C,R,l,r) + LFE ch, 448.00 kbps | MVO
Аудио 2:48 kHz, AC3 Dolby Digital, 3/2 (L,C,R,l,r) + LFE ch, 448.00 kbps | ENG
Аудио 3 :48 kHz, AC3 Dolby Digital, 3/2 (L,C,R,l,r) + LFE ch, 448.00 kbps | AVO

MediaInfo

General
Unique ID : 226864851248966474762937682993234555732 (0xAAAC94BEB497981ABFACF8165593B354)
Complete name : E:\Мои рипы\Пока ты спал\Пока ты спал by_IVAN@190282.mkv
Format : Matroska
Format version : Version 4 / Version 2
File size : 3.15 GiB
Duration : 1h 43mn
Overall bit rate : 4 363 Kbps
Encoded date : UTC 2014-10-04 02:15:13
Writing application : mkvmerge v7.0.0 ('Where We Going') 64bit built on Jun 9 2014 15:16:27
Writing library : libebml v1.3.0 + libmatroska v1.4.1
DURATION : 01:37:45.651000000
NUMBER_OF_FRAMES : 1612
NUMBER_OF_BYTES : 55022
_STATISTICS_WRITING_APP : mkvmerge v7.0.0 ('Where We Going') 64bit built on Jun 9 2014 15:16:27
_STATISTICS_WRITING_DATE_UTC : 2014-10-04 02:15:13
_STATISTICS_TAGS : BPS DURATION NUMBER_OF_FRAMES NUMBER_OF_BYTES
Video
ID : 1
Format : AVC
Format/Info : Advanced Video Codec
Format profile : High@L4.1
Format settings, CABAC : Yes
Format settings, ReFrames : 13 frames
Codec ID : V_MPEG4/ISO/AVC
Duration : 1h 43mn
Bit rate : 3 467 Kbps
Width : 1 132 pixels
Height : 612 pixels
Display aspect ratio : 1.85:1
Frame rate mode : Constant
Frame rate : 23.976 fps
Color space : YUV
Chroma subsampling : 4:2:0
Bit depth : 8 bits
Scan type : Progressive
Bits/(Pixel*Frame) : 0.209
Stream size : 2.44 GiB (77%)
Writing library : x264 core 142 r2479kMod dd79a61
Encoding settings : cabac=1 / ref=13 / deblock=1:-3:-3 / analyse=0x3:0x113 / me=umh / subme=11 / psy=1 / fade_compensate=0.00 / psy_rd=1.00:0.15 / mixed_ref=1 / me_range=48 / chroma_me=1 / trellis=2 / 8x8dct=1 / cqm=0 / deadzone=21,11 / fast_pskip=0 / chroma_qp_offset=0 / threads=6 / lookahead_threads=6 / sliced_threads=0 / slices=10 / nr=0 / decimate=1 / interlaced=0 / bluray_compat=0 / constrained_intra=0 / fgo=0 / bframes=16 / b_pyramid=2 / b_adapt=2 / b_bias=0 / direct=3 / weightb=1 / open_gop=1 / weightp=2 / keyint=240 / keyint_min=23 / scenecut=40 / intra_refresh=0 / rc_lookahead=40 / rc=2pass / mbtree=0 / bitrate=3467 / ratetol=1.0 / qcomp=0.60 / qpmin=0 / qpmax=69 / qpstep=4 / cplxblur=20.0 / qblur=0.5 / vbv_maxrate=50000 / vbv_bufsize=62500 / nal_hrd=none / filler=0 / ip_ratio=1.40 / pb_ratio=1.30 / aq=1:1.00
Default : Yes
Forced : No
Color primaries : BT.709
Transfer characteristics : BT.709
Matrix coefficients : BT.709
Audio #1
ID : 2
Format : AC-3
Format/Info : Audio Coding 3
Mode extension : CM (complete main)
Format settings, Endianness : Big
Codec ID : A_AC3
Duration : 1h 43mn
Bit rate mode : Constant
Bit rate : 448 Kbps
Channel(s) : 6 channels
Channel positions : Front: L C R, Side: L R, LFE
Sampling rate : 48.0 KHz
Bit depth : 16 bits
Compression mode : Lossy
Stream size : 331 MiB (10%)
Default : Yes
Forced : No
Audio #2
ID : 3
Format : AC-3
Format/Info : Audio Coding 3
Mode extension : CM (complete main)
Format settings, Endianness : Big
Codec ID : A_AC3
Duration : 1h 43mn
Bit rate mode : Constant
Bit rate : 448 Kbps
Channel(s) : 6 channels
Channel positions : Front: L C R, Side: L R, LFE
Sampling rate : 48.0 KHz
Bit depth : 16 bits
Compression mode : Lossy
Stream size : 331 MiB (10%)
Default : No
Forced : No
Text #1
ID : 4
Format : UTF-8
Codec ID : S_TEXT/UTF8
Codec ID/Info : UTF-8 Plain Text
Default : Yes
Forced : No
Text #2
ID : 5
Format : UTF-8
Codec ID : S_TEXT/UTF8
Codec ID/Info : UTF-8 Plain Text
Default : No
Forced : No

x264 log

x264 [info]: frame I:1122 Avg QP:19.60 size: 94442
x264 [info]: frame P:24707 Avg QP:22.01 size: 35979
x264 [info]: frame B:122719 Avg QP:24.30 size: 13749
x264 [info]: consecutive B-frames: 1.9% 1.3% 2.7% 7.8% 10.2% 35.5% 7.4% 1.9% 4.9% 8.0% 5.1% 2.0% 4.2% 5.0% 1.2% 0.4% 0.6%
x264 [info]: kb/s:3463.26
x264 [total]: encoded 148548 frames, 3.29 fps, 3463.26 kb/s, duration 12:32:48.73

Скриншот c названием фильма

Скриншоты

Пожалуйста кто скачал не сваливайте с раздачи!!!

admin

Post 28-Nov-2017 03:22

[Quote]

АрмагеддонArmageddon«Во имя любви. Во имя чести. Во имя человечества»
Страна: США
Жанр: Фантастика, мелодрама, приключения
Год выпуска: 1998
Продолжительность: 02:30:50
Перевод: Профессиональный (дублированный) [Лицензия BD CEE]
Перевод 2: Профессиональный (многоголосый закадровый) [Киномания]
Перевод 3: Профессиональный (многоголосый закадровый) [Superbit]
Перевод 4: Авторский (одноголосый закадровый) [Ю.Сербин]
Перевод 5: Авторский (одноголосый закадровый) [А.Гаврилов]
Субтитры: русские,английские
Оригинальная аудиодорожка: английский
Режиссер: Майкл Бэй / Michael Bay
В ролях: Брюс Уиллис, Билли Боб Торнтон, Бен Аффлек, Лив Тайлер, Уилл Пэттон, Стив Бушеми, Уильям Фихтнер, Оуэн Уилсон, Майкл Кларк Дункан, Петер Стормаре
Описание: Тень гигантского астероида легла на Землю. До рокового столкновения остаются считанные дни. Наступает Армагеддон, трагический финал мировой истории. Чтобы предотвратить катастрофу, необходимо чудо — или совместные усилия лучших из лучших вместе с технологической мощью всего созданного человеком. Сможет ли горстка людей противостоять вселенской стихии?..
Доп. информация:

Автор рипа: IVAN@190282
Качество видео: BDRip-AVC |Армагеддон / Armageddon (1998 1080p BD-Remux|
Формат видео: MKV
Видео: 1152x480 (2,35:1), 23.976 fps, 4378 Кbps, 0.330 bit/pixel
Аудио: 48 kHz, AC3 Dolby Digital, 3/2 (L,C,R,l,r) + LFE ch, 448.00 kbps DUB
Аудио 2: 48 kHz, AC3 Dolby Digital, 3/2 (L,C,R,l,r) + LFE ch, 384.00 kbps [Киномания]
Аудио 3: 48 kHz, AC3 Dolby Digital, 3/2 (L,C,R,l,r) + LFE ch, 448.00 kbps [А.Гаврилов] отдельно
Аудио 4: 48 kHz, AC3 Dolby Digital, 3/2 (L,C,R,l,r) + LFE ch, 384.00 kbps [Ю.Сербин] отдельно
Аудио 5: 48 kHz, AC3 Dolby Digital, 3/2 (L,C,R,l,r) + LFE ch, 448.00 kbps [Superbit] отдельно
Аудио 6: 48 kHz, AC3 Dolby Digital, 3/2 (L,C,R,l,r) + LFE ch, 448.00 kbps [ENG]
Формат субтитров: softsub (SRT)
Доп. информация о субтитрах: отключаемые

Знаете ли вы, что...

* Лив Тайлер пробовалась на фильм два раза, но её взяли только после третьей попытки. Картина вышла на экраны в день рождения Лив Тайлер (ей исполнился 21 год).
* Музыкальную тему к фильму — «I Don’t Want to Miss a Thing» — исполнил отец Лив Тайлер, Стив, в составе команды Aerosmith. Эта песня в течение четырех недель удерживала первое место в Billboard Hot 100.

MediaInfo

General
Unique ID : 221325282681326983499828372651213650011 (0xA681B2ED82340FC89F7A6CAF5F88F85B)
Complete name : E:\Мои рипы\Армагеддон\Армагеддон by_IVAN@190282.mkv
Format : Matroska
Format version : Version 4 / Version 2
File size : 5.97 GiB
Duration : 2h 30mn
Overall bit rate : 5 662 Kbps
Encoded date : UTC 2014-10-09 23:01:07
Writing application : mkvmerge v7.0.0 ('Where We Going') 64bit built on Jun 9 2014 15:16:27
Writing library : libebml v1.3.0 + libmatroska v1.4.1
DURATION : 02:30:50.240000000
NUMBER_OF_FRAMES : 282820
NUMBER_OF_BYTES : 506813440
_STATISTICS_WRITING_APP : mkvmerge v7.0.0 ('Where We Going') 64bit built on Jun 9 2014 15:16:27
_STATISTICS_WRITING_DATE_UTC : 2014-10-09 23:01:07
_STATISTICS_TAGS : BPS DURATION NUMBER_OF_FRAMES NUMBER_OF_BYTES
Video
ID : 1
Format : AVC
Format/Info : Advanced Video Codec
Format profile : High@L4.1
Format settings, CABAC : Yes
Format settings, ReFrames : 13 frames
Codec ID : V_MPEG4/ISO/AVC
Duration : 2h 30mn
Bit rate : 4 378 Kbps
Width : 1 152 pixels
Height : 480 pixels
Display aspect ratio : 2.35:1
Original display aspect ratio : 2.35:1
Frame rate mode : Constant
Frame rate : 23.976 fps
Color space : YUV
Chroma subsampling : 4:2:0
Bit depth : 8 bits
Scan type : Progressive
Bits/(Pixel*Frame) : 0.330
Stream size : 4.50 GiB (75%)
Writing library : x264 core 142 r2479kMod dd79a61
Encoding settings : cabac=1 / ref=13 / deblock=1:-3:-3 / analyse=0x3:0x113 / me=umh / subme=11 / psy=1 / fade_compensate=0.00 / psy_rd=1.00:0.15 / mixed_ref=1 / me_range=48 / chroma_me=1 / trellis=2 / 8x8dct=1 / cqm=0 / deadzone=21,11 / fast_pskip=0 / chroma_qp_offset=0 / threads=7 / lookahead_threads=6 / sliced_threads=0 / slices=10 / nr=0 / decimate=1 / interlaced=0 / bluray_compat=0 / constrained_intra=0 / fgo=0 / bframes=16 / b_pyramid=2 / b_adapt=2 / b_bias=0 / direct=3 / weightb=1 / open_gop=1 / weightp=2 / keyint=240 / keyint_min=23 / scenecut=40 / intra_refresh=0 / rc_lookahead=40 / rc=2pass / mbtree=0 / bitrate=4378 / ratetol=1.0 / qcomp=0.60 / qpmin=0 / qpmax=69 / qpstep=4 / cplxblur=20.0 / qblur=0.5 / vbv_maxrate=50000 / vbv_bufsize=62500 / nal_hrd=none / filler=0 / ip_ratio=1.40 / pb_ratio=1.30 / aq=1:1.00
Default : Yes
Forced : No
Color primaries : BT.709
Transfer characteristics : BT.709
Matrix coefficients : BT.709
Audio #1
ID : 2
Format : AC-3
Format/Info : Audio Coding 3
Mode extension : CM (complete main)
Format settings, Endianness : Big
Codec ID : A_AC3
Duration : 2h 30mn
Bit rate mode : Constant
Bit rate : 448 Kbps
Channel(s) : 6 channels
Channel positions : Front: L C R, Side: L R, LFE
Sampling rate : 48.0 KHz
Bit depth : 16 bits
Compression mode : Lossy
Stream size : 483 MiB (8%)
Title : dub
Default : Yes
Forced : No
Audio #2
ID : 3
Format : AC-3
Format/Info : Audio Coding 3
Mode extension : CM (complete main)
Format settings, Endianness : Big
Codec ID : A_AC3
Duration : 2h 30mn
Bit rate mode : Constant
Bit rate : 384 Kbps
Channel(s) : 6 channels
Channel positions : Front: L C R, Side: L R, LFE
Sampling rate : 48.0 KHz
Bit depth : 16 bits
Compression mode : Lossy
Stream size : 414 MiB (7%)
Title : kinomania
Default : No
Forced : No
Audio #3
ID : 4
Format : AC-3
Format/Info : Audio Coding 3
Mode extension : CM (complete main)
Format settings, Endianness : Big
Codec ID : A_AC3
Duration : 2h 30mn
Bit rate mode : Constant
Bit rate : 448 Kbps
Channel(s) : 6 channels
Channel positions : Front: L C R, Side: L R, LFE
Sampling rate : 48.0 KHz
Bit depth : 16 bits
Compression mode : Lossy
Stream size : 483 MiB (8%)
Title : eng
Default : No
Forced : No

x264 log

x264 [info]: frame I:1770 Avg QP:15.78 size: 69008
x264 [info]: frame P:63198 Avg QP:17.15 size: 36951
x264 [info]: frame B:152021 Avg QP:19.25 size: 16283
x264 [info]: consecutive B-frames: 7.2% 8.1% 14.8% 24.9% 13.9% 22.4% 4.1% 1.7% 0.9% 0.7% 0.5% 0.3% 0.2% 0.2% 0.1% 0.1% 0.1%
x264 [info]: kb/s:4360.25
x264 [total]: encoded 216989 frames, 24.90 fps, 4360.25 kb/s, duration 2:25:13.08

Скриншот c названием фильма

Скриншоты

Пожалуйста кто скачал не сваливайте с раздачи!!!

admin

Post 10-Nov-2017 23:55

[Quote]

Информация о фильме
Название: Человек с пистолетом
Оригинальное название: Man With A Gun
Год выпуска: 1995
Страна: США
Жанр: Детектив, триллер
Продолжительность: 01:27:40
Перевод: Профессиональный (многоголосый закадровый) НТВ
Перевод: Авторский (одноголосый) Андрей Гаврилов
Режиссер: Дэвид Уайлс
В ролях: Майкл Мэдсен, Дженнифер Тилли, Гэри Бьюзи, Роберт Лоджиа, Иэн Трэйси, Билл Коббс
Описание: Майкл Мэдсен в роли наемного убийцы Джона Хардина получает задание от своего мафиозного босса Джека Раштона (Бьюзи) убить его жену Рину (Тилли). Рина похитила диск с информацией, раскрывающий его махинации на рынке недвижимости. Будучи любовником жены босса, Джон оказывается в затруднительном положении, тем более, что он сам охарактеризовывает ее как гремучую гадюку, а она делает все, чтобы оправдать его мнение о ней. Глупо было бы рассказываеть содержание детектива — вам будет интересней самим следить за хитросплетениями сюжета. Хватает и стрельбы — у Мэдсена при себе всегда три пистолета. Сценарий Лори Финстад-Книжник по роману Хью Рэя "Тайное общество" ("The Shroud Society" by Hugh C. Rae), что можно также перевести и как "Общество смерти" (М. Иванов)

Файл
Качество: DVDRip-AVC
Формат: MKV
Видеокодек: H264
Аудиокодек: AC3
Видео: MPEG4 Video (H264), 720x536, 25fps, 2500 kbps
Аудио: Dolby AC3, 48000 Hz, 6ch, 384 kbps - Двухголосый, НТВ
Аудио: Dolby AC3, 48000 Hz, 2ch, 192 kbps - Одноголосый, Андрей Гаврилов

Скриншоты:

admin

Post 10-Nov-2017 23:32

[Quote]

Аполлон 13 / Apollo 13
Страна: США
Студия: Imagine Entertainment, Universal Pictures
Жанр: драма, история, триллер
Год выпуска: 1995
Режиссер: Рон Ховард / Ron Howard
В ролях: Том Хэнкс, Билл Пэкстон, Кевин Бэйкон, Гэри Синиз, Эд Харрис, Кэтлин Куинлэн, Мэри Кейт Шеллхардт, Эмили Энн Ллойд, Мико Хьюз, Макс Эллиотт Слэйд
Описание: «Аполлон-13» должен стать третьим космическим кораблём, доставившим астронавтов на Луну. Однако через 2 дня на подлёте к цели на корабле произошла авария, которая не только поставила крест на высадке, но и сделала невозможным нормальное возвращение на Землю.

Продолжительность: 02:19:50
Перевод: Дублированный, Профессиональный (многоголосый закадровый)
Open matte! Видео адаптировано для просмотра на весь экран с соотношением сторон 16:9.
Сэмпл
Тип релиза: HDTVRip-AVC
Контейнер: MKV
Видео: x264, 1120x630 (16:9), 3384 kbps, 23.976 fps
Аудио 1: rus, AC3, 5.1, 48 kHz, 448 kbps (дубляж)
Аудио 2: rus, AC3, 2,0, 48 kHz, 192 kbps (MVO ОРТ)
Аудио 3: eng, AC3, 5.1, 48 kHz, 448 kbps (оригинал)
Субтитры: русские (форсированные, полные), английские (обычные, SDH)

Bluray vs Open Matte





MediaInfo

General
Complete name : Apollo.13.1995.Open.Matte.AVC.mkv
Format : Matroska
Format version : Version 4 / Version 2
File size : 4.37 GiB
Duration : 2 h 19 min
Overall bit rate : 4 470 kb/s
Movie name : Apollo 13 (1995)
Encoded date : UTC 2017-11-10 04:47:13
Writing application : mkvmerge v17.0.0 ('Be Ur Friend') 64-bit
Writing library : libebml v1.3.5 + libmatroska v1.4.8
Cover : Yes
Attachments : cover
Video
ID : 1
Format : AVC
Format/Info : Advanced Video Codec
Format profile : High@L4
Format settings, CABAC : Yes
Format settings, RefFrames : 10 frames
Codec ID : V_MPEG4/ISO/AVC
Duration : 2 h 19 min
Bit rate : 3 384 kb/s
Width : 1 120 pixels
Height : 630 pixels
Display aspect ratio : 16:9
Frame rate mode : Constant
Frame rate : 23.976 (24000/1001) FPS
Color space : YUV
Chroma subsampling : 4:2:0
Bit depth : 8 bits
Scan type : Progressive
Bits/(Pixel*Frame) : 0.200
Stream size : 3.30 GiB (76%)
Writing library : x264 core 152 r2851 ba24899
Encoding settings : cabac=1 / ref=10 / deblock=1:-2:-2 / analyse=0x3:0x113 / me=umh / subme=10 / psy=1 / psy_rd=1.10:0.05 / mixed_ref=1 / me_range=32 / chroma_me=1 / trellis=2 / 8x8dct=1 / cqm=0 / deadzone=21,11 / fast_pskip=1 / chroma_qp_offset=-3 / threads=12 / lookahead_threads=2 / sliced_threads=0 / nr=0 / decimate=1 / interlaced=0 / bluray_compat=0 / constrained_intra=0 / bframes=8 / b_pyramid=2 / b_adapt=2 / b_bias=0 / direct=3 / weightb=1 / open_gop=0 / weightp=2 / keyint=240 / keyint_min=23 / scenecut=40 / intra_refresh=0 / rc_lookahead=40 / rc=2pass / mbtree=0 / bitrate=3384 / ratetol=1.0 / qcomp=0.60 / qpmin=0 / qpmax=69 / qpstep=4 / cplxblur=20.0 / qblur=0.5 / vbv_maxrate=20000 / vbv_bufsize=25000 / nal_hrd=none / filler=0 / ip_ratio=1.40 / pb_ratio=1.30 / aq=1:1.00 / zones=192796,201176,q=32
Language : English
Default : Yes
Forced : No
Color range : Limited
Color primaries : BT.709
Transfer characteristics : BT.709
Matrix coefficients : BT.709
Audio #1
ID : 2
Format : AC-3
Format/Info : Audio Coding 3
Format settings, Endianness : Big
Codec ID : A_AC3
Duration : 2 h 19 min
Bit rate mode : Constant
Bit rate : 448 kb/s
Channel(s) : 6 channels
Channel positions : Front: L C R, Side: L R, LFE
Sampling rate : 48.0 kHz
Frame rate : 31.250 FPS (1536 SPF)
Bit depth : 16 bits
Compression mode : Lossy
Stream size : 447 MiB (10%)
Title : Dub
Language : Russian
Service kind : Complete Main
Default : Yes
Forced : No
Audio #2
ID : 3
Format : AC-3
Format/Info : Audio Coding 3
Format settings, Endianness : Big
Codec ID : A_AC3
Duration : 2 h 19 min
Bit rate mode : Constant
Bit rate : 192 kb/s
Channel(s) : 2 channels
Channel positions : Front: L R
Sampling rate : 48.0 kHz
Frame rate : 31.250 FPS (1536 SPF)
Bit depth : 16 bits
Compression mode : Lossy
Stream size : 192 MiB (4%)
Title : MVO (ORT)
Language : Russian
Service kind : Complete Main
Default : No
Forced : No
Audio #3
ID : 4
Format : AC-3
Format/Info : Audio Coding 3
Format settings, Endianness : Big
Codec ID : A_AC3
Duration : 2 h 19 min
Bit rate mode : Constant
Bit rate : 448 kb/s
Channel(s) : 6 channels
Channel positions : Front: L C R, Side: L R, LFE
Sampling rate : 48.0 kHz
Frame rate : 31.250 FPS (1536 SPF)
Bit depth : 16 bits
Compression mode : Lossy
Stream size : 447 MiB (10%)
Title : Original
Language : English
Service kind : Complete Main
Default : No
Forced : No
Text #1
ID : 5
Format : UTF-8
Codec ID : S_TEXT/UTF8
Codec ID/Info : UTF-8 Plain Text
Duration : 2 h 5 min
Bit rate : 2 b/s
Count of elements : 50
Stream size : 2.29 KiB (0%)
Title : Forced
Language : Russian
Default : Yes
Forced : Yes
Text #2
ID : 6
Format : UTF-8
Codec ID : S_TEXT/UTF8
Codec ID/Info : UTF-8 Plain Text
Duration : 2 h 13 min
Bit rate : 134 b/s
Count of elements : 1902
Stream size : 132 KiB (0%)
Language : Russian
Default : No
Forced : No
Text #3
ID : 7
Format : UTF-8
Codec ID : S_TEXT/UTF8
Codec ID/Info : UTF-8 Plain Text
Duration : 2 h 13 min
Bit rate : 78 b/s
Count of elements : 1814
Stream size : 76.7 KiB (0%)
Language : English
Default : No
Forced : No
Text #4
ID : 8
Format : UTF-8
Codec ID : S_TEXT/UTF8
Codec ID/Info : UTF-8 Plain Text
Duration : 2 h 13 min
Bit rate : 82 b/s
Count of elements : 1841
Stream size : 80.5 KiB (0%)
Title : SDH
Language : English
Default : No
Forced : No
Menu
00:00:00.000 : en:Chapter 1
00:09:38.745 : en:Chapter 2
00:19:49.021 : en:Chapter 3
00:34:21.560 : en:Chapter 4
00:45:15.045 : en:Chapter 5
00:49:37.808 : en:Chapter 6
01:02:00.049 : en:Chapter 7
01:05:52.982 : en:Chapter 8
01:10:05.034 : en:Chapter 9
01:15:08.637 : en:Chapter 10
01:17:07.790 : en:Chapter 11
01:19:41.277 : en:Chapter 12
01:35:12.207 : en:Chapter 13
01:39:10.778 : en:Chapter 14
01:48:21.162 : en:Chapter 15
01:56:42.028 : en:Chapter 16
01:58:49.623 : en:Chapter 17
02:05:17.677 : en:Chapter 18
02:09:06.906 : en:Chapter 19
02:14:05.871 : en:Chapter 20

Скриншоты

admin

Post 10-Nov-2017 21:21

[Quote]

Информация о фильме
Название: Двойной дракон
Оригинальное название: Double Dragon
Год выхода: 1994
Жанр: фантастика, боевик, комедия, приключения
Режиссер: Джеймс Юкич / James Yukich
В ролях: Роберт Патрик, Марк Дакаскос, Скотт Вулф, Кристина Вагнер, Джулия Никсон-Соул, Алисса Милано, Нилс Аллен Стюарт, Генри Кинги, Джон Мэллори Ашер, Леон Рассом
О фильме:
«Двойной дракон» создан по мотивам популярнейшей игровой программы, распроданной в мире тиражом более 5,5 млн. экземпляров. Рукопашные схватки с экрана монитора переносятся в фантастическую реальность затопленного Лос-Анджелеса.
Братья Ли, виртуозно владеющие восточными единоборствами, вступают в битву за обладание второй половиной магического талисмана. Возглавляемые демоном Кога Шуко, силы тьмы вступают на пути Джимми и Билли. Через лабиринты руин, по водной глади рек и опустевшим улицам пройдут братья, чтобы завладеть древней силой и спасти родной город.

Страна: США
Продолжительность: 01:35:32
Перевод: Профессиональный (многоголосый закадровый) (R5)
Файл
Качество: HDRip-AVC
Видео: 736x414 at 23.976 fps, High@L4.1, ~1026 kbps
Аудио: AAC, 2/0 (L,R) ch, ~64 kbps
Субтитры: Русские

M/I

General
Unique ID : 41733034740226611798720761755458885286 (0x1F657D7901356ED4C45D446AD56856A6)
Complete name : F:Двойной дракон.1994.HDRIP-AVC.[-=DoMiNo=-].mkv
Format : Matroska
Format version : Version 4 / Version 2
File size : 747 MiB
Duration : 1 h 35 min
Overall bit rate : 1 092 kb/s
Movie name : Двойной дракон
Deion : «Двойной дракон» создан по мотивам популярнейшей игровой программы, распроданной в мире тиражом более 5,5 млн. экземпляров. Рукопашные схватки с экрана монитора переносятся в фантастическую реальность затопленного Лос-Анджелеса. / Братья Ли, виртуозно владеющие восточными единоборствами, вступают в битву за обладание второй половиной магического талисмана. Возглавляемые демоном Кога Шуко, силы тьмы вступают на пути Джимми и Билли. Через лабиринты руин, по водной глади рек и опустевшим улицам пройдут братья, чтобы завладеть древней силой и спасти родной город.
Writing application : XviD4PSP 7.0.418 DAILY
Writing library : Lavf57.71.100
ErrorDetectionType : Per level 1
Attachments : poster.jpg
COMPOSER : Джей Фергусон, Толга Катас
COUNTRY : США, Франция, Дания
DATE : 1994
DIRECTOR : Джеймс Юкич
ENCODING_INFO : MATROSKA,WEBM > MKV Произвольный / H264 > X264 VBR-2P 1026kbps Произвольный / AC3 > AAC CBR 64kbps HE
GENRE : фантастика, боевик, комедия, приключения
HD_VIDEO : 1
IMDB_RATING : 3.70
ITUNEXTC : mpaa|PG-13|300|
Language : und
MEDIA_TYPE : 9
ORIGINAL_TITLE : Double Dragon
PRODUCER : Джейн Хэмшер, Дон Мерфи, Алан Шечтер, Эш Р. Шах, Сунил Р. Шах, Андерс П. Дженсен, Том Карновски, Пол Дж. Ломбарди, Сандип Р. Шах
RATING : 5.812
WRITER : Майкл Дэвис, Питер Гулд, Пол Дини, Нил Шустерман
Video
ID : 1
Format : AVC
Format/Info : Advanced Video Codec
Format profile : High@L4.1
Format settings : CABAC / 12 Ref Frames
Format settings, CABAC : Yes
Format settings, RefFrames : 12 frames
Codec ID : V_MPEG4/ISO/AVC
Duration : 1 h 35 min
Nominal bit rate : 1 026 kb/s
Width : 736 pixels
Height : 414 pixels
Display aspect ratio : 16:9
Frame rate mode : Constant
Frame rate : 23.976 (24000/1001) FPS
Color space : YUV
Chroma subsampling : 4:2:0
Bit depth : 8 bits
Scan type : Progressive
Bits/(Pixel*Frame) : 0.140
Title : RIP_BY_-=DoMiNo=-
Writing library : x264 core 152 r2851M ba24899
Encoding settings : cabac=1 / ref=12 / deblock=1:-3:-3 / analyse=0x3:0x133 / me=umh / subme=11 / psy=1 / psy_rd=1.05:0.15 / mixed_ref=1 / me_range=64 / chroma_me=1 / trellis=2 / 8x8dct=1 / cqm=0 / deadzone=21,11 / fast_pskip=1 / chroma_qp_offset=-3 / threads=5 / lookahead_threads=1 / sliced_threads=0 / nr=0 / decimate=1 / interlaced=0 / bluray_compat=0 / constrained_intra=0 / bframes=12 / b_pyramid=2 / b_adapt=2 / b_bias=0 / direct=3 / weightb=1 / open_gop=0 / weightp=2 / keyint=240 / keyint_min=24 / scenecut=40 / intra_refresh=0 / rc_lookahead=60 / rc=2pass / mbtree=1 / bitrate=1026 / ratetol=1.0 / qcomp=0.70 / qpmin=0 / qpmax=69 / qpstep=4 / cplxblur=20.0 / qblur=0.5 / ip_ratio=1.40 / aq=1:1.00
Default : Yes
Forced : Yes
Audio
ID : 2
Format : AAC
Format/Info : Advanced Audio Codec
Format profile : HE-AAC / LC
Format settings : Implicit
Codec ID : A_AAC-2
Duration : 1 h 35 min
Channel(s) : 2 channels
Channel positions : Front: L R
Sampling rate : 48.0 kHz / 24.0 kHz
Frame rate : 23.438 FPS (1024 SPF)
Compression mode : Lossy
Title : MVO
Language : Russian
Default : Yes
Forced : Yes
Text
ID : 3
Format : UTF-8
Codec ID : S_TEXT/UTF8
Codec ID/Info : UTF-8 Plain Text
Duration : 1 h 30 min
Language : Russian
Default : Yes
Forced : No
Menu
00:00:00.000 : :Chapter 01
00:05:00.000 : :Chapter 02
00:10:00.000 : :Chapter 03
00:15:00.000 : :Chapter 04
00:20:00.000 : :Chapter 05
00:25:00.000 : :Chapter 06
00:30:00.000 : :Chapter 07
00:35:00.000 : :Chapter 08
00:40:00.000 : :Chapter 09
00:45:00.000 : :Chapter 10
00:50:00.000 : :Chapter 11
00:55:00.000 : :Chapter 12
01:00:00.000 : :Chapter 13
01:05:00.000 : :Chapter 14
01:10:00.000 : :Chapter 15
01:15:00.000 : :Chapter 16
01:20:00.000 : :Chapter 17
01:25:00.000 : :Chapter 18
01:30:00.000 : :Chapter 19
01:35:00.000 : :Chapter 20

Скриншоты

 

Current time is: 10-Dec 21:41

All times are UTC + 3