Search found 46 matches

Author Message

admin

Post 25-Jan-2022 13:58

[Quote]

Информация о фильме
Название: Шлюха
Оригинальное название: Whore
Год выхода: 1991
Жанр: Драма, комедия, эротика, экранизация
Режиссер: Кен Расселл
В ролях: Тереза Расселл, Майкл Крэбтри, Джон Дил, Антонио Фаргас, Роберт О`Рейли, Чарльз Макколей, Джейсон Кристофер, Джек Нэнс, Фрэнк Смит
О фильме:
По пьесе David Hynes "Bondage", который, будучи лондонским таксистом, просто записал разные рассказы из жизни и "профессиональной деятельности" своих пассажирок-проституток, составив портрет представительниц "древнейшей профессии". Кен Рассел проводит шокирующе откровенную экскурсию в мир сутенеров и проституток Лос - Анджелеса , иллюстрируя ее картинками из разнообразной половой жизни главной героини - Лиз. Лиз молода, красива, цинична и рассудительна, напориста и боязлива. Секс ее бизнес, и она в нем знает толк. Соблазнительные движения, которые возбуждают мужчин, слова, которые они хотят слышать. Да, она готова выполнить любую просьбу своего клиента, потому, что именно за это ей и платят. Если, конечно, платят... Это циничная красотка, которая видела все, что только возможно. Ее устами говорит опыт. И сегодня проститутка Лиз расскажет нам все о мужчинах, о сексе, о себе, о своей юности, о своем муже, своем сыне, своих партнерах - любовниках, своих подругах и незнакомых женщинах, своих пристрастиях и увлечениях.

Выпущено: США, Великобритания, Trimark Pictures
Продолжительность: 01:24:55
Перевод: Профессиональный (двухголосый, закадровый)
Субтитры: Русские, английские
Навигация по главам: Есть
Файл
Формат: Matroska
Качество: WEB-DLRip-AVC
Видео: 736x414 at 23.976 fps, x264, ~1126 kbps, 0.154 bpp
Аудио: AAC, 2 ch, ~96 kbps - | Русский | - DVO - Neoclassica
Формат субтитров: softsub (SRT)

M/I

General
Format : Matroska
Format version : Version 2
File size : 743 MiB
Duration : 1 h 24 min
Overall bit rate : 1 223 kb/s
Movie name : Шлюха.(1991).WEB-DLRip-AVC.F.S.[-=DoMiNo=-]
Encoded date : UTC 2019-12-03 06:38:00
Writing application : mkvmerge v6.9.1 ('Blue Panther') 32bit built on Apr 18 2014 18:15:44
Writing library : libebml v1.3.0 + libmatroska v1.4.1
Attachments : poster.jpg / poster 2.jpg
Video
ID : 1
Format : AVC
Format/Info : Advanced Video Codec
Format profile : High@L4.1
Format settings : CABAC / 12 Ref Frames
Format settings, CABAC : Yes
Format settings, Reference : 12 frames
Codec ID : V_MPEG4/ISO/AVC
Duration : 1 h 24 min
Nominal bit rate : 1 126 kb/s
Width : 736 pixels
Height : 414 pixels
Display aspect ratio : 16:9
Frame rate mode : Constant
Frame rate : 23.976 (24000/1001) FPS
Color space : YUV
Chroma subsampling : 4:2:0
Bit depth : 8 bits
Scan type : Progressive
Bits/(Pixel*Frame) : 0.154
Title : RIP_BY_-=DoMiNo=-
Writing library : x264 core 148 r2638 7599210
Encoding settings : cabac=1 / ref=12 / deblock=1:-2:-1 / analyse=0x3:0x133 / me=umh / subme=10 / psy=1 / psy_rd=1.00:0.00 / mixed_ref=1 / me_range=32 / chroma_me=1 / trellis=2 / 8x8dct=1 / cqm=0 / deadzone=21,11 / fast_pskip=0 / chroma_qp_offset=-2 / threads=6 / lookahead_threads=1 / sliced_threads=0 / nr=0 / decimate=0 / interlaced=0 / bluray_compat=0 / constrained_intra=0 / bframes=12 / b_pyramid=2 / b_adapt=2 / b_bias=0 / direct=3 / weightb=1 / open_gop=0 / weightp=2 / keyint=240 / keyint_min=24 / scenecut=40 / intra_refresh=0 / rc=2pass / mbtree=0 / bitrate=1126 / ratetol=1.0 / qcomp=0.60 / qpmin=0 / qpmax=69 / qpstep=4 / cplxblur=20.0 / qblur=0.5 / ip_ratio=1.40 / pb_ratio=1.30 / aq=3:1.00
Language : English
Default : Yes
Forced : No
Audio
ID : 2
Format : AAC LC SBR
Format/Info : Advanced Audio Codec Low Complexity with Spectral Band Replication
Commercial name : HE-AAC
Format settings : Explicit
Codec ID : A_AAC-2
Duration : 1 h 24 min
Channel(s) : 2 channels
Channel layout : L R
Sampling rate : 48.0 kHz
Frame rate : 23.438 FPS (2048 SPF)
Compression mode : Lossy
Title : DVO | Neoclassica
Language : Russian
Default : Yes
Forced : No
Text #1
ID : 3
Format : UTF-8
Codec ID : S_TEXT/UTF8
Codec ID/Info : UTF-8 Plain Text
Language : Russian
Default : No
Forced : No
Text #2
ID : 4
Format : UTF-8
Codec ID : S_TEXT/UTF8
Codec ID/Info : UTF-8 Plain Text
Language : English
Default : No
Forced : No
Menu
00:00:00.299 : en:Chapter 1
00:05:14.906 : en:Chapter 2
00:11:55.014 : en:Chapter 3
00:25:09.140 : en:Chapter 4
00:27:04.422 : en:Chapter 5
00:37:43.310 : en:Chapter 6
00:43:43.086 : en:Chapter 7
00:52:18.309 : en:Chapter 8
00:53:51.236 : en:Chapter 9
00:58:56.666 : en:Chapter 10
01:01:46.168 : en:Chapter 11
01:13:15.232 : en:Chapter 12

Скриншоты

admin

Post 29-Dec-2021 01:21

[Quote]

Информация о фильме
Название: Снова голый
Оригинальное название: Naken
Год выхода: 2000
Жанр: Комедия
Режиссер: Мартен и Торкель Кнутссон
В ролях: Мартин Форстрем, Тува Новотны, Кристиан Фидлер, Мортен Кнутссон, Сиселла Кайл, Феликс Хернгрен, Понтус Гэрдингер, Мартина Хааг, Роберто Элинек, Стиг Энгстрем, Симон Норртон, Джеспер Сален, Торстен Валунд, Ульф Йонссон, Томми Джонсон, Майкл Манссон, Марга Петтерссон, Томас Рансмир, Калле Вестердаль, Виктория Сильвстедт
О фильме:
Шалопай и раздолбай Андерс утром в день свадьбы просыпается голым в лифте незнакомого дома. Он не может вспомнить, как туда попал, у него нет ни одежды, ни денег. Зато есть презерватив, торчащий из задницы, дикая головная боль и отчаянное желание попасть в туалет. До венчания остается всего два часа, но никто не хочет помочь голому человеку. Пока Андерс пытается найти хоть какую-нибудь одежду и выяснить, что произошло ночью, свадьба срывается... А на следующее утро он снова просыпается там же, абсолютно голый, все с тем же презервативом все в том же месте...

Страна: Швеция
Студия: Pratfilm
Продолжительность: 01:34:20
Перевод: Профессиональный (многоголосый, закадровый)
Файл
Формат: MKV
Качество: DVDRip-AVC
Видео: MPEG-4 AVC, 1012x560, 3500 Кбит/с
Аудио: Русский, шведский (АС3, 6 ch, 384 Кбит/с)
Субтитры: Русские

MI

x264 [info]: frame I:888 Avg QP:18.27 size: 65213
x264 [info]: frame P:31756 Avg QP:20.38 size: 30467
x264 [info]: frame B:108869 Avg QP:22.25 size: 13299
Общее
Уникальный идентификатор : 53010397405597852427417001479857111566 (0x27E16E615609DC517679C850D2FE020E)
Полное имя : D:MOVIESSnova_goliy.2000.DVDRip-AVC.ExKinoRay.mkv
Формат : Matroska
Версия формата : Version 4
Размер файла : 2,81 Гбайт
Продолжительность : 1 ч. 34 м.
Общий поток : 4 266 Кбит/сек
Дата кодирования : UTC 2021-12-28 04:29:26
Программа кодирования : mkvmerge v48.0.0 ('Fortress Around Your Heart') 64-bit
Библиотека кодирования : libebml v1.4.0 + libmatroska v1.6.0
Видео
Идентификатор : 1
Формат : AVC
Формат/Информация : Advanced Video Codec
Профиль формата : High@L4.1
Настройки формата : CABAC / 12 Ref Frames
Параметр CABAC формата : Да
Параметр RefFrames формата : 12 кадров
Идентификатор кодека : V_MPEG4/ISO/AVC
Продолжительность : 1 ч. 34 м.
Битрейт : 3 500 Кбит/сек
Ширина : 1 012 пикселей
Высота : 560 пикселей
Соотношение сторон : 16:9
Режим частоты кадров : Постоянный
Частота кадров : 25,000 кадров/сек
Цветовое пространство : YUV
Субдискретизация насыщенности : 4:2:0
Битовая глубина : 8 бит
Тип развёртки : Прогрессивная
Бит/(Пиксели*Кадры) : 0.247
Размер потока : 2,30 Гбайт (82%)
Библиотека кодирования : x264 core 161 r3053 c347e7a
Настройки программы : cabac=1 / ref=12 / deblock=1:-3:-2 / analyse=0x3:0x133 / me=umh / subme=10 / psy=1 / psy_rd=1.05:0.15 / mixed_ref=1 / me_range=32 / chroma_me=1 / trellis=2 / 8x8dct=1 / cqm=0 / deadzone=21,11 / fast_pskip=0 / chroma_qp_offset=-3 / threads=6 / lookahead_threads=1 / sliced_threads=0 / nr=0 / decimate=0 / interlaced=0 / bluray_compat=0 / constrained_intra=0 / bframes=10 / b_pyramid=2 / b_adapt=2 / b_bias=0 / direct=3 / weightb=1 / open_gop=0 / weightp=2 / keyint=250 / keyint_min=25 / scenecut=40 / intra_refresh=0 / rc=2pass / mbtree=0 / bitrate=3500 / ratetol=1.0 / qcomp=0.60 / qpmin=0 / qpmax=69 / qpstep=4 / cplxblur=20.0 / qblur=0.5 / ip_ratio=1.40 / pb_ratio=1.30 / aq=1:1.00
Язык : English
Default : Да
Forced : Нет
Аудио #1
Идентификатор : 2
Формат : AC-3
Формат/Информация : Audio Coding 3
Коммерческое название : Dolby Digital
Идентификатор кодека : A_AC3
Продолжительность : 1 ч. 34 м.
Вид битрейта : Постоянный
Битрейт : 384 Кбит/сек
Каналы : 6 каналов
Channel layout : L R C LFE Ls Rs
Частота : 48,0 КГц
Частота кадров : 31,250 кадров/сек (1536 SPF)
Метод сжатия : С потерями
Размер потока : 259 Мбайт (9%)
Язык : Russian
Service kind : Complete Main
Default : Да
Forced : Нет
Аудио #2
Идентификатор : 3
Формат : AC-3
Формат/Информация : Audio Coding 3
Коммерческое название : Dolby Digital
Идентификатор кодека : A_AC3
Продолжительность : 1 ч. 34 м.
Вид битрейта : Постоянный
Битрейт : 384 Кбит/сек
Каналы : 6 каналов
Channel layout : L R C LFE Ls Rs
Частота : 48,0 КГц
Частота кадров : 31,250 кадров/сек (1536 SPF)
Метод сжатия : С потерями
Размер потока : 259 Мбайт (9%)
Язык : Swedish
Service kind : Complete Main
Default : Нет
Forced : Нет
Текст
Идентификатор : 4
Формат : UTF-8
Идентификатор кодека : S_TEXT/UTF8
Идентификатор кодека/Информация : UTF-8 Plain Text
Продолжительность : 1 ч. 29 м.
Битрейт : 99 бит/сек
Count of elements : 1135
Размер потока : 65,1 Кбайт (0%)
Язык : Russian
Default : Нет
Forced : Нет
Меню
00:00:00.000 : en:Chapter 01
00:03:15.120 : en:Chapter 02
00:08:13.560 : en:Chapter 03
00:13:02.520 : en:Chapter 04
00:17:44.400 : en:Chapter 05
00:22:28.200 : en:Chapter 06
00:27:23.040 : en:Chapter 07
00:32:46.200 : en:Chapter 08
00:38:20.520 : en:Chapter 09
00:43:59.640 : en:Chapter 10
00:48:21.480 : en:Chapter 11
00:53:08.640 : en:Chapter 12
00:57:48.840 : en:Chapter 13
01:02:53.280 : en:Chapter 14
01:07:39.960 : en:Chapter 15
01:12:16.200 : en:Chapter 16
01:16:49.200 : en:Chapter 17
01:21:34.440 : en:Chapter 18
01:26:16.080 : en:Chapter 19
01:30:05.520 : en:Chapter 20

Борисыч

Post 25-Dec-2021 11:48

[Quote]

- -Santa with Muscles- -
Год выхода: 1996
Страна: США
Жанр: Комедия, семейный
Продолжительность: 01:37:25
Перевод: Профессиональный (многоголосый закадровый)
Режиссер: Джон Марловски
В ролях: Терри Халк Хоган, Дон Старк, Робин Кертис, Гарретт Моррис, Ария Ноэль Курзон, Адам Вайли, Мила Кунис, Дженнифер Пас, Клинт Ховард, Уильям Ньюман, Роберт Аписа, Пьер Дулат, Стив Валентайн, Эд Бегли мл., Кай Эфрон, Дайан Робин, Кевин Уэст, Эдди Донно, Андре Кинни, Бентли Шустер, Трой Робинсон, Пит Аписа, Бренда Сонг, Бриджет Мишель, Эд Лесли, Блейк Шустер, Нилл Калабро
Описание: В канун Рождества эксцентричный миллионер Торн, мускулистый гигант, облачившись в хаки, бегает со своими друзьями по городу, пугая полицейских оружием, стреляющим краской. Полицейские, сытые по горло ребячеством миллионера-хулигана, загоняют Торна в супермаркет. Чтобы скрыться от погони, Торн облачается в костюм Санта Клауса. Миллионер так входит в роль, что вскоре ему начинает казаться, что он и есть настоящий Санта, а значит — должен творить рождественские чудеса! Вскоре силачу Санте представляется возможность проявить себя. Злодей Фрост собирается закрыть местный приют. Богатырь Санта собирается пустить в ход свою силу, чтобы спасти Рождество для сирот.
Качество: HDTVRip
Формат: AVI
Видео кодек: XviD
Аудио кодек: АС3
Видео: 720x400, 29,970 fps, 1924 kbps
Аудио: 48 kHz, 2 ch, 192 kbps

Скриншоты

admin

Post 08-Dec-2021 05:43

[Quote]

Информация о фильме
Название: Звук, издаваемый безумцем
Оригинальное название: Un bruit qui rend fou
Год выхода: 1995
Жанр: драма, криминал, детектив
Режиссер: Ален Роб-Грийе / Alain Robbe-Grillet, Димитри де Клерк / Dimitri de Clercq
В ролях: Фред Уорд, Ариель Домбаль. Charles Tordjman, Сандрин Ле Берр, Димитрис Пуликакос, Кристиан Мэйллет, Мюриэль Джейкобс
О фильме:
На удалённом острове год назад погибла молодая женщина. Безутешный отец настаивает, что её убил исчезнувший жених. Однако, у полиции есть подозрения, что он сам приложил к этому руку, и даже что девушка сфальсифицировала собственную смерть...
комментарий с karagarga:
я спросил режиссера Дмитрия де Клерка через FB , что мешает этому фильму быть изданным на DVD?:
"Нет, проблем с авторскими правами нет. У меня есть только старая 35-миллиметровый плёнка и VHS кассета. Фильм никогда не выпускался на DVD или Blu-Ray. По какой-то причине его не включили в DVD и Blu- бокс-сеты с фильмографией Алена Робб-Грийе, которые были изданы во Франции и США, и на которых была якобы полная фильмография. Иди разберись! Не уверен, будет ли он когда-либо выпущен на DVD или Blu-ray..."


Страна: Франция, Бельгия, Швейцария
Продолжительность: 01:40:30
Перевод: Авторский (одноголосый закадровый) Ю. Сербин
Файл
Кодек: DivX
Качество: VHSRip
Видео: 704x304 (2.32:1), 23.976 fps, DivX Codec 4.x ~1320 kbps avg, 0.26 bit/pixel
Звук:
Аудио 1: 44.1 kHz, MPEG Layer 3, 2 ch, ~192.00 kbps avg - Ю. Сербин
Аудио 2: 44.1 kHz, MPEG Layer 3, 2 ch, ~128.00 kbps avg - оригинал
Семпл

Скриншоты

admin

Post 27-Jul-2021 03:51

[Quote]

Информация о фильме
Название: Воскрешая мертвецов
Оригинальное название: Bringing Out the Dead
Год выхода: 1999
Жанр: Триллер, драма
Режиссер: Мартин Скорсезе
В ролях: Николас Кейдж, Патриция Аркетт, Джон Гудмен, Винг Рэймс, Том Сайзмор, Марк Энтони, Мэри Бет Херт, Клифф Кёртис, Нестор Серрано, Аида Туртурро
О фильме:
Воет сирена. Вспышки слепят глаза. По ночному Нью-Йорку навстречу смерти мчится «Скорая помощь». Фрэнк Пирс — парамедик, работающий в ночную смену. Фрэнка постоянно преследуют видения — призраки людей, которых он так и не сумел спасти. Его жизнь превращается в ад, он — на грани срыва, и все же продолжает борьбу со смертью.

Страна: США
Продолжительность: 02:01:01
Перевод: Дубляж "Нева-1"
Субтитры: Русские (Full), Украинские (Full), Английские (Full, SDH)
Файл
Формат: Matroska
Качество: WEB-DLRip-AVC
Видео: 1024x434 at 23.976 fps, x264@L4.1, ~2466 kbps, 0.231 bpp
Аудио: AC3, 2 ch, ~192 kbps - | Русский | -
Формат субтитров: softsub (SRT)

M/I

x264 [info]: frame I:1137 Avg QP:16.41 size: 45708
x264 [info]: frame P:38628 Avg QP:17.94 size: 23913
x264 [info]: frame B:134331 Avg QP:20.57 size: 9399
x264 [info]: consecutive B-frames: 1.8% 2.7% 7.3% 34.4% 14.8% 22.0% 5.0% 7.2% 2.3% 1.2% 0.5% 0.3% 0.1% 0.2% 0.2%
General
Format : Matroska
Format version : Version 4
File size : 2.25 GiB
Duration : 2 h 1 min
Overall bit rate : 2 660 kb/s
Movie name : Воскрешая мертвецов.(1999).WEB-DLRip-AVC.[-=DoMiNo=-]
Encoded date : UTC 2020-07-06 15:36:04
Writing application : mkvmerge v48.0.0 ('Fortress Around Your Heart') 64-bit
Writing library : libebml v1.4.0 + libmatroska v1.6.0
Cover : Yes
Attachments : Cover.jpg / Cover 2.jpg
Video
ID : 1
Format : AVC
Format/Info : Advanced Video Codec
Format profile : High@L4.1
Format settings : CABAC / 12 Ref Frames
Format settings, CABAC : Yes
Format settings, Reference : 12 frames
Codec ID : V_MPEG4/ISO/AVC
Duration : 2 h 1 min
Bit rate : 2 466 kb/s
Width : 1 024 pixels
Height : 434 pixels
Display aspect ratio : 2.35:1
Frame rate mode : Constant
Frame rate : 23.976 (24000/1001) FPS
Color space : YUV
Chroma subsampling : 4:2:0
Bit depth : 8 bits
Scan type : Progressive
Bits/(Pixel*Frame) : 0.231
Stream size : 2.08 GiB (93%)
Title : -=DoMiNo=-
Writing library : x264 core 161 r3015 4c2aafd
Encoding settings : cabac=1 / ref=12 / deblock=1:-3:-3 / analyse=0x3:0x133 / me=umh / subme=10 / psy=1 / psy_rd=1.00:0.00 / mixed_ref=1 / me_range=32 / chroma_me=1 / trellis=2 / 8x8dct=1 / cqm=0 / deadzone=21,11 / fast_pskip=0 / chroma_qp_offset=-2 / threads=6 / lookahead_threads=1 / sliced_threads=0 / nr=0 / decimate=1 / interlaced=0 / bluray_compat=0 / constrained_intra=0 / bframes=14 / b_pyramid=2 / b_adapt=2 / b_bias=0 / direct=1 / weightb=1 / open_gop=0 / weightp=2 / keyint=250 / keyint_min=23 / scenecut=40 / intra_refresh=0 / rc=crf / mbtree=0 / crf=19.0 / qcomp=0.60 / qpmin=0 / qpmax=69 / qpstep=4 / ip_ratio=1.40 / pb_ratio=1.30 / aq=3:1.00
Language : English
Default : Yes
Forced : No
Color range : Limited
Color primaries : BT.709
Transfer characteristics : BT.709
Matrix coefficients : BT.709
Audio
ID : 2
Format : AC-3
Format/Info : Audio Coding 3
Commercial name : Dolby Digital
Codec ID : A_AC3
Duration : 2 h 1 min
Bit rate mode : Constant
Bit rate : 192 kb/s
Channel(s) : 2 channels
Channel layout : L R
Sampling rate : 48.0 kHz
Frame rate : 31.250 FPS (1536 SPF)
Compression mode : Lossy
Stream size : 166 MiB (7%)
Title : DUB
Language : Russian
Service kind : Complete Main
Default : Yes
Forced : No
Text #1
ID : 3
Format : UTF-8
Codec ID : S_TEXT/UTF8
Codec ID/Info : UTF-8 Plain Text
Duration : 1 h 54 min
Bit rate : 121 b/s
Count of elements : 1626
Stream size : 102 KiB (0%)
Language : Russian
Default : No
Forced : No
Text #2
ID : 4
Format : UTF-8
Codec ID : S_TEXT/UTF8
Codec ID/Info : UTF-8 Plain Text
Duration : 1 h 54 min
Bit rate : 122 b/s
Count of elements : 1627
Stream size : 103 KiB (0%)
Language : Ukrainian
Default : No
Forced : No
Text #3
ID : 5
Format : UTF-8
Codec ID : S_TEXT/UTF8
Codec ID/Info : UTF-8 Plain Text
Duration : 1 h 52 min
Bit rate : 75 b/s
Count of elements : 1613
Stream size : 62.6 KiB (0%)
Language : English
Default : No
Forced : No
Text #4
ID : 6
Format : UTF-8
Codec ID : S_TEXT/UTF8
Codec ID/Info : UTF-8 Plain Text
Duration : 1 h 58 min
Bit rate : 81 b/s
Count of elements : 1731
Stream size : 70.4 KiB (0%)
Title : Для слабослышащих
Language : English
Default : No
Forced : No
Menu
00:00:00.000 : en:Начало
00:07:20.186 : en:Больница
00:13:55.912 : en:Призрак Розы
00:17:15.026 : en:Мистер Ох
00:20:32.847 : en:Первая сигарета
00:22:17.993 : en:Отдых
00:25:46.366 : en:Самоубийца
00:29:39.263 : en:Красная Смерть
00:34:11.366 : en:Домой
00:35:54.010 : en:Тяжелые времена
00:38:17.986 : en:Любовь
00:40:51.846 : en:Верую!
00:43:21.620 : en:Снова страдания
00:48:54.825 : en:Признание Мэри
00:53:07.951 : en:Три правила
00:57:24.080 : en:Девственники
01:01:06.383 : en:Пьяный водитель
01:03:30.193 : en:Друг Мэри
01:07:04.238 : en:Оазис
01:17:59.346 : en:Комната Мэри
01:19:46.744 : en:Агрессивный водитель
01:22:34.452 : en:Коктейл Б-12
01:24:57.468 : en:Вылечили
01:29:35.869 : en:Попрыгунчик
01:37:24.792 : en:Извинение Мэри
01:39:37.841 : en:Мистер Октябрь
01:44:23.290 : en:Спасение Ноэла
01:48:48.720 : en:Милосердие
01:53:04.599 : en:Прощение
01:56:07.113 : en:Титры

Скриншоты

admin

Post 25-Jul-2021 02:40

[Quote]

Информация о фильме
Название: Драйв (Непобедимый)
Оригинальное название: Drive
Год выхода: 1997
Жанр: Фантастика, Боевик, Комедия, Приключения
Режиссер: Стив Ванг
В ролях: Марк Дакаскос, Кадим Хардисон, Джон Пайпер-Фергюсон, Бриттани Мерфи, Трейси Уолтер, Джеймс Шигета, Масая Като, Дом Магуили, Рон Юань, Клайв Розенгрен
О фильме:
Сан-Франциско. Недалекое будущее. Грузовое судно возвращается из Гонконга с загадочным пассажиром по имени Тоби Уонг. Он сбежал от подпольной корпорации Леунга в поисках свободы на Западе.
Однако Тоби попадает в лапы банды хладнокровного Вика Мэдисона. Вырвавшись из банды Мэдисона, он берет в заложники пьяницу Малика Броунди и едет в Лос-Анджелес. В дороге они становятся приятелями, и Тоби даже обучает Малика боевым искусствам. Однажды Малик узнает, что у Тоби имплантирован биомодуль, дающий ему силу и скорость.
Это сделал мистер Лау, глава корпорации Леунг, который хочет вернуть беглеца во что бы то ни стало. Сбежавшую парочку преследует и банда Вика Мэдисона и новая жертва мистера Лау с более совершенным биомодулем…

Производство: США
Студия: Overseas FilmGroup, NEO Motion Pictures
Продолжительность: 01:39:46
Перевод: Профессиональный (многоголосый, закадровый)
Субтитры: English (Full, SDH)
Файл
Формат: Matroska
Качество: WEB-DLRip-AVC [Drive.1997.1080p.AMZN.WEBRip.DDP2.0.x264-monkee]
Видео: 1024x576 (16:9) at 23.976 fps, x264, ~2363 kbps, 0.167 bpp
Аудио #1: AC3, 2 ch, ~192 kbps - | Русский | - MVO (ОРТ)
Аудио #2: AC3, 2 ch, ~192 kbps - | Английский | - ENG
Формат субтитров: softsub (SRT)
***Релиз от: -=DoMiNo=-

M/I

x264 [info]: frame I:1161 Avg QP:15.66 size: 52949
x264 [info]: frame P:31638 Avg QP:17.16 size: 23821
x264 [info]: frame B:110743 Avg QP:19.66 size: 8606
x264 [info]: consecutive B-frames: 2.4% 2.9% 7.4% 25.6% 16.7% 28.5% 6.4% 5.7% 1.3% 1.0% 0.7% 0.9% 0.6%
General
Format : Matroska
Format version : Version 4
File size : 1.92 GiB
Duration : 1 h 39 min
Overall bit rate : 2 749 kb/s
Movie name : Драйв.(1997).WEB-DLRip-AVC.O.M.[-=DoMiNo=-]
Encoded date : UTC 2020-04-21 14:52:29
Writing application : mkvmerge v45.0.0 ('Heaven in Pennies') 64-bit
Writing library : libebml v1.3.10 + libmatroska v1.5.2
Cover : Yes
Attachments : cover.jpg / cover 2.jpg
Video
ID : 1
Format : AVC
Format/Info : Advanced Video Codec
Format profile : High@L4.1
Format settings : CABAC / 14 Ref Frames
Format settings, CABAC : Yes
Format settings, Reference : 14 frames
Codec ID : V_MPEG4/ISO/AVC
Duration : 1 h 39 min
Bit rate : 2 363 kb/s
Width : 1 024 pixels
Height : 576 pixels
Display aspect ratio : 16:9
Frame rate mode : Constant
Frame rate : 23.976 (24000/1001) FPS
Color space : YUV
Chroma subsampling : 4:2:0
Bit depth : 8 bits
Scan type : Progressive
Bits/(Pixel*Frame) : 0.167
Stream size : 1.65 GiB (86%)
Title : RIP_BY_-=DoMiNo=-
Writing library : x264 core 160 r3000 33f9e14
Encoding settings : cabac=1 / ref=14 / deblock=1:-3:-3 / analyse=0x3:0x133 / me=umh / subme=10 / psy=1 / psy_rd=1.00:0.00 / mixed_ref=1 / me_range=32 / chroma_me=1 / trellis=2 / 8x8dct=1 / cqm=0 / deadzone=21,11 / fast_pskip=0 / chroma_qp_offset=-2 / threads=6 / lookahead_threads=1 / sliced_threads=0 / nr=0 / decimate=1 / interlaced=0 / bluray_compat=0 / constrained_intra=0 / bframes=12 / b_pyramid=2 / b_adapt=2 / b_bias=0 / direct=1 / weightb=1 / open_gop=0 / weightp=2 / keyint=250 / keyint_min=23 / scenecut=40 / intra_refresh=0 / rc_lookahead=60 / rc=crf / mbtree=0 / crf=18.5 / qcomp=0.60 / qpmin=0 / qpmax=69 / qpstep=4 / vbv_maxrate=50000 / vbv_bufsize=62500 / crf_max=0.0 / nal_hrd=none / filler=0 / ip_ratio=1.40 / pb_ratio=1.30 / aq=3:0.80
Language : English
Default : Yes
Forced : No
Color range : Limited
Color primaries : BT.709
Transfer characteristics : BT.709
Matrix coefficients : BT.709
Audio #1
ID : 2
Format : AC-3
Format/Info : Audio Coding 3
Commercial name : Dolby Digital
Codec ID : A_AC3
Duration : 1 h 39 min
Bit rate mode : Constant
Bit rate : 192 kb/s
Channel(s) : 2 channels
Channel layout : L R
Sampling rate : 48.0 kHz
Frame rate : 31.250 FPS (1536 SPF)
Compression mode : Lossy
Stream size : 137 MiB (7%)
Title : MVO_[ОРТ]
Language : Russian
Service kind : Complete Main
Default : Yes
Forced : No
Audio #2
ID : 3
Format : AC-3
Format/Info : Audio Coding 3
Commercial name : Dolby Digital
Codec ID : A_AC3
Duration : 1 h 39 min
Bit rate mode : Constant
Bit rate : 192 kb/s
Channel(s) : 2 channels
Channel layout : L R
Sampling rate : 48.0 kHz
Frame rate : 31.250 FPS (1536 SPF)
Compression mode : Lossy
Stream size : 137 MiB (7%)
Title : ENG
Language : English
Service kind : Complete Main
Default : No
Forced : No
Text #1
ID : 4
Format : UTF-8
Codec ID : S_TEXT/UTF8
Codec ID/Info : UTF-8 Plain Text
Duration : 1 h 36 min
Bit rate : 45 b/s
Count of elements : 1346
Stream size : 31.9 KiB (0%)
Language : English
Default : No
Forced : No
Text #2
ID : 5
Format : UTF-8
Codec ID : S_TEXT/UTF8
Codec ID/Info : UTF-8 Plain Text
Duration : 1 h 37 min
Bit rate : 49 b/s
Count of elements : 1541
Stream size : 35.3 KiB (0%)
Title : SDH
Language : English
Default : No
Forced : No
Menu
00:00:00.000 : :Глава 01
00:05:30.000 : :Глава 02
00:11:00.000 : :Глава 03
00:16:30.000 : :Глава 04
00:22:00.000 : :Глава 05
00:27:30.000 : :Глава 06
00:33:00.000 : :Глава 07
00:38:30.000 : :Глава 08
00:44:00.000 : :Глава 09
00:49:30.000 : :Глава 10
00:55:00.000 : :Глава 11
01:00:30.000 : :Глава 12
01:06:00.000 : :Глава 13
01:11:30.000 : :Глава 14
01:17:00.000 : :Глава 15
01:22:30.000 : :Глава 16
01:28:00.000 : :Глава 17
01:33:30.000 : :Глава 18
01:39:00.000 : :Глава 19

Скриншоты

admin

Post 18-Jul-2021 05:08

[Quote]

Информация о фильме
Название: Ромео должен умереть
Оригинальное название: Romeo Must Die
Год выпуска: 2000
Жанр: боевик, триллер, криминал
Режиссер: Анджей Бартковяк
В ролях: Джет Ли (Han Sing), Алия (Trish O'Day), Исайя Вашингтон (Mac), Расселл Вонг (Kai), Делрой Линдо (Isaak O'Day), Д.Б. Вудсайд (Colin), Генри О (Ch'u Sing), Джонкит Ли (Po Sing), Эдоардо Баллерини (Vincent Roth), Энтони Андерсон (Maurice), DMX (Silk), Мэттью Харрисон (Dave)
О фильме:
Между китайской мафией и афроамериканской бандой идёт война. Однажды убивают младшего сына главы китайской мафии. Его старший брат Хан решает найти убийцу, но на своём пути он встречает обворожительную Триш О’Дэй. Несмотря на то, что их семьи ведут жестокую войну за передел участков в Окленде, опасности объединяют влюблённых.

Страна: США
Студия: Silver Picture, Warner Bros. Pictures Co.
Продолжительность: 01:55:10
Перевод: Дубляж [Мосфильм-Мастер]
Субтитры: Russian
Файл
Качество: WEB-DLRip-AVC | Open Matte [Amazon]
Формат: Matroska
Видео: 1024x576 at 23.976 fps, High@L4.1, ~2324 kbps
Аудио: 48 kHz, AC3, 3/2 (L,C,R,l,r) + LFE ch, ~384 kbps
Формат субтитров: softsub (SRT)

Скриншоты

--

admin

Post 14-Jul-2021 04:23

[Quote]

Информация о фильме
Название: Особь
Оригинальное название: Species
Год выпуска: 1995
Жанр: ужасы, фантастика, боевик, триллер
Режиссер: Роджер Дональдсон
В ролях: Бен Кингсли, Майкл Мэдсен, Альфред Молина, Форест Уитакер, Марж Хелгенбергер, Наташа Хенстридж, Мишель Уильямс, Джордан Лунд, Дон Фишер, Скотт МакКенна

О фильме:
В сверхсекретном научном центре получили из космоса формулу ДНК, которая была воспроизведена и скрещена с женской. В результате получился ребенок, девочка, которая росла не по дням, а по часам. И даже не по часам, а по минутам. Напуганные результатами эксперимента, ученые решили уничтожить подопытное существо, но оно сбежало, разбив пуленепробиваемое стекло. А существо из девушки уже превратилось в женщину с очень сексапильной внешностью и жаждало размножаться, к чему и приступило. Но внутри у нее таилось ужасающее чудовище, котоpoe убивало после спаривания самцов. Для ее поимки была создана специальная группа экспертов, которая пошла по кровавому следу одержимой материнским инстинктом самки из космоса…

Страна: США
Студия: Metro Goldwyn Mayer
Продолжительность: 01:48:25
Перевод: Дубляж (SDI Sun Studio Russia)
Субтитры: Русские
Файл
Формат: MKV
Качество: BDRip-AVC | [BD-Remux 1080p]
Видео: 1040x444 at 23.976 fps, x264, ~2431 kbps
Аудио: AC3, 6 ch, ~448 kbps - | Русский | -
Формат субтитров: softsub (SRT)

M/I

x264 info: frame I:978 Avg QP:16.71 size: 48676
x264 info: frame P:37853 Avg QP:17.97 size: 24391
x264 info: frame B:117144 Avg QP:19.86 size: 8416
x264 info: consecutive B-frames: 2.6% 4.7% 11.2% 27.3% 19.8% 27.5% 3.8% 1.8% 0.5% 0.5% 0.1% 0.2% 0.2%
General
Unique ID : 39104603687902490221080359972020702420 (0x1D6B45D1044A91211FCEA3C840084CD4)
Complete name : Особь.(1995).BDRip-AVC.[-=DoMiNo=-].mkv
Format : Matroska
Format version : Version 4
File size : 2.18 GiB
Duration : 1 h 48 min
Overall bit rate : 2 880 kb/s
Movie name : Особь / Species (1995)
Encoded date : UTC 2019-05-07 05:37:41
Writing application : mkvmerge v33.1.0 ('Primrose') 64-bit
Writing library : libebml v1.3.7 + libmatroska v1.5.0
Attachments : poster.png
Video
ID : 1
Format : AVC
Format/Info : Advanced Video Codec
Format profile : High@L4.1
Format settings : CABAC / 14 Ref Frames
Format settings, CABAC : Yes
Format settings, Reference : 14 frames
Codec ID : V_MPEG4/ISO/AVC
Duration : 1 h 48 min
Bit rate : 2 431 kb/s
Width : 1 040 pixels
Height : 444 pixels
Display aspect ratio : 2.35:1
Frame rate mode : Constant
Frame rate : 23.976 (24000/1001) FPS
Color space : YUV
Chroma subsampling : 4:2:0
Bit depth : 8 bits
Scan type : Progressive
Bits/(Pixel*Frame) : 0.220
Stream size : 1.84 GiB (84%)
Title : RIP_BY_-=DoMiNo=-
Writing library : x264 core 157 r2935 545de2f
Encoding settings : cabac=1 / ref=14 / deblock=1:-2:-2 / analyse=0x3:0x133 / me=umh / subme=11 / psy=1 / psy_rd=1.05:0.15 / mixed_ref=1 / me_range=48 / chroma_me=1 / trellis=2 / 8x8dct=1 / cqm=0 / deadzone=21,11 / fast_pskip=0 / chroma_qp_offset=-3 / threads=6 / lookahead_threads=1 / sliced_threads=0 / nr=0 / decimate=1 / interlaced=0 / bluray_compat=0 / constrained_intra=0 / bframes=12 / b_pyramid=2 / b_adapt=2 / b_bias=0 / direct=3 / weightb=1 / open_gop=0 / weightp=2 / keyint=250 / keyint_min=23 / scenecut=40 / intra_refresh=0 / rc=2pass / mbtree=0 / bitrate=2431 / ratetol=1.0 / qcomp=0.70 / qpmin=0 / qpmax=69 / qpstep=4 / cplxblur=20.0 / qblur=0.5 / ip_ratio=1.40 / pb_ratio=1.30 / aq=3:0.80
Language : English
Default : Yes
Forced : No
Audio
ID : 2
Format : AC-3
Format/Info : Audio Coding 3
Commercial name : Dolby Digital
Codec ID : A_AC3
Duration : 1 h 48 min
Bit rate mode : Constant
Bit rate : 448 kb/s
Channel(s) : 6 channels
Channel layout : L R C LFE Ls Rs
Sampling rate : 48.0 kHz
Frame rate : 31.250 FPS (1536 SPF)
Bit depth : 16 bits
Compression mode : Lossy
Stream size : 347 MiB (16%)
Language : Russian
Service kind : Complete Main
Default : Yes
Forced : No
Text
ID : 3
Format : UTF-8
Codec ID : S_TEXT/UTF8
Codec ID/Info : UTF-8 Plain Text
Duration : 1 h 37 min
Bit rate : 71 b/s
Count of elements : 962
Stream size : 50.9 KiB (0%)
Language : Russian
Default : No
Forced : No
Menu
00:00:00.000 : :Глава 1
00:05:00.000 : :Глава 2
00:10:00.000 : :Глава 3
00:15:00.000 : :Глава 4
00:20:00.000 : :Глава 5
00:25:00.000 : :Глава 6
00:30:00.000 : :Глава 7
00:35:00.000 : :Глава 8
00:40:00.000 : :Глава 9
00:45:00.000 : :Глава 10
00:50:00.000 : :Глава 11
00:55:00.000 : :Глава 12
01:00:00.000 : :Глава 13
01:05:00.000 : :Глава 14
01:10:00.000 : :Глава 15
01:15:00.000 : :Глава 16
01:20:00.000 : :Глава 17
01:25:00.000 : :Глава 18
01:30:00.000 : :Глава 19
01:35:00.000 : :Глава 20
01:40:00.000 : :Глава 21
01:45:00.000 : :Глава 22

Скриншоты

--

admin

Post 14-Jul-2021 04:10

[Quote]

Информация о фильме:
Название: Особь 2
Оригинальное название: Species II
Год выхода: 1998
Жанр: ужасы, фантастика
Режиссер: Питер Медак
В ролях: Майкл Мэдсен, Наташа Хенстридж, Марг Хельгенбергер, Майкелти Уильямсон, Джордж Дзундза, Джеймс Кромуэлл, Джастин Лазард, Мириам Сир, Сара Уайнтер, Бакстер Харрис

О фильме:
Исследователи космоса возвращаются на Землю, после длительной экспедиции на Марс. Ученым удалось собрать множество интереснейших образцов, которые они везут на Землю для изучения, но вместе с этими образцами на корабль проникло Нечто. Один из ученых превращается в ужасную тварь, которая легко убивает всех, кто встает на ее пути. Главная задача неземного существа – наплодить потомство, для этого твари необходимо встретиться с другой, подобной ей тварью, которую изучают на Земле в секретной лаборатории. Если эта встреча состоится – инопланетные твари заполонят Землю.

Страна: США
Студия: Metro Goldwyn Mayer
Продолжительность: 01:33:03
Перевод: Профессиональный (многоголосый, закадровый) + профессиональный (двуголосый, закадровый)
Субтитры: Русские, английские
Файл
Формат: MKV
Качество: BDRip-AVC | [Species.II.1998.BDRemux]
Видео: 1032x560 at 23.976 fps, x264, ~2971 kbps
Аудио #1: AC3, 2 ch, ~192 kbps - | Русский | - MVO - Варус-Видео
Аудио #2: AC3, 2 ch, ~192 kbps - | Русский | - DVO - НТВ+
Формат субтитров: softsub (SRT)

M/I

x264 info: frame I:871 Avg QP:16.00 size: 67284
x264 info: frame P:29016 Avg QP:17.18 size: 29865
x264 info: frame B:103957 Avg QP:18.81 size: 10890
x264 info: consecutive B-frames: 2.4% 3.5% 9.3% 13.5% 14.5% 42.1% 6.4% 2.7% 1.7% 1.0% 0.8% 1.9% 0.3%
General
Complete name : E:ВИДЕО_2Не удалять_1Особь.2.(1998).BDRip-AVC.[-=DoMiNo=-].mkv
Format : Matroska
Format version : Version 4
File size : 2.18 GiB
Duration : 1 h 33 min
Overall bit rate : 3 357 kb/s
Movie name : Особь 2 / Species II (1998)
Encoded date : UTC 2019-12-10 08:23:32
Writing application : mkvmerge v41.0.0 ('Smarra') 64-bit
Writing library : libebml v1.3.9 + libmatroska v1.5.2
Attachments : poster.png / poster 2.jpg
Video
ID : 1
Format : AVC
Format/Info : Advanced Video Codec
Format profile : High@L4.1
Format settings : CABAC / 14 Ref Frames
Format settings, CABAC : Yes
Format settings, Reference : 14 frames
Codec ID : V_MPEG4/ISO/AVC
Duration : 1 h 33 min
Bit rate : 2 971 kb/s
Width : 1 032 pixels
Height : 560 pixels
Display aspect ratio : 1.85:1
Frame rate mode : Constant
Frame rate : 23.976 (24000/1001) FPS
Color space : YUV
Chroma subsampling : 4:2:0
Bit depth : 8 bits
Scan type : Progressive
Bits/(Pixel*Frame) : 0.214
Stream size : 1.93 GiB (88%)
Title : RIP_BY_-=DoMiNo=-
Writing library : x264 core 157 r2935 545de2f
Encoding settings : cabac=1 / ref=14 / deblock=1:-2:-2 / analyse=0x3:0x133 / me=umh / subme=11 / psy=1 / psy_rd=0.90:0.05 / mixed_ref=1 / me_range=48 / chroma_me=1 / trellis=2 / 8x8dct=1 / cqm=0 / deadzone=21,11 / fast_pskip=0 / chroma_qp_offset=-3 / threads=6 / lookahead_threads=1 / sliced_threads=0 / nr=0 / decimate=1 / interlaced=0 / bluray_compat=0 / constrained_intra=0 / bframes=12 / b_pyramid=2 / b_adapt=2 / b_bias=0 / direct=3 / weightb=1 / open_gop=0 / weightp=2 / keyint=250 / keyint_min=23 / scenecut=40 / intra_refresh=0 / rc=2pass / mbtree=0 / bitrate=2971 / ratetol=1.0 / qcomp=0.70 / qpmin=0 / qpmax=69 / qpstep=4 / cplxblur=20.0 / qblur=0.5 / ip_ratio=1.40 / pb_ratio=1.30 / aq=3:0.80
Language : English
Default : Yes
Forced : No
Audio #1
ID : 2
Format : AC-3
Format/Info : Audio Coding 3
Commercial name : Dolby Digital
Codec ID : A_AC3
Duration : 1 h 33 min
Bit rate mode : Constant
Bit rate : 192 kb/s
Channel(s) : 2 channels
Channel layout : L R
Sampling rate : 48.0 kHz
Frame rate : 31.250 FPS (1536 SPF)
Compression mode : Lossy
Stream size : 128 MiB (6%)
Title : MVO Варус-Видео
Language : Russian
Service kind : Complete Main
Default : Yes
Forced : No
Audio #2
ID : 3
Format : AC-3
Format/Info : Audio Coding 3
Commercial name : Dolby Digital
Codec ID : A_AC3
Duration : 1 h 33 min
Bit rate mode : Constant
Bit rate : 192 kb/s
Channel(s) : 2 channels
Channel layout : L R
Sampling rate : 48.0 kHz
Frame rate : 31.250 FPS (1536 SPF)
Compression mode : Lossy
Stream size : 128 MiB (6%)
Title : DVO НТВ+
Language : Russian
Service kind : Complete Main
Default : No
Forced : No
Text #1
ID : 4
Format : UTF-8
Codec ID : S_TEXT/UTF8
Codec ID/Info : UTF-8 Plain Text
Duration : 1 h 25 min
Bit rate : 84 b/s
Count of elements : 804
Stream size : 52.9 KiB (0%)
Title : Full
Language : Russian
Default : No
Forced : No
Text #2
ID : 5
Format : UTF-8
Codec ID : S_TEXT/UTF8
Codec ID/Info : UTF-8 Plain Text
Duration : 1 h 25 min
Bit rate : 49 b/s
Count of elements : 928
Stream size : 31.2 KiB (0%)
Title : Full
Language : English
Default : No
Forced : No
Text #3
ID : 6
Format : UTF-8
Codec ID : S_TEXT/UTF8
Codec ID/Info : UTF-8 Plain Text
Duration : 1 h 26 min
Bit rate : 51 b/s
Count of elements : 995
Stream size : 32.5 KiB (0%)
Title : SDH
Language : English
Default : No
Forced : No
Menu
00:00:00.000 : en:Chapter 01
00:10:15.740 : en:Chapter 02
00:20:20.969 : en:Chapter 03
00:27:59.552 : en:Chapter 04
00:33:52.447 : en:Chapter 05
00:41:16.056 : en:Chapter 06
00:49:01.897 : en:Chapter 07
00:58:37.180 : en:Chapter 08
01:05:50.112 : en:Chapter 09
01:12:49.782 : en:Chapter 10
01:20:02.547 : en:Chapter 11
01:25:15.735 : en:Chapter 12
--

Борисыч

Post 09-Jun-2021 07:38

[Quote]

- -Godzilla- Год выпуска: 1998
Выпущено: США, Япония
Жанр: фантастика, боевик, триллер
Продолжительность: 02:18:39
Перевод: Профессиональный (полное дублирование)
Режиссер: Роланд Эммерих / Roland Emmerich
В ролях:
Мэттью Бродерик, Жан Рено, Мария Питилло, Хэнк Азария, Кевин Данн, Майкл Лернер, Гарри Ширер, Арабелла Филд, Викки Льюис, Даг Сэвант
Описание:
Из тихоокеанских джунглей на Нью — Йорк надвинулась страшная катастрофа. На глазах у потрясенных жителей рушатся небоскребы, переворачиваются автобусы, уходят под землю целые кварталы. Но это не ураган и не землетрясение. Это — Годзилла, самое ужасное чудовище в истории.
Для него человеческая цивилизация — лишь жалкий муравейник, дома — спичечные коробки, вертолеты — назойливые стрекозы. Мегаполису грозит полное уничтожение. Армия, оснащенная по последнему слову техники, не в силах противостоять гигантской ящерице. Небольшой группе смельчаков предстоит выяснить, зачем Годзилла пришел в Нью — Йорк. Возможно, тогда им удастся спасти город…
Качество: HDRip
Формат: AVI
Видео кодек: XviD
Аудио кодек: AC3
Видео: 688x384, 23.976 fps, 1308 kbps
Аудио: 48 kHz, 2 ch, 192 kbps

Скриншоты

Борисыч

Post 01-Jan-2021 08:07

[Quote]

- -
Год выпуска: 1992
Страна: США
Жанр: Комедия, детский
Продолжительность: 02:00:01
Перевод: Профессиональный (полное дублирование)
Режиссер: Крис Коламбус / Chris Columbus
В ролях: Маколэй Калкин, Майкл С. Маронна, Джерри Бэммен, Морин Элизабет Шэй, Хиллари Вульф, Девин Рэтрэй, Дэниэл Стерн, Джон Хёрд, Джо Пеши, Кэтрин О'Хара
Описание:
Кевин мечтает в этом году встретить Рождество с настоящей рождественской елкой и снегом, но родители уже запланировали поездку во Флориду, южный штат, где зимой одно из самых теплых мест на североамериканском континенте. Поссорившись со своим старшим братом, Кевин загадал желание: встретить Рождество без семьи и повеселиться от души. Желание Кевина сбывается и в очередной раз, опаздывающая на самолет семья Мак-Каллистеров забывает ребенка, но на этот раз в аэропорту. Перепутав своего отца с чужим человеком в таком же плаще, мальчик садится на самолет, который летит в Нью-Йорк. Прихватив сумку отца с деньгами, Кевин решает остановиться в самом роскошном отеле города. Теперь ему будет, чем заняться!
Качество: BDRip
Формат: AVI
Видео кодек: XviD
Аудио кодек: AC3
Видео: 720x384, 23,976 fps, 1537 kbps
Аудио: 48 kHz, 6 ch, 384 kbps

Скриншоты

WalterPhirl

Post 03-Nov-2020 21:37

[Quote]

Хороший фильм. Спасибо.

Борисыч

Post 01-Nov-2020 09:30

[Quote]

- - Год выпуска: 1993
Страна:
Жанр: Боевик, триллер, приключения
Продолжительность: 01:52:42
Перевод: Профессиональный ( Многоголосый, закадровый )+( Двухголосый )
Режиссер: Ренни Харлин / Renny Harlin
В ролях: Сильвестр Сталлоне, Джон Литгоу, Майкл Рукер, Джанин Тернер, Рекс Линн, Кэролайн Гудолл, Леон, Крэйг Фэйрбрасс, Грегори Скотт Камминс, Денис Форест
Описание: В горах после снежной лавины теряются 5 человек. На их поиски отправляется один из лучших альпинистов и горных проводников — Гейб Уокер. Неожиданно он понимает, что его специально заманили в горы для совершенно другого дела.
Также становится ясно, что Гейб станет нежелательным свидетелем, от которого без раздумья «избавятся». Но свою жизнь он терять так просто не собирается и объявляет безжалостную войну банде вооруженных до зубов боевиков под предводительством международного террориста Эрика Куалена…
Качество: BDRip
Формат: AVI
Видео кодек: XviD
Аудио кодек: АС3
Видео: 688x288, 23,976 fps, 1391 kbps
Аудио - 1: 48 kHz, 2 ch, 192 kbps - MVO
Аудио - 2: 48 kHz, 2 ch, 192 kbps - DVO

Скриншоты

admin

Post 26-Oct-2020 19:21

[Quote]

28450хорошая картина. не раз смотрел.
Да,интересный триллер.Спасибо Борисыч.

Борисыч

Post 26-Oct-2020 12:24

[Quote]

хорошая картина. не раз смотрел.
 

Current time is: 25-May 15:57

All times are UTC + 3