Search found 11 matches

Author Message

admin

Post 29-Nov-2018 05:48

[Quote]

Информация о фильме
Название: Парфюм Эммануэль
Оригинальное название: Le Parfum d'Emmanuelle / Emmanuelle's Perfume
Год выхода: 1993
Жанр: Драма, мелодрама, эротика
Режиссер: Франсис Леруа
В ролях: Марсела Валерстейн, Джордж Лэзенби, Сильвия Кристель, Джоэль Буи, Джей Хаусман, Пэм Дук-Ту, Дэниел Хун Мис, Виббе Хаугорд, Тони Сенегал
О фильме: Эмманюэль приехала на Каннский кинофестиваль и узнала от известного продюсера, получившего годом ранее «Золотую пальмовую ветвь» за фильм «Полночная птица», что писатель Сэм, по книге которого была поставлена та картина, избегает контактов с людьми. Эмманюэль пообещала привезти Сэма в Канн и отправилась на остров Бали, где жил Сэм, не покидавший стен своего дома, в котором и располагался бар «Полночная птица». Туда же на 50-летие своей супружеской жизни прилетели и родители Сэма. В гостиничном номере, где они остановились, Эмманюэль оставила в подарок книгу их сына и совершенно необыкновенные духи. Одна капелька этого волшебного снадобья вмиг сделала стариков-супругов молодыми и страстными…

Страна: Франция
Студия: 21st Century Film France, Lions of the Sea, M6 Métropole Télévision
Продолжительность: 01:29:37
Перевод: Авторский одноголосый
Файл
Кодек: MPEG-4 AVC
Качество: DVDRip- AVC
Видео: 2124 Кбит/с, 704x416
Звук: Русский, французский (АС3, 2 ch, 192 Кбит/с), английский (АС3, 6 ch, 384 Кбит/с)
Субтитры: Голландские
Релиз от: Voyeurist
Благодарность: За подготовку релиза спасибо tolkev111

Скриншоты



admin

Post 03-Jun-2018 04:02

[Quote]

Информация о фильме
Название: Космические дальнобойщики
Оригинальное название: Space Truckers
Год выхода: 1996
Жанр: Фантастика, Триллер, Приключения
Режиссер: Stuart Gordon / Стюарт Гордон
Оператор: Mac Ahlberg / Мак Олберг
Композитор: Colin Towns / Колин Таунс
В ролях: Деннис Хоппер / Dennis Hopper ( John Canyon ), Деби Мейзар / Debi Mazar ( Cindy ), Олвен Фуэр / Olwen Fouere ( Building Commander ), Чарльз Дэнс / Charles Dance ( Nabel / Macanudo ), Шэйн Риммер / Shane Rimmer ( E. J. Saggs ), Джордж Уэндт / George Wendt ( Keller ) и другие.
О фильме:
2196 год. Водитель, перевозящий грузы на далекие планеты, хочет остаться независимым от могущественной корпорации. Поэтому за большие деньги он берётся перевезти сомнительный груз. Чтобы сократить путь, он направляется через Галактику, где царит разбой и пиратство. С самого начала у Джона возникают сомнения относительно перевозимого им груза, но он пытается себя побороть и отвезти мысли о вскрытии контейнеров...

Страна: Великобритания, США, Ирландия
Выпущено: Goldcrest Films International, Peter Newman Productions, InterAL, Mary Breen-Farrelly Productions, Investment Incentives for the Irish Film Industry, Pachyderm Production
Графика: Electric Image, Cannom Creations, Optic Nerve Studios, SMG Effects
Продолжительность: 01:36:21
Перевод: Профессиональный (многоголосый, закадровый) ТВЦ
Субтитры: Нет
Файл
Кодек: XviD
Качество: HDRip
Видео: 24.000 fps; ~1700 Кбит/с; 720x304
Аудио: AC3; 48.0 KHz; 6ch; 448 Kbps--

Интересно

- Дизайн биомеханических воинов был разработан японским иллюстратором Хадзиме Сораямой, известным своими нарисованными вручную фотореалистичными эротическими изображениями женщин и женоподобных роботов-гиноидов, автором дизайна AIBO.
Бывший монтажер серии "National Lampoons" Тед Манн, написавший сценарий к этому фильму, назвал его "Первым космическим дорожным фильмом". По словам Манна, в фильме нет ученых, ни техников, ни блестящего и стерильного окружения, которое обычно используется в фильмах про космос. Космос такой же, как и всё вокруг - люди, которые там находятся, малооплачиваемы и никем не уважаемы.
Фильм снимался на студии Ардмор, графство Уиклоу, Ирландия.
Вернон Уэллс сыграл эпизодическую роль космического пирата.
- В фильме пренебрегают законами гравитации и физикой. Наиболее ярким примером является вертикальное пламя зажигалки в месте, где нет воздуха и силы тяжести.
--

mihis

Post 09-Apr-2018 19:49

[Quote]

Брат якудзы / Brother«А ты Японец?..»Год выпуска: 2000
Страна: США, Великобритания, Япония
Жанр: триллер, драма, криминал
Продолжительность: 01:53:20
Перевод: Профессиональный (двухголосый) + Авторский (Дмитрий «Гоблин» Пучков) + Оригинал
Cубтитры: русские, английские
Режиссер: Такеши Китано
В ролях: Такеши Китано, Омар Эппс, Куроудо Маки, Масая Като, Сусуму Тэрадзима, Ройял Уоткинс, Ломбардо Бойяр, Рен Осуги, Рё Исибаси, Джеймс Шигета, Татьяна Али, Макото Отакэ
Описание: После разгрома родного мафиозного клана боевик Аники Ямамото по прозвищу Старший Брат бежит из Японии в Америку. Здесь его встречает чужой, но не менее жестокий мир безжалостной борьбы за власть в преступной среде, в которой Ямамото решительно отвоевывает себе место, следуя древнему кодексу «якудзы».
Полагаясь только на свои силы и дорожа верными друзьями, он в одиночку ведет войну с врагами, зная, что в самом конце кровавого пути его ждет триумф или смерть...

Качество: HDRip-AVC
Формат: MKV
Видео кодек: H.264
Аудио кодек: AC3
Видео: 1024х552 (1,855:1), 24 fps, H264 ~ 2333 kbps avg, 0.172 bit/pixel
Аудио: 48 kHz, AC3, 6 ch, 448.00 kbps DVO AVO ENG

Скриншоты

admin

Post 10-Dec-2017 05:10

[Quote]

Информация о фильме
Название: Ронин
Оригинальное название: Ronin
Год выхода: 1998
Жанр: боевик, триллер, криминал
Режиссер: Джон Франкенхаймер
В ролях: Роберт Де Ниро, Жан Рено, Наташа МакЭлхоун, Стеллан Скарсгард, Шон Бин, Скипп Саддат, Микаэль Лонсдаль, Ян Триска, Джонатан Прайс, Рон Перкинс
О фильме:
Хотя холодная война давно закончена, тайные наемники, чьи навыки в слежке, шпионаже и силовых схватках буквально легендарны, остаются востребованными при новом мировом порядке и всегда находят высокооплачиваемую работу. Некий таинственный клиент собирает в Париже команду таких «платных оперативников», известных как «Ронины», для похищения сверхсекретного портфеля.
Вскоре выясняется, что это, на первый взгляд простое, задание почти невыполнимо: та же цена обещана за тот же портфель еще нескольким нелегальным группам.
Чтобы справиться с работой, бывший агент ЦРУ по кличке «Сэм» и его наспех сколоченный отряд должны делать то, чего им не приходилось делать никогда раньше: довериться друг другу.

Выпущено: Великобритания, Франция, США / MGM - United Artists
Продолжительность: 02:01:34
Перевод: Дублированный (Невафильм)
Файл
Кодек: x264
Тип релиза: HDRip-AVC [Ронин / Ronin (1998) Hybrid 1080p [Open Matte] - Bluray поверх HDTV]
Видео: 1024x576 (16:9), ~2374 Kbps, 23.976 fps
Звук: AC3, 48 kHz, 192 kbps, 2.0 ch
Субтитры: русские (R5, Uncle KiLler, unknown), украинские, английские (форсированные на иностранную речь, полные) - SRT
ЦитатаКто-то писал:Гибрид получен путем автоматического совмещения нескольких HDTV-трансляций и широкоэкранного BD (старый, неремастированный трансфер). Чистый видеоряд.
Звуковые дорожки и субтитры от HDClub--

M/I

General
Unique ID : 325532729544129336500087078990798276088 (0xF4E752BB50E3FE7C86DFADCBFC3E45F8)
Complete name : F:FILMSРонин.1998.Open.Matte.HybridRIP-AVC.[-=DoMiNo=-].mkv
Format : Matroska
Format version : Version 4 / Version 2
File size : 2.18 GiB
Duration : 2 h 1 min
Overall bit rate : 2 569 kb/s
Movie name : Ронин
Deion : Хотя холодная война давно закончена, тайные наемники, чьи навыки в слежке, шпионаже и силовых схватках буквально легендарны, остаются востребованными при новом мировом порядке и всегда находят высокооплачиваемую работу. Некий таинственный клиент собирает в Париже команду таких «платных оперативников», известных как «Ронины», для похищения сверхсекретного портфеля. / Вскоре выясняется, что это, на первый взгляд простое, задание почти невыполнимо: та же цена обещана за тот же портфель еще нескольким нелегальным группам. / Чтобы справиться с работой, бывший агент ЦРУ по кличке «Сэм» и его наспех сколоченный отряд должны делать то, чего им не приходилось делать никогда раньше: довериться друг другу.
Writing application : XviD4PSP 7.0.431 DAILY
Writing library : Lavf57.71.100
Cover : Yes
ErrorDetectionType : Per level 1
Attachments : cover.jpg
COMPOSER : Элиа Кмирал
COUNTRY : Великобритания, Франция, США
DATE : 1998
DIRECTOR : Джон Франкенхаймер
ENCODING_INFO : MATROSKA,WEBM > MKV Пользовательский / H264 > X264 VBR-2P 2374kbps Пользовательский / AC3 > COPY Безопасное
GENRE : боевик, триллер, криминал, приключения
HD_VIDEO : 1
IMDB_RATING : 7.30
ITUNEXTC : mpaa|R|400|
Language : und
MEDIA_TYPE : 9
ORIGINAL_TITLE : Ronin
PRODUCER : Фрэнк Манкузо мл., Пол Келменсон, Этель Уинант
RATING : 7.298
WRITER : Дж. Д. Зайк, Дэвид Мэмет
Video
ID : 1
Format : AVC
Format/Info : Advanced Video Codec
Format profile : High@L4.1
Format settings : CABAC / 11 Ref Frames
Format settings, CABAC : Yes
Format settings, ReFrames : 11 frames
Codec ID : V_MPEG4/ISO/AVC
Duration : 2 h 1 min
Bit rate : 2 374 kb/s
Width : 1 024 pixels
Height : 576 pixels
Display aspect ratio : 16:9
Frame rate mode : Constant
Frame rate : 23.976 (24000/1001) FPS
Color space : YUV
Chroma subsampling : 4:2:0
Bit depth : 8 bits
Scan type : Progressive
Bits/(Pixel*Frame) : 0.168
Stream size : 1.98 GiB (91%)
Title : HybridRIP-AVC_BY_-=DoMiNo=-_Open Matte
Writing library : x264 core 152 r2851M ba24899
Encoding settings : cabac=1 / ref=11 / deblock=1:-3:-3 / analyse=0x3:0x133 / me=umh / subme=11 / psy=1 / psy_rd=1.00:0.05 / mixed_ref=1 / me_range=32 / chroma_me=1 / trellis=2 / 8x8dct=1 / cqm=0 / deadzone=21,11 / fast_pskip=1 / chroma_qp_offset=-3 / threads=5 / lookahead_threads=1 / sliced_threads=0 / nr=0 / decimate=1 / interlaced=0 / bluray_compat=0 / constrained_intra=0 / bframes=12 / b_pyramid=2 / b_adapt=2 / b_bias=0 / direct=3 / weightb=1 / open_gop=0 / weightp=2 / keyint=240 / keyint_min=24 / scenecut=40 / intra_refresh=0 / rc_lookahead=60 / rc=2pass / mbtree=1 / bitrate=2374 / ratetol=1.0 / qcomp=0.60 / qpmin=0 / qpmax=69 / qpstep=4 / cplxblur=20.0 / qblur=0.5 / ip_ratio=1.40 / aq=1:1.00
Language : English
Default : Yes
Forced : No
Color range : Limited
Color primaries : BT.709
Transfer characteristics : BT.709
Matrix coefficients : BT.709
Audio
ID : 2
Format : AC-3
Format/Info : Audio Coding 3
Codec ID : A_AC3
Duration : 2 h 1 min
Bit rate mode : Constant
Bit rate : 192 kb/s
Channel(s) : 2 channels
Channel positions : Front: L R
Sampling rate : 48.0 kHz
Frame rate : 31.250 FPS (1536 SPF)
Bit depth : 16 bits
Compression mode : Lossy
Stream size : 167 MiB (7%)
Title : Dub Nevafilm
Language : Russian
Service kind : Complete Main
Default : Yes
Forced : No
Text #1
ID : 3
Format : UTF-8
Codec ID : S_TEXT/UTF8
Codec ID/Info : UTF-8 Plain Text
Title : R5
Language : Russian
Default : Yes
Forced : No
Text #2
ID : 4
Format : UTF-8
Codec ID : S_TEXT/UTF8
Codec ID/Info : UTF-8 Plain Text
Title : Uncle KiLler
Language : Russian
Default : No
Forced : No
Text #3
ID : 5
Format : UTF-8
Codec ID : S_TEXT/UTF8
Codec ID/Info : UTF-8 Plain Text
Title : Unknown
Language : Russian
Default : No
Forced : No
Text #4
ID : 6
Format : UTF-8
Codec ID : S_TEXT/UTF8
Codec ID/Info : UTF-8 Plain Text
Title : Ukrainian
Language : Ukrainian
Default : No
Forced : No
Text #5
ID : 7
Format : UTF-8
Codec ID : S_TEXT/UTF8
Codec ID/Info : UTF-8 Plain Text
Title : English forced
Language : English
Default : No
Forced : No
Text #6
ID : 8
Format : UTF-8
Codec ID : S_TEXT/UTF8
Codec ID/Info : UTF-8 Plain Text
Title : English
Language : English
Default : No
Forced : No
Menu
00:00:00.000 : :Start
00:07:01.796 : :Team Dynamics
00:10:28.961 : :Botched Exchange
00:15:23.339 : :New Negotiations
00:17:22.082 : :Photographic Study
00:18:55.050 : :Remote Sensor Tracking
00:24:12.784 : :In Search Of Gregor
00:26:20.662 : :Answering To The Boss
00:27:20.138 : :Those Who Wait...
00:31:22.171 : :The Link To The Case
00:33:54.490 : :Ice-Skating Gala
00:39:19.899 : :Farewell
00:41:19.351 : :Bull's-Eye Bombing
00:45:21.719 : :Chasing The Target
00:49:51.238 : :Crashing The Case
00:51:35.842 : :Spiritual Doctor
00:54:35.563 : :"Life Is Uncertain"
00:57:32.240 : :Gregor's Icy Ring
00:58:53.238 : :"I Need Your Help!"
01:01:21.344 : :The Arena Massacre
01:09:04.598 : :Directing Surgery
01:14:48.275 : :Seamus' Hostility
01:20:06.051 : :Masterless Samurai
01:24:01.494 : :Fragile Hesitation
01:27:05.345 : :Chases To Die For
01:35:04.323 : :A Questionable Case
01:39:31.924 : :Scary Ice Skating
01:45:25.110 : :Gregor's Gunned Down
01:49:22.264 : :A Frenzy Of Fleeing
01:51:49.411 : :Showdown With Seamus
01:53:46.402 : :"Peaceful" Closure
01:56:02.580 : :Credits
--

admin

Post 28-Nov-2017 04:01

[Quote]

Пока ты спалWhile You Were Sleeping«Любовь - прекрасный сон, когда так не хочется просыпаться»- Страна: США
Жанр: драма, мелодрама, комедия
Год выпуска: 1995
Продолжительность: 01:43:15
Перевод: Профессиональный (многоголосый, закадровый) [Видеосервис]
Перевод 2: Авторский (Санаев Павел)
Субтитры: Russian, English
Оригинальная аудиодорожка: английский
Режиссер: Джон Тёртелтауб / Jon Turteltaub
В ролях: Сандра Буллок, Билл Пуллман, Питер Галлахер, Питер Бойл, Джек Уорден, Глинис Джонс, Миколе Миркурио, Джейсон Бернард, Майкл Рисполи, Элли Уокер, Моника Кина, Рут Рудник, Марша Райт, Дик Кьюсак, Томас К. Моррис, Берни Лэндис, Джеймс Крэг, Рик Уорси, Марк Грэйпи, Джоэль Хэтч, Майк Бакарелла, Питер Сирагуса, Джин Янсон, Криста Лэлли, Кевин Гудал
Описание: Застенчивость мешает одинокой Люси познакомиться с мужчиной своей мечты, которого она видит каждое утро. Зато помогает случай, и девушка спасает незнакомцу жизнь. Теперь она может любоваться им целыми днями: спасенный Питер лежит в больнице без сознания.
Семья по ошибке принимает ее за невесту, и Люси не хочет разубеждать этих милых людей. Ведь она уже успела привязаться к ним, особенно к брату Питера. И пока ничего не подозревающий «жених» спит, его «невеста» уже не верит в прекрасный сон. Скоро Люси придется выбирать между волшебной сказкой и такой реальной любовью...

Автор рипа: IVAN@190282
Качество: BDRip-AVC |Пока ты спал / While You Were Sleeping (1995) 1080p Blu-ray 1080р|
Контейнер: MKV
Видео : 1132x612 (1:85:1), 24.00 fps, 3467 Кbps, 0.209 bit/pixe
Аудио: 48 kHz, AC3 Dolby Digital, 3/2 (L,C,R,l,r) + LFE ch, 448.00 kbps | MVO
Аудио 2:48 kHz, AC3 Dolby Digital, 3/2 (L,C,R,l,r) + LFE ch, 448.00 kbps | ENG
Аудио 3 :48 kHz, AC3 Dolby Digital, 3/2 (L,C,R,l,r) + LFE ch, 448.00 kbps | AVO

MediaInfo

General
Unique ID : 226864851248966474762937682993234555732 (0xAAAC94BEB497981ABFACF8165593B354)
Complete name : E:\Мои рипы\Пока ты спал\Пока ты спал by_IVAN@190282.mkv
Format : Matroska
Format version : Version 4 / Version 2
File size : 3.15 GiB
Duration : 1h 43mn
Overall bit rate : 4 363 Kbps
Encoded date : UTC 2014-10-04 02:15:13
Writing application : mkvmerge v7.0.0 ('Where We Going') 64bit built on Jun 9 2014 15:16:27
Writing library : libebml v1.3.0 + libmatroska v1.4.1
DURATION : 01:37:45.651000000
NUMBER_OF_FRAMES : 1612
NUMBER_OF_BYTES : 55022
_STATISTICS_WRITING_APP : mkvmerge v7.0.0 ('Where We Going') 64bit built on Jun 9 2014 15:16:27
_STATISTICS_WRITING_DATE_UTC : 2014-10-04 02:15:13
_STATISTICS_TAGS : BPS DURATION NUMBER_OF_FRAMES NUMBER_OF_BYTES
Video
ID : 1
Format : AVC
Format/Info : Advanced Video Codec
Format profile : High@L4.1
Format settings, CABAC : Yes
Format settings, ReFrames : 13 frames
Codec ID : V_MPEG4/ISO/AVC
Duration : 1h 43mn
Bit rate : 3 467 Kbps
Width : 1 132 pixels
Height : 612 pixels
Display aspect ratio : 1.85:1
Frame rate mode : Constant
Frame rate : 23.976 fps
Color space : YUV
Chroma subsampling : 4:2:0
Bit depth : 8 bits
Scan type : Progressive
Bits/(Pixel*Frame) : 0.209
Stream size : 2.44 GiB (77%)
Writing library : x264 core 142 r2479kMod dd79a61
Encoding settings : cabac=1 / ref=13 / deblock=1:-3:-3 / analyse=0x3:0x113 / me=umh / subme=11 / psy=1 / fade_compensate=0.00 / psy_rd=1.00:0.15 / mixed_ref=1 / me_range=48 / chroma_me=1 / trellis=2 / 8x8dct=1 / cqm=0 / deadzone=21,11 / fast_pskip=0 / chroma_qp_offset=0 / threads=6 / lookahead_threads=6 / sliced_threads=0 / slices=10 / nr=0 / decimate=1 / interlaced=0 / bluray_compat=0 / constrained_intra=0 / fgo=0 / bframes=16 / b_pyramid=2 / b_adapt=2 / b_bias=0 / direct=3 / weightb=1 / open_gop=1 / weightp=2 / keyint=240 / keyint_min=23 / scenecut=40 / intra_refresh=0 / rc_lookahead=40 / rc=2pass / mbtree=0 / bitrate=3467 / ratetol=1.0 / qcomp=0.60 / qpmin=0 / qpmax=69 / qpstep=4 / cplxblur=20.0 / qblur=0.5 / vbv_maxrate=50000 / vbv_bufsize=62500 / nal_hrd=none / filler=0 / ip_ratio=1.40 / pb_ratio=1.30 / aq=1:1.00
Default : Yes
Forced : No
Color primaries : BT.709
Transfer characteristics : BT.709
Matrix coefficients : BT.709
Audio #1
ID : 2
Format : AC-3
Format/Info : Audio Coding 3
Mode extension : CM (complete main)
Format settings, Endianness : Big
Codec ID : A_AC3
Duration : 1h 43mn
Bit rate mode : Constant
Bit rate : 448 Kbps
Channel(s) : 6 channels
Channel positions : Front: L C R, Side: L R, LFE
Sampling rate : 48.0 KHz
Bit depth : 16 bits
Compression mode : Lossy
Stream size : 331 MiB (10%)
Default : Yes
Forced : No
Audio #2
ID : 3
Format : AC-3
Format/Info : Audio Coding 3
Mode extension : CM (complete main)
Format settings, Endianness : Big
Codec ID : A_AC3
Duration : 1h 43mn
Bit rate mode : Constant
Bit rate : 448 Kbps
Channel(s) : 6 channels
Channel positions : Front: L C R, Side: L R, LFE
Sampling rate : 48.0 KHz
Bit depth : 16 bits
Compression mode : Lossy
Stream size : 331 MiB (10%)
Default : No
Forced : No
Text #1
ID : 4
Format : UTF-8
Codec ID : S_TEXT/UTF8
Codec ID/Info : UTF-8 Plain Text
Default : Yes
Forced : No
Text #2
ID : 5
Format : UTF-8
Codec ID : S_TEXT/UTF8
Codec ID/Info : UTF-8 Plain Text
Default : No
Forced : No

x264 log

x264 [info]: frame I:1122 Avg QP:19.60 size: 94442
x264 [info]: frame P:24707 Avg QP:22.01 size: 35979
x264 [info]: frame B:122719 Avg QP:24.30 size: 13749
x264 [info]: consecutive B-frames: 1.9% 1.3% 2.7% 7.8% 10.2% 35.5% 7.4% 1.9% 4.9% 8.0% 5.1% 2.0% 4.2% 5.0% 1.2% 0.4% 0.6%
x264 [info]: kb/s:3463.26
x264 [total]: encoded 148548 frames, 3.29 fps, 3463.26 kb/s, duration 12:32:48.73

Скриншот c названием фильма

Скриншоты

Пожалуйста кто скачал не сваливайте с раздачи!!!

admin

Post 28-Nov-2017 03:22

[Quote]

АрмагеддонArmageddon«Во имя любви. Во имя чести. Во имя человечества»
Страна: США
Жанр: Фантастика, мелодрама, приключения
Год выпуска: 1998
Продолжительность: 02:30:50
Перевод: Профессиональный (дублированный) [Лицензия BD CEE]
Перевод 2: Профессиональный (многоголосый закадровый) [Киномания]
Перевод 3: Профессиональный (многоголосый закадровый) [Superbit]
Перевод 4: Авторский (одноголосый закадровый) [Ю.Сербин]
Перевод 5: Авторский (одноголосый закадровый) [А.Гаврилов]
Субтитры: русские,английские
Оригинальная аудиодорожка: английский
Режиссер: Майкл Бэй / Michael Bay
В ролях: Брюс Уиллис, Билли Боб Торнтон, Бен Аффлек, Лив Тайлер, Уилл Пэттон, Стив Бушеми, Уильям Фихтнер, Оуэн Уилсон, Майкл Кларк Дункан, Петер Стормаре
Описание: Тень гигантского астероида легла на Землю. До рокового столкновения остаются считанные дни. Наступает Армагеддон, трагический финал мировой истории. Чтобы предотвратить катастрофу, необходимо чудо — или совместные усилия лучших из лучших вместе с технологической мощью всего созданного человеком. Сможет ли горстка людей противостоять вселенской стихии?..
Доп. информация:

Автор рипа: IVAN@190282
Качество видео: BDRip-AVC |Армагеддон / Armageddon (1998 1080p BD-Remux|
Формат видео: MKV
Видео: 1152x480 (2,35:1), 23.976 fps, 4378 Кbps, 0.330 bit/pixel
Аудио: 48 kHz, AC3 Dolby Digital, 3/2 (L,C,R,l,r) + LFE ch, 448.00 kbps DUB
Аудио 2: 48 kHz, AC3 Dolby Digital, 3/2 (L,C,R,l,r) + LFE ch, 384.00 kbps [Киномания]
Аудио 3: 48 kHz, AC3 Dolby Digital, 3/2 (L,C,R,l,r) + LFE ch, 448.00 kbps [А.Гаврилов] отдельно
Аудио 4: 48 kHz, AC3 Dolby Digital, 3/2 (L,C,R,l,r) + LFE ch, 384.00 kbps [Ю.Сербин] отдельно
Аудио 5: 48 kHz, AC3 Dolby Digital, 3/2 (L,C,R,l,r) + LFE ch, 448.00 kbps [Superbit] отдельно
Аудио 6: 48 kHz, AC3 Dolby Digital, 3/2 (L,C,R,l,r) + LFE ch, 448.00 kbps [ENG]
Формат субтитров: softsub (SRT)
Доп. информация о субтитрах: отключаемые

Знаете ли вы, что...

* Лив Тайлер пробовалась на фильм два раза, но её взяли только после третьей попытки. Картина вышла на экраны в день рождения Лив Тайлер (ей исполнился 21 год).
* Музыкальную тему к фильму — «I Don’t Want to Miss a Thing» — исполнил отец Лив Тайлер, Стив, в составе команды Aerosmith. Эта песня в течение четырех недель удерживала первое место в Billboard Hot 100.

MediaInfo

General
Unique ID : 221325282681326983499828372651213650011 (0xA681B2ED82340FC89F7A6CAF5F88F85B)
Complete name : E:\Мои рипы\Армагеддон\Армагеддон by_IVAN@190282.mkv
Format : Matroska
Format version : Version 4 / Version 2
File size : 5.97 GiB
Duration : 2h 30mn
Overall bit rate : 5 662 Kbps
Encoded date : UTC 2014-10-09 23:01:07
Writing application : mkvmerge v7.0.0 ('Where We Going') 64bit built on Jun 9 2014 15:16:27
Writing library : libebml v1.3.0 + libmatroska v1.4.1
DURATION : 02:30:50.240000000
NUMBER_OF_FRAMES : 282820
NUMBER_OF_BYTES : 506813440
_STATISTICS_WRITING_APP : mkvmerge v7.0.0 ('Where We Going') 64bit built on Jun 9 2014 15:16:27
_STATISTICS_WRITING_DATE_UTC : 2014-10-09 23:01:07
_STATISTICS_TAGS : BPS DURATION NUMBER_OF_FRAMES NUMBER_OF_BYTES
Video
ID : 1
Format : AVC
Format/Info : Advanced Video Codec
Format profile : High@L4.1
Format settings, CABAC : Yes
Format settings, ReFrames : 13 frames
Codec ID : V_MPEG4/ISO/AVC
Duration : 2h 30mn
Bit rate : 4 378 Kbps
Width : 1 152 pixels
Height : 480 pixels
Display aspect ratio : 2.35:1
Original display aspect ratio : 2.35:1
Frame rate mode : Constant
Frame rate : 23.976 fps
Color space : YUV
Chroma subsampling : 4:2:0
Bit depth : 8 bits
Scan type : Progressive
Bits/(Pixel*Frame) : 0.330
Stream size : 4.50 GiB (75%)
Writing library : x264 core 142 r2479kMod dd79a61
Encoding settings : cabac=1 / ref=13 / deblock=1:-3:-3 / analyse=0x3:0x113 / me=umh / subme=11 / psy=1 / fade_compensate=0.00 / psy_rd=1.00:0.15 / mixed_ref=1 / me_range=48 / chroma_me=1 / trellis=2 / 8x8dct=1 / cqm=0 / deadzone=21,11 / fast_pskip=0 / chroma_qp_offset=0 / threads=7 / lookahead_threads=6 / sliced_threads=0 / slices=10 / nr=0 / decimate=1 / interlaced=0 / bluray_compat=0 / constrained_intra=0 / fgo=0 / bframes=16 / b_pyramid=2 / b_adapt=2 / b_bias=0 / direct=3 / weightb=1 / open_gop=1 / weightp=2 / keyint=240 / keyint_min=23 / scenecut=40 / intra_refresh=0 / rc_lookahead=40 / rc=2pass / mbtree=0 / bitrate=4378 / ratetol=1.0 / qcomp=0.60 / qpmin=0 / qpmax=69 / qpstep=4 / cplxblur=20.0 / qblur=0.5 / vbv_maxrate=50000 / vbv_bufsize=62500 / nal_hrd=none / filler=0 / ip_ratio=1.40 / pb_ratio=1.30 / aq=1:1.00
Default : Yes
Forced : No
Color primaries : BT.709
Transfer characteristics : BT.709
Matrix coefficients : BT.709
Audio #1
ID : 2
Format : AC-3
Format/Info : Audio Coding 3
Mode extension : CM (complete main)
Format settings, Endianness : Big
Codec ID : A_AC3
Duration : 2h 30mn
Bit rate mode : Constant
Bit rate : 448 Kbps
Channel(s) : 6 channels
Channel positions : Front: L C R, Side: L R, LFE
Sampling rate : 48.0 KHz
Bit depth : 16 bits
Compression mode : Lossy
Stream size : 483 MiB (8%)
Title : dub
Default : Yes
Forced : No
Audio #2
ID : 3
Format : AC-3
Format/Info : Audio Coding 3
Mode extension : CM (complete main)
Format settings, Endianness : Big
Codec ID : A_AC3
Duration : 2h 30mn
Bit rate mode : Constant
Bit rate : 384 Kbps
Channel(s) : 6 channels
Channel positions : Front: L C R, Side: L R, LFE
Sampling rate : 48.0 KHz
Bit depth : 16 bits
Compression mode : Lossy
Stream size : 414 MiB (7%)
Title : kinomania
Default : No
Forced : No
Audio #3
ID : 4
Format : AC-3
Format/Info : Audio Coding 3
Mode extension : CM (complete main)
Format settings, Endianness : Big
Codec ID : A_AC3
Duration : 2h 30mn
Bit rate mode : Constant
Bit rate : 448 Kbps
Channel(s) : 6 channels
Channel positions : Front: L C R, Side: L R, LFE
Sampling rate : 48.0 KHz
Bit depth : 16 bits
Compression mode : Lossy
Stream size : 483 MiB (8%)
Title : eng
Default : No
Forced : No

x264 log

x264 [info]: frame I:1770 Avg QP:15.78 size: 69008
x264 [info]: frame P:63198 Avg QP:17.15 size: 36951
x264 [info]: frame B:152021 Avg QP:19.25 size: 16283
x264 [info]: consecutive B-frames: 7.2% 8.1% 14.8% 24.9% 13.9% 22.4% 4.1% 1.7% 0.9% 0.7% 0.5% 0.3% 0.2% 0.2% 0.1% 0.1% 0.1%
x264 [info]: kb/s:4360.25
x264 [total]: encoded 216989 frames, 24.90 fps, 4360.25 kb/s, duration 2:25:13.08

Скриншот c названием фильма

Скриншоты

Пожалуйста кто скачал не сваливайте с раздачи!!!

admin

Post 08-Nov-2017 09:54

[Quote]

Информация о фильме
Название: Разборка в Бронксе
Оригинальное название: Rumble In The Bronx / Hong faan kui
Год выхода: 1995
Жанр: Боевик, триллер, комедия, криминал
Режиссер: Стэнли Тонг
В ролях: Джеки Чан, Анита Муи, Франсуаза Йип, Билл Тун, Марк Экерстрим, Гарвин Кросс, Морган Лам, Эйлен Сит, Чан Ман Чинг, Фред Андруччи
О фильме:
Кеунг, полицейский из Гонконга, приезжает к своему дяде в Америку на свадьбу. Дядя как раз продал свой супермаркет красивой китаянке, ни слова не сказав новой хозяйке о том, что на магазин имеют виды бандиты, и уехал. Кеунг, конечно же, заступается за симпатичную бизнес-леди и устраивает рэкетирам разборку. Но на этом подвиги азиатского полицейского в нью-йоркских кварталах не заканчиваются! Кеунг начинает жесткое противостояние гангстерам в деле о пропаже бриллиантов…

Страна: Гонконг, Канада
Студия: Golden Harvest Company, Maple Ridge Films, New Line Cinema
Продолжительность: 01:28:34
Перевод: Профессиональный многоголосый, профессиональный двухголосый
Файл
Кодек: h264
Качество: BDRip-AVC
Видео: MPEG-4 AVC, 3116 Кбит/с, 1024x428, 23.976 кадр/с
Звук:
• №1: Русский (AC3, 6 ch, 384 Кбит/c) Профессиональный многоголосый
• №2: Русский (AC3, 6 ch, 384 Кбит/c) Профессиональный двухголосый [Premier-Digital]
• №3: Английский (AC3, 6 ch, 384 Кбит/c)
Субтитры: Русские
MediaInfo

Скриншоты



admin

Post 10-Oct-2017 07:22

[Quote]

Побег из ШоушенкаThe Shawshank Redemption«Страх - это кандалы. Надежда - это свобода»

Страна: США
Жанр: Драма, криминал
Год выпуска: 1994
Продолжительность: 02:22:24
Перевод: Профессиональный (многоголосый закадровый) Союз Видео
Перевод 2: Авторский (одноголосый закадровый) А.Гаврилов
Перевод 3: Авторский (одноголосый закадровый) Ю. Сербин
Перевод 4: Авторский (одноголосый закадровый) Ю.Живов
Субтитры: русские,английские
Оригинальная аудиодорожка: английский
Режиссер: Фрэнк Дарабонт / Frank Darabont
В ролях: Тим Роббинс, Морган Фриман, Боб Гантон, Уильям Сэдлер, Клэнси Браун, Джил Беллоуз, Марк Ролстон, Джеймс Уайтмор, Джеффри ДеМун, Ларри Бранденбург, Нил Гвинтоли, Брайан Либби, Дэвид Прувал, Джозеф Раньо, Джуд Чикколелла, Пол МакКрейн, Рени Блейн, Скотт Манн, Джон Хортон, Гордон Грин, Альфонсо Фриман
Описание: Шоушенк название тюрьмы. И если тебе нет еще 30-ти, а ты получаешь пожизненное, то приготовься к худшему: для тебя выхода из Шоушенка не будет!Актриса Рита Хэйворт любимица всей Америки. Энди Дюфрейну она тоже очень нравилась. Рита никогда не слышала о существовании Энди, однако жизнь Дюфрейну, бывшему вице-президенту крупного банка, осужденному за убийство жены и ее любовника, Рита Хэйворт все-таки спасла.
Доп. информация:
Релиз группы:
Сохранены оригинальные главы как на Bluray
Качество видео: BDRip-AVC | Побег из Шоушенка / The Shawshank Redemption (1994) Blu-ray [Custom] 1080p VC-1 DTS 5.1|HD Club|
Формат видео: MKV
Видео: 1120x630 (16:9), 23,976 fps, 3861 Кbps, 0.228 bit/pixe
Аудио: 48 kHz, AC3 Dolby Digital, 3/2 (L,C,R,l,r) + LFE ch, ~448.00 kbps avg | MVO
Аудио 2: 48 kHz, AC3 Dolby Digital, 3/2 (L,C,R,l,r) + LFE ch, ~448.00 kbps avg | AVO отдельно
Аудио 3: 48 kHz, AC3 Dolby Digital, 3/2 (L,C,R,l,r) + LFE ch, ~448.00 kbps avg | AVO отдельно
Аудио 4: 48 kHz, AC3 Dolby Digital, 3/2 (L,C,R,l,r) + LFE ch, ~448.00 kbps avg | AVO отдельно
Аудио 5: 48 kHz, AC3 Dolby Digital, 3/2 (L,C,R,l,r) + LFE ch, ~448.00 kbps avg | ENG
Формат субтитров: softsub (SRT)
Доп. информация о субтитрах: отключаемые

Знаете ли Вы что

• Съемки проходили в Мэнсфилдской исправительной колонии, что в штате Огайо. Тюрьма находилась в таком плачевном состоянии, что пришлось потратить немало бюджетных средств на приведение её в должный вид.
• Стивен Кинг согласился продать права на свое произведение практически даром, т.к. с Фрэнком их связывает давняя крепкая дружба. Произошло это после того, как Фрэнк довольно успешно экранизировал рассказ Кинга «Леди в комнате». С тех пор они практически не виделись, но, тем не менее, вели активную переписку. Встреча произошла лишь после того, как Фрэнк проявил недюжий интерес к «Шоушенку».
• Американское общество защиты животных выступило с критикой в адрес фильма, в котором единственным представителем фауны стал ворон старика Брукса. В картине есть сцена кормления птицы червяком, найденном во время обеда в тарелке главного героя фильма. Общество настояло на том, чтобы была использована уже мертвая личинка, погибшая своей естественной смертью. После того, как такая особь была найдена, сцену отсняли.
• Зритель без сомнения заметит некоторые совпадения с романом Александра Дюма «Граф Монте-Кристо». Кроме того, в контексте фильма упоминается и сама книга великого писателя. Так же как и в «Шоушенке», герой романа Дюма попадает в длительное заточение, и, совершив довольно смелый побег, обретает сокровище, которое он нашел в месте своего заточения.
• Роль Томми Уильямса изначально была написана под Брэда Питта.
• Фильм посвящен бывшему агенту режиссера Фрэнка Дарабонта, в свое время оказавшему немалую помощь в восхождении Фрэнка по Голливудской лестнице.
• Картина 1946 года с участием Риты Хэйуорт, которую смотрели заключенные, носит название «Гильда».
• Начальник тюрьмы Нортон насвистывает гимн «Eine feste Burg ist unser Gott», название которого переводится примерно так: «Могучая крепость и есть наш бог».
• Фотографии молодого Моргана Фримана на документах на самом деле являются фотографиями его сына, Альфонсо Фримана. Кстати, Альфонсо можно заметить в одном из эпизодов картины.
• Несмотря на то, что в кинотеатрах фильм не собрал больших денег, он стал одним из самых кассовых релизов на видео, а впоследствии и на DVD.
• При активном содействии Энди Дюфрейна заключенные получили возможность попить холодного пива под названием Stroh’s.
• Когда во время побега Дюфрейн разбивает канализационную трубу видно, что оттуда под напором брызжут нечистоты, однако уже в следующем кадре Дюфрейн, превозмогая вонь, ползёт по этой трубе и нечистот там всего по щиколотку.
• Фильм посвящён Аллену Грину (Allen Greene) — близкому другу режиссёра. Аллен Грин скончался от проблем, связанных со СПИДом, незадолго до выхода фильма в свет.
• Бывший начальник Мэнсфилдской тюрьмы, где проходили натурные съёмки фильма, Деннис Бейкер — в роли пожилого заключённого, сидящего в тюремном автобусе позади Томми Уильямса.
• Оригинальный рассказ Стивена Кинга был, по словам самого писателя, кульминацией всех его впечатлений от различных тюремных фильмов, которые он смотрел в детстве.
• Сценарий Фрэнка Дарабонта очень понравился другому режиссёру, успешно экранизировавшему произведения Стивена Кинга, — Робу Райнеру, постановщику ностальгической драмы «Останься со мной» (1986) и психологического триллера «Мизери» (1990). Райнер был так захвачен материалом, что предложил Дарабонту $2.5 млн за права на сценарий и постановку фильма. Дарабонт серьёзно обдумал предложение, но в конечном счёте решил, что для него этот проект — «шанс сделать что-то действительно великое», и поставил фильм сам.
• Роб Райнер предполагал на роли Реда и Энди Дюфрейна соответственно Харрисона Форда и Тома Круза.
• Роль Энди Дюфрейна изначально предложили Тому Хэнксу. Он очень заинтересовался, но не смог принять предложение, из-за того что уже был занят в проекте «Форрест Гамп» (1994). Впоследстии Том Хэнкс снялся в главной роли в тюремной драме Фрэнка Дарабонта «Зелёная миля» (1999), также поставленной по роману Стивена Кинга.
• Роль Энди Дюфрейна также предлагали Кевину Костнеру, но актёр отказался от предложения, о чем впоследствии сильно жалел.
• В оригинальном рассказе Стивена Кинга Ред — ирландец. Несмотря на то, что в экранизации роль Реда сыграл чернокожий Морган Фриман, было решено оставить в фильме реплику Реда «Может быть, потому что я — ирландец», — как удачную шутку.
• Несмотря на то что почти все жители города Мэнсфилда изъявили желание принять участие в массовых сценах фильма, большинство жителей оказались слишком заняты своей работой и не смогли сниматься. Массовку пришлось набирать в местной богадельне, причём некоторые из её обитателей были бывшими зеками.
• Когда мы видим на экране крупные планы рук Энди Дюфрейна, когда в начале фильма он заряжает револьвер, а также позже, когда Энди вырезает своё имя на стене своей камеры, — это на самом деле руки режиссёра Фрэнка Дарабонта, а не актёра Тима Роббинса. Эти крупные планы были отсняты в процессе постпроизводства фильма и вставлены в уже отснятый материал.
• Номер камеры Реда — 237. Эти же цифры фигурируют в обеих экранизациях романа Стивена Кинга «Сияние» (кинофильм 1980 года и мини-сериал 1997 года) — там это номер комнаты отеля, в которой обитает призрак женщины. Также эти цифры появляются в фильме «Останься со мной» (1986), снятом по рассказу Стивена Кинга «Тело», — там это сумма мелочи, собранной четырьмя юными героями ($2.37).
• На стене в камере Энди Дюфрейна появляется портрет Альберта Эйнштейна. Это намёк на то, что исполнитель роли Энди Дюфрейна Тим Роббинс параллельно снимался в романтической комедии «Коэффициент интеллекта» (1994), где одним из главных героев был Альберт Эйнштейн (в исполнении Уолтера Мэттау).
• Двое из заключённых Шоушенка носят имена Хейвуд и Флойд. Это отсылка к трилогии Артура Кларка «Космическая одиссея», связующим героем которой является доктор Хейвуд Флойд.
• Мексиканское райское местечко Зихуатанехо действительно существует. Это туристский курортный город на тихоокеанском побережье мексиканского штата Герреро.
• Тюремный номер Энди Дюфрейна - 37927.
• В оригинальной повести Стивена Кинга главного героя зовут Энди Дюфресн.
• Фильм с участием Риты Хэйуорт, который смотрят заключённые, — это знаменитая картина Чарльза Видора «Гилда».

MediaInfo

General
Unique ID : 206617138575238035985670185983897203427 (0x9B71036F87BB33CFA4F7EDDFC54772E3)
Complete name : D:\Мои рипы\Побег из Шоушенка\The Shawshank Redemption by_IVAN@190282.mkv
Format : Matroska
Format version : Version 4 / Version 2
File size : 4.83 GiB
Duration : 2h 22mn
Overall bit rate : 4 853 Kbps
Encoded date : UTC 2016-03-02 00:06:48
Writing application : mkvmerge v8.8.0 ('Wind at my back') 64bit
Writing library : libebml v1.3.3 + libmatroska v1.4.4
Attachements : cover.png
DURATION : 02:16:20.047000000
NUMBER_OF_FRAMES : 1757
NUMBER_OF_BYTES : 64304
_STATISTICS_WRITING_APP : mkvmerge v8.8.0 ('Wind at my back') 64bit
_STATISTICS_WRITING_DATE_UT : 2016-03-02 00:06:48
_STATISTICS_TAGS : BPS DURATION NUMBER_OF_FRAMES NUMBER_OF_BYTES
Video
ID : 1
Format : AVC
Format/Info : Advanced Video Codec
Format profile : High@L4.1
Format settings, CABAC : Yes
Format settings, ReFrames : 12 frames
Codec ID : V_MPEG4/ISO/AVC
Duration : 2h 22mn
Bit rate : 3 861 Kbps
Width : 1 120 pixels
Height : 630 pixels
Display aspect ratio : 16:9
Frame rate mode : Constant
Frame rate : 23.976 fps
Color space : YUV
Chroma subsampling : 4:2:0
Bit depth : 8 bits
Scan type : Progressive
Bits/(Pixel*Frame) : 0.228
Stream size : 3.84 GiB (80%)
Title : The Shawshank Redemption by_IVAN@190282
Writing library : x264 core 148 r2597kMod e86f3a1
Encoding settings : cabac=1 / ref=12 / deblock=1:-3:-3 / analyse=0x3:0x133 / me=umh / subme=11 / psy=1 / fade_compensate=0.00 / psy_rd=1.00:0.05 / mixed_ref=1 / me_range=48 / chroma_me=1 / trellis=2 / 8x8dct=1 / cqm=0 / deadzone=21,11 / fast_pskip=0 / chroma_qp_offset=-3 / threads=6 / lookahead_threads=6 / sliced_threads=0 / nr=0 / decimate=1 / interlaced=0 / bluray_compat=0 / constrained_intra=0 / fgo=0 / bframes=16 / b_pyramid=2 / b_adapt=2 / b_bias=0 / direct=3 / weightb=1 / open_gop=0 / weightp=2 / keyint=240 / keyint_min=23 / scenecut=40 / intra_refresh=0 / rc_lookahead=60 / rc=crf / mbtree=0 / crf=17.1000 / qcomp=0.60 / qpmin=0 / qpmax=69 / qpstep=4 / vbv_maxrate=50000 / vbv_bufsize=62500 / crf_max=0.0 / nal_hrd=none / filler=0 / ip_ratio=1.40 / pb_ratio=1.30 / aq=2:1.10
Language : English
Default : Yes
Forced : No
Color range : Limited
Color primaries : BT.709
Transfer characteristics : BT.709
Matrix coefficients : BT.709
DURATION : 02:22:33.295000000
NUMBER_OF_FRAMES : 205074
NUMBER_OF_BYTES : 4228599471
_STATISTICS_WRITING_APP : mkvmerge v8.8.0 ('Wind at my back') 64bit
_STATISTICS_WRITING_DATE_UT : 2016-03-02 00:06:48
_STATISTICS_TAGS : BPS DURATION NUMBER_OF_FRAMES NUMBER_OF_BYTES
Audio #1
ID : 2
Format : AC-3
Format/Info : Audio Coding 3
Mode extension : CM (complete main)
Format settings, Endianness : Big
Codec ID : A_AC3
Duration : 2h 22mn
Bit rate mode : Constant
Bit rate : 448 Kbps
Channel(s) : 6 channels
Channel positions : Front: L C R, Side: L R, LFE
Sampling rate : 48.0 KHz
Compression mode : Lossy
Stream size : 457 MiB (9%)
Title : Souz Video
Default : Yes
Forced : No
Audio #2
ID : 3
Format : AC-3
Format/Info : Audio Coding 3
Mode extension : CM (complete main)
Format settings, Endianness : Big
Codec ID : A_AC3
Duration : 2h 22mn
Bit rate mode : Constant
Bit rate : 448 Kbps
Channel(s) : 6 channels
Channel positions : Front: L C R, Side: L R, LFE
Sampling rate : 48.0 KHz
Compression mode : Lossy
Stream size : 457 MiB (9%)
Title : Eng
Language : English
Default : No
Forced : No
Text #1
ID : 4
Format : UTF-8
Codec ID : S_TEXT/UTF8
Codec ID/Info : UTF-8 Plain Text
Title : Rus
Default : No
Forced : No
Text #2
ID : 5
Format : UTF-8
Codec ID : S_TEXT/UTF8
Codec ID/Info : UTF-8 Plain Text
Title : Souz Video
Default : No
Forced : No
Text #3
ID : 6
Format : UTF-8
Codec ID : S_TEXT/UTF8
Codec ID/Info : UTF-8 Plain Text
Title : Eng
Language : English
Default : No
Forced : No
Text #4
ID : 7
Format : UTF-8
Codec ID : S_TEXT/UTF8
Codec ID/Info : UTF-8 Plain Text
Title : Eng SDH
Language : English
Default : No
Forced : No
Menu
00:00:00.000 : en:On Trial.
00:04:41.114 : en:Icy/Remorseless.
00:06:40.817 : en:Guy Can Get It.
00:10:08.316 : en:Stiff Breeze.
00:13:47.076 : en:Fresh Fish.
00:18:00.913 : en:Nameless.
00:23:44.256 : en:First Request.
00:29:02.073 : en:Andy's Routine.
00:33:33.845 : en:Beer on the Roof.
00:38:51.912 : en:Like Everyone Else.
00:41:07.256 : en:Second Request.
00:42:41.642 : en:A Pair of Beatings.
00:46:15.397 : en:Welcome Back.
00:48:15.434 : en:Cell Toss.
00:51:22.537 : en:A Cottage Industry.
00:57:20.103 : en:What They Take.
01:00:28.458 : en:Brooks Was Here.
01:05:46.817 : en:Shipment for Andy.
01:07:17.658 : en:Time for Mozart.
01:11:04.677 : en:The Danger of Hope.
01:13:54.221 : en:Rejection Present.
01:15:56.552 : en:Keeping the Books.
01:21:09.239 : en:A Crook in Prison.
01:23:59.951 : en:Tommy Williams.
01:29:27.278 : en:Elmo Blatch.
01:32:11.484 : en:Solitary.
01:35:38.149 : en:Sniper's Target.
01:38:29.862 : en:Norton's Drift.
01:40:39.366 : en:Certain Hay Field.
01:47:24.146 : en:The Longest Night.
01:50:46.640 : en:Vanished.
01:54:32.115 : en:Andy's Way Out.
02:00:36.520 : en:Judgment Cometh.
02:04:10.317 : en:Not Meant/Caged.
02:05:51.377 : en:Rehabilitated.
02:08:26.824 : en:On the Outside.
02:10:14.515 : en:Honoring a Promise.
02:12:57.135 : en:"No Good Thing..."
02:16:28.722 : en:Free Man's Dreams.
02:18:08.571 : en:Dedication/Credits.

x264 log

VIDEO ENCODING
x264 [info]: frame I:1296 Avg QP:15.18 size: 98460 PSNR Mean Y:48.16 U:51.26 V:51.93 Avg:49.02 Global:48.46
x264 [info]: frame P:45140 Avg QP:16.71 size: 38036 PSNR Mean Y:46.76 U:50.22 V:50.60 Avg:47.64 Global:47.02
x264 [info]: frame B:158638 Avg QP:18.94 size: 15028 PSNR Mean Y:45.86 U:49.73 V:50.40 Avg:46.83 Global:46.12
x264 [info]: consecutive B-frames: 1.9% 3.6% 5.8% 29.0% 11.5% 35.0% 3.0% 8.6% 0.4% 0.5% 0.1% 0.3% 0.1% 0.0% 0.0% 0.0% 0.2%
x264 [total]: encoded 205074 frames, 5.33 fps, 3955.06 kb/s, duration 10:40:45.72

Скриншот c названием фильма

Скриншоты

Сравнения

Source by_IVAN@190282
Убедительная просьба пожалуйста кто скачал не бросайте раздачу!!!

admin

Post 09-Oct-2017 07:54

[Quote]

Спасти рядового РайанаSaving Private Ryan«««The movie that inspired to the world to remember»..»»

Страна: США, Paramount Pictures
Жанр: Боевик, драма, военный
Год выпуска: 1998
Продолжительность: 02:48:21
Перевод: Профессиональный (дублированный) BD
Перевод 2: Профессиональный (многоголосый закадровый) Позитив-Мультимедиа
Перевод 3: Профессиональный (многоголосый закадровый) Карусель
Перевод 4: Профессиональный (многоголосый закадровый) Superbit
Перевод 5: Авторский (одноголосый закадровый) Ю.Живов
Субтитры: русские,английские
Оригинальная аудиодорожка: английский
Режиссер: Стивен Спилберг / Steven Spielberg
В ролях: Том Хэнкс, Том Сайзмор, Эдвард Бёрнс, Бэрри Пеппер, Адам Голдберг, Вин Дизель, Джованни Рибизи, Джереми Дэвис, Мэтт Дэймон, Тед Дэнсон
Описание: Капитан Джон Миллер получает тяжелое задание. Вместе с отрядом из восьми человек Миллер должен отправиться в тыл врага на поиски рядового Джеймса Райана, три родных брата которого почти одновременно погибли на полях сражений.
Командование приняло решение демобилизовать Райана и отправить его на родину к безутешной матери. Но для того, чтобы найти и спасти солдата, крошечному отряду придется пройти через все круги ада…
Доп. информация:
Релиз группы:
Качество видео: BDRip-AVC | Спасти рядового Райана (Спасение рядового Райана) / Saving Private Ryan (1998) 1080p BD-Remux| HD club
Формат видео: MKV
Видео: 1058x572 (1:85:1), 23,976 fps, 4360 Кbps, 0.301 bit/pixe
Аудио: 48 kHz, AC3 Dolby Digital, 3/2 (L,C,R,l,r) + LFE ch, ~448.00 kbps avg DUB
Аудио 2: 48 kHz, AC3 Dolby Digital, 3/2 (L,C,R,l,r) + LFE ch, ~448.00 kbps avg MVO
Аудио 3: 48 kHz, AC3 Dolby Digital, 3/2 (L,C,R,l,r) + LFE ch, ~448.00 kbps avg MVO
отдельно
Аудио 4:48 kHz, AC3 Dolby Digital, 3/2 (L,C,R,l,r) + LFE ch, ~448.00 kbps avg MVO отдельно
Аудио 5:48 kHz, AC3 Dolby Digital, 3/2 (L,C,R,l,r) + LFE ch, ~448.00 kbps avg AVO отдельно
Аудио 6:48 kHz, AC3 Dolby Digital, 3/2 (L,C,R,l,r) + LFE ch, ~448.00 kbps avg ENG
Формат субтитров: softsub (SRT)
Доп. информация о субтитрах: отключаемые

Кинонаграды

Обладатель 5 премий «Оскар» в категориях Лучший режиссер (Стивен Спилберг), Лучшая работа оператора, Лучший звук, Лучший монтаж и Лучший монтаж звука, 1999г. 70 ведущих кинокритиков Америки, работающих на такие престижные издания, как Time, USA Today, The New York Times, Entertainment Weekly, а также ассоциации критиков Нью-Йорка, Чикаго, Далласа и Великобритании назвали картину "Фильмом года". В то же время, Лос-Анджелес и Торонто присудили фильму целых два титула: "Фильм года" и "Лучшая режиссура". Самый кассовый фильм американского кинопроката за 1998г.

Знаете ли Вы что

• Для съемок сцен, в которых солдатам отрывает руки и ноги, были приглашены настоящие инвалиды.
• В картине замечено два немецких танка «Тигр». В действительности же, это легендарные отечественные машины «Т-34», «загримированные» под «Тигров».
• В силу обстоятельств основная часть съемок картины была перенесена с территории Великобритании на ирландские земли. Британское Министерство обороны отказалось оказать съемочной группе необходимую помощь, предоставив в качестве статистов своих бойцов. Тогда-то на выручку Спилбергу и пришли ирландские солдаты (около 250 человек).
• Режиссер Стивен Спилберг начал задумываться о приглашении в проект Мэтта Дэймона после просмотра картины «Мужество в бою», но долгое время считал актера слишком худосочным. С легкой подачи Робина Уильямса Спилберг познакомился с Дэймоном на съемочной площадке «Умницы Уилла Хантинга» и изменил свое мнение.
• Роль Капарзо была написана специально для Вина Дизеля после того, как Спилберг ознакомился с предыдущими работами актера.
• Все ведущие актеры в принудительном порядке проходили армейские тренировки в течение нескольких дней; исключение было сделано лишь для Мэтта Дэймона, которому, несмотря на присутствующую в названии фамилию его героя, все-таки отводилась второстепенная роль.
• В оригинальной версии сценария речь персонажа Тома Хэнкса, обращенная к остальным участникам боевого подразделения, была намного длиннее (в ней герой рассказывает о том, что он готов сделать, чтобы вернуться обратно домой). Воспротивился сам Хэнкс, посетовав на то, что его персонажу не стоит так разглагольствовать. Спилберг согласился, и монолог был серьезно купирован.
• Несмотря на то, что Стивен Спилберг намеренно снизил цветность пленки примерно на 60 %, уповая на то, что действие картины происходит во времена, когда цветного телевидения еще не существовало, две ведущие кабельные компании Америки (DirecTV и Dish) при показе картины на своих каналах вернули настоящие цвета обратно. После первых двух дней показа на Центры поддержки данных каналов обрушился шквал звонков недовольных граждан, посетовавших на отсутствие цветовой гаммы в передаваемой картинке.
• Картина основана на реальных событиях, произошедших с братьями Ниландами во время Второй мировой войны.
• Многие ветераны войны выразили благодарность Стивену Спилбергу, снявшему, по их мнению, достоверное кино. Именно они посоветовали Стивену показать в кадре многочисленные натуралистичные моменты тем самым, приблизившись к реальным событиям.
• В Сингапуре данная картина получила невиданный доселе рейтинг NC-16 (от 16 лет). С одной стороны, картина была весьма жестокой, что исключало получение рейтинга PG, с другой - в картине не было и мысли о сексуальной тематике, в связи с чем, рейтинг R также не мог быть получен. Тогда-то и был найден компромиссный вариант рейтинга.
• В фильме показано ровно 206 трупов.
• Для съемок первой сцены картины амуниция актеров была изготовлена из древесины, т.к. таскать металл на себе в течение нескончаемого количества дублей было слишком тяжело.
• На роль рядового Райана приглашался Эдвард Нортон.
• Последняя картина, монтаж которой производился «по старинке», без применения цифровых технологий, ставшая победителем церемонии Оскар в номинации «Лучший монтаж».
• Фильм был не пропущен к прокату цензорами Индии за слишком большое количество сцен насилия. В связи с этим к Спилбергу были предъявлены требования вырезать из индийской версии картины самые жестокие моменты. Однако Стивен, к удивлению индийских прокатчиков, отказался и предложил Индии вообще отказаться от релиза. Понимая всю серьезность ситуации, премьер-министр Индии решил посмотреть картину сам и, оставшись потрясенным увиденным, принял решение выпустить на экраны страны оригинальную версию без купюр.
• В одном из эпизодов Апхэму (Джереми Дэвис) делают замечание насчет того, что он отдал честь своему командиру (Том Хэнкс) и тем самым указал на него снайперам. В «Форресте Гампе» (1994) в аналогичной ситуации был наказан герой Тома Хэнкса.

Альтернативный постер

MediaInfo

General
Unique ID : 244275619628720996349031031859568109176 (0xB7C5C5E6C79FD311AA0E0635E01AE678)
Complete name : E:\Мои рипы\Спасти рядового Райана\Saving Private Ryan by_IVAN@190282.mkv
Format : Matroska
Format version : Version 4 / Version 2
File size : 6.86 GiB
Duration : 2h 48mn
Overall bit rate : 5 820 Kbps
Encoded date : UTC 2016-03-09 14:16:29
Writing application : mkvmerge v8.8.0 ('Wind at my back') 64bit
Writing library : libebml v1.3.3 + libmatroska v1.4.4
Attachements : cover.jpg
DURATION : 02:37:29.148000000
NUMBER_OF_FRAMES : 1798
NUMBER_OF_BYTES : 66187
_STATISTICS_WRITING_APP : mkvmerge v8.8.0 ('Wind at my back') 64bit
_STATISTICS_WRITING_DATE_UT : 2016-03-09 14:16:29
_STATISTICS_TAGS : BPS DURATION NUMBER_OF_FRAMES NUMBER_OF_BYTES
Video
ID : 1
Format : AVC
Format/Info : Advanced Video Codec
Format profile : High@L4.1
Format settings, CABAC : Yes
Format settings, ReFrames : 14 frames
Codec ID : V_MPEG4/ISO/AVC
Duration : 2h 48mn
Bit rate : 4 360 Kbps
Width : 1 058 pixels
Height : 572 pixels
Display aspect ratio : 1.85:1
Frame rate mode : Constant
Frame rate : 23.976 fps
Color space : YUV
Chroma subsampling : 4:2:0
Bit depth : 8 bits
Scan type : Progressive
Bits/(Pixel*Frame) : 0.301
Stream size : 5.14 GiB (75%)
Title : Saving Private Ryan by_IVAN@190282
Writing library : x264 core 146 r2538kMod 121396c
Encoding settings : cabac=1 / ref=14 / deblock=1:-3:-3 / analyse=0x3:0x113 / me=umh / subme=11 / psy=1 / fade_compensate=0.00 / psy_rd=1.00:0.15 / mixed_ref=1 / me_range=48 / chroma_me=1 / trellis=2 / 8x8dct=1 / cqm=0 / deadzone=21,11 / fast_pskip=0 / chroma_qp_offset=0 / threads=6 / lookahead_threads=6 / sliced_threads=0 / slices=10 / nr=0 / decimate=1 / interlaced=0 / bluray_compat=0 / constrained_intra=0 / fgo=0 / bframes=16 / b_pyramid=2 / b_adapt=2 / b_bias=0 / direct=3 / weightb=1 / open_gop=1 / weightp=2 / keyint=240 / keyint_min=23 / scenecut=40 / intra_refresh=0 / rc_lookahead=40 / rc=crf / mbtree=0 / crf=19.7000 / qcomp=0.60 / qpmin=0 / qpmax=69 / qpstep=4 / vbv_maxrate=50000 / vbv_bufsize=62500 / crf_max=0.0 / nal_hrd=none / filler=0 / ip_ratio=1.40 / pb_ratio=1.30 / aq=1:1.00
Default : Yes
Forced : No
Color range : Limited
Color primaries : BT.709
Transfer characteristics : BT.709
Matrix coefficients : BT.709
Audio #1
ID : 2
Format : AC-3
Format/Info : Audio Coding 3
Mode extension : CM (complete main)
Format settings, Endianness : Big
Codec ID : A_AC3
Duration : 2h 48mn
Bit rate mode : Constant
Bit rate : 448 Kbps
Channel(s) : 6 channels
Channel positions : Front: L C R, Side: L R, LFE
Sampling rate : 48.0 KHz
Compression mode : Lossy
Stream size : 541 MiB (8%)
Title : Dub
Language : Russian
Default : Yes
Forced : No
Audio #2
ID : 3
Format : AC-3
Format/Info : Audio Coding 3
Mode extension : CM (complete main)
Format settings, Endianness : Big
Codec ID : A_AC3
Duration : 2h 48mn
Bit rate mode : Constant
Bit rate : 448 Kbps
Channel(s) : 6 channels
Channel positions : Front: L C R, Side: L R, LFE
Sampling rate : 48.0 KHz
Compression mode : Lossy
Stream size : 541 MiB (8%)
Title : Eng
Language : English
Default : No
Forced : No
Audio #3
ID : 4
Format : AC-3
Format/Info : Audio Coding 3
Mode extension : CM (complete main)
Format settings, Endianness : Big
Codec ID : A_AC3
Duration : 2h 48mn
Bit rate mode : Constant
Bit rate : 448 Kbps
Channel(s) : 6 channels
Channel positions : Front: L C R, Side: L R, LFE
Sampling rate : 48.0 KHz
Compression mode : Lossy
Stream size : 541 MiB (8%)
Title : mvo.Позитив-Мультимедиа
Language : Russian
Default : No
Forced : No
Text #1
ID : 5
Format : UTF-8
Codec ID : S_TEXT/UTF8
Codec ID/Info : UTF-8 Plain Text
Title : Rus
Language : Russian
Default : No
Forced : No
Text #2
ID : 6
Format : UTF-8
Codec ID : S_TEXT/UTF8
Codec ID/Info : UTF-8 Plain Text
Title : Eng
Language : English
Default : No
Forced : No
Text #3
ID : 7
Format : UTF-8
Codec ID : S_TEXT/UTF8
Codec ID/Info : UTF-8 Plain Text
Title : Eng.SDH
Language : English
Default : No
Forced : No
Menu
00:00:00.000 : en:Memorial
00:04:31.437 : en:Omaha Beach
00:13:48.077 : en:Rallying
00:18:57.886 : en:Breakthrough
00:26:54.487 : en:Letters
00:36:12.795 : en:A Public Relations Mission
00:45:48.537 : en:Pool
00:57:40.456 : en:Private James Ryan
01:05:27.340 : en:Choices
01:13:46.839 : en:FUBAR
01:17:43.075 : en:Dog-Tags
01:24:06.082 : en:Radar Station
01:35:30.724 : en:Big Mystery
01:46:44.189 : en:One Decent Thing
01:59:36.544 : en:Paif
02:07:26.597 : en:Born Lucky
02:17:12.599 : en:Ammo
02:26:55.389 : en:The Alamo
02:32:43.737 : en:The Bridge
02:42:39.916 : en:Duty Roster

x264 log

VIDEO ENCODING
x264 [info]: frame I:1288 Avg QP:18.47 size: 81424
x264 [info]: frame P:57968 Avg QP:19.17 size: 39624
x264 [info]: frame B:183520 Avg QP:21.21 size: 17769
x264 [info]: consecutive B-frames: 2.9% 5.3% 11.5% 20.5% 14.3% 34.5% 4.7% 1.5% 1.0% 0.9% 0.6% 0.8% 0.4% 0.2% 0.2% 0.2% 0.4%
x264 [info]: kb/s:4473.91
x264 [total]: encoded 242776 frames, 4.86 fps, 4473.91 kb/s, duration 13:52:25.80

Скриншот c названием фильма

Скриншоты

Сравнения

Sours by_IVAN@190282
Убедительная просьба пожалуйста кто скачал не бросайте раздачу!!!

admin

Post 07-Oct-2017 05:41

[Quote]

СпаунSpawn«Рождённый в темноте, осужденный на справедливость»
Страна: США
Жанр: Боевик, ужасы, фэнтези
Год выпуска: 1997
Продолжительность: 01:36:22
Перевод: Профессиональный (многоголосый закадровый) Союз-видео
Перевод 2: Авторский (одноголосый закадровый) Ю.Живов
Субтитры: нет
Оригинальная аудиодорожка: нет
Режиссер: Марк Э. З. Диппе / Mark A.Z. Dippe
В ролях: Майкл Джей Уайт, Джон Легуизамо, Мартин Шин, Тереза Рэндл, Никол Уильямсон, Д.Б. Суини, Мелинда Кларк, Мико Хьюз, Сидни Бодуан, Майкл Пападжон
Описание: Краповый берет» Эл Симмонс убит своим начальником во время выполнения очередной миссии. Попав в чистилище, он заключает сделку с Дьяволом. Сатана дает ему силу, доспехи и оружие.
В обмен на то, чтобы еще раз увидеть свою жену, Симмонс должен предварить приход сил Зла на Землю. Оказавшись на свободе, он разрывает контракт в одностороннем порядке…
Доп. информация:

Качество видео: BDRip |Спаун / Spawn (1997) 1080p BD-Remux|
Формат видео: AVI
Видео: 720x384 (1.85:1), 23.976 fps, XviD build 65 ~2195 kbps avg, 0.33 bit/pixel
Аудио: 48 kHz, AC3 Dolby Digital, 2/0 (L,R) ch, ~384.00 kbps avg (MVO)
Аудио 2: 48 kHz, AC3 Dolby Digital, 2/0 (L,R) ch, ~448.00 kbps avg (AVO)

MediaInfo

General
Complete name : F:\Фильмы\Спаун\Spaun.BDRip.XviD.AC3.avi
Format : AVI
Format/Info : Audio Video Interleave
Format profile : OpenDML
File size : 2.05 GiB
Duration : 1h 36mn
Overall bit rate : 3 045 Kbps
Writing application : VirtualDubModRus 1.5.10.2 (build 2542/release)
Writing library : VirtualDubMod build 2542/release
Video
ID : 0
Format : MPEG-4 Visual
Format profile : Advanced Simple@L5
Format settings, BVOP : 2
Format settings, QPel : No
Format settings, GMC : No warppoints
Format settings, Matrix : Default (MPEG)
Codec ID : XVID
Codec ID/Hint : XviD
Duration : 1h 36mn
Bit rate : 2 195 Kbps
Width : 720 pixels
Height : 384 pixels
Display aspect ratio : 1.85:1
Frame rate : 23.976 fps
Color space : YUV
Chroma subsampling : 4:2:0
Bit depth : 8 bits
Scan type : Progressive
Compression mode : Lossy
Bits/(Pixel*Frame) : 0.331
Stream size : 1.48 GiB (72%)
Writing library : XviD 1.2.1 (UTC 2008-12-04)
Audio #1
ID : 1
Format : AC-3
Format/Info : Audio Coding 3
Mode extension : CM (complete main)
Format settings, Endianness : Big
Codec ID : 2000
Duration : 1h 36mn
Bit rate mode : Constant
Bit rate : 384 Kbps
Channel(s) : 6 channels
Channel positions : Front: L C R, Side: L R, LFE
Sampling rate : 48.0 KHz
Bit depth : 16 bits
Compression mode : Lossy
Stream size : 265 MiB (13%)
Alignment : Split accross interleaves
Interleave, duration : 42 ms (1.00 video frame)
Interleave, preload duration : 500 ms
Audio #2
ID : 2
Format : AC-3
Format/Info : Audio Coding 3
Mode extension : CM (complete main)
Format settings, Endianness : Big
Codec ID : 2000
Duration : 1h 36mn
Bit rate mode : Constant
Bit rate : 448 Kbps
Channel(s) : 6 channels
Channel positions : Front: L C R, Side: L R, LFE
Sampling rate : 48.0 KHz
Bit depth : 16 bits
Compression mode : Lossy
Stream size : 309 MiB (15%)
Alignment : Split accross interleaves
Interleave, duration : 42 ms (1.00 video frame)
Interleave, preload duration : 500 ms

Скриншот c названием фильма

Скриншоты

admin

Post 06-Oct-2017 06:37

[Quote]

Возвращение живых мертвецов 3Return of the Living Dead 3«Back from the dead and hungry for more»

Страна: США
Жанр: Ужасы
Год выпуска: 1993
Продолжительность: 01:40:04
Перевод: Профессиональный (многоголосый закадровый) Велес (CP-Digital)
Перевод 2: Профессиональный (многоголосый закадровый) FilmExport)
Перевод 3: Авторский (одноголосый закадровый) Дольский
Перевод 4: Авторский (одноголосый закадровый) Горчаков
Перевод 5: Авторский (одноголосый закадровый) Живов
Субтитры: русские,английские
Оригинальная аудиодорожка: английский
Режиссер: Брайан Юзна / Brian Yuzna
В ролях: Кент МакКорд, Джеймс Т. Каллахан, Сара Дуглас, Мелинда Кларк, Эбигейл Ленц, Дж. Тревор Эдмонд, Джилл Андре, Майкл Декер, Билли Кэйн, Майк Морофф
Описание: В секретной военной лаборатории проводятся эксперименты по воскрешению мертвецов и превращению их в смертоносное биологическое оружие.
Двое молодых людей, Курт, сын руководителя этого необычного научного проекта, и его девушка Джули, становятся случайными свидетелями исследований, и сбегают, не увидев жуткого финала одного из опытов. Ребята попадают в ужасную аварию и Джули погибает. Но Курт знает, что предпринять - вернуть свою любимую из мертвых в лаборатории отца.
Но совершенно не предполагает, какие кровавые события, за пределами самых кошмарных фантазий, ждут его впереди. Вместо любимой девушки он получает не поддающегося уничтожению монстра, чей укус превращает жертв в таких же зомби, жаждущих человеческой плоти.
От себя добавлю - это один из любимых фильмов детства, оказавший огромное впечатление на меня, так как раньше в фильмах подобного жанра я не видел подобных случаев, что бы зомби были способны на высокие чувства, теперь им стали присущи человеческие эмоции. Это качественно снятый, серьезный и очень драматичный фильм - история любви двух молодых людей, которых не способна остановить даже смерть.
Доп. информация:
Релиз группы:
Сохранены оригинальные главы как на Bluray
Качество видео: BDRip-AVC | Возвращение живых мертвецов 3 / Return of the Living Dead 3 (1993) 1080p BD-Remux| BLUEBIRD
Формат видео: MKV
Видео: 1008x546 (1.85:1), 23,976 fps, 4363 Кbps, 0.331 bit/pixe
Аудио: 48 kHz, Dolby Digital Audio Russian 448 kbps 5.1 Велес (CP-Digital)
Аудио 2: 48 kHz, Dolby Digital Audio Russian 192 kbps 2.0 FilmExport)
Аудио 3: 48 kHz, Dolby Digital Audio Russian 192 kbps 2.0 Дольский отдельно
Аудио 4: 48 kHz, Dolby Digital Audio Russian 192 kbps 2.0 Горчаков отдельно
Аудио 5: 48 kHz, Dolby Digital Audio Russian 192 kbps 2.0 Живов отдельно
Аудио 6: 48 kHz, Dolby Digital Audio English 448 kbps 5.1 ENG
Формат субтитров: softsub (SRT)
Доп. информация о субтитрах: отключаемые

MediaInfo

General
Unique ID : 173066402014780583742693261938269348361 (0x82336068E856BF07A84C37FC350FE209)
Complete name : D:\Мои рипы\Возвращение живых мертвецов 3\Return of the Living Dead 3 by_IVAN@190282.mkv
Format : Matroska
Format version : Version 4 / Version 2
File size : 3.89 GiB
Duration : 1h 40mn
Overall bit rate : 5 562 Kbps
Movie name : Return of the Living Dead 3 by_IVAN@190282
Encoded date : UTC 2017-01-13 21:09:08
Writing application : mkvmerge v9.7.1 ('Pandemonium') 64bit
Writing library : libebml v1.3.4 + libmatroska v1.4.5
Attachements : cover.jpg
DURATION : 01:31:27.691000000
NUMBER_OF_FRAMES : 1172
NUMBER_OF_BYTES : 29044
_STATISTICS_WRITING_APP : mkvmerge v9.7.1 ('Pandemonium') 64bit
_STATISTICS_WRITING_DATE_UT : 2017-01-13 21:09:08
_STATISTICS_TAGS : BPS DURATION NUMBER_OF_FRAMES NUMBER_OF_BYTES
Video
ID : 1
Format : AVC
Format/Info : Advanced Video Codec
Format profile : High@L4.1
Format settings, CABAC : Yes
Format settings, ReFrames : 11 frames
Codec ID : V_MPEG4/ISO/AVC
Duration : 1h 40mn
Bit rate : 4 363 Kbps
Width : 1 008 pixels
Height : 546 pixels
Display aspect ratio : 1.85:1
Frame rate mode : Constant
Frame rate : 23.976 fps
Color space : YUV
Chroma subsampling : 4:2:0
Bit depth : 8 bits
Scan type : Progressive
Bits/(Pixel*Frame) : 0.331
Stream size : 3.05 GiB (78%)
Title : Return of the Living Dead 3 by_IVAN@190282
Writing library : x264 core 148 r2721kMod 72d53ab
Encoding settings : cabac=1 / ref=11 / deblock=1:-3:-3 / analyse=0x3:0x113 / me=umh / subme=11 / psy=1 / fade_compensate=0.00 / psy_rd=1.00:0.05 / mixed_ref=1 / me_range=48 / chroma_me=1 / trellis=2 / 8x8dct=1 / cqm=0 / deadzone=21,11 / fast_pskip=0 / chroma_qp_offset=-3 / threads=6 / lookahead_threads=6 / sliced_threads=0 / nr=0 / decimate=1 / interlaced=0 / bluray_compat=0 / constrained_intra=0 / fgo=0 / bframes=16 / b_pyramid=2 / b_adapt=2 / b_bias=0 / direct=3 / weightb=1 / open_gop=0 / weightp=2 / keyint=240 / keyint_min=23 / scenecut=40 / intra_refresh=0 / rc_lookahead=60 / rc=crf / mbtree=0 / crf=18.2000 / qcomp=0.60 / qpmin=0 / qpmax=69 / qpstep=4 / vbv_maxrate=50000 / vbv_bufsize=62500 / crf_max=0.0 / nal_hrd=none / filler=0 / ip_ratio=1.40 / pb_ratio=1.30 / aq=3:0.70
Language : English
Default : Yes
Forced : No
Color range : Limited
Color primaries : BT.709
Transfer characteristics : BT.709
Matrix coefficients : BT.709
DURATION : 01:40:04.666000000
NUMBER_OF_FRAMES : 143968
NUMBER_OF_BYTES : 3381887669
_STATISTICS_WRITING_APP : mkvmerge v9.7.1 ('Pandemonium') 64bit
_STATISTICS_WRITING_DATE_UT : 2017-01-13 21:09:08
_STATISTICS_TAGS : BPS DURATION NUMBER_OF_FRAMES NUMBER_OF_BYTES
Audio #1
ID : 2
Format : AC-3
Format/Info : Audio Coding 3
Mode extension : CM (complete main)
Format settings, Endianness : Big
Codec ID : A_AC3
Duration : 1h 40mn
Bit rate mode : Constant
Bit rate : 448 Kbps
Channel(s) : 6 channels
Channel positions : Front: L C R, Side: L R, LFE
Sampling rate : 48.0 KHz
Compression mode : Lossy
Stream size : 321 MiB (8%)
Title : MVO ( Велес (CP-Digital )
Default : Yes
Forced : No
Audio #2
ID : 3
Format : AC-3
Format/Info : Audio Coding 3
Mode extension : CM (complete main)
Format settings, Endianness : Big
Codec ID : A_AC3
Duration : 1h 40mn
Bit rate mode : Constant
Bit rate : 192 Kbps
Channel(s) : 2 channels
Channel positions : Front: L R
Sampling rate : 48.0 KHz
Compression mode : Lossy
Stream size : 137 MiB (3%)
Title : MVO ( FilmExport )
Default : No
Forced : No
Audio #3
ID : 4
Format : AC-3
Format/Info : Audio Coding 3
Mode extension : CM (complete main)
Format settings, Endianness : Big
Codec ID : A_AC3
Duration : 1h 40mn
Bit rate mode : Constant
Bit rate : 448 Kbps
Channel(s) : 6 channels
Channel positions : Front: L C R, Side: L R, LFE
Sampling rate : 48.0 KHz
Compression mode : Lossy
Stream size : 321 MiB (8%)
Title : Eng
Language : English
Default : No
Forced : No
Text #1
ID : 5
Format : UTF-8
Codec ID : S_TEXT/UTF8
Codec ID/Info : UTF-8 Plain Text
Title : Rus
Default : No
Forced : No
Text #2
ID : 6
Format : UTF-8
Codec ID : S_TEXT/UTF8
Codec ID/Info : UTF-8 Plain Text
Title : Eng
Language : English
Default : No
Forced : No
Menu
00:00:00.000 : en:Chapter 01
00:07:49.092 : en:Chapter 02
00:16:17.556 : en:Chapter 03
00:24:31.259 : en:Chapter 04
00:34:00.412 : en:Chapter 05
00:41:17.555 : en:Chapter 06
00:48:45.712 : en:Chapter 07
00:54:52.913 : en:Chapter 08
01:03:54.121 : en:Chapter 09
01:12:49.573 : en:Chapter 10
01:20:07.761 : en:Chapter 11
01:33:34.734 : en:Chapter 12

x264 log

VIDEO ENCODING
x264 [info]: frame I:845 Avg QP:16.65 size: 66724 PSNR Mean Y:47.70 U:52.15 V:53.41 Avg:48.65 Global:47.17
x264 [info]: frame P:30275 Avg QP:18.34 size: 40947 PSNR Mean Y:45.45 U:50.41 V:51.81 Avg:46.43 Global:45.51
x264 [info]: frame B:112848 Avg QP:19.93 size: 18484 PSNR Mean Y:45.67 U:51.25 V:52.77 Avg:46.75 Global:44.34
x264 [info]: consecutive B-frames: 2.0% 2.7% 7.7% 17.7% 16.8% 36.2% 6.6% 1.9% 1.9% 1.2% 0.8% 0.3% 0.5% 0.3% 0.1% 0.0% 3.2%
x264 [total]: encoded 143968 frames, 0.96 fps, 4501.68 kb/s, duration 41:46:09.07

Скриншот c названием фильма

Скриншоты

Сравнения с исходником

Source by_IVAN@190282
Убедительная просьба пожалуйста кто скачал не бросайте раздачу!!!
 

Current time is: 02-Jul 14:58

All times are UTC + 3