Search found 18 matches

Author Message

admin

Post 07-Sep-2019 07:03

[Quote]

21283Судя по всему, фильм не понравился тем. кто не любит театр. Ибо по сути - это действительно экранизированный спекталь в более совершенных декорациях. Чудная ,остроумная комедия положений, отлично сыгранная великолепными актерами - не только Аронова, великолепны все, причем довольно неожиданны Балуев, Лыков и Красько в непривычном амплуа.
Не знаю кому не понравилось,я смотрел,мне показался фильм хорошей комедией.

AvesDemer

Post 06-Sep-2019 14:33

[Quote]

Судя по всему, фильм не понравился тем. кто не любит театр. Ибо по сути - это действительно экранизированный спекталь в более совершенных декорациях. Чудная ,остроумная комедия положений, отлично сыгранная великолепными актерами - не только Аронова, великолепны все, причем довольно неожиданны Балуев, Лыков и Красько в непривычном амплуа.

admin

Post 26-Nov-2018 04:56

[Quote]

Информация о фильме
Название: Кушать подано!
Год выхода: 2005
Жанр: комедия
Режиссер: Максим Паперник
В ролях: Александр Балуев, Александр Лыков, Юлия Рутберг, Мария Аронова, Ольга Красько, Владимир Епископосян
О фильме: Муж решил встретить Новый год вместе с молодой любовницей в своем загородном доме, переделанном из бывшей свинофермы, жену он отправляет проведать тещу, а для алиби приглашает к себе старого друга…

Страна: Украина / Мелорама, Телеканал Интер
Продолжительность: 01:25:38
Перевод: не требуется (русский)
Файл
Качество: DVDRip-AVC
Формат: MKV
Видео: MPEG-4 AVC, 2500 Кбит/сек, 1024x576
Звук: AC3, 6 ch, 448 Кбит/сек
Субтитры: нет
Дополнительно: Сохранены оригинальные главы (чаптеры)

MediaInfo:

Общее
Уникальный идентификатор : 9666446609375750992244809527412326833 (0x745B09D29229235FE59FD7CF24B01B1)
Полное имя : E:Kushan podano(2005) DVDRip-AVC.mkv
Формат : Matroska
Версия формата : Version 4
Размер файла : 1,76 Гбайт
Продолжительность : 1 ч. 25 м.
Общий поток : 2946 Кбит/сек
Программа кодирования : XviD4PSP 7.0.459 DAILY
Библиотека кодирования : Lavf57.71.100
Авторское право : [#ZsU®]
ErrorDetectionType : Per level 1
Attachments : poster.jpg
ENCODING_INFO : DVD > MKV Пользовательский / MPEG2 > X264 ABR 2500kbps HQ / AC3 > AC3 CBR 448kbps
Язык : und
Видео
Идентификатор : 1
Формат : AVC
Формат/Информация : Advanced Video Codec
Профиль формата : High@L4.1
Настройки формата : CABAC / 11 Ref Frames
Параметр CABAC формата : Да
Параметр RefFrames формата : 11 кадров
Идентификатор кодека : V_MPEG4/ISO/AVC
Продолжительность : 1 ч. 25 м.
Битрейт : 2500 Кбит/сек
Ширина : 1024 пикселя
Высота : 576 пикселей
Соотношение сторон : 5:3
Режим частоты кадров : Постоянный
Частота кадров : 25,000 кадров/сек
Цветовое пространство : YUV
Субдискретизация насыщенности : 4:2:0
Битовая глубина : 8 бит
Тип развёртки : Прогрессивная
Бит/(Пиксели*Кадры) : 0.170
Размер потока : 1,46 Гбайт (83%)
Библиотека кодирования : x264 core 157 r2901M 7d0ff22
Настройки программы : cabac=1 / ref=11 / deblock=1:-3:-3 / analyse=0x3:0x133 / me=umh / subme=11 / psy=1 / psy_rd=1.00:0.20 / mixed_ref=1 / me_range=32 / chroma_me=1 / trellis=2 / 8x8dct=1 / cqm=0 / deadzone=21,11 / fast_pskip=1 / chroma_qp_offset=-3 / threads=12 / lookahead_threads=1 / sliced_threads=0 / nr=0 / decimate=1 / interlaced=0 / bluray_compat=0 / constrained_intra=0 / bframes=11 / b_pyramid=2 / b_adapt=1 / b_bias=11 / direct=1 / weightb=1 / open_gop=0 / weightp=1 / keyint=250 / keyint_min=25 / scenecut=40 / intra_refresh=0 / rc_lookahead=40 / rc=abr / mbtree=1 / bitrate=2500 / ratetol=1.0 / qcomp=0.60 / qpmin=0 / qpmax=69 / qpstep=4 / ip_ratio=1.40 / aq=1:1.00
Default : Да
Forced : Нет
Цветовой диапазон : Limited
Основные цвета : BT.709
Характеристики трансфера : BT.709
Коэффициенты матрицы : BT.709
Аудио
Идентификатор : 2
Формат : AC-3
Формат/Информация : Audio Coding 3
Коммерческое название : Dolby Digital
Идентификатор кодека : A_AC3
Продолжительность : 1 ч. 25 м.
Вид битрейта : Постоянный
Битрейт : 448 Кбит/сек
Каналы : 6 каналов
Channel layout : L R C LFE Ls Rs
Частота : 48,0 КГц
Частота кадров : 31,250 кадров/сек (1536 SPF)
Битовая глубина : 16 бит
Метод сжатия : С потерями
Размер потока : 274 Мбайт (15%)
Язык : Russian
Default : Да
Forced : Нет
Меню
00:00:00.000 : :Глава 1
00:08:30.600 : :Глава 2
00:18:53.400 : :Глава 3
00:30:18.600 : :Глава 4
00:40:09.000 : :Глава 5
00:49:27.600 : :Глава 6
00:58:07.200 : :Глава 7
01:12:09.000 : :Глава 8
СЕМПЛ

admin

Post 14-Aug-2018 05:34

[Quote]

Информация о фильме
Название: Замок Эрос
Оригинальное название: Castle Eros
Год выхода: 2002
Жанр: Эротика, фентези
Режиссер: Мэдисон Монро
В ролях: Челси Блу, Холли Сэмпсон, Каталина Ларранага, Себастьен Гай, Алекс Ферро, Дэнис Марти, Лоредана Бонтемпи, Giro Tommaselli, Мирко Цито, Silvia Gogovacinschi
О фильме:
С двумя сёстрами американками на каникулах в Риме случается беда - их обворовывают и они остаются без жилья и без денег. К несчастью коррумпированная полиция старого света покрывает преступников разоряющих туристов. И сёстрам приходится искать работу в провинциальном замке чтобы не умереть с голоду и заработать на обратный билет домой. Только вот замок в котором они начали работать оказывается необычным местом и преподносит новые пикантные приключения.

Страна: США, Италия
Студия: Playboy / Fool Moon / Charles Band
Продолжительность: 01:33:38
Перевод: Профессиональный (двухголосый закадровый) ТВ+/IVI
Перевод: Профессиональный (двухголосый закадровый) Виккон
Перевод: Любительский одноголосный закадровый
Реклама: Отсутствует
Файл
Кодек: DivX
Качество: DVDRip
Видео: DivX 5 640x480 29.97fps 1400kbps
Звук 1: AC3 48000Hz stereo 192kbps (Rus) VO
Звук 2: MP3 48000Hz stereo 128kbps (Rus) DVO ТВ+/IVI
Звук 3: MP3 44100Hz stereo 255kbps (Rus) DVO Виккон
Семпл

MediaInfo

General
Complete name : G:Castle Erotica DVDRip Rus.avi
Format : AVI
Format/Info : Audio Video Interleave
File size : 1.31 GiB
Duration : 1 h 33 min
Overall bit rate : 2 000 kb/s
Writing application : VirtualDubMod 1.5.10.2 (build 2542/release)
Writing library : VirtualDubMod build 2542/release
IDFV : DMF 2.0.0
Video
ID : 0
Format : MPEG-4 Visual
Format settings : BVOP1
Format settings, BVOP : 1
Format settings, QPel : No
Format settings, GMC : No warppoints
Format settings, Matrix : Default (H.263)
Muxing mode : Packed bitstream
Codec ID : DX50
Codec ID/Hint : DivX 5
Duration : 1 h 33 min
Bit rate : 1 401 kb/s
Nominal bit rate : 6 896 kb/s
Width : 640 pixels
Height : 480 pixels
Display aspect ratio : 4:3
Frame rate : 29.970 (30000/1001) FPS
Color space : YUV
Chroma subsampling : 4:2:0
Bit depth : 8 bits
Scan type : Progressive
Compression mode : Lossy
Bits/(Pixel*Frame) : 0.152
Stream size : 937 MiB (70%)
Writing library : DivX 3330
Audio #1
ID : 1
Format : AC-3
Format/Info : Audio Coding 3
Codec ID : 2000
Duration : 1 h 33 min
Bit rate mode : Constant
Bit rate : 192 kb/s
Channel(s) : 2 channels
Channel positions : Front: L R
Sampling rate : 48.0 kHz
Frame rate : 31.250 FPS (1536 SPF)
Bit depth : 16 bits
Compression mode : Lossy
Stream size : 128 MiB (10%)
Alignment : Split accross interleaves
Interleave, duration : 33 ms (1.00 video frame)
Interleave, preload duration : 500 ms
Service kind : Complete Main
Audio #2
ID : 2
Format : MPEG Audio
Format version : Version 1
Format profile : Layer 3
Format settings : Joint stereo / MS Stereo
Codec ID : 55
Codec ID/Hint : MP3
Duration : 1 h 33 min
Bit rate mode : Constant
Bit rate : 128 kb/s
Channel(s) : 2 channels
Sampling rate : 48.0 kHz
Compression mode : Lossy
Stream size : 85.6 MiB (6%)
Alignment : Aligned on interleaves
Interleave, duration : 33 ms (1.00 video frame)
Interleave, preload duration : 504 ms
Audio #3
ID : 3
Format : MPEG Audio
Format version : Version 1
Format profile : Layer 3
Format settings : Joint stereo
Codec ID : 55
Codec ID/Hint : MP3
Duration : 1 h 33 min
Bit rate mode : Constant
Bit rate : 256 kb/s
Channel(s) : 2 channels
Sampling rate : 44.1 kHz
Compression mode : Lossy
Stream size : 171 MiB (13%)
Alignment : Aligned on interleaves
Interleave, duration : 33 ms (1.00 video frame)
Interleave, preload duration : 522 ms

Скриншоты

admin

Post 18-Jun-2018 07:21

[Quote]

Информация о фильме
Название: Потерянный в снегах / Идущий по снегу
Оригинальное название: The Snow Walker
Год выхода: 2003
Жанр: драма, приключения
Режиссер: Чарльз Мартин Смит
В ролях: Барри Пеппер, Анабелла Пиугаттук, Джеймс Кромуэлл, Кирстен Уоррен, Джон Грайз, Робин Данн, Малкольм Скотт, Майкл Бубле, Брэд Сивон, Грег Споттисвуд
О фильме: События фильма разворачиваются в 1950-х годах. Тысячи миль арктической пустыни вокруг. Край, который еще не успел разрушить ЧЕЛОВЕК. Чарли Холлидей был рожден для того, чтобы работать в таком месте. Его самолет бороздил воздушное пространство практически в любую погоду, доставляя продовольствие в самые отдаленные уголки Канадской Арктики.
Он привык рисковать жизнью и за хорошее вознаграждение был готов практически на все. Не удивительно, что даже зная о предстоящем буране он согласился доставить в больницу, страдающую от туберкулеза девушку Иунит из местного племени.
Однако даже Чарли не был готов к тому, какую участь уготовила ему судьба. Его верный самолет оказавшийся не в силах противостоять разбушевавшейся стихии, терпит катастрофу и отважный пилот вместе со спутницей, практически не говорящей по-английски, оказывается один на один с бесконечной арктической пустыней.
Теперь эти двое могут надеяться только друг на друга и, чтобы выжить среди снежных просторов им предстоит не только собрать в кулак всю свою волю и мужество, но и наконец-то поверить друг в друга…

Страна: Канада
Студия: British Columbia Film, Canadian Television Fund, Infinity Media, Movie Central Network
Продолжительность: 01:45:19
Перевод: Профессиональный (многоголосый, закадровый) R5
Файл
Формат: AVI
Видео: 704x400 at 23.976 fps, XviD build 73 ~1510 kbps avg
Аудио: Russian: 48 kHz, AC3 Dolby Digital, 3/2 (L,C,R,l,r) + LFE ch, ~384 kbps avg |Многоголосый закадровый, R5|
Субтитры: None
***Релиз - tеko

MediaInfo

Общее
Полное имя : The.Snow.Walker.2003.dvdrip_[1.46]_[teko].avi
Формат : AVI
Формат/Информация : Audio Video Interleave
Размер файла : 1,46 Гбайт
Продолжительность : 1 ч. 45 м.
Общий поток : 1981 Кбит/сек
Программа кодирования : VirtualDubMod 1.5.10.3 | www.virtualdub-fr.org || (build 2550/release)
Библиотека кодирования : VirtualDubMod build 2550/release
Видео
Идентификатор : 0
Формат : MPEG-4 Visual
Профиль формата : Advanced Simple@L5
Параметр BVOP формата : 2
Параметр QPel формата : Нет
Параметр GMC формата : Без точки перехода
Параметр матрицы формата : Выборочная
Идентификатор кодека : XVID
Идентификатор кодека/Подсказка : XviD
Продолжительность : 1 ч. 45 м.
Битрейт : 1510 Кбит/сек
Ширина : 704 пикселя
Высота : 400 пикселей
Соотношение сторон : 16:9
Частота кадров : 23,976 кадра/сек
Цветовое пространство : YUV
Субдискретизация насыщенности : 4:2:0
Битовая глубина : 8 бит
Тип развёртки : Прогрессивная
Метод сжатия : С потерями
Бит/(Пиксели*Кадры) : 0.224
Размер потока : 1,11 Гбайт (76%)
Библиотека кодирования : XviD 73
Аудио
Идентификатор : 1
Формат : AC-3
Формат/Информация : Audio Coding 3
Расширение режима : CM (complete main)
Параметр Endianness формата : Big
Идентификатор кодека : 2000
Продолжительность : 1 ч. 45 м.
Вид битрейта : Постоянный
Битрейт : 384 Кбит/сек
Каналы : 6 каналов
Расположение каналов : Front: L C R, Side: L R, LFE
Частота : 48,0 КГц
Метод сжатия : С потерями
Размер потока : 289 Мбайт (19%)
Выравнивание : Разделение по промежуткам

Скриншоты


admin

Post 31-May-2018 05:34

[Quote]

Название: Новая история О
Оригинальное название: The Story of O: Untold Pleasures
Год выпуска: 2002
Жанр: Мелодрама, эротика
Выпущено: США, CAE Productions
Режиссер: Фил Лирнесс
В ролях: Даниэль Кьярди, Нил Диксон, Макс Пэрриш, Мишель Рубен, Кэтрин Рэндолф, Лайл Скоси, Нед Гудвин, Ники Первайн, Стефани Чао, Стивен Брэдстрит
О фильме: О - талантливый молодой фотограф на пороге многообещающей карьеры. Но финансовые проблемы – непреодолимое препятствие для ее артистических планов, один из которых - выпуск альбома с авангардистскими фотографиями. По настоянию своего друга Рене О решает полностью высвободить свои художественные инстинкты, на время отложив решение финансовых проблем. Рене знакомит ее с таинственным меценатом, богатым и влиятельным сэром Стивеном. Но, приняв заманчивое предложение, О вступает на путь саморазрушения, который ведет в мир больших денег и ничем не сдерживаемого эротизма…

Качество: DVDRip
Видео: XviD, 1737 Кбит/с, 688x384, 25 кадр/с
Аудио: Русский, английский (AC3, 2 ch, 192 Кбит/с)
Продолжительность: 01:37:52
Перевод: Профессиональный многоголосый
Субтитры: Русские

Скриншоты

Релиз от: tеko

admin

Post 14-May-2018 07:26

[Quote]

Информация о фильме
Название: Большая жратва
Оригинальное название: Waiting...
Год выхода: 2005
Жанр: Комедия
Режиссер: Роб МакКиттрик
В ролях: Райан Рейнолдс, Анна Фарис, Джастин Лонг, Дэвид Кочнер, Луис Гусман, Чи МакБрайд
О фильме: Дин работает официантом в крупном ресторане уже четыре года. Он ни разу не задавался вопросом о том, насколько хорошо он устроился, пока не узнал, что его однокашник все эти годы делал сногсшибательную карьеру в крупной корпорации. Поэтому, когда появляется стажер Митч, Дин начинает его обучение не только со знакомства с многочисленным и сумасбродным коллективом, но и с того, как отомстить обеспеченным посетителям ресторана за классовое неравенство.

Производство: США, Eden Rock Media, Element Films
Продолжительность: 01:33:57
Перевод: Профессиональный (многоголосый, закадровый) | Tycoon
Качество: HDRip-AVC (Waiting.2005.1080p.Rus.mkv)
Видео: 1024x576(16:9), 2400 Kbps, 23,98 fps
Звук: AC3, 448 Kbps, 48.0 KHz, 6 ch

Скриншоты

MediaInfo

General
Unique ID : 184246898567901855231608913118423910173 (0x8A9CA97303D89D3496C12D45DB57871D)
Complete name : D:uTorrentWaiting.2005.HDRip.rutor.mkv
Format : Matroska
Format version : Version 2
File size : 1.87 GiB
Duration : 1h 33mn
Overall bit rate : 2 849 Kbps
Encoded date : UTC 2018-05-13 00:37:33
Writing application : mkvmerge v6.9.1 ('Blue Panther') 32bit built on Apr 18 2014 18:15:44
Writing library : libebml v1.3.0 + libmatroska v1.4.1
Video
ID : 1
Format : AVC
Format/Info : Advanced Video Codec
Format profile : High@L4.1
Format settings, CABAC : Yes
Format settings, ReFrames : 8 frames
Codec ID : V_MPEG4/ISO/AVC
Duration : 1h 33mn
Bit rate : 2 400 Kbps
Width : 1 024 pixels
Height : 576 pixels
Display aspect ratio : 16:9
Frame rate : 23.976 fps
Color space : YUV
Chroma subsampling : 4:2:0
Bit depth : 8 bits
Scan type : Progressive
Bits/(Pixel*Frame) : 0.170
Stream size : 1.54 GiB (82%)
Writing library : x264 core 148 r2638 7599210
Encoding settings : cabac=1 / ref=8 / deblock=1:-1:-1 / analyse=0x3:0x133 / me=umh / subme=7 / psy=1 / psy_rd=1.00:0.10 / mixed_ref=1 / me_range=16 / chroma_me=1 / trellis=2 / 8x8dct=1 / cqm=0 / deadzone=21,11 / fast_pskip=0 / chroma_qp_offset=-3 / threads=6 / lookahead_threads=1 / sliced_threads=0 / nr=0 / decimate=1 / interlaced=0 / bluray_compat=0 / constrained_intra=0 / bframes=3 / b_pyramid=2 / b_adapt=2 / b_bias=0 / direct=3 / weightb=1 / open_gop=0 / weightp=2 / keyint=250 / keyint_min=23 / scenecut=40 / intra_refresh=0 / rc_lookahead=50 / rc=2pass / mbtree=1 / bitrate=2400 / ratetol=1.0 / qcomp=0.60 / qpmin=0 / qpmax=69 / qpstep=4 / cplxblur=20.0 / qblur=0.5 / ip_ratio=1.40 / aq=1:1.00
Default : Yes
Forced : No
Audio
ID : 2
Format : AC-3
Format/Info : Audio Coding 3
Mode extension : CM (complete main)
Format settings, Endianness : Big
Codec ID : A_AC3
Duration : 1h 33mn
Bit rate mode : Constant
Bit rate : 448 Kbps
Channel(s) : 6 channels
Channel positions : Front: L C R, Side: L R, LFE
Sampling rate : 48.0 KHz
Bit depth : 16 bits
Compression mode : Lossy
Stream size : 301 MiB (16%)
Default : Yes
Forced : No

admin

Post 05-Feb-2018 04:16

[Quote]

Информация о фильме
Название: Любовное кино / Фильм о любви
Оригинальное название: Filme de amor
Год выхода: 2003
Жанр: драма, арт-хаус
Режиссер: Жулио Брессане
В ролях: Бел Гарсия, Жози Антелло, Фернанду Эйрас
О фильме:
Трое друзей - Матильда, Гаспар и Хильда, обычные люди из предместья Рио-де-Жанейро, проводят вместе уик-энд. Они собираются в заброшенной квартире, чтобы выпить, пофилософствовать на тему любви и заняться сексом. Немудреный сюжет, из которого рождается мелодия любви...
!ВНИМАНИЕ! Фильм рассчитан на взрослого зрителя!
Благодарность порошков!

Страна: Бразилия
Студия: Grupo Novo de Cinema e TV, TB Produções
Продолжительность: 01:31:00
Перевод: Авторский (одноголосый) Антон Алексеев
Файл
Кодек: XviD
Качество: DVDRip
Видео: 704x432 (1.63:1), 23.976 fps, XviD build 73 ~2083 kbps avg, 0.28 bit/pixel
Звук: 48 kHz, AC3 Dolby Digital, 2/0 (L,R) ch, ~192 kbps
Субтитры: нет

admin

Post 15-Dec-2017 22:48

[Quote]

Название: Палач
Оригинальное название: The Headsman
Год выпуска: 2005
Жанр: Драма, исторический
Выпущено: Германия, Великобритания, Швейцария, Венгрия, Австрия, Люксембург, Allegro Film, Eurofilm Stúdió, Film and Music Entertainment (F&ME)
Режиссер: Саймон Эби
В ролях: Стивен Беркофф, Николай Костер-Валдау, Джули Кокс, Лили Гезлер, Патрик Годфри, Анастасия Гриффит, Ли Инглби, Эдди Марсан, Джо Мэйсон, Питер МакДональд
О фильме: 1520 год. Тироль. Австрия. Эпоха Реформации Мартина Лютера. Люди распространяют его «95 тезисов». Но католическая церковь не желает отступать. Инквизиция не дремлет… Показывается история отношений двух братьев — набожного аббата Георга и бесстрашного воина Мартина. Они встречаются после долгой разлуки. Ради своей семьи Мартин вынужден стать палачом, изгоем для всех, кроме Георга. Когда из монастыря похищают бесценную реликвию и инквизиция начинает искать злодеев, под подозрение попадают многие невинные люди, в том числе — семья Мартина. Сможет ли Георг защитить своего верного друга в час, когда запылают костры и головы покатятся по плахе? Сумеет ли палач Мартин спасти свою семью от палачей инквизиции? Какую цену заплатят братья за свою роковую дружбу?..

Качество: DVDRip
Видео: XviD, 1491 Кбит/с, 720x304
Аудио: Русский (АС3, 6 ch, 384 Кбит/с), aнглийский (МР3, 2 ch, 116 Кбит/с)
Продолжительность: 01:44:04
Перевод: Одноголосый закадровый

Скриншоты

Virtuoz

Post 24-Nov-2017 21:01

[Quote]

Название фильма: Ничего себе поездочка
Оригинальное название:Joy Ride
Год выпуска: 2001
Страна: США
Жанр: триллер, детектив
Продолжительность: 01:37:07
Перевод: Дубляж
Субтитры: нет
Режиссер: Джон Дал / John Dahl
В ролях: Стив Зан, Пол Уокер, Лили Собески, Джессика Боуман, Стюарт Стоун, Бейзил Уоллес, Брайан Лекнер, Мэри Уиклифф, МакКензи Саттертвейт, Делл Йонт
Описание: Темная, пустынная лента шоссе змеей протянулась по безлюдному ландшафту средней Америки. Эта дорога живет своей жизнью, по своим правилам и законам, и если ты осмелился совершить по ней путешествие, то не плохо бы эти законы выучить наизусть.
Герои фильма попадают в жуткую переделку, когда Фулер уговаривает младшего брата Льюиса установить в машине старый радиопередатчик.
Для него это лишь «клевая» антикварная диковинка, с помощью которой можно позволить себе небольшой розыгрыш. Теперь ребятам придется своей кровью расплачиваться за поступок, на который способен каждый из нас…
Качество видео: WEB-DLRip
Формат видео: AVI
Видео: 688x384 (1.79:1), 23.976 fps, XviD build 73 ~1674 kbps avg, 0.26 bit/pixel
Аудио: 48 kHz, AC3 Dolby Digital, 3/2 (L,C,R,l,r) + LFE ch, ~448.00 kbps avg

Скриншоты


admin

Post 09-Nov-2017 00:12

[Quote]

Информация о фильме
Название: Опасная компания
Оригинальное название: Les dangereux
Год выхода: 2002
Жанр: Комедия, криминал
Режиссер: Луи Сайя
В ролях: Стефан Руссо, Вероника Клотье, Марк Мессье, Пьер лебо, Гай Надон, Луиза Порталь, Мишель Чаретт, Дидье Люсьен, Миро, Доминик Куэснел
О фильме:
Катастрофа! Похищена молодая талантливая певица Роксана Лабелль! За нее требуют выкуп в миллион долларов! Ее отец (и по совместительству менеджер) Поль в отчаянии!
Он совершенно запутался в долгах, а через 12 часов Роксана должна выступить на грандиозном концерте, который помог бы Полю рассчитаться со всеми долгами и возместить все убытки, включая пресловутый выкуп. Но кто согласится доставить выкуп и рискнуть своей жизнью? Конечно же, молодой бухгалтер Франсис.
Ему предстоит пережить самое опасное приключение в своей жизни: спасти Роксану, вовремя доставить ее на концерт, избежать смерти от рук похитителей, вернуть выкуп и не дать своему брату совершить самоубийство!

Страна: Канада / Melenny Productions Inc.
Продолжительность: 01:47:39
Перевод: Профессиональный (двухголосый закадровый) ["МИКС Медиа" по заказу "ЕА-Синема"]
Файл
Кодек: XviD (AVI)
Качество: DVDRip
Видео: 720x384, 1466 Кбит/с
Звук: AC3, 6 ch, 448 Кбит/с
Семпл

Скриншоты

admin

Post 07-Nov-2017 22:52

[Quote]

Три могилы / The Three Burials of Melquiades Estrada
Страна: США, Франция
Год выпуска: 2005
Жанр: драма, криминал, детектив, приключения, вестерн
Продолжительность: 02:01:30
Перевод: Профессиональный (многоголосый закадровый)
Режиссер: Томми Ли Джонс
Актеры: Томми Ли Джонс, Барри Пеппер, Хулио Седильо, Дуайт Йоакам, Дженьюэри Джонс, Мелисса Лео, Левон Хельм, Мэл Родригез, Сесилия Суарес, Игнасио Гвадалупе
Описание фильма: Где-то в безлюдной техасской пустыне Мелквадеса Эстраду сначала убивают, а затем здесь же спешно хоронят без должных почестей. Позже тело находят и перезахоранивают на кладбище городка Ван Хорн. Местный фермер Пит Перкинс, друг Эстрады, похищает местного полицейского и заставляет его выкопать тело. С заложником на привязи и с телом, привязанным к мулу, Пит отправляется в опасное путешествие в Мексику с целью захоронить тело по справедливости и раскрыть тайну убийства…

Файл
Качество видео: BDRip-AVC Исходник: Blu-ray
Формат: MKV Видео кодек: MPEG-4 AVC Аудио кодек: AC3
Видео: 960x410 (2.35:1) at 24.000 fps, AVC at 3229 kbps avg, 0.342 bit/pixel
Аудио: 48 kHz, AC3 Dolby Digital, 3/2 (L,C,R,l,r) + LFE ch, 448 kbps avg
Субтитры: Русские, английские
Навигация по главам: Есть

MediaInfo

* * * MediaInfo Mac 0.7.33.4 file analysis report.
* * * MediaInfo Mac is ©2010 by Diego Massanti - http://mediainfo.massanti.com
* * * MediaInfoLib by Jerome Martinez - http://mediainfo.sourceforge.net
Created on: 15.02.2015 14:33:33 Московское стандартное время
Report for file: Tri mogily.2005.BDRip.x264-LEONARDO_[scarabey.org].mkv
General / Container Stream #1
Total Video Streams for this File.................1
Total Audio Streams for this File.................1
Total Subtitle Streams for this File..............2
Video Codecs Used.................................AVC
Audio Codecs Used.................................AC3
SubTitle Codecs Used..............................UTF-8 / UTF-8
Available Sutbitle Languages......................Russian /
File Format.......................................Matroska
Play Time.........................................2h 1mn
Total File Size...................................3.18 GiB
Total Stream BitRate..............................3 752 Kbps
Title (Tag).......................................-=LEONARDO=-
Encoded with......................................mkvmerge v5.0.1 ('Es ist Sommer') built on Oct 23 2011 00:46:40
Encoding Library..................................libebml v1.2.2 + libmatroska v1.3.0
Video Stream #1
Codec (Human Name)................................AVC
Codec (FourCC)....................................V_MPEG4/ISO/AVC
Codec Profile.....................................High@L4.1
Frame Width.......................................960 pixels
Frame Height......................................410 pixels
Frame Rate........................................24.000 fps
Total Frames......................................174982
Display Aspect Ratio..............................2.35:1
Scan Type.........................................Progressive
Color Space.......................................YUV
Codec Settings (Summary)..........................CABAC / 9 Ref Frames
QF (like Gordian Knot)............................0.342
Codec Settings (CABAC)............................Yes
Codec Settings (Reference Frames).................9
Video Stream Length...............................2h 1mn 30s 917ms
Video Stream BitRate..............................3 229 Kbps
Bit Depth.........................................8 bits
Video Stream Size.................................2.74 GiB (86%)
Video Encoder.....................................x264 - core 144 r2525 40bb568
Video Encoder (Settings)..........................cabac=1 / ref=9 / deblock=1:-3:-3 / analyse=0x3:0x133 / me=umh / subme=11 / psy=1 / psy_rd=1.00:0.00 / mixed_ref=1 / me_range=32 / chroma_me=1 / trellis=2 / 8x8dct=1 / cqm=0 / deadzone=21,11 / fast_pskip=0 / chroma_qp_offset=-2 / threads=12 / lookahead_threads=3 / sliced_threads=0 / nr=0 / decimate=1 / interlaced=0 / bluray_compat=0 / constrained_intra=0 / bframes=12 / b_pyramid=2 / b_adapt=2 / b_bias=0 / direct=1 / weightb=1 / open_gop=0 / weightp=2 / keyint=250 / keyint_min=24 / scenecut=40 / intra_refresh=0 / rc=crf / mbtree=0 / crf=18.0 / qcomp=0.60 / qpmin=0 / qpmax=69 / qpstep=4 / ip_ratio=1.40 / pb_ratio=1.30 / aq=1:1.00
Audio Stream #1
Codec.............................................AC-3
Codec (FourCC)....................................A_AC3
Audio Stream Length...............................2h 1mn 30s 917ms
Audio Stream BitRate..............................448 Kbps
Audio Stream BitRate Mode.........................CBR
Number of Audio Channels..........................6
Audio Channel's Positions.........................Front: L C R, Side: L R, LFE
Sampling Rate.....................................48.0 KHz
Audio Stream Size.................................389 MiB (12%)
Audio Stream Language.............................Russian
Subtitle Stream #1
Language..........................................Russian
Format............................................UTF-8
Codec ID..........................................S_TEXT/UTF8
Codec Info........................................UTF-8 Plain Text
Subtitle Stream #2
Format............................................UTF-8
Codec ID..........................................S_TEXT/UTF8
Codec Info........................................UTF-8 Plain Text
Menu / Chapters Stream #1

admin

Post 10-Oct-2017 08:30

[Quote]

Час пик 2Rush Hour 2«The Mouth Of The West And The Hands Of The East Are Back!»

Страна: США, Гонконг
Жанр: Боевик, триллер, комедия
Год выпуска: 2001
Продолжительность: 01:30:07
Перевод: Профессиональный (дублированный) BD
Перевод 2: Профессиональный (многоголосый закадровый) Карусель
Перевод 3: Авторский (одноголосый закадровый) А.Гаврилов
Субтитры: русские,английские
Оригинальная аудиодорожка: английский
Режиссер: Бретт Рэтнер / Brett Ratner
В ролях: Джеки Чан, Крис Такер, Джон Лоун, Чжан Цзыи, Роселин Санчес, Алан Кинг, Харрис Юлин, Кеннет Цан, Лиза ЛоЦицеро, Мей Меланкон
Описание: История начинается непосредственно с того момента, на котором закончилась первая часть - полицейские Ли и Картер прибывают в Гонконг по следам преступников, замышляющих похищение китайский сокровищ и продажи их в штатах.
По мере того, как детективы Картер и Ли становятся все больше и больше запутанными в преступном заговоре, вовлекающем их в смертоносную Триаду, поездка в стиле нон-стоп от Гонконга до Лос-Анджелеса и Лас-Вегаса, оборачивается для них безумно интересным, смешным и в то же время опасным приключением.
Полицейские должны использовать все свои навыки, чтобы заманить в ловушку одного из самых опасных преступников в мире...
Доп. информация:
Релиз группы:
Сохранены оригинальные главы как на BD
Качество видео: BDRip-AVC | Час пик 2 / Rush Hour 2 (2001) 1080p BD-Remux| HD club
Формат видео: MKV
Видео: 1080x450 (2:40:1), 23,976 fps, 4393 Кbps, 0.377 bit/pixe
Аудио: 48 kHz, AC3 Dolby Digital, 3/2 (L,C,R,l,r) + LFE ch, ~448.00 kbps avg MVO
Аудио 2: 48 kHz, AC3 Dolby Digital, 3/2 (L,C,R,l,r) + LFE ch, ~448.00 kbps avg MVO отдельно
Аудио 3: 48 kHz, AC3 Dolby Digital, 3/2 (L,C,R,l,r) + LFE ch, ~448.00 kbps avg AVO
отдельно
Аудио 4: 48 kHz, AC3 Dolby Digital, 3/2 (L,C,R,l,r) + LFE ch, ~448.00 kbps avg ENG
Формат субтитров: softsub (SRT)
Доп. информация о субтитрах: отключаемые

Знаете ли Вы что

• Персонаж Ху Ли, роль которой исполняет Чжан Цзыи, изначально задумывался как мужской.
• Сцена, в которой раздетые Крис Такер и Джеки Чан бегут по улицам Гонконга — это реальная съёмка; съёмочная группа не имела возможности перекрыть движение по улице.
• Дон Чидл, который играет Кенни, согласился играть в фильме только в том случае, если он будет драться с Джеки Чаном и говорить по-китайски.
• Ху Ли, в переводе с одного из диалектов китайского языка, означает — Лиса.
• Когда Крис Такер говорит, что азиаты всегда паникуют, ссылаясь при этом на фильм о Годзилле, он кричит: «Хаяку! Хаяку!», что в переводе с японского языка значит «Быстрее! Быстрее!».
• Во время съёмок фильма Чжан Цзыи не владела английским языком и Джеки Чану приходилось исполнять роль переводчика.
• Из фильма были вырезаны следующие сцены:
Картер предлагает Ли освежить дыхание перед тем, как они зайдут в караоке-бар.
Картер разговаривает по телефону с капитаном Диэлем в офисе Ли в гонконгском полицейском участке.
Картер в самолёте громко поет песню Стиви Уандера и бортпроводник просит его прекратить пение.
Более длительная сцена того, как Картер и Ли пытаются избавиться от бомбы: они кидают её в лифт, но женщина, не зная, что это такое, поднимает её.
Также существует альтернативная версия сцены в грузовике по пути в Лас-Вегас: деньги спрятаны в деревянных контейнерах, а Картер и Ли не связаны.

MediaInfo

General
Unique ID : 175718091848034058709204725437767527440 (0x843212CFFBB1FDCF809258A71CD2AC10)
Complete name : E:\Мои рипы\Час пик 2\Rush Hour 2 by_IVAN@190282.mkv
Format : Matroska
Format version : Version 4 / Version 2
File size : 3.40 GiB
Duration : 1h 30mn
Overall bit rate : 5 396 Kbps
Encoded date : UTC 2016-02-28 23:41:08
Writing application : mkvmerge v8.8.0 ('Wind at my back') 64bit
Writing library : libebml v1.3.3 + libmatroska v1.4.4
Attachements : cover.jpg
DURATION : 01:29:14.516000000
NUMBER_OF_FRAMES : 1420
NUMBER_OF_BYTES : 46928
_STATISTICS_WRITING_APP : mkvmerge v8.8.0 ('Wind at my back') 64bit
_STATISTICS_WRITING_DATE_UT : 2016-02-28 23:41:08
_STATISTICS_TAGS : BPS DURATION NUMBER_OF_FRAMES NUMBER_OF_BYTES
Video
ID : 1
Format : AVC
Format/Info : Advanced Video Codec
Format profile : High@L4.1
Format settings, CABAC : Yes
Format settings, ReFrames : 11 frames
Codec ID : V_MPEG4/ISO/AVC
Duration : 1h 30mn
Bit rate : 4 393 Kbps
Width : 1 080 pixels
Height : 450 pixels
Display aspect ratio : 2.40:1
Frame rate mode : Constant
Frame rate : 23.976 fps
Color space : YUV
Chroma subsampling : 4:2:0
Bit depth : 8 bits
Scan type : Progressive
Bits/(Pixel*Frame) : 0.377
Stream size : 2.77 GiB (81%)
Title : Rush Hour 2 by_IVAN@190282
Writing library : x264 core 148 r2638kMod 7599210
Encoding settings : cabac=1 / ref=11 / deblock=1:-3:-2 / analyse=0x3:0x133 / me=umh / subme=11 / psy=1 / fade_compensate=0.00 / psy_rd=1.00:0.05 / mixed_ref=1 / me_range=48 / chroma_me=1 / trellis=2 / 8x8dct=1 / cqm=0 / deadzone=21,11 / fast_pskip=0 / chroma_qp_offset=-3 / threads=6 / lookahead_threads=6 / sliced_threads=0 / nr=0 / decimate=1 / interlaced=0 / bluray_compat=0 / constrained_intra=0 / fgo=0 / bframes=16 / b_pyramid=2 / b_adapt=2 / b_bias=0 / direct=3 / weightb=1 / open_gop=0 / weightp=2 / keyint=240 / keyint_min=23 / scenecut=40 / intra_refresh=0 / rc_lookahead=60 / rc=crf / mbtree=0 / crf=18.2000 / qcomp=0.60 / qpmin=0 / qpmax=69 / qpstep=4 / vbv_maxrate=50000 / vbv_bufsize=62500 / crf_max=0.0 / nal_hrd=none / filler=0 / ip_ratio=1.40 / pb_ratio=1.30 / aq=2:1.10
Language : English
Default : Yes
Forced : No
Color range : Limited
Color primaries : BT.709
Transfer characteristics : BT.709
Matrix coefficients : BT.709
DURATION : 01:30:06.944000000
NUMBER_OF_FRAMES : 129637
NUMBER_OF_BYTES : 3040592785
_STATISTICS_WRITING_APP : mkvmerge v8.8.0 ('Wind at my back') 64bit
_STATISTICS_WRITING_DATE_UT : 2016-02-28 23:41:08
_STATISTICS_TAGS : BPS DURATION NUMBER_OF_FRAMES NUMBER_OF_BYTES
Audio #1
ID : 2
Format : AC-3
Format/Info : Audio Coding 3
Mode extension : CM (complete main)
Format settings, Endianness : Big
Codec ID : A_AC3
Duration : 1h 30mn
Bit rate mode : Constant
Bit rate : 448 Kbps
Channel(s) : 6 channels
Channel positions : Front: L C R, Side: L R, LFE
Sampling rate : 48.0 KHz
Compression mode : Lossy
Stream size : 289 MiB (8%)
Title : Dub
Default : Yes
Forced : No
Audio #2
ID : 3
Format : AC-3
Format/Info : Audio Coding 3
Mode extension : CM (complete main)
Format settings, Endianness : Big
Codec ID : A_AC3
Duration : 1h 30mn
Bit rate mode : Constant
Bit rate : 448 Kbps
Channel(s) : 6 channels
Channel positions : Front: L C R, Side: L R, LFE
Sampling rate : 48.0 KHz
Compression mode : Lossy
Stream size : 289 MiB (8%)
Title : Eng
Language : English
Default : No
Forced : No
Text #1
ID : 4
Format : UTF-8
Codec ID : S_TEXT/UTF8
Codec ID/Info : UTF-8 Plain Text
Title : Rus
Default : No
Forced : No
Text #2
ID : 5
Format : UTF-8
Codec ID : S_TEXT/UTF8
Codec ID/Info : UTF-8 Plain Text
Title : Eng SDH
Language : English
Default : No
Forced : No
Menu
00:00:00.000 : en:Main Titles / Deadly Delivery
00:04:37.235 : en:Triad Club
00:13:30.601 : en:Heaven On Earth
00:21:42.885 : en:"Bigger than Ricky Tan"
00:27:48.834 : en:Out to Sea
00:33:22.918 : en:Tan Overboard
00:38:50.245 : en:Follow the Rich White Man
00:47:11.078 : en:Crenshaw Kitchen
00:51:18.117 : en:Road Trip
00:58:56.241 : en:Red Dragon
01:03:52.037 : en:"Let's Play Some Craps!"
01:08:59.093 : en:An Explosive Situation
01:14:51.570 : en:Carter v. Hu Li
01:17:29.603 : en:"Just Like Your Father"
01:22:03.335 : en:Goodbye?
01:24:38.115 : en:Outtakes / End Credits

x264 log

x264 [info]: frame I:990 Avg QP:16.10 size: 85602 PSNR Mean Y:44.84 U:46.69 V:48.50 Avg:45.55 Global:44.98
x264 [info]: frame P:31301 Avg QP:18.81 size: 40636 PSNR Mean Y:43.37 U:45.39 V:47.85 Avg:44.16 Global:43.46
x264 [info]: frame B:97346 Avg QP:19.67 size: 17298 PSNR Mean Y:42.20 U:44.29 V:47.61 Avg:43.05 Global:42.38
x264 [info]: consecutive B-frames: 2.8% 4.4% 9.4% 31.3% 17.4% 25.6% 4.6% 2.6% 0.8% 0.3% 0.2% 0.2% 0.1% 0.0% 0.0% 0.1% 0.1%
x264 [total]: encoded 129637 frames, 6.69 fps, 4498.80 kb/s, duration 5:22:52.22

Скриншот c названием фильма

Скриншоты

Убедительная просьба пожалуйста кто скачал не бросайте раздачу!!!

admin

Post 09-Oct-2017 07:38

[Quote]

Чужой против ХищникаAlien vs. PredatorПолная версия / Unrated Edition«Кто бы ни победил - человечество проиграет...»
Страна: Германия, США, Великобритания, Чехия
Жанр: ужасы, фантастика, боевик, триллер
Год выпуска: 2004
Продолжительность: 01:48:40
Перевод: Профессиональный (дублированный) Blu-ray CEE со вставками MVO
Перевод 2: Профессиональный (многоголосый закадровый) Киномания
Перевод 3: Авторский (одноголосый закадровый) А.Гаврилов
Субтитры: русские полные,русские форсированные (на надписи),английские
Оригинальная аудиодорожка: английский
Режиссер: Пол У. С. Андерсон / Paul W.S. Anderson
В ролях: Санаа Лэтэн (Alexa Woods), Рауль Бова (Sebastian de Rosa), Лэнс Хенриксен (Charles Bishop Weyland), Юэн Бремнер (Graeme Miller), Колин Сэлмон (Maxwell Stafford), Томми Флэнаган (Mark Verheiden), Джозеф Рай (Joe Connors), Агат Де Ла Булае (Adele Rousseau), Карстен Норгаард (Rusten Quinn), Сэм Тротон (Thomas Parks)
Описание: Наши дни. Группа ученых отправляется в Антарктиду, чтобы отыскать колыбель цивилизации, царившей на Земле многие тысячелетия назад. Под толщей льда они находят пирамиды, в которых обнаруживают человеческие скелеты и следы жизнедеятельности чужих.
Однако они еще не знают, что уже находятся под колпаком у хозяев этого города — хищников, и их дни сочтены. Человеческая приманка поможет хищникам, наконец, завершить войну двух космических цивилизаций…
Доп. информация:
Релиз группы:
Качество видео: BDRip-AVC | Чужой против Хищника / Alien vs. Predator (2004) Blu-ray CFE |
Формат видео: MKV
Видео: 1144x488 (2:35:1), 23,976 fps, 4190 Кbps, 0.313 bit/pixe
Аудио: 48 kHz, AC3 Dolby Digital, 3/2 (L,C,R,l,r) + LFE ch, ~448.00 kbps avg | DUB
Аудио 2: 48 kHz, AC3 Dolby Digital, 3/2 (L,C,R,l,r) + LFE ch, ~448.00 kbps avg | MVO отдельно
Аудио 3: 48 kHz, AC3 Dolby Digital, 3/2 (L,C,R,l,r) + LFE ch, ~448.00 kbps avg | AVO отдельно
Аудио 4: 48 kHz, AC3 Dolby Digital, 3/2 (L,C,R,l,r) + LFE ch, ~448.00 kbps avg | ENG
Формат субтитров: softsub (SRT)
Доп. информация о субтитрах: отключаемые

Знаете ли вы, что...

* Автор сценария Петер Бриггз разработал сюжет еще в 1991 году после выхода на экраны картины «Хищник 2».
* События фильма основаны на серии одноименных комиксов, до сих пор выпускающихся на территории США.
* Помимо этого в продажу были запущены линия игрушек, многочисленные видеоигры, саундтреки (к видеоиграм) и
даже столь любимые американцами коллекционные собрания карточек.
* Пол Андерсон отказался от режиссирования проектов «Смертельная битва 3» и «Обитель зла 2» в пользу этого фильма,
впрочем, кресло продюсера вышеназванных фильмов не покинул.
* По слухам, фильм находился в разработке с 1990 года, после того как в «Хищнике 2» (1990) был показан череп Чужого.
* За исключением сцен, когда мы видим трех Хищников одновременно, Йен Уайт сыграл всех Хищников.
* В рекламном ролике фильма содержатся отрывки из музыкальной темы трейлера к «Чужому» (1979), а также вопль Брета
(Гарри Дин Стэнтон).
* Титр, появляющийся в начале фильма, сообщает, что название ледокола — «The Piper Maru». Точно такое же название
корабля было в пятнадцатом эпизоде третьего сезона сериала «Секретные материалы» (1993). В свою очередь, эпизод
получил свое название по имени дочки Джилиан Андерсон.
* В 2004 году из всех крупных студийных голливудских проектов у картины Пола Андерсона были самый короткий съёмочный
период (два с половиной месяца) и самый короткий период пост-продакшна (четыре месяца).
* Лэнс Хенриксон сыграл Чарльза Бишопа Уэйланда (Charles Bishop Weyland), соучредителя корпорации «Weyland Yutani
Corporation». Это — та самая компания, упоминавшаяся во всех фильмах о Чужих. Лэнс также сыграл андроида Бишопа в
«Чужих» (1986) и Бишопа II в «Чужом 3» (1992).
* Когда Чарльз Бишоп Уэйланд сидит в своем кабинете, то мы можем заметить, что он играется с шариковой ручкой в довольно
схожей манере, как это делал андроид Бишоп с ножом в «Чужих» (1986).
* Роль Макса Стаффорда была специально написана для Колина Сэлмона.
* Шэйн Салерно на протяжении пятнадцати месяцев (на этапах пре-продакшна, съёмок и пост-продакшна) работал над
сценарием к фильму, однако, его имя отсутствует в титрах.
* На одном из этапов производства планировалось, что Питер Уэллер сыграет Джона Ютани (John Yutani), второго соучредителя
компании «Weyland-Yutani», упоминавшейся в каждом фильме о Чужих.
* ЧпХ стал первым фильмом в серии картин о Чужих и Хищниках, получивший рейтинг PG-13. Остальные фильмы выходили в
прокат с рейтингом R.
* Персонаж Томми Флэнегана (Верхейден) был назван в честь автора комиксов «Чужой против Хищника» Марка Верхейдена.
* В отличие от популярных слухов, что противостояние двух пришельцев возникло благодаря черепу Чужого в «Хищнике 2»
(1990), именно Марк впервые свел вместе представителей двух рас.
* ЧпХ стал первым фильмом в серии картин о Хищниках, где присутствует Хищник-левша.
* Изначально сцена, в которой команда Уэйланда обнаруживает комнату для жертвоприношений внутри пирамиды, была намного
длиннее: Себастиан находил окаменелого фэйсхаггера, после чего Лекс и Себастиан предлагали свои теории о том, что это за
существо.
* Создатели спецэффектов для фильма, Том Вудрафф мл. и Алек Джиллис, сыграли людей, обнаруживших пирамиду.
* В фильме содержатся ссылки и намёки на предыдущие фильмы о Чужих и Хищнике. Так, например, первый кадр картины — силуэт
королевы Чужих из фильма «Чужие» (1986), медленно превращающийся в спутник компании Weyland Corporation.
* Алтари в комнате для жертвоприношений установлены в точно таком же порядке, как и установки криогенного сна в «Чужом» (1979).
* Черно-белый фильм, который можно заметить на экране одного из телевизоров в начале картины, — «Франкенштейн встречает
Человека-волка» (1943).
* Главная героиня называет Чужого «ugly mother…». Это — ссылка на предыдущие фильмы о Хищниках, где Арнольд Шварценеггер
и Дэнни Гловер точно так же называли Хищника.
* ЧпХ стал первым фильмом о Чужих, в котором не снималась Сигурни Уивер.
* Кадр с людьми, входящих в пирамиду, — намёк на сцену из «Чужого» (1979), где в довольно схожей манере команда «Ностромо»
входила в заброшенный космический корабль.
* Рисунок на полу в центре комнаты для жертвоприношений почти точно повторяет постер для «Чужого 3» (1992).
* Слова «чужой» и «хищник» ни разу не произносятся по ходу действия фильма.
* В свое время Пол Андерсон заявил, что изначально предполагалось, что у фильма будет рейтинг R, но за три недели до выхода
картины на экраны студия решила перемонтировать фильм под рейтинг PG-13. Позднее выяснилось, что это были лишь Интернет-
слухи: по словам Пола Андерсона, зрители увидели именно ту версию фильма, которую он и хотел снять.
* Гари Бьюзи мог исполнить роль Джона Ютани.
* В трейлере фильма можно заметить планету-тюрьму «Фурию 161» из «Чужого 3» (1992).
* Код Морзе, который обнаруживает спутник в начале фильма, означает «Кто бы не победил, мы проиграем», что в точности
повторяет слоган фильма.
* По словам Пола Андерсона, Арнольд Шварценеггер согласился появиться в концовке фильма в роли Датча Шаффера (персонаж
из «Хищника» (1987)), но только если он проиграет на выборах губернатора Калифорнии.
* Полная версия фильма имеет хронометраж 108 минут.

MediaInfo

General
Unique ID : 240180486518637992699722031244508987476 (0xB4B114402F2B2E22AE659A24ACBD0054)
Complete name : E:\Мои рипы\Чужой против хищника\AVP Alien vs. Predator by_IVAN@190282.mkv
Format : Matroska
Format version : Version 2
File size : 3.94 GiB
Duration : 1h 48mn
Overall bit rate : 5 189 Kbps
Encoded date : UTC 2015-02-24 06:58:45
Writing application : mkvmerge v7.0.0 ('Where We Going') 64bit built on Jun 9 2014 15:16:27
Writing library : libebml v1.3.0 + libmatroska v1.4.1
DURATION : 01:31:34.804000000
NUMBER_OF_FRAMES : 658
NUMBER_OF_BYTES : 18950
_STATISTICS_WRITING_APP : mkvmerge v7.0.0 ('Where We Going') 64bit built on Jun 9 2014 15:16:27
_STATISTICS_WRITING_DATE_UTC : 2015-02-24 06:58:45
_STATISTICS_TAGS : BPS DURATION NUMBER_OF_FRAMES NUMBER_OF_BYTES
Video
ID : 1
Format : AVC
Format/Info : Advanced Video Codec
Format profile : High@L4.1
Format settings, CABAC : Yes
Format settings, ReFrames : 13 frames
Codec ID : V_MPEG4/ISO/AVC
Duration : 1h 48mn
Bit rate : 4 190 Kbps
Width : 1 144 pixels
Height : 488 pixels
Display aspect ratio : 2.35:1
Frame rate mode : Constant
Frame rate : 23.976 fps
Color space : YUV
Chroma subsampling : 4:2:0
Bit depth : 8 bits
Scan type : Progressive
Bits/(Pixel*Frame) : 0.313
Stream size : 3.18 GiB (81%)
Writing library : x264 core 144 r2525kMod 40bb568
Encoding settings : cabac=1 / ref=13 / deblock=1:-3:-3 / analyse=0x3:0x113 / me=umh / subme=11 / psy=1 / fade_compensate=0.00 / psy_rd=1.00:0.15 / mixed_ref=1 / me_range=48 / chroma_me=1 / trellis=2 / 8x8dct=1 / cqm=0 / deadzone=21,11 / fast_pskip=0 / chroma_qp_offset=0 / threads=6 / lookahead_threads=6 / sliced_threads=0 / slices=10 / nr=0 / decimate=1 / interlaced=0 / bluray_compat=0 / constrained_intra=0 / fgo=0 / bframes=16 / b_pyramid=2 / b_adapt=2 / b_bias=0 / direct=1 / weightb=1 / open_gop=1 / weightp=2 / keyint=240 / keyint_min=23 / scenecut=40 / intra_refresh=0 / rc_lookahead=40 / rc=crf / mbtree=0 / crf=18.5000 / qcomp=0.60 / qpmin=0 / qpmax=69 / qpstep=4 / vbv_maxrate=50000 / vbv_bufsize=62500 / crf_max=0.0 / nal_hrd=none / filler=0 / ip_ratio=1.40 / pb_ratio=1.30 / aq=1:1.00
Default : Yes
Forced : No
Color primaries : BT.709
Transfer characteristics : BT.709
Matrix coefficients : BT.709
Audio #1
ID : 2
Format : AC-3
Format/Info : Audio Coding 3
Mode extension : CM (complete main)
Format settings, Endianness : Big
Codec ID : A_AC3
Duration : 1h 48mn
Bit rate mode : Constant
Bit rate : 448 Kbps
Channel(s) : 6 channels
Channel positions : Front: L C R, Side: L R, LFE
Sampling rate : 48.0 KHz
Bit depth : 16 bits
Compression mode : Lossy
Stream size : 348 MiB (9%)
Title : Dub+MVO (CEE)
Default : Yes
Forced : No
Audio #2
ID : 3
Format : AC-3
Format/Info : Audio Coding 3
Mode extension : CM (complete main)
Format settings, Endianness : Big
Codec ID : A_AC3
Duration : 1h 48mn
Bit rate mode : Constant
Bit rate : 448 Kbps
Channel(s) : 6 channels
Channel positions : Front: L C R, Side: L R, LFE
Sampling rate : 48.0 KHz
Bit depth : 16 bits
Compression mode : Lossy
Stream size : 348 MiB (9%)
Title : Eng
Default : No
Forced : No
Text #1
ID : 4
Format : UTF-8
Codec ID : S_TEXT/UTF8
Codec ID/Info : UTF-8 Plain Text
Title : Rus
Default : No
Forced : No
Text #2
ID : 5
Format : UTF-8
Codec ID : S_TEXT/UTF8
Codec ID/Info : UTF-8 Plain Text
Title : Rus.forsed
Default : Yes
Forced : Yes
Text #3
ID : 6
Format : UTF-8
Codec ID : S_TEXT/UTF8
Codec ID/Info : UTF-8 Plain Text
Title : Rus.Киномания
Default : No
Forced : No
Text #4
ID : 7
Format : UTF-8
Codec ID : S_TEXT/UTF8
Codec ID/Info : UTF-8 Plain Text
Title : Eng
Default : No
Forced : No
Menu
00:00:00.000 : en:00:00:00.000
00:02:18.347 : en:00:02:18.347
00:04:06.204 : en:00:04:06.204
00:08:36.141 : en:00:08:36.141
00:12:59.654 : en:00:12:59.654
00:15:41.607 : en:00:15:41.607
00:19:06.437 : en:00:19:06.437
00:23:22.109 : en:00:23:22.109
00:26:21.705 : en:00:26:21.705
00:28:43.889 : en:00:28:43.889
00:30:39.421 : en:00:30:39.421
00:33:35.805 : en:00:33:35.805
00:35:48.897 : en:00:35:48.897
00:41:39.956 : en:00:41:39.956
00:44:34.005 : en:00:44:34.005
00:49:33.012 : en:00:49:33.012
00:53:54.815 : en:00:53:54.815
00:57:45.378 : en:00:57:45.378
01:03:10.328 : en:01:03:10.328
01:05:25.922 : en:01:05:25.922
01:08:36.153 : en:01:08:36.153
01:11:59.648 : en:01:11:59.648
01:13:36.996 : en:01:13:36.996
01:15:41.704 : en:01:15:41.704
01:18:50.517 : en:01:18:50.517
01:21:48.612 : en:01:21:48.612
01:24:44.955 : en:01:24:44.955
01:28:21.546 : en:01:28:21.546
01:29:41.292 : en:01:29:41.292
01:33:16.591 : en:01:33:16.591
01:36:01.589 : en:01:36:01.589
01:36:35.623 : en:01:36:35.623

x264 log

VIDEO ENCODING
x264 [info]: frame I:1019 Avg QP:16.03 size: 67172
x264 [info]: frame P:35689 Avg QP:17.33 size: 35896
x264 [info]: frame B:119630 Avg QP:19.28 size: 17942
x264 [info]: consecutive B-frames: 2.6% 5.3% 8.4% 18.6% 15.7% 37.0% 4.7% 2.0% 1.2% 1.3% 0.8% 1.0% 0.4% 0.5% 0.2% 0.1% 0.2%
x264 [info]: kb/s:4289.16
x264 [total]: encoded 156338 frames, 6.28 fps, 4289.16 kb/s, duration 6:54:52.11

Скриншот c названием фильма

Скриншоты

Убедительная просьба пожалуйста кто скачал не бросайте раздачу!!!

admin

Post 07-Oct-2017 07:41

[Quote]

Хозяин морей: На краю землиMaster and Commander: The Far Side of the World«The Courage To Do The Impossible Lies In The Hearts of Men»..»

Страна: США
Жанр: Боевик, драма, приключения
Год выпуска: 2003
Продолжительность: 02:18:21
Перевод: Профессиональный (дублированный) BD
Перевод 2: Профессиональный (многоголосый закадровый) Супербит
Перевод 3: Авторский (одноголосый закадровый) А.Гаврилов
Субтитры: русские,английские
Оригинальная аудиодорожка: английский
Режиссер: Питер Уир / Peter Weir
В ролях: Рассел Кроу, Пол Беттани, Джеймс Д`Арси, Эдвард Вудалл, Крис Ларкин, Макс Пиркис, Джек Рэндалл, Макс Бениц, Ли Инглби, Ричард Пейтс
Описание: Действие фильма разворачивается во время наполеоновских войн. Военный парусник Ее Величества «Сюрприз», бороздящий просторы Атлантики, был неожиданно атакован огромным неизвестным кораблем, появившимся из тумана. Благодаря смелости и находчивости команды «Сюрпризу» удается уйти от смерти. Несмотря на тяжелые повреждения и потери, капитан Джек Обри по прозвищу Счастливчик принимает решение преследовать врага и устремляется в погоню, которая уведет его на край света. На кону репутация Джека, его жизнь и жизнь его команды…
Доп. информация:
Релиз группы:
Сохранены оригинальные главы как на Bluray
Качество видео: BDRip-AVC | Хозяин морей: На краю земли / Master and Commander: The Far Side of the World (2003) 1080p BD-Remux| HD club
Формат видео: MKV
Видео: 1152x480 (2.40:1), 23,976 fps, 3118 Кbps, 0.235 bit/pixe
Аудио: 48 kHz, AC3 Dolby Digital, 3/2 (L,C,R,l,r) + LFE ch, ~448.00 kbps avg DUB
Аудио 2: 48 kHz, AC3 Dolby Digital, 3/2 (L,C,R,l,r) + LFE ch, ~448.00 kbps avg MVO отдельно
Аудио 3: 48 kHz, AC3 Dolby Digital, 3/2 (L,C,R,l,r) + LFE ch, ~448.00 kbps avg AVO
отдельно
Аудио 4: 48 kHz, AC3 Dolby Digital, 3/2 (L,C,R,l,r) + LFE ch, ~448.00 kbps avg ENG
Формат субтитров: softsub (SRT)
Доп. информация о субтитрах: отключаемые

MediaInfo

General
Unique ID : 210310668671262289975580190315104273458 (0x9E385C87734B96829C01A5F138658432)
Complete name : E:\Мои рипы\Хозяин морей\Master and Commander The Far Side of the World by_IVAN@190282.mkv
Format : Matroska
Format version : Version 4 / Version 2
File size : 3.96 GiB
Duration : 2h 18mn
Overall bit rate : 4 095 Kbps
Encoded date : UTC 2016-03-08 20:38:13
Writing application : mkvmerge v8.8.0 ('Wind at my back') 64bit
Writing library : libebml v1.3.3 + libmatroska v1.4.4
Attachements : cover.jpg
DURATION : 02:14:02.827000000
NUMBER_OF_FRAMES : 1108
NUMBER_OF_BYTES : 43334
_STATISTICS_WRITING_APP : mkvmerge v8.8.0 ('Wind at my back') 64bit
_STATISTICS_WRITING_DATE_UT : 2016-03-08 20:38:13
_STATISTICS_TAGS : BPS DURATION NUMBER_OF_FRAMES NUMBER_OF_BYTES
Video
ID : 1
Format : AVC
Format/Info : Advanced Video Codec
Format profile : High@L4.1
Format settings, CABAC : Yes
Format settings, ReFrames : 14 frames
Codec ID : V_MPEG4/ISO/AVC
Duration : 2h 18mn
Bit rate : 3 118 Kbps
Width : 1 152 pixels
Height : 480 pixels
Display aspect ratio : 2.40:1
Frame rate mode : Constant
Frame rate : 23.976 fps
Color space : YUV
Chroma subsampling : 4:2:0
Bit depth : 8 bits
Scan type : Progressive
Bits/(Pixel*Frame) : 0.235
Stream size : 3.01 GiB (76%)
Title : Master and Commander The Far Side of the World by_IVAN@190282
Writing library : x264 core 146 r2538kMod 121396c
Encoding settings : cabac=1 / ref=14 / deblock=1:-3:-3 / analyse=0x3:0x113 / me=umh / subme=11 / psy=1 / fade_compensate=0.00 / psy_rd=1.00:0.15 / mixed_ref=1 / me_range=48 / chroma_me=1 / trellis=2 / 8x8dct=1 / cqm=0 / deadzone=21,11 / fast_pskip=0 / chroma_qp_offset=0 / threads=6 / lookahead_threads=6 / sliced_threads=0 / slices=10 / nr=0 / decimate=1 / interlaced=0 / bluray_compat=0 / constrained_intra=0 / fgo=0 / bframes=16 / b_pyramid=2 / b_adapt=2 / b_bias=0 / direct=3 / weightb=1 / open_gop=1 / weightp=2 / keyint=240 / keyint_min=23 / scenecut=40 / intra_refresh=0 / rc_lookahead=40 / rc=crf / mbtree=0 / crf=18.8000 / qcomp=0.60 / qpmin=0 / qpmax=69 / qpstep=4 / vbv_maxrate=50000 / vbv_bufsize=62500 / crf_max=0.0 / nal_hrd=none / filler=0 / ip_ratio=1.40 / pb_ratio=1.30 / aq=1:1.00
Default : Yes
Forced : No
Color range : Limited
Color primaries : BT.709
Transfer characteristics : BT.709
Matrix coefficients : BT.709
Audio #1
ID : 2
Format : AC-3
Format/Info : Audio Coding 3
Mode extension : CM (complete main)
Format settings, Endianness : Big
Codec ID : A_AC3
Duration : 2h 18mn
Bit rate mode : Constant
Bit rate : 448 Kbps
Channel(s) : 6 channels
Channel positions : Front: L C R, Side: L R, LFE
Sampling rate : 48.0 KHz
Compression mode : Lossy
Stream size : 443 MiB (11%)
Title : Dub
Language : Russian
Default : Yes
Forced : No
Audio #2
ID : 3
Format : AC-3
Format/Info : Audio Coding 3
Mode extension : CM (complete main)
Format settings, Endianness : Big
Codec ID : A_AC3
Duration : 2h 18mn
Bit rate mode : Constant
Bit rate : 448 Kbps
Channel(s) : 6 channels
Channel positions : Front: L C R, Side: L R, LFE
Sampling rate : 48.0 KHz
Compression mode : Lossy
Stream size : 443 MiB (11%)
Title : Eng
Language : English
Default : No
Forced : No
Text #1
ID : 4
Format : UTF-8
Codec ID : S_TEXT/UTF8
Codec ID/Info : UTF-8 Plain Text
Title : Rus
Language : Russian
Default : No
Forced : No
Text #2
ID : 5
Format : UTF-8
Codec ID : S_TEXT/UTF8
Codec ID/Info : UTF-8 Plain Text
Title : rus.forsed
Language : Russian
Default : Yes
Forced : No
Text #3
ID : 6
Format : UTF-8
Codec ID : S_TEXT/UTF8
Codec ID/Info : UTF-8 Plain Text
Title : Eng
Language : English
Default : No
Forced : No
Menu
00:00:00.000 : en:1. Main titles
00:02:02.122 : en:2. The HMS surprise
00:03:58.071 : en:3. A shape in the fog
00:08:19.248 : en:4. Under attack
00:12:40.843 : en:5. Lucky Jack's gambit
00:15:17.917 : en:6. The Butcher's Bill
00:18:14.051 : en:7. Aubrey's plan
00:20:23.722 : en:8. No braver patient
00:26:24.624 : en:9. Duet
00:28:05.684 : en:10. The ship of the future
00:31:35.143 : en:11. The captain's table
00:36:57.340 : en:12. Turning the tide
00:39:52.723 : en:13. A small surprise
00:45:51.999 : en:14. The storm
00:49:34.680 : en:15. Man overboard
00:54:40.986 : en:16. Pride or duty?
00:58:16.576 : en:17. Our destination
01:02:39.756 : en:18. The Galapagos
01:04:39.083 : en:19. Survivors
01:06:23.312 : en:20. Broken promises
01:09:17.528 : en:21. Batteries and biology
01:11:56.061 : en:22. The doldrums
01:13:57.391 : en:23. Hollom's weakness
01:19:11.872 : en:24. Jonah
01:26:16.212 : en:25. The doctor's dilemma
01:30:09.237 : en:26. Heal thyself
01:33:31.022 : en:27. The fighting naturalist
01:38:03.252 : en:28. An unexpected find
01:40:22.891 : en:29. Nature and naval warfare
01:44:34.768 : en:30. Surprise is on our side
01:48:15.071 : en:31. Against the Acheron
01:57:18.114 : en:32. Wolf in sheeps clothing
01:59:15.148 : en:33. Committed to the deep
02:03:40.996 : en:34. Captain's orders
02:05:28.562 : en:35. Requirements of the service
02:08:43.132 : en:36. End titles

x264 log

VIDEO ENCODING
x264 [info]: frame I:1179 Avg QP:16.41 size: 56672
x264 [info]: frame P:43034 Avg QP:17.25 size: 29279
x264 [info]: frame B:154804 Avg QP:19.56 size: 12846
x264 [info]: consecutive B-frames: 1.9% 3.8% 8.5% 20.6% 13.9% 35.9% 4.1% 3.4% 1.2% 1.3% 0.7% 1.7% 0.8% 0.7% 0.4% 0.8% 0.2%
x264 [info]: kb/s:3195.26
x264 [total]: encoded 199017 frames, 6.61 fps, 3195.26 kb/s, duration 8:21:29.89

Скриншот c названием фильма

Скриншоты

Сравнения

Sours by_IVAN@190282
Убедительная просьба пожалуйста кто скачал не бросайте раздачу!!!
 

Current time is: 13-Dec 04:27

All times are UTC + 3