Search found 22 matches

Author Message

admin

Post 27-Jul-2021 03:41

[Quote]

Информация о фильме
Название: Добро пожаловать в рай!
Оригинальное название: Into the Blue
Год выхода: 2005
Жанр: Боевик, триллер, криминал, приключения
Режиссер: Джон Стокуэлл
В ролях: Джессика Альба, Эшли Скотт, Пол Уокер, Скотт Каан Джош Бролин, Джеймс Фрейн, Тайсон Бекфорд, Дуэйн Эдвэй, Джейвон Фрейзер, Крис Талоа, Peter R.V. Bowleg Jr., Клиффорд МакИнтош, Адам Коллинз, Гилл Монти, Дэн Баллард, Саманта Ламб, Артур Томпсон мл., Ramon Saunders, Стивен Белло, Leo Quant, John Willinger...
О фильме:
Из пункта «А» в пункт «Б» летел небольшой частный самолёт и во время грозы потерпел крушение, где-то в акватории Багамских островов… Как раз в тех местах, где молодой парень Джаред, инструктор по дайвингу, мечтает в свободное от службы время о будущей лучшей жизни вместе со своей подружкой Самантой, которая работает в местном аквапарке. В гости к ним приезжают Брайс, давний приятель Джареда, и тоже с подружкой - Амандой. Весело проводя время на земле и на море, они в ходе очередного заплыва на глубину натыкаются на затонувший самолёт, полный аккуратно запечатанных мешочков, как выяснится, с кокаином… С этой минуты начинаются для четверых друзей настоящие приключения, с погонями и предательством, с поединком, где выигравший получает жизнь...

Страна: США / Columbia Pictures Corporation, Mandalay Pictures, Metro-Goldwyn-Mayer (MGM)
Продолжительность: 01:50:25
Перевод: Профессиональный (полное дублирование)
Файл
Формат: Matroska
Качество: WEB-DLRip-AVC | Open Matte | WEB-DL Amazon
Видео: High@L4.1, ~3660 kbps, 1024x578, 23.976 fps
Audio: AC3, 6ch, ~448 kbps

M/I

x264 info: frame I:1041 Avg QP:17.33 size: 63696
x264 info: frame P:39541 Avg QP:18.70 size: 33179
x264 info: frame B:118267 Avg QP:21.31 size: 14536
x264 info: consecutive B-frames: 2.1% 4.1% 8.8% 46.8% 15.7% 18.7% 2.0% 0.9% 0.3% 0.2% 0.0% 0.1% 0.2%
General
Complete name : Добро пожаловать в рай!_(2005)_WEB_DLRIP-AVC_O.M_[-=DoMiNo=-].mkv
Format : Matroska
Format version : Version 4
File size : 3.23 GiB
Duration : 1 h 50 min
Overall bit rate : 4 192 kb/s
Movie name : Добро пожаловать в рай!
Attachments : backdrop.jpg / poster.jpg
COUNTRY : United States
DATE : 2005-09-30
DIRECTOR : John Stockwell
GENRE : боевик, триллер, приключения, криминал
ITUNEXTC : mpaa|PG-13|300|
ORIGINAL_TITLE : Into the Blue
PUBLISHER : Mandalay Pictures, Metro-Goldwyn-Mayer, Columbia Pictures
RATING : 6.95
WRITER : Matt Johnson
Video
ID : 1
Format : AVC
Format/Info : Advanced Video Codec
Format profile : High@L4.1
Format settings : CABAC / 12 Ref Frames
Format settings, CABAC : Yes
Format settings, ReFrames : 12 frames
Codec ID : V_MPEG4/ISO/AVC
Duration : 1 h 50 min
Bit rate : 3 660 kb/s
Width : 1 024 pixels
Height : 578 pixels
Display aspect ratio : 16:9
Frame rate mode : Constant
Frame rate : 23.976 (24000/1001) FPS
Color space : YUV
Chroma subsampling : 4:2:0
Bit depth : 8 bits
Scan type : Progressive
Bits/(Pixel*Frame) : 0.258
Stream size : 2.82 GiB (87%)
Title : RIP_BY_-=DoMiNo=-
Writing library : x264 core 157 r2901M 7d0ff22
Encoding settings : cabac=1 / ref=12 / deblock=1:-3:-3 / analyse=0x3:0x133 / me=umh / subme=10 / psy=1 / psy_rd=1.00:0.00 / mixed_ref=1 / me_range=32 / chroma_me=1 / trellis=2 / 8x8dct=1 / cqm=0 / deadzone=21,11 / fast_pskip=1 / chroma_qp_offset=-2 / threads=5 / lookahead_threads=1 / sliced_threads=0 / nr=0 / decimate=1 / interlaced=0 / bluray_compat=0 / constrained_intra=0 / bframes=12 / b_pyramid=2 / b_adapt=2 / b_bias=0 / direct=1 / weightb=1 / open_gop=0 / weightp=2 / keyint=240 / keyint_min=24 / scenecut=40 / intra_refresh=0 / rc=crf / mbtree=0 / crf=19.0 / qcomp=0.70 / qpmin=0 / qpmax=69 / qpstep=4 / ip_ratio=1.40 / pb_ratio=1.30 / aq=3:0.80
Language : English
Default : Yes
Forced : No
Color range : Limited
Color primaries : BT.709
Transfer characteristics : BT.709
Matrix coefficients : BT.709
Audio
ID : 2
Format : AC-3
Format/Info : Audio Coding 3
Commercial name : Dolby Digital
Codec ID : A_AC3
Duration : 1 h 50 min
Bit rate mode : Constant
Bit rate : 448 kb/s
Channel(s) : 6 channels
Channel layout : L R C LFE Ls Rs
Sampling rate : 48.0 kHz
Frame rate : 31.250 FPS (1536 SPF)
Bit depth : 16 bits
Compression mode : Lossy
Stream size : 354 MiB (11%)
Title : DUB BD
Language : Russian
Service kind : Complete Main
Default : Yes
Forced : No
Text #1
ID : 3
Format : UTF-8
Codec ID : S_TEXT/UTF8
Codec ID/Info : UTF-8 Plain Text
Language : Russian
Default : Yes
Forced : No
Text #2
ID : 4
Format : UTF-8
Codec ID : S_TEXT/UTF8
Codec ID/Info : UTF-8 Plain Text
Title : SDH
Language : English
Default : No
Forced : No
Text #3
ID : 5
Format : UTF-8
Codec ID : S_TEXT/UTF8
Codec ID/Info : UTF-8 Plain Text
Language : English
Default : No
Forced : No
Menu
00:00:00.000 : :Глава 1
00:06:56.875 : :Глава 2
00:13:39.902 : :Глава 3
00:20:54.253 : :Глава 4
00:27:41.451 : :Глава 5
00:34:50.045 : :Глава 6
00:41:37.662 : :Глава 7
00:48:47.841 : :Глава 8
00:55:32.245 : :Глава 9
01:02:38.588 : :Глава 10
01:09:38.006 : :Глава 11
01:16:36.467 : :Глава 12
01:23:37.554 : :Глава 13
01:30:26.796 : :Глава 14
01:37:17.874 : :Глава 15

Скриншоты

admin

Post 26-Jul-2021 05:30

[Quote]

Информация о фильме
Название: Плохая компания
Оригинальное название: Bad Company
Год выхода: 2002
Жанр: Боевик, триллер, комедия, приключения
Режиссер: Джоэл Шумахер
В ролях: Крис Рок, Энтони Хопкинс, Керри Вашигтон, Брук Смит, Гарселл Бьювайс, Ших Уигхэм, Майкл Или, Петер Стормаре, Гэбриел Махт, Адони Маропис, Гарсель Бове, Драган Мичанович, Джон Слэттери, Брук Смит, Дэниэл Санжата, ДеВоун Лоусон мл., Марек Вашут, Питер Макдисси, Ирма П. Холл, Петр Якл, Дэн Зиски, Джон Эйлуорд, Джон Финк, Дебора Раш, Ян Немейовски, Винтер Б. Уларик, Майкл Или, Джанет Рэкуэл.
О фильме:
Когда во время очередного задания погибает агент ЦРУ, агентство решает заменить его братом-близнецом и закончить сверхсекретную операцию, над которой работал погибший. Однако замену трудно назвать адекватной. На место опытного агента, выпускника Гарварда, пришлось поставить ничего не подозревающего уличного прощелыгу. Чтобы окончательно не провалить дело, руководство приставляет к новобранцу одного из своих лучших агентов. Сладкая парочка приступает к теперь уже вдвойне рискованной операции...

Страна: США, Чехия
Студия: Jerry Bruckheimer Films, Stillking Films, Touchstone Pictures
Продолжительность: 01:56:47
Перевод: Дублированный, + профессиональный (многоголосый, закадровый)
Файл
Формат: Matroska
Качество: WEB-DLRip-AVC | Open Matte | Amazon *SINEMAX*
Видео: x264, ~2757 Kбит/с, 1024x576, 23.976 кадр/с
Аудио #1: АС3, 6ch, 384 Кбит/с, 48.0 KHz - DUB - Нева-1
Аудио #2: АС3, 2ch, 192 Кбит/с, 48.0 KHz - MVO - 1 канал
Субтитры: Русские, английские (*srt)

M/I

General
Complete name : Плохая компания.(2002).WEB-DLRip-AVC.O.M.[-=DoMiNo=-].mkv
Format : Matroska
Format version : Version 4
File size : 2.72 GiB
Duration : 1 h 56 min
Overall bit rate : 3 335 kb/s
Movie name : Плохая компания / Bad Company (2002)
Encoded date : UTC 2019-05-04 20:33:30
Writing application : mkvmerge v33.1.0 ('Primrose') 64-bit
Writing library : libebml v1.3.7 + libmatroska v1.5.0
Attachments : poster.jpg
Video
ID : 1
Format : AVC
Format/Info : Advanced Video Codec
Format profile : High@L4.1
Format settings : CABAC / 12 Ref Frames
Format settings, CABAC : Yes
Format settings, Reference : 12 frames
Codec ID : V_MPEG4/ISO/AVC
Duration : 1 h 56 min
Bit rate : 2 757 kb/s
Width : 1 024 pixels
Height : 576 pixels
Display aspect ratio : 16:9
Frame rate mode : Constant
Frame rate : 23.976 (24000/1001) FPS
Color space : YUV
Chroma subsampling : 4:2:0
Bit depth : 8 bits
Scan type : Progressive
Bits/(Pixel*Frame) : 0.195
Stream size : 2.25 GiB (83%)
Title : RIP_BY_-=DoMiNo=-
Writing library : x264 core 157 r2935 545de2f
Encoding settings : cabac=1 / ref=12 / deblock=1:-2:-2 / analyse=0x3:0x133 / me=umh / subme=10 / psy=1 / psy_rd=1.00:0.00 / mixed_ref=1 / me_range=32 / chroma_me=1 / trellis=2 / 8x8dct=1 / cqm=0 / deadzone=21,11 / fast_pskip=1 / chroma_qp_offset=-2 / threads=6 / lookahead_threads=1 / sliced_threads=0 / nr=0 / decimate=1 / interlaced=0 / bluray_compat=0 / constrained_intra=0 / bframes=11 / b_pyramid=2 / b_adapt=2 / b_bias=0 / direct=1 / weightb=1 / open_gop=0 / weightp=2 / keyint=250 / keyint_min=23 / scenecut=40 / intra_refresh=0 / rc=crf / mbtree=0 / crf=19.0 / qcomp=0.65 / qpmin=0 / qpmax=69 / qpstep=4 / ip_ratio=1.40 / pb_ratio=1.30 / aq=3:0.80
Language : English
Default : Yes
Forced : No
Color range : Limited
Color primaries : BT.709
Transfer characteristics : BT.709
Matrix coefficients : BT.709
Audio #1
ID : 2
Format : AC-3
Format/Info : Audio Coding 3
Commercial name : Dolby Digital
Codec ID : A_AC3
Duration : 1 h 56 min
Bit rate mode : Constant
Bit rate : 384 kb/s
Channel(s) : 6 channels
Channel layout : L R C LFE Ls Rs
Sampling rate : 48.0 kHz
Frame rate : 31.250 FPS (1536 SPF)
Bit depth : 16 bits
Compression mode : Lossy
Stream size : 321 MiB (12%)
Title : Дубляж
Language : Russian
Service kind : Complete Main
Default : Yes
Forced : No
Audio #2
ID : 3
Format : AC-3
Format/Info : Audio Coding 3
Commercial name : Dolby Digital
Codec ID : A_AC3
Duration : 1 h 56 min
Bit rate mode : Constant
Bit rate : 192 kb/s
Channel(s) : 2 channels
Channel layout : L R
Sampling rate : 48.0 kHz
Frame rate : 31.250 FPS (1536 SPF)
Bit depth : 16 bits
Compression mode : Lossy
Stream size : 160 MiB (6%)
Title : MVO | 1 канал
Language : Russian
Service kind : Complete Main
Default : No
Forced : No
Text #1
ID : 4
Format : UTF-8
Codec ID : S_TEXT/UTF8
Codec ID/Info : UTF-8 Plain Text
Duration : 1 h 50 min
Bit rate : 93 b/s
Count of elements : 1335
Stream size : 75.9 KiB (0%)
Language : Russian
Default : No
Forced : No
Text #2
ID : 5
Format : UTF-8
Codec ID : S_TEXT/UTF8
Codec ID/Info : UTF-8 Plain Text
Duration : 1 h 53 min
Bit rate : 72 b/s
Count of elements : 1974
Stream size : 60.2 KiB (0%)
Language : English
Default : No
Forced : No
Text #3
ID : 6
Format : UTF-8
Codec ID : S_TEXT/UTF8
Codec ID/Info : UTF-8 Plain Text
Duration : 1 h 53 min
Bit rate : 80 b/s
Count of elements : 2157
Stream size : 67.0 KiB (0%)
Title : SDH
Language : English
Default : No
Forced : No
Menu
00:00:00.000 : :Opening Credits
00:07:37.000 : :A New Identity
00:19:38.000 : :The Transformation
00:27:37.000 : :The Test
00:35:53.000 : :Finding Jake
00:40:15.000 : :Getting Serious About the Truth
00:45:45.000 : :Welcome to Prague
00:49:10.000 : :The Meeting
00:53:35.000 : :Don't Cheat, Just Eat
01:06:28.000 : :Checking Out the Merchandise
01:14:58.000 : :Code Red
01:23:39.000 : :Dangling a Worm on a Hook
01:26:59.000 : :Julie's Abduction
01:31:55.000 : :Moving the Pawn
01:38:04.000 : :Grand Central Station
01:47:44.000 : :Book of Forgotten Heroes/End Credits

admin

Post 25-Jul-2021 03:57

[Quote]

Информация о фильме
Название: Псы-воины
Оригинальное название: Dog Soldiers
Год выхода: 2002
Жанр: ужасы, фэнтези, боевик, триллер, приключения
Режиссер: Нил Маршалл
В ролях: Шон Пертуи, Кевин МакКидд, Эмма Клисби, Лиам Каннингэм, Томас Локъер, Даррен Морфитт, Крис Робсон, Лесли Симпсон, Тина Ландини, Крэйг Конуэй

О фильме:
Отряд британских солдат под командованием сержанта Уэллса отправился на боевое задание в дикие леса горной Шотландии. Но то, что началось как обычные армейские учения, превратилось в настоящий кошмар. Прибыв на секретную военную базу, солдаты обнаружили истекающего кровью капитана Райана и растерзанные останки его подчиненных...

Страна: Великобритания, Люксембург, США
Продолжительность: 01:45:00
Перевод: Профессиональный (многоголосый, закадровый) + авторский (одноголосый, закадровый)
Субтитры: Русские, английские
Файл
Кодек: x264
Качество: UHD HDRip-AVC | [UHD BDRip 1080p]
Видео: 1036х560, ~3500 Kbps, 23.976 fps, 0.252 bit/pixel
Аудио #1: AC3, 6 ch, ~448 kbps | Russian | MVO (DVD Magic, R5)
Аудио #2: AC3, 6 ch, ~448 kbps | Russian | AVO (Дмитрий Пучков - Гоблин, с ненормативной лексикой)
Формат субтитров: softsub (SRT)
--

M/I

x264 info: frame I:1091 Avg QP:18.10 size: 64875
x264 info: frame P:31956 Avg QP:19.00 size: 34754
x264 info: frame B:118002 Avg QP:21.02 size: 13069
x264 info: consecutive B-frames: 3.0% 3.9% 8.3% 15.6% 14.4% 21.7% 8.8% 5.1% 6.1% 5.0% 3.3% 2.3% 2.6%
General
Complete name : Псы-воины.(2002).UHD_HDRip-AVC.[-=DoMiNo=-].mkv
Format : Matroska
Format version : Version 4
File size : 3.23 GiB
Duration : 1 h 45 min
Overall bit rate : 4 398 kb/s
Movie name : Dog Soldiers (2002)
Attachments : poster / poster
COUNTRY : Luxembourg, United Kingdom, United States
DATE : 2002-05-10
DIRECTOR : Neil Marshall
GENRE : Ужасы, Боевик, Триллер
ORIGINAL_TITLE : Dog Soldiers
PUBLISHER : The Victor Film Company, Carousel Picture Company, The Noel Gay Motion Picture Company, Kismet Entertainment Group, Luxembourg Film Fund
RATING : 6.70
Video
ID : 1
Format : AVC
Format/Info : Advanced Video Codec
Format profile : High@L4.1
Format settings : CABAC / 14 Ref Frames
Format settings, CABAC : Yes
Format settings, Reference : 14 frames
Codec ID : V_MPEG4/ISO/AVC
Duration : 1 h 45 min
Bit rate : 3 500 kb/s
Width : 1 036 pixels
Height : 560 pixels
Display aspect ratio : 1.85:1
Frame rate mode : Constant
Frame rate : 23.976 (24000/1001) FPS
Color space : YUV
Chroma subsampling : 4:2:0
Bit depth : 8 bits
Scan type : Progressive
Bits/(Pixel*Frame) : 0.252
Stream size : 2.50 GiB (78%)
Title : RIP_BY_-=DoMiNo=-
Writing library : x264 core 157 r2969 d4099dd
Encoding settings : cabac=1 / ref=14 / deblock=1:-2:-2 / analyse=0x3:0x133 / me=umh / subme=11 / psy=1 / psy_rd=1.00:0.00 / mixed_ref=1 / me_range=32 / chroma_me=1 / trellis=2 / 8x8dct=1 / cqm=0 / deadzone=21,11 / fast_pskip=0 / chroma_qp_offset=-2 / threads=6 / lookahead_threads=1 / sliced_threads=0 / nr=0 / decimate=0 / interlaced=0 / bluray_compat=0 / constrained_intra=0 / bframes=12 / b_pyramid=2 / b_adapt=2 / b_bias=0 / direct=3 / weightb=1 / open_gop=0 / weightp=2 / keyint=250 / keyint_min=23 / scenecut=40 / intra_refresh=0 / rc=2pass / mbtree=0 / bitrate=3500 / ratetol=1.0 / qcomp=0.80 / qpmin=0 / qpmax=69 / qpstep=4 / cplxblur=20.0 / qblur=0.5 / ip_ratio=1.40 / pb_ratio=1.30 / aq=3:1.00
Language : English
Default : Yes
Forced : No
Color range : Limited
Color primaries : BT.709
Transfer characteristics : BT.709
Matrix coefficients : BT.709
Audio #1
ID : 2
Format : AC-3
Format/Info : Audio Coding 3
Commercial name : Dolby Digital
Codec ID : A_AC3
Duration : 1 h 45 min
Bit rate mode : Constant
Bit rate : 448 kb/s
Channel(s) : 6 channels
Channel layout : L R C LFE Ls Rs
Sampling rate : 48.0 kHz
Frame rate : 31.250 FPS (1536 SPF)
Bit depth : 16 bits
Compression mode : Lossy
Stream size : 336 MiB (10%)
Title : MVO (DVD Magic, R5)
Language : Russian
Service kind : Complete Main
Default : Yes
Forced : No
Audio #2
ID : 3
Format : AC-3
Format/Info : Audio Coding 3
Commercial name : Dolby Digital
Codec ID : A_AC3
Duration : 1 h 45 min
Bit rate mode : Constant
Bit rate : 448 kb/s
Channel(s) : 6 channels
Channel layout : L R C LFE Ls Rs
Sampling rate : 48.0 kHz
Frame rate : 31.250 FPS (1536 SPF)
Bit depth : 16 bits
Compression mode : Lossy
Stream size : 336 MiB (10%)
Title : AVO (Д.Пучков)
Language : Russian
Service kind : Complete Main
Default : No
Forced : No
Text #1
ID : 4
Format : UTF-8
Codec ID : S_TEXT/UTF8
Codec ID/Info : UTF-8 Plain Text
Title : Full (Пучков)
Language : Russian
Default : Yes
Forced : No
Text #2
ID : 5
Format : UTF-8
Codec ID : S_TEXT/UTF8
Codec ID/Info : UTF-8 Plain Text
Title : Full
Language : Russian
Default : No
Forced : No
Text #3
ID : 6
Format : UTF-8
Codec ID : S_TEXT/UTF8
Codec ID/Info : UTF-8 Plain Text
Title : Full
Language : English
Default : No
Forced : No
Menu
00:00:00.000 : :Chapter 1
00:11:41.117 : :Chapter 2
00:21:53.979 : :Chapter 3
00:34:57.844 : :Chapter 4
00:47:01.902 : :Chapter 5
01:02:31.664 : :Chapter 6
01:16:09.189 : :Chapter 7
01:28:05.738 : :Chapter 8
--

admin

Post 18-Jul-2021 05:13

[Quote]

Информация о фильме
Название: Без сна
Оригинальное название: Non ho sonno
Год выхода: 2001
Жанр: ужасы, триллер, детектив
Режиссер: Дарио Ардженто
В ролях: Макс фон Сюдов, Стефано Дионизи, Кьяра Казелли, Габриэле Лавиа, Росселла Фальк, Паоло Мария Скалондро, Роберто Дзибетти, Роберто Аккорнеро, Барбара Леричи, Гуидо Мобелло, ...
О фильме:
Серия зверских убийств заставила оцепенеть от ужаса весь Турин. Похоже, что в городе вновь появился неуловимый серийный убийца по кличке Гном, бесследно исчезнувший 17 лет назад.
Распевая детские считалки и оставляя рядом с трупами клочки бумаги с головоломками, он уничтожает одну жертву за другой, ловко обманывая детективов из полиции, оснащен самыми современными техническими средствами.
И только один человек, отставной комиссар Моретти, знающий все подробности того давнего дела, готов пойти на любые жертвы, чтобы покончить с убийцей раз и навсегда…

Страна: Италия
Студия: Medusa Film, Opera Film (II), Tele+
Продолжительность: 01:57:22
Перевод: Профессиональный (двуголосый, закадровый) [Non_ho_sonno_2001_DVD9]
Субтитры: Нет
Файл
Формат: Matroska
Качество: BDRip-AVC | [Sleepless.2001.1080p.Bluray.GER.AVC.Remux.HDCLUB]
Видео: 1038x560 at 23.976 fps, x264, ~3090 kbps
Аудио: AC3, 6 ch, ~448 kbps - | Русский |

M/I

General
Complete name : Без сна.(2001).BDRip-AVC.[-=DoMiNo=-].mkv
Format : Matroska
Format version : Version 4
File size : 2.90 GiB
Duration : 1 h 57 min
Overall bit rate : 3 540 kb/s
Movie name : Без сна / Non ho sonno (2001)
Encoded date : UTC 2019-04-18 15:19:51
Writing application : mkvmerge v33.1.0 ('Primrose') 64-bit
Writing library : libebml v1.3.7 + libmatroska v1.5.0
Attachments : poster
Video
ID : 1
Format : AVC
Format/Info : Advanced Video Codec
Format profile : High@L4.1
Format settings : CABAC / 14 Ref Frames
Format settings, CABAC : Yes
Format settings, Reference : 14 frames
Codec ID : V_MPEG4/ISO/AVC
Duration : 1 h 57 min
Bit rate : 3 090 kb/s
Width : 1 038 pixels
Height : 560 pixels
Display aspect ratio : 1.85:1
Frame rate mode : Constant
Frame rate : 23.976 (24000/1001) FPS
Color space : YUV
Chroma subsampling : 4:2:0
Bit depth : 8 bits
Scan type : Progressive
Bits/(Pixel*Frame) : 0.222
Stream size : 2.53 GiB (87%)
Title : RIP_BY_-=DoMiNo=-
Writing library : x264 core 157 r2969 d4099dd
Encoding settings : cabac=1 / ref=14 / deblock=1:-2:-2 / analyse=0x3:0x133 / me=umh / subme=11 / psy=1 / psy_rd=0.80:0.00 / mixed_ref=1 / me_range=32 / chroma_me=1 / trellis=2 / 8x8dct=1 / cqm=0 / deadzone=21,11 / fast_pskip=0 / chroma_qp_offset=-2 / threads=6 / lookahead_threads=1 / sliced_threads=0 / nr=0 / decimate=1 / interlaced=0 / bluray_compat=0 / constrained_intra=0 / bframes=12 / b_pyramid=2 / b_adapt=2 / b_bias=0 / direct=3 / weightb=1 / open_gop=0 / weightp=2 / keyint=250 / keyint_min=24 / scenecut=40 / intra_refresh=0 / rc_lookahead=120 / rc=2pass / mbtree=0 / bitrate=3090 / ratetol=1.0 / qcomp=0.70 / qpmin=0 / qpmax=69 / qpstep=4 / cplxblur=20.0 / qblur=0.5 / vbv_maxrate=50000 / vbv_bufsize=62500 / nal_hrd=none / filler=0 / ip_ratio=1.40 / pb_ratio=1.30 / aq=1:0.80
Default : Yes
Forced : No
Color range : Limited
Color primaries : BT.709
Transfer characteristics : BT.709
Matrix coefficients : BT.709
Audio
ID : 2
Format : AC-3
Format/Info : Audio Coding 3
Commercial name : Dolby Digital
Codec ID : A_AC3
Duration : 1 h 57 min
Bit rate mode : Constant
Bit rate : 448 kb/s
Channel(s) : 6 channels
Channel layout : L R C LFE Ls Rs
Sampling rate : 48.0 kHz
Frame rate : 31.250 FPS (1536 SPF)
Bit depth : 16 bits
Compression mode : Lossy
Stream size : 376 MiB (13%)
Title : MVO_DVD-9
Language : Russian
Service kind : Complete Main
Default : Yes
Forced : No
Menu
00:00:00.000 : :Глава 1
00:06:59.377 : :Глава 2
00:22:50.493 : :Глава 3
00:40:58.247 : :Глава 4
00:56:27.467 : :Глава 5
01:06:58.348 : :Глава 6
01:30:57.952 : :Глава 7
01:43:14.438 : :Глава 8

Скриншоты

--

admin

Post 08-Jul-2021 05:03

[Quote]

Информация о фильме
Название: И грянул гром
Оригинальное название: A Sound of Thunder
Год выхода: 2005
Жанр: фантастика, боевик, триллер, приключения
Режиссер: Питер Хайамс
В ролях: Эдвард Бёрнс, Катрин МакКормак, Бен Кингсли, Джемайма Рупер, Дэвид Ойелоуо, Армин Роде, Хайке Макач, Вильфрид Хохгольдингер, Август Цирнер, Элвин Ван Дер Куеч
О фильме:
В недалеком будущем, путешествия во времени станут удивительной, непредсказуемой реальностью. За деньги, богатые путешественники могут пробудить свои дремлющие инстинкты охотников, заказывая доисторические сафари, чтобы охотиться на настоящих живых динозавров.
Есть только три важных правила, которые нельзя нарушать: не менять ничего в прошлом; не оставлять ничего там; и самое важное — ничего не брать с собой назад. Малейшее изменение могло бы привести к глобальному изменению эволюции способами, которые даже трудно представить.

Страна: Великобритания, США, Германия, Чехия
Студия: Franchise Pictures, Crusader Entertainment, ApolloMedia Distribution
Продолжительность: 01:41:47
Перевод: Профессиональный (дублированный) МОСФИЛЬМ-мастер
Субтитры: Русские, Английские
Файл
Кодек: x264
Формат: Matroska
Качество: WEB-DLRip-AVC | Open Matte | WEB-DL Amazon
Видео: High@L4.1, ~3163 kbps, 1024x576, 23.976 fps
Audio: AC3, 6ch, ~448 kbps

M/I

x264 info: frame I:1549 Avg QP:16.44 size: 72849
x264 info: frame P:33750 Avg QP:17.49 size: 28991
x264 info: frame B:111141 Avg QP:19.78 size: 12393
x264 info: consecutive B-frames: 2.8% 3.5% 7.5% 33.5% 15.3% 24.8% 4.3% 3.6% 1.5% 0.8% 0.4% 0.6% 1.4%
General
Complete name : И грянул гром_(2005)_WEB-DLRIP-AVC_O.M_[-=DoMiNo=-].mkv
Format : Matroska
Format version : Version 4
File size : 2.62 GiB
Duration : 1 h 41 min
Overall bit rate : 3 685 kb/s
Movie name : И грянул гром
Attachments : poster.jpg
DATE : 2005-05-15
DIRECTOR : Peter Hyams
GENRE : триллер, фантастика, приключения, боевик
ORIGINAL_TITLE : A Sound of Thunder
PUBLISHER : Signature Pictures, Franchise Pictures, Crusader Entertainment, ApolloMedia Distribution, Baldwin Entertainment Group, Coco, Dante Entertainment, ETIC Films, Epsilon Motion Pictures, Film 111, Forge, Jericho Productions Ltd., MFF (Sound of Thunder), Matrix Film Finance, QI Quality International GmbH Co. KG, Scenario Lane Productions
RATING : 4.70
WRITER : Joshua Oppenheimer
Video
ID : 1
Format : AVC
Format/Info : Advanced Video Codec
Format profile : High@L4.1
Format settings : CABAC / 12 Ref Frames
Format settings, CABAC : Yes
Format settings, ReFrames : 12 frames
Codec ID : V_MPEG4/ISO/AVC
Duration : 1 h 41 min
Bit rate : 3 163 kb/s
Width : 1 024 pixels
Height : 576 pixels
Display aspect ratio : 16:9
Frame rate mode : Constant
Frame rate : 23.976 (24000/1001) FPS
Color space : YUV
Chroma subsampling : 4:2:0
Bit depth : 8 bits
Scan type : Progressive
Bits/(Pixel*Frame) : 0.224
Stream size : 2.25 GiB (86%)
Title : RIP_BY_-=DoMiNo=-
Writing library : x264 core 157 r2901M 7d0ff22
Encoding settings : cabac=1 / ref=12 / deblock=1:-3:-3 / analyse=0x3:0x133 / me=umh / subme=10 / psy=1 / psy_rd=1.00:0.00 / mixed_ref=1 / me_range=32 / chroma_me=1 / trellis=2 / 8x8dct=1 / cqm=0 / deadzone=21,11 / fast_pskip=0 / chroma_qp_offset=-2 / threads=6 / lookahead_threads=1 / sliced_threads=0 / nr=0 / decimate=1 / interlaced=0 / bluray_compat=0 / constrained_intra=0 / bframes=12 / b_pyramid=2 / b_adapt=2 / b_bias=0 / direct=1 / weightb=1 / open_gop=0 / weightp=2 / keyint=240 / keyint_min=24 / scenecut=40 / intra_refresh=0 / rc=crf / mbtree=0 / crf=19.0 / qcomp=0.70 / qpmin=0 / qpmax=69 / qpstep=4 / ip_ratio=1.40 / pb_ratio=1.30 / aq=3:0.80
Language : English
Default : Yes
Forced : No
Color range : Limited
Color primaries : BT.709
Transfer characteristics : BT.709
Matrix coefficients : BT.709
Audio
ID : 2
Format : AC-3
Format/Info : Audio Coding 3
Commercial name : Dolby Digital
Codec ID : A_AC3
Duration : 1 h 41 min
Bit rate mode : Constant
Bit rate : 448 kb/s
Channel(s) : 6 channels
Channel layout : L R C LFE Ls Rs
Sampling rate : 48.0 kHz
Frame rate : 31.250 FPS (1536 SPF)
Bit depth : 16 bits
Compression mode : Lossy
Stream size : 326 MiB (12%)
Title : DUB
Language : Russian
Service kind : Complete Main
Default : Yes
Forced : No
Text #1
ID : 3
Format : UTF-8
Codec ID : S_TEXT/UTF8
Codec ID/Info : UTF-8 Plain Text
Language : Russian
Default : Yes
Forced : No
Text #2
ID : 4
Format : UTF-8
Codec ID : S_TEXT/UTF8
Codec ID/Info : UTF-8 Plain Text
Language : English
Default : No
Forced : No
Menu
00:00:00.000 : :Глава 1
00:08:13.034 : :Глава 2
00:16:05.548 : :Глава 3
00:24:39.478 : :Глава 4
00:29:49.037 : :Глава 5
00:35:47.228 : :Глава 6
00:41:36.536 : :Глава 7
00:47:46.280 : :Глава 8
00:53:54.815 : :Глава 9
00:59:31.193 : :Глава 10
01:05:39.185 : :Глава 11
01:11:31.203 : :Глава 12
01:17:16.048 : :Глава 13
01:23:21.913 : :Глава 14
01:29:17.018 : :Глава 15
01:34:39.757 : :Глава 16

Скриншоты

admin

Post 31-May-2021 15:10

[Quote]

Название: В поисках древней гробницы
Оригинальное название: Das Jesus Video
Год выхода: 2002
Жанр: фантастика, боевик, приключения
Режиссер: Себастьян Нимэнн
В ролях: Матиас Кеберлин, Найке Ривелли, Ману Любовски, Ганс Дил, Дитрих Холлиндербаумер, Робинзон Райхель, Клаус Грюнберг, Пьер Семмлер
О фильме:
Во время раскопок близ Иерусалима молодой археолог Штеффен обнаруживает гробницу двухтысячелетней давности. А в ней — такой же древний скелет, сжимающий в руке инструкцию к суперсовременной видеокамере, еще не поступившей в продажу, листок с именем Иисус, а также зашифрованную инструкцию, как найти видеокамеру.
Страна: Германия
Продолжительность: 03:12:42
Перевод: Профессиональный (многоголосый)
Субтитры: Русские

Файл
Формат: AVI
Кодек: XviD
Качество: DVDRip
Видео: 720x400 (1.80:1), 25 fps, ~1339 kbps avg, 0.19 bit/pixel
Аудио 1: 48 kHz, Dolby AC3, 5 channel (L,C,R,l,r) + LFE ch, 384 kbps (RUS)
Аудио 2: 48 kHz, Dolby AC3, 5 channel (L,C,R,l,r) + LFE ch, 384 kbps (GER)
Субтитры: русские, SRT

Скриншоты

Борисыч

Post 19-Oct-2020 11:07

[Quote]

- - Год выпуска: 2004
Страна:
Жанр: Фильм - катастрофа
Продолжительность: 02:03:38
Перевод: Профессиональный ( Дублированный )
Режиссер: Роланд Эммерих / Roland Emmerich
В ролях: Тэмлин Томита, Остин Николс, Эмми Россам, Дэннис Куэйд, Джейк Джилленхол, Джей О. Сэндерс, Саша Ройз, Эрджей Смит, Села Уорд, Дэш Майок...
Описание:
Планета Земля стоит на пороге ужасной катастрофы. Деятельность людей привела к глобальной экологической катастрофе. Климат просто сошел с ума: ужасные засухи и огромные волны грозят всему живому на Земле. Ученый-климатолог отправляется в Нью-Йорк, чтобы спасти своего единственного сына, по подсчетам ученого в Нью-Йорке скоро наступит новый Ледниковый период и температура упадет до уровня, при котором никто из людей выжить не сможет. Времени остается все меньше и меньше, скоро волна холода накроет Нью-Йорк...
Качество: BDRip
Формат: AVI
Видео кодек: XviD
Аудио кодек: АС3
Видео: 688x384, 23,976 fps, 1296 kbps
Аудио: 48 kHz, 6 ch, 384 kbps

Скриншоты

Борисыч

Post 07-Aug-2020 19:45

[Quote]

- - Год выпуска: 2004
Страна: США, Германия, Великобритания, Ирландия
Жанр: Приключения, комедия, семейный
Продолжительность: 02:00:16
Перевод: Профессиональный ( Дублированный )+ Оригинал
Режиссер: Фрэнк Корачи
В ролях: Джеки Чан, Стив Кугэн, Роберт Файф, Джим Броудбент, Иэн МакНис, Дэвид Райалл, Роджер Хэммонд, Адам Годли, Карен Мок, Ховард Купер, Арнольд Шварценеггер
Описание: Эксцентричный лондонский изобретатель Филеас Фогг раскрыл тайны полетов, электричества и многие другие, но общество не принимает его, считая сумасшедшим. Фоггу очень хочется, чтобы к нему относились серьезно, и он заключает необычное пари с лордом Келвином, главой Королевской академии наук: он берется совершить путешествие вокруг земного шара не более чем за 80 дней.
Вместе со своим лакеем Паспарту и жаждущей острых ощущений французской художницей Моник Фогг пускается в безумную, захватывающую кругосветную гонку по суше, морю и воздуху. Во время головокружительного путешествия наши герои попадают в самые экзотические уголки планеты. В пути их ждут многочисленные приключения и препятствия...
Качество: HDRip
Формат: AVI
Видео кодек: XviD
Аудио кодек: АС3
Видео: 720x304, 23,976 fps, 1811 kbps
Аудио - 1: 48 kHz, 6 ch, 384 kbps - DUB
Аудио - 2: 48 kHz, 6 ch, 384 kbps - Original

Скриншоты

admin

Post 07-Sep-2019 07:03

[Quote]

21283Судя по всему, фильм не понравился тем. кто не любит театр. Ибо по сути - это действительно экранизированный спекталь в более совершенных декорациях. Чудная ,остроумная комедия положений, отлично сыгранная великолепными актерами - не только Аронова, великолепны все, причем довольно неожиданны Балуев, Лыков и Красько в непривычном амплуа.
Не знаю кому не понравилось,я смотрел,мне показался фильм хорошей комедией.

Guest

Post 06-Sep-2019 14:33

[Quote]

Судя по всему, фильм не понравился тем. кто не любит театр. Ибо по сути - это действительно экранизированный спекталь в более совершенных декорациях. Чудная ,остроумная комедия положений, отлично сыгранная великолепными актерами - не только Аронова, великолепны все, причем довольно неожиданны Балуев, Лыков и Красько в непривычном амплуа.

admin

Post 26-Nov-2018 04:56

[Quote]

Информация о фильме
Название: Кушать подано!
Год выхода: 2005
Жанр: комедия
Режиссер: Максим Паперник
В ролях: Александр Балуев, Александр Лыков, Юлия Рутберг, Мария Аронова, Ольга Красько, Владимир Епископосян
О фильме: Муж решил встретить Новый год вместе с молодой любовницей в своем загородном доме, переделанном из бывшей свинофермы, жену он отправляет проведать тещу, а для алиби приглашает к себе старого друга…

Страна: Украина / Мелорама, Телеканал Интер
Продолжительность: 01:25:38
Перевод: не требуется (русский)
Файл
Качество: DVDRip-AVC
Формат: MKV
Видео: MPEG-4 AVC, 2500 Кбит/сек, 1024x576
Звук: AC3, 6 ch, 448 Кбит/сек
Субтитры: нет
Дополнительно: Сохранены оригинальные главы (чаптеры)

MediaInfo:

Общее
Уникальный идентификатор : 9666446609375750992244809527412326833 (0x745B09D29229235FE59FD7CF24B01B1)
Полное имя : E:Kushan podano(2005) DVDRip-AVC.mkv
Формат : Matroska
Версия формата : Version 4
Размер файла : 1,76 Гбайт
Продолжительность : 1 ч. 25 м.
Общий поток : 2946 Кбит/сек
Программа кодирования : XviD4PSP 7.0.459 DAILY
Библиотека кодирования : Lavf57.71.100
Авторское право : [#ZsU®]
ErrorDetectionType : Per level 1
Attachments : poster.jpg
ENCODING_INFO : DVD > MKV Пользовательский / MPEG2 > X264 ABR 2500kbps HQ / AC3 > AC3 CBR 448kbps
Язык : und
Видео
Идентификатор : 1
Формат : AVC
Формат/Информация : Advanced Video Codec
Профиль формата : High@L4.1
Настройки формата : CABAC / 11 Ref Frames
Параметр CABAC формата : Да
Параметр RefFrames формата : 11 кадров
Идентификатор кодека : V_MPEG4/ISO/AVC
Продолжительность : 1 ч. 25 м.
Битрейт : 2500 Кбит/сек
Ширина : 1024 пикселя
Высота : 576 пикселей
Соотношение сторон : 5:3
Режим частоты кадров : Постоянный
Частота кадров : 25,000 кадров/сек
Цветовое пространство : YUV
Субдискретизация насыщенности : 4:2:0
Битовая глубина : 8 бит
Тип развёртки : Прогрессивная
Бит/(Пиксели*Кадры) : 0.170
Размер потока : 1,46 Гбайт (83%)
Библиотека кодирования : x264 core 157 r2901M 7d0ff22
Настройки программы : cabac=1 / ref=11 / deblock=1:-3:-3 / analyse=0x3:0x133 / me=umh / subme=11 / psy=1 / psy_rd=1.00:0.20 / mixed_ref=1 / me_range=32 / chroma_me=1 / trellis=2 / 8x8dct=1 / cqm=0 / deadzone=21,11 / fast_pskip=1 / chroma_qp_offset=-3 / threads=12 / lookahead_threads=1 / sliced_threads=0 / nr=0 / decimate=1 / interlaced=0 / bluray_compat=0 / constrained_intra=0 / bframes=11 / b_pyramid=2 / b_adapt=1 / b_bias=11 / direct=1 / weightb=1 / open_gop=0 / weightp=1 / keyint=250 / keyint_min=25 / scenecut=40 / intra_refresh=0 / rc_lookahead=40 / rc=abr / mbtree=1 / bitrate=2500 / ratetol=1.0 / qcomp=0.60 / qpmin=0 / qpmax=69 / qpstep=4 / ip_ratio=1.40 / aq=1:1.00
Default : Да
Forced : Нет
Цветовой диапазон : Limited
Основные цвета : BT.709
Характеристики трансфера : BT.709
Коэффициенты матрицы : BT.709
Аудио
Идентификатор : 2
Формат : AC-3
Формат/Информация : Audio Coding 3
Коммерческое название : Dolby Digital
Идентификатор кодека : A_AC3
Продолжительность : 1 ч. 25 м.
Вид битрейта : Постоянный
Битрейт : 448 Кбит/сек
Каналы : 6 каналов
Channel layout : L R C LFE Ls Rs
Частота : 48,0 КГц
Частота кадров : 31,250 кадров/сек (1536 SPF)
Битовая глубина : 16 бит
Метод сжатия : С потерями
Размер потока : 274 Мбайт (15%)
Язык : Russian
Default : Да
Forced : Нет
Меню
00:00:00.000 : :Глава 1
00:08:30.600 : :Глава 2
00:18:53.400 : :Глава 3
00:30:18.600 : :Глава 4
00:40:09.000 : :Глава 5
00:49:27.600 : :Глава 6
00:58:07.200 : :Глава 7
01:12:09.000 : :Глава 8
СЕМПЛ

admin

Post 14-Aug-2018 05:34

[Quote]

Информация о фильме
Название: Замок Эрос
Оригинальное название: Castle Eros
Год выхода: 2002
Жанр: Эротика, фентези
Режиссер: Мэдисон Монро
В ролях: Челси Блу, Холли Сэмпсон, Каталина Ларранага, Себастьен Гай, Алекс Ферро, Дэнис Марти, Лоредана Бонтемпи, Giro Tommaselli, Мирко Цито, Silvia Gogovacinschi
О фильме:
С двумя сёстрами американками на каникулах в Риме случается беда - их обворовывают и они остаются без жилья и без денег. К несчастью коррумпированная полиция старого света покрывает преступников разоряющих туристов. И сёстрам приходится искать работу в провинциальном замке чтобы не умереть с голоду и заработать на обратный билет домой. Только вот замок в котором они начали работать оказывается необычным местом и преподносит новые пикантные приключения.

Страна: США, Италия
Студия: Playboy / Fool Moon / Charles Band
Продолжительность: 01:33:38
Перевод: Профессиональный (двухголосый закадровый) ТВ+/IVI
Перевод: Профессиональный (двухголосый закадровый) Виккон
Перевод: Любительский одноголосный закадровый
Реклама: Отсутствует
Файл
Кодек: DivX
Качество: DVDRip
Видео: DivX 5 640x480 29.97fps 1400kbps
Звук 1: AC3 48000Hz stereo 192kbps (Rus) VO
Звук 2: MP3 48000Hz stereo 128kbps (Rus) DVO ТВ+/IVI
Звук 3: MP3 44100Hz stereo 255kbps (Rus) DVO Виккон
Семпл

MediaInfo

General
Complete name : G:Castle Erotica DVDRip Rus.avi
Format : AVI
Format/Info : Audio Video Interleave
File size : 1.31 GiB
Duration : 1 h 33 min
Overall bit rate : 2 000 kb/s
Writing application : VirtualDubMod 1.5.10.2 (build 2542/release)
Writing library : VirtualDubMod build 2542/release
IDFV : DMF 2.0.0
Video
ID : 0
Format : MPEG-4 Visual
Format settings : BVOP1
Format settings, BVOP : 1
Format settings, QPel : No
Format settings, GMC : No warppoints
Format settings, Matrix : Default (H.263)
Muxing mode : Packed bitstream
Codec ID : DX50
Codec ID/Hint : DivX 5
Duration : 1 h 33 min
Bit rate : 1 401 kb/s
Nominal bit rate : 6 896 kb/s
Width : 640 pixels
Height : 480 pixels
Display aspect ratio : 4:3
Frame rate : 29.970 (30000/1001) FPS
Color space : YUV
Chroma subsampling : 4:2:0
Bit depth : 8 bits
Scan type : Progressive
Compression mode : Lossy
Bits/(Pixel*Frame) : 0.152
Stream size : 937 MiB (70%)
Writing library : DivX 3330
Audio #1
ID : 1
Format : AC-3
Format/Info : Audio Coding 3
Codec ID : 2000
Duration : 1 h 33 min
Bit rate mode : Constant
Bit rate : 192 kb/s
Channel(s) : 2 channels
Channel positions : Front: L R
Sampling rate : 48.0 kHz
Frame rate : 31.250 FPS (1536 SPF)
Bit depth : 16 bits
Compression mode : Lossy
Stream size : 128 MiB (10%)
Alignment : Split accross interleaves
Interleave, duration : 33 ms (1.00 video frame)
Interleave, preload duration : 500 ms
Service kind : Complete Main
Audio #2
ID : 2
Format : MPEG Audio
Format version : Version 1
Format profile : Layer 3
Format settings : Joint stereo / MS Stereo
Codec ID : 55
Codec ID/Hint : MP3
Duration : 1 h 33 min
Bit rate mode : Constant
Bit rate : 128 kb/s
Channel(s) : 2 channels
Sampling rate : 48.0 kHz
Compression mode : Lossy
Stream size : 85.6 MiB (6%)
Alignment : Aligned on interleaves
Interleave, duration : 33 ms (1.00 video frame)
Interleave, preload duration : 504 ms
Audio #3
ID : 3
Format : MPEG Audio
Format version : Version 1
Format profile : Layer 3
Format settings : Joint stereo
Codec ID : 55
Codec ID/Hint : MP3
Duration : 1 h 33 min
Bit rate mode : Constant
Bit rate : 256 kb/s
Channel(s) : 2 channels
Sampling rate : 44.1 kHz
Compression mode : Lossy
Stream size : 171 MiB (13%)
Alignment : Aligned on interleaves
Interleave, duration : 33 ms (1.00 video frame)
Interleave, preload duration : 522 ms

Скриншоты

admin

Post 14-May-2018 07:26

[Quote]

Информация о фильме
Название: Большая жратва
Оригинальное название: Waiting...
Год выхода: 2005
Жанр: Комедия
Режиссер: Роб МакКиттрик
В ролях: Райан Рейнолдс, Анна Фарис, Джастин Лонг, Дэвид Кочнер, Луис Гусман, Чи МакБрайд
О фильме: Дин работает официантом в крупном ресторане уже четыре года. Он ни разу не задавался вопросом о том, насколько хорошо он устроился, пока не узнал, что его однокашник все эти годы делал сногсшибательную карьеру в крупной корпорации. Поэтому, когда появляется стажер Митч, Дин начинает его обучение не только со знакомства с многочисленным и сумасбродным коллективом, но и с того, как отомстить обеспеченным посетителям ресторана за классовое неравенство.

Производство: США, Eden Rock Media, Element Films
Продолжительность: 01:33:57
Перевод: Профессиональный (многоголосый, закадровый) | Tycoon
Качество: HDRip-AVC (Waiting.2005.1080p.Rus.mkv)
Видео: 1024x576(16:9), 2400 Kbps, 23,98 fps
Звук: AC3, 448 Kbps, 48.0 KHz, 6 ch

Скриншоты

MediaInfo

General
Unique ID : 184246898567901855231608913118423910173 (0x8A9CA97303D89D3496C12D45DB57871D)
Complete name : D:uTorrentWaiting.2005.HDRip.rutor.mkv
Format : Matroska
Format version : Version 2
File size : 1.87 GiB
Duration : 1h 33mn
Overall bit rate : 2 849 Kbps
Encoded date : UTC 2018-05-13 00:37:33
Writing application : mkvmerge v6.9.1 ('Blue Panther') 32bit built on Apr 18 2014 18:15:44
Writing library : libebml v1.3.0 + libmatroska v1.4.1
Video
ID : 1
Format : AVC
Format/Info : Advanced Video Codec
Format profile : High@L4.1
Format settings, CABAC : Yes
Format settings, ReFrames : 8 frames
Codec ID : V_MPEG4/ISO/AVC
Duration : 1h 33mn
Bit rate : 2 400 Kbps
Width : 1 024 pixels
Height : 576 pixels
Display aspect ratio : 16:9
Frame rate : 23.976 fps
Color space : YUV
Chroma subsampling : 4:2:0
Bit depth : 8 bits
Scan type : Progressive
Bits/(Pixel*Frame) : 0.170
Stream size : 1.54 GiB (82%)
Writing library : x264 core 148 r2638 7599210
Encoding settings : cabac=1 / ref=8 / deblock=1:-1:-1 / analyse=0x3:0x133 / me=umh / subme=7 / psy=1 / psy_rd=1.00:0.10 / mixed_ref=1 / me_range=16 / chroma_me=1 / trellis=2 / 8x8dct=1 / cqm=0 / deadzone=21,11 / fast_pskip=0 / chroma_qp_offset=-3 / threads=6 / lookahead_threads=1 / sliced_threads=0 / nr=0 / decimate=1 / interlaced=0 / bluray_compat=0 / constrained_intra=0 / bframes=3 / b_pyramid=2 / b_adapt=2 / b_bias=0 / direct=3 / weightb=1 / open_gop=0 / weightp=2 / keyint=250 / keyint_min=23 / scenecut=40 / intra_refresh=0 / rc_lookahead=50 / rc=2pass / mbtree=1 / bitrate=2400 / ratetol=1.0 / qcomp=0.60 / qpmin=0 / qpmax=69 / qpstep=4 / cplxblur=20.0 / qblur=0.5 / ip_ratio=1.40 / aq=1:1.00
Default : Yes
Forced : No
Audio
ID : 2
Format : AC-3
Format/Info : Audio Coding 3
Mode extension : CM (complete main)
Format settings, Endianness : Big
Codec ID : A_AC3
Duration : 1h 33mn
Bit rate mode : Constant
Bit rate : 448 Kbps
Channel(s) : 6 channels
Channel positions : Front: L C R, Side: L R, LFE
Sampling rate : 48.0 KHz
Bit depth : 16 bits
Compression mode : Lossy
Stream size : 301 MiB (16%)
Default : Yes
Forced : No

admin

Post 05-Feb-2018 04:16

[Quote]

Информация о фильме
Название: Любовное кино / Фильм о любви
Оригинальное название: Filme de amor
Год выхода: 2003
Жанр: драма, арт-хаус
Режиссер: Жулио Брессане
В ролях: Бел Гарсия, Жози Антелло, Фернанду Эйрас
О фильме:
Трое друзей - Матильда, Гаспар и Хильда, обычные люди из предместья Рио-де-Жанейро, проводят вместе уик-энд. Они собираются в заброшенной квартире, чтобы выпить, пофилософствовать на тему любви и заняться сексом. Немудреный сюжет, из которого рождается мелодия любви...
!ВНИМАНИЕ! Фильм рассчитан на взрослого зрителя!
Благодарность порошков!

Страна: Бразилия
Студия: Grupo Novo de Cinema e TV, TB Produções
Продолжительность: 01:31:00
Перевод: Авторский (одноголосый) Антон Алексеев
Файл
Кодек: XviD
Качество: DVDRip
Видео: 704x432 (1.63:1), 23.976 fps, XviD build 73 ~2083 kbps avg, 0.28 bit/pixel
Звук: 48 kHz, AC3 Dolby Digital, 2/0 (L,R) ch, ~192 kbps
Субтитры: нет

admin

Post 15-Dec-2017 22:48

[Quote]

Название: Палач
Оригинальное название: The Headsman
Год выпуска: 2005
Жанр: Драма, исторический
Выпущено: Германия, Великобритания, Швейцария, Венгрия, Австрия, Люксембург, Allegro Film, Eurofilm Stúdió, Film and Music Entertainment (F&ME)
Режиссер: Саймон Эби
В ролях: Стивен Беркофф, Николай Костер-Валдау, Джули Кокс, Лили Гезлер, Патрик Годфри, Анастасия Гриффит, Ли Инглби, Эдди Марсан, Джо Мэйсон, Питер МакДональд
О фильме: 1520 год. Тироль. Австрия. Эпоха Реформации Мартина Лютера. Люди распространяют его «95 тезисов». Но католическая церковь не желает отступать. Инквизиция не дремлет… Показывается история отношений двух братьев — набожного аббата Георга и бесстрашного воина Мартина. Они встречаются после долгой разлуки. Ради своей семьи Мартин вынужден стать палачом, изгоем для всех, кроме Георга. Когда из монастыря похищают бесценную реликвию и инквизиция начинает искать злодеев, под подозрение попадают многие невинные люди, в том числе — семья Мартина. Сможет ли Георг защитить своего верного друга в час, когда запылают костры и головы покатятся по плахе? Сумеет ли палач Мартин спасти свою семью от палачей инквизиции? Какую цену заплатят братья за свою роковую дружбу?..

Качество: DVDRip
Видео: XviD, 1491 Кбит/с, 720x304
Аудио: Русский (АС3, 6 ch, 384 Кбит/с), aнглийский (МР3, 2 ch, 116 Кбит/с)
Продолжительность: 01:44:04
Перевод: Одноголосый закадровый

Скриншоты

 

Current time is: 18-Sep 14:54

All times are UTC + 3