Search found 30 matches

Author Message

admin

Post 04-Jan-2022 01:09

[Quote]

- Криминальная фишка от Генри / Henry's Crime - Информация о фильме:
Название: Криминальная фишка от Генри
Оригинальное название: Henry's Crime
Год выхода: 2010
Жанр: комедия, криминал
Режиссер: Малькольм Венвилль
В ролях: Вера Фармига, Киану Ривз, Джуди Грир, Джеймс Каан, Петер Стормаре, Фишер Стивенс, Билл Дьюк, Карри Грэм, Дэнни Хоч, Дэвид Костабайл
Описание: Встречайте Генри — самого унылого парня в Америке. Он сидит в своей будке у дороги, взимая пошлину с проезжающих. Казалось, в его жизни ничто не может измениться. Но однажды сомнительный приятель попросил Генри подождать его у крыльца главного банка в Буффало… В результате — четыре года тюрьмы по ложному обвинению в ограблении. Но пройдет время, и Генри вернется к тому самому банку, чтобы взять свое…

Страна: США
Студия: Company Films
Продолжительность: 01:47:45
Перевод: Дублированный - Лицензия
Информация о файле:
Кодек: AVC
Формат: MKV
Качество: BDRip-AVC | Henry's Crime (2011) BD-Remux
Видео: MPEG-4 AVC, 1024x426, 23.976 fps, 1950 kbps
Аудио RU: AC3, 6 ch, 48 kHz, 448 kbps
Аудио EN: AC3, 6 ch, 48 kHz, 448 kbps
Субтитры: Русские, английские

MediaInfo

x264 info: frame I:1450 Avg QP:14.67 size: 74103
x264 info: frame P:30386 Avg QP:17.34 size: 21508
x264 info: frame B:123192 Avg QP:18.63 size: 6544
x264 info: consecutive B-frames: 1.5% 1.1% 5.9% 14.5% 16.9% 47.4% 6.7% 1.7% 1.5% 1.1% 1.6%
General
Unique ID : 339869079353978689130801480939955322001 (0xFFB067598871A9D64927B5AB07B07C91)
Complete name : D:uTorrentРипы wolf1245Henry's Crime.2010.DUB.LIC.BDRip-AVC.[wolf1245.ExKinoRay].mkv
Format : Matroska
Format version : Version 4
File size : 2.14 GiB
Duration : 1 h 47 min
Overall bit rate : 2 837 kb/s
Movie name : Henry's Crime.2010.DUB.LIC.BDRip-AVC.[wolf1245.ExKinoRay]
Encoded date : UTC 2022-01-03 17:36:17
Writing application : mkvmerge v64.0.0 ('Willows') 64-bit
Writing library : libebml v1.4.2 + libmatroska v1.6.4
Video
ID : 1
Format : AVC
Format/Info : Advanced Video Codec
Format profile : High@L4.1
Format settings : CABAC / 12 Ref Frames
Format settings, CABAC : Yes
Format settings, Reference frames : 12 frames
Codec ID : V_MPEG4/ISO/AVC
Duration : 1 h 47 min
Bit rate : 1 950 kb/s
Width : 1 024 pixels
Height : 426 pixels
Display aspect ratio : 2.40:1
Frame rate mode : Constant
Frame rate : 23.976 (24000/1001) FPS
Color space : YUV
Chroma subsampling : 4:2:0
Bit depth : 8 bits
Scan type : Progressive
Bits/(Pixel*Frame) : 0.186
Stream size : 1.46 GiB (68%)
Title : -=[wolf1245.ExKinoRay]=-
Writing library : x264 core 163 r3060 5db6aa6
Encoding settings : cabac=1 / ref=12 / deblock=1:-3:-3 / analyse=0x3:0x133 / me=umh / subme=10 / psy=1 / psy_rd=1.00:0.20 / mixed_ref=1 / me_range=48 / chroma_me=1 / trellis=2 / 8x8dct=1 / cqm=0 / deadzone=21,11 / fast_pskip=1 / chroma_qp_offset=-3 / threads=10 / lookahead_threads=2 / sliced_threads=0 / nr=0 / decimate=0 / interlaced=0 / bluray_compat=0 / constrained_intra=0 / bframes=10 / b_pyramid=2 / b_adapt=2 / b_bias=0 / direct=3 / weightb=1 / open_gop=0 / weightp=2 / keyint=240 / keyint_min=24 / scenecut=40 / intra_refresh=0 / rc_lookahead=60 / rc=2pass / mbtree=0 / bitrate=1950 / ratetol=1.0 / qcomp=0.60 / qpmin=0 / qpmax=69 / qpstep=4 / cplxblur=20.0 / qblur=0.5 / vbv_maxrate=50000 / vbv_bufsize=62500 / nal_hrd=none / filler=0 / ip_ratio=1.40 / pb_ratio=1.30 / aq=1:1.00
Language : English
Default : Yes
Forced : No
Color range : Limited
Color primaries : BT.709
Transfer characteristics : BT.709
Matrix coefficients : BT.709
Audio #1
ID : 2
Format : AC-3
Format/Info : Audio Coding 3
Commercial name : Dolby Digital
Codec ID : A_AC3
Duration : 1 h 47 min
Bit rate mode : Constant
Bit rate : 448 kb/s
Channel(s) : 6 channels
Channel layout : L R C LFE Ls Rs
Sampling rate : 48.0 kHz
Frame rate : 31.250 FPS (1536 SPF)
Compression mode : Lossy
Stream size : 345 MiB (16%)
Title : DUB | LIC | RUS
Language : Russian
Service kind : Complete Main
Default : Yes
Forced : No
Audio #2
ID : 3
Format : AC-3
Format/Info : Audio Coding 3
Commercial name : Dolby Digital
Codec ID : A_AC3
Duration : 1 h 47 min
Bit rate mode : Constant
Bit rate : 448 kb/s
Channel(s) : 6 channels
Channel layout : L R C LFE Ls Rs
Sampling rate : 48.0 kHz
Frame rate : 31.250 FPS (1536 SPF)
Compression mode : Lossy
Stream size : 345 MiB (16%)
Title : Original | ENG
Language : English
Service kind : Complete Main
Default : Yes
Forced : No
Text #1
ID : 4
Format : UTF-8
Codec ID : S_TEXT/UTF8
Codec ID/Info : UTF-8 Plain Text
Duration : 1 h 42 min
Bit rate : 87 b/s
Count of elements : 1399
Stream size : 66.2 KiB (0%)
Title : Sub
Language : Russian
Default : Yes
Forced : No
Text #2
ID : 5
Format : UTF-8
Codec ID : S_TEXT/UTF8
Codec ID/Info : UTF-8 Plain Text
Duration : 1 h 46 min
Bit rate : 58 b/s
Count of elements : 1528
Stream size : 46.1 KiB (0%)
Title : Sub
Language : English
Default : No
Forced : No
Menu
00:00:00.000 : :00:00:00.000
00:08:42.605 : :00:08:42.605
00:17:31.799 : :00:17:31.799
00:27:35.487 : :00:27:35.487
00:36:47.663 : :00:36:47.663
00:48:54.222 : :00:48:54.222
00:56:28.675 : :00:56:28.675
01:04:22.400 : :01:04:22.400
01:15:34.947 : :01:15:34.947
01:22:45.542 : :01:22:45.542
01:33:20.802 : :01:33:20.802
01:43:29.243 : :01:43:29.243
01:47:45.500 : :01:47:45.500

Борисыч

Post 25-Dec-2021 12:12

[Quote]

-Snowglobe Рон-
Год выпуска: 2007
Страна: США
Жанр: Мелодрама, семейный
Продолжительность: 01:25:29
Перевод: Профессиональный (многоголосый закадровый)
Режиссер: Рон Лагомарсино / Ron Lagomarsino
В ролях: Кристина Милиан, Эрин Карплак, Хильда Доэрти, Джейсон Шомбинг, Джеймс Кот, Эндрю Криванек, Джош Кук, Эннис Эсмер, Лоррейн Бракко, Лучана Карро...
Описание: Молодая девушка, которая всегда ждала Рождества, неожиданно получает снежный шар, который переносит ее в мир, где всегда 25 декабря.
Качество: SATRip
Формат: AVI
Видео кодек: XviD
Аудио кодек: AC3
Видео: 640x480, 25 fps, 1111 kbps
Аудио: 48 kHz, 2 ch, 96 kbps

Скриншоты

admin

Post 26-Jul-2021 06:04

[Quote]

Информация о фильме
Название: Код Да Винчи
Оригинальное название: The Da Vinci Code
Год выхода: 2006
Жанр: триллер, детектив
Режиссер: Рон Ховард / Ron Howard
В ролях: Том Хэнкс, Одри Тоту, Иэн МакКеллен, Жан Рено, Пол Беттани, Альфред Молина, Юрген Прохнов, Жан-Ив Бертело, Этьен Шико, Жан-Пьер Марьель
О фильме:
Гарвардского профессора Роберта Лэнгдона подозревают в чудовищном преступлении, которого он не совершал. Лэнгдон знакомится с криптографом парижской полиции Софи Невё и вместе с ней пытается раскрыть тайну, которая может подорвать могущество католической церкви.
Роберт и Софи должны это сделать до того, как их схватят блюстители закона или остановят противники, готовые на все ради сохранения великого религиозного секрета…

Страна: США, Мальта, Франция, Великобритания
Студия: Columbia Pictures, Imagine Entertainment, Skylark Productions
Продолжительность: 02:28:47
Перевод: Профессиональный (дублированный)
Субтитры: Русские (forced, full), английские
Файл
Формат: Matroska
Качество: WEB-DLRip-AVC | Open Matte | Amazon
Видео: 1024x576 at 23.976 fps, x264, ~2932 kbps, 0.207 bpp
Аудио: AC3, 6 ch, ~448 kbps - | Русский | -
Формат субтитров: softsub (SRT)

M/I

x264 info: frame I:1763 Avg QP:14.17 size: 65924
x264 info: frame P:40633 Avg QP:15.66 size: 29877
x264 info: frame B:171659 Avg QP:18.14 size: 11311
x264 info: consecutive B-frames: 1.7% 1.9% 4.8% 12.5% 12.1% 41.5% 8.6% 2.5% 10.7% 1.3% 0.7% 0.4% 1.1%
General
Format : Matroska
Format version : Version 4
File size : 3.51 GiB
Duration : 2 h 28 min
Overall bit rate : 3 382 kb/s
Movie name : Код Да Винчи.(2006).WEB-DLRip-AVC.O.M.[-=DoMiNo=-]
Encoded date : UTC 2019-10-29 16:33:41
Writing application : mkvmerge v38.0.0 ('The Silent Type') 64-bit
Writing library : libebml v1.3.9 + libmatroska v1.5.2
Attachments : poster.jpg / poster 2.jpg
Video
ID : 1
Format : AVC
Format/Info : Advanced Video Codec
Format profile : High@L4.1
Format settings : CABAC / 10 Ref Frames
Format settings, CABAC : Yes
Format settings, Reference : 10 frames
Codec ID : V_MPEG4/ISO/AVC
Duration : 2 h 28 min
Bit rate : 2 932 kb/s
Width : 1 024 pixels
Height : 576 pixels
Display aspect ratio : 16:9
Frame rate mode : Constant
Frame rate : 23.976 (24000/1001) FPS
Color space : YUV
Chroma subsampling : 4:2:0
Bit depth : 8 bits
Scan type : Progressive
Bits/(Pixel*Frame) : 0.207
Stream size : 3.05 GiB (87%)
Title : RIP_BY_-=DoMiNo=-
Writing library : x264 core 157 r2958 57baac4
Encoding settings : cabac=1 / ref=10 / deblock=1:-2:-2 / analyse=0x3:0x133 / me=umh / subme=11 / psy=1 / psy_rd=1.00:0.15 / mixed_ref=1 / me_range=32 / chroma_me=1 / trellis=2 / 8x8dct=1 / cqm=0 / deadzone=21,11 / fast_pskip=1 / chroma_qp_offset=-3 / threads=6 / lookahead_threads=1 / sliced_threads=0 / nr=0 / decimate=1 / interlaced=0 / bluray_compat=0 / constrained_intra=0 / bframes=12 / b_pyramid=2 / b_adapt=2 / b_bias=0 / direct=1 / weightb=1 / open_gop=0 / weightp=2 / keyint=240 / keyint_min=24 / scenecut=40 / intra_refresh=0 / rc=crf / mbtree=0 / crf=19.0 / qcomp=0.60 / qpmin=0 / qpmax=69 / qpstep=4 / ip_ratio=1.40 / pb_ratio=1.30 / aq=3:1.00
Language : English
Default : Yes
Forced : No
Color range : Limited
Color primaries : BT.709
Transfer characteristics : BT.709
Matrix coefficients : BT.709
Audio
ID : 2
Format : AC-3
Format/Info : Audio Coding 3
Commercial name : Dolby Digital
Codec ID : A_AC3
Duration : 2 h 28 min
Bit rate mode : Constant
Bit rate : 448 kb/s
Channel(s) : 6 channels
Channel layout : L R C LFE Ls Rs
Sampling rate : 48.0 kHz
Frame rate : 31.250 FPS (1536 SPF)
Compression mode : Lossy
Stream size : 477 MiB (13%)
Title : DUB
Language : Russian
Service kind : Complete Main
Default : Yes
Forced : No
Text #1
ID : 3
Format : UTF-8
Codec ID : S_TEXT/UTF8
Codec ID/Info : UTF-8 Plain Text
Duration : 1 h 28 min
Bit rate : 2 b/s
Count of elements : 23
Stream size : 1.32 KiB (0%)
Title : forced
Language : Russian
Default : No
Forced : Yes
Text #2
ID : 4
Format : UTF-8
Codec ID : S_TEXT/UTF8
Codec ID/Info : UTF-8 Plain Text
Duration : 2 h 19 min
Bit rate : 96 b/s
Count of elements : 1679
Stream size : 99.2 KiB (0%)
Title : Full
Language : Russian
Default : Yes
Forced : No
Text #3
ID : 5
Format : UTF-8
Codec ID : S_TEXT/UTF8
Codec ID/Info : UTF-8 Plain Text
Duration : 2 h 18 min
Bit rate : 54 b/s
Count of elements : 1649
Stream size : 54.9 KiB (0%)
Language : English
Default : No
Forced : No
Menu
00:00:00.000 : :Chapter 1
00:12:55.900 : :Chapter 2
00:28:57.693 : :Chapter 3
00:40:04.233 : :Chapter 4
00:41:42.206 : :Chapter 5
00:48:22.939 : :Chapter 7
01:04:44.211 : :Chapter 8
01:13:05.336 : :Chapter 9
01:24:32.689 : :Chapter 10
01:29:26.690 : :Chapter 11
01:36:28.403 : :Chapter 12
01:41:43.092 : :Chapter 13
01:51:44.693 : :Chapter 14
02:00:05.317 : :Chapter 15
02:11:27.749 : :Chapter 16
02:17:04.918 : :Chapter 17
02:21:26.930 : :Chapter 18

Примечания & Сравнения:

Исходник видео WEB-DL Amazon.
Open Matte-версия фильма имеет большее наполнение кадра.


Скриншоты

admin

Post 01-Jul-2021 06:36

[Quote]

Информация о фильме
Название: Эрагон
Оригинальное название: Eragon
Год выхода: 2006
Жанр: фэнтези, боевик, приключения, семейный
Режиссер: Стефен Фэнгмейер / Stefen Fangmeier
В ролях: Джереми Айронс, Джон Малкович, Эдвард Спелирс, Сиенна Гиллори, Роберт Карлайл, Гаррет Хедлунд, Алан Армстронг, Кристофер Иган, Гари Льюис
О фильме:
Действие происходит в волшебной стране Алагезии, которую населяют эльфы, гномы и другие сказочные персонажи. Главный герой — 17-летний деревенский мальчишка Эрагон — последний из рода некогда могущественных драконьих всадников.
Однажды он находит драконье яйцо. Так, Эрагону суждено вырастить и воспитать дракониху Сапфиру; принять участие в великой войне; в поисках эльфийского города Эллесмеры пройти через невиданые земли, наполненные красотой и опасностью; сразиться с колдунами и чудовищами; спуститься к сердцу горы в королевство гномов, чтобы стать первым Свободным Воином, не зависящим ни от короля всадников, ни от вождя варденов.


Страна: США, Великобритания, Венгрия
Студия: 20th Century Fox
Продолжительность: 01:43:16
Перевод: Дубляж (Невафильм)
Субтитры: Русские (full), английские (full)
Файл
Формат: Matroska
Качество: WEB-DLRip-AVC | Open Matte
Видео: 1024x576 at 23.976 fps, x264, ~2575 kbps, 0.182 bpp
Аудио: AC3, 6 ch, ~448 kbps - | Русский | -
Формат субтитров: softsub (SRT)
***Релиз от: -=DoMiNo=-

Примечание:

Исходник видео Amazon STARZ - периодически появляется логотип.
Open Matte-версия фильма имеет большее наполнение кадра по сравнению с Blu-ray.

M/I

x264 [info]: frame I:1150 Avg QP:16.23 size: 88618
x264 [info]: frame P:42904 Avg QP:19.30 size: 24956
x264 [info]: frame B:104492 Avg QP:21.39 size: 7850
x264 [info]: consecutive B-frames: 5.1% 7.6% 12.8% 45.8% 10.2% 15.7% 1.6% 0.6% 0.1% 0.1% 0.1% 0.0% 0.3%
General
Format : Matroska
Format version : Version 4
File size : 2.18 GiB
Duration : 1 h 43 min
Overall bit rate : 3 023 kb/s
Movie name : Эрагон.(2006).WEB-DLRip-AVC.O.M.[-=DoMiNo=-]
Encoded date : UTC 2019-11-27 06:52:39
Writing application : mkvmerge v40.0.0 ('Old Town Road + Pony') 64-bit
Writing library : libebml v1.3.9 + libmatroska v1.5.2
Attachments : poster.jpg / poster 2.jpg
Video
ID : 1
Format : AVC
Format/Info : Advanced Video Codec
Format profile : High@L4.1
Format settings : CABAC / 12 Ref Frames
Format settings, CABAC : Yes
Format settings, Reference : 12 frames
Codec ID : V_MPEG4/ISO/AVC
Duration : 1 h 43 min
Bit rate : 2 575 kb/s
Width : 1 024 pixels
Height : 576 pixels
Display aspect ratio : 16:9
Frame rate mode : Constant
Frame rate : 23.976 (24000/1001) FPS
Color space : YUV
Chroma subsampling : 4:2:0
Bit depth : 8 bits
Scan type : Progressive
Bits/(Pixel*Frame) : 0.182
Stream size : 1.86 GiB (85%)
Title : RIP_BY_-=DoMiNo=-
Writing library : x264 core 158 r2988 7817004
Encoding settings : cabac=1 / ref=12 / deblock=1:-3:-3 / analyse=0x3:0x133 / me=umh / subme=11 / psy=1 / psy_rd=1.00:0.15 / mixed_ref=1 / me_range=32 / chroma_me=1 / trellis=2 / 8x8dct=1 / cqm=0 / deadzone=21,11 / fast_pskip=0 / chroma_qp_offset=-3 / threads=6 / lookahead_threads=1 / sliced_threads=0 / nr=0 / decimate=0 / interlaced=0 / bluray_compat=0 / constrained_intra=0 / bframes=12 / b_pyramid=2 / b_adapt=2 / b_bias=0 / direct=3 / weightb=1 / open_gop=0 / weightp=2 / keyint=250 / keyint_min=23 / scenecut=40 / intra_refresh=0 / rc_lookahead=40 / rc=2pass / mbtree=0 / bitrate=2575 / ratetol=1.0 / qcomp=0.65 / qpmin=0 / qpmax=69 / qpstep=4 / cplxblur=20.0 / qblur=0.5 / vbv_maxrate=50000 / vbv_bufsize=62500 / nal_hrd=none / filler=0 / ip_ratio=1.40 / pb_ratio=1.30 / aq=2:0.80
Language : English
Default : Yes
Forced : No
Audio
ID : 2
Format : AC-3
Format/Info : Audio Coding 3
Commercial name : Dolby Digital
Codec ID : A_AC3
Duration : 1 h 43 min
Bit rate mode : Constant
Bit rate : 448 kb/s
Channel(s) : 6 channels
Channel layout : L R C LFE Ls Rs
Sampling rate : 48.0 kHz
Frame rate : 31.250 FPS (1536 SPF)
Compression mode : Lossy
Stream size : 331 MiB (15%)
Title : DUB
Language : Russian
Service kind : Complete Main
Default : Yes
Forced : No
Text #1
ID : 3
Format : UTF-8
Codec ID : S_TEXT/UTF8
Codec ID/Info : UTF-8 Plain Text
Duration : 1 h 35 min
Bit rate : 53 b/s
Count of elements : 794
Stream size : 37.6 KiB (0%)
Language : Russian
Default : No
Forced : No
Text #2
ID : 4
Format : UTF-8
Codec ID : S_TEXT/UTF8
Codec ID/Info : UTF-8 Plain Text
Duration : 1 h 35 min
Bit rate : 39 b/s
Count of elements : 906
Stream size : 27.5 KiB (0%)
Language : English
Default : No
Forced : No
Menu
00:00:00.000 : :Глава 01
00:03:30.000 : :Глава 02
00:07:00.000 : :Глава 03
00:10:30.000 : :Глава 04
00:14:00.000 : :Глава 05
00:17:30.000 : :Глава 06
00:21:00.000 : :Глава 07
00:24:30.000 : :Глава 08
00:28:00.000 : :Глава 09
00:31:30.000 : :Глава 10
00:35:00.000 : :Глава 11
00:38:30.000 : :Глава 12
00:42:00.000 : :Глава 13
00:45:30.000 : :Глава 14
00:49:00.000 : :Глава 15
00:52:30.000 : :Глава 16
00:56:00.000 : :Глава 17
00:59:30.000 : :Глава 18
01:03:00.000 : :Глава 19
01:06:30.000 : :Глава 20
01:10:00.000 : :Глава 21
01:13:30.000 : :Глава 22
01:17:00.000 : :Глава 23
01:20:30.000 : :Глава 24
01:24:00.000 : :Глава 25
01:27:30.000 : :Глава 26
01:31:00.000 : :Глава 27
01:34:30.000 : :Глава 28
01:38:00.000 : :Глава 29
01:41:30.000 : :Глава 30

Скриншоты

admin

Post 13-May-2021 04:21

[Quote]

Информация о фильме
Название: Возврат (Сдача, Вернуть наличкой)
Оригинальное название: Cashback
Год выпуска: 2006
Жанр: Комедия, драма, мелодрама
Режиссер: Шон Эллис
В ролях: Шон Биггерстафф, Эмилия Фокс, Стюарт Гудвин, Майкл Лэмбурн, Майкл Диксон, Мишель Райан, Эрика Эллис, Джей Бауэн, Шон Эванс, Кеннет Фахи, Стэн Эллис, Кэти Болл, Селеста Ходж, Ниа Робертс, Хатти Ример, Кинвара Бальфур, Чери Николь, Винни Ли, Лене Босейджер, Фрэнк Хескет, Хейли-Мари Коппин, Кили Хэзелл, Кристин Фуллер, Мишель Бентли, Гари Бисон, Катарина Олссон, Гэйл Дадли, Генриетта Басс, Саманта Блум
О фильме:
Переживая болезненное расставание с любимой, Бен впадает в бессонницу. В освободившиеся 8 часов он начинает работать в ночную смену местного супермаркета, где главной задачей обслуживающего персонала является «времяубийство». Неожиданно Бен обнаруживает в себе необычную способность останавливать время, что даёт толчок его художественному таланту.

Страна: Великобритания
Студия: Left Turn Films, Lip Sync Productions, Ugly Duckling Films
Продолжительность: 01:42:03
Перевод: Профессиональный (двухголосый, закадровый) | Студия Инис
Файл
Формат: AVI
Качество: BDRip | BDRemux HDClub |
Видео: XviD, 720x304, 23.976 fps, 1588 kbps
Звук: AC3, 6 ch, 448 kbps
Субтитры: Нет

Скриншоты

Борисыч

Post 30-Dec-2020 12:02

[Quote]

- - -
Год выпуска: 2007
Страна: США
Жанр: Комедия, мелодрама
Продолжительность: 01:29:43
Перевод: Профессиональный ( Многоголосый )
Режиссер: Рон Лагомарсино / Ron Lagomarsino
В ролях: Эндрю Криванек, Джеймс Кот, Джейсон Шомбинг, Хильда Доэрти, Рон Кэнада, Лучана Карро, Лоррейн Бракко, Эннис Эсмер, Джош Кук, Эрин Карплак, Кристина Милиан
Описание: Молодая девушка, которая всегда ждала Рождества, неожиданно получает снежный шар, который переносит ее в мир, где всегда 25 декабря.
Качество: DVDRip
Формат: AVI
Видео кодек: XviD
Аудио кодек: AC3
Видео: 640x464, 23,976 fps, 1916 kbps
Аудио: 48 kHz, 2 ch, 256 kbps

Скриншоты

Борисыч

Post 29-Dec-2020 13:08

[Quote]

- - - -
Год выпуска: 2006
Страна: США
Жанр: Комедия, семейный
Продолжительность: 01:32:58
Режиссер: Джон Уайтселл / John Whitesell
Перевод:Профессиональный ( Дублированный )
В ролях: Локлин Манро, Дэнни ДеВито, Кристин Дэвис, Кристин Ченоуэт, Мэттью Бродерик, Дилан Блю, Дэвид Стюарт, Джилл Моррисон, Райан Дэвлин, Хорхе Гарсиа, Келли Олдридж, Сабрина Олдридж, Алиа Шоукэт
Описание: Накануне рождества две семьи, живущие по соседству, принялись выяснять, чей дом больше и краше. Все началось с того, что дочь Бадди Холла с помощью компьютера и спутниковой связи продемонстрировала своему папочке, как выглядит их жилище из космоса. Мистер Холл огорчился, ибо особняк его соседа Стива Финча на мониторе выглядел внушительнее, и решил восполнить недостатки своего дома яркой иллюминацией, которая ослепит весь городок, а особенно ненавистного соседа. Идея Бадди оправдала все его ожидания, но Стив в ответ придумал нечто необыкновенное.
Качество: BDRip
Формат: AVI
Видео кодек: XviD
Аудио кодек: МР3
Видео: 656x352, 23,976 fps, 983 kbps
Аудио: 48 kHz, 2 ch, 128 kbps

Скриншоты

Борисыч

Post 26-Dec-2020 12:51

[Quote]

- - -
Год выпуска: 2008
Страна: США
Жанр: Комедия
Продолжительность: 01:28:32
Перевод: Профессиональный ( Дублированный )
Режиссер: Сет Гордон / Seth Gordon
В ролях: Сисси Спэйсек, Роберт Дюваль, Мэри Стинберген, Джон Фавро, Джон Войт, Винс Вон, Риз Уизерспун
Описание: Влюбленная пара, Брэд и Кейт, пытается встретить Рождество вместе со своими родителями, но дело осложняется тем, что и его, и ее родители в разводе, поэтому им нужно за один день успеть в четыре разных места….
Качество: HDRip
Формат: AVI
Видео кодек: XviD
Аудио кодек: AC3
Видео: 720x400, 23,976 fps, 1812 kbps
Аудио: 48 kHz, 6 ch, 384 kbps

Скриншоты

Борисыч

Post 05-Nov-2020 12:08

[Quote]

- - - Год выпуска: 2010
Страна:
Жанр: Триллер, драма
Продолжительность: 01:38:30
Перевод: Профессиональный ( Дублированный )
Режиссер: Тони Скотт / Tony Scott
В ролях: Дензел Вашингтон, Крис Пайн, Розарио Доусон, Этан Сапли, Кевин Данн, Кевин Корригэн, Кевин Чэпмен, Лью Темпл, ТиДжей Миллер, Джесси Шрэм
Описание:
Группа людей вместе с молодым машинистом пытается догнать и остановить неуправляемый состав, перевозящий токсичные химикаты.
Качество: ВDRip
Формат: AVI
Видео кодек: XviD
Аудио кодек: АС3
Видео: 720x304, 23,976 fps, 1728 kbps
Аудио: 48 kHz, 6 ch, 384 kbps

Скриншоты

admin

Post 27-Aug-2020 21:25

[Quote]

В ролях: Светлана Ефремова.
Как то даже обнадеживает.

Борисыч

Post 27-Aug-2020 13:28

[Quote]

- Год выпуска: 2006
Страна: США
Жанр: Комедия, мелодрама, семейный, спорт
Продолжительность: 01:43:05
Режиссер: Томас Винтерберг / Jessica Bendinger
Перевод: Профессиональный ( Дублированный )
В ролях: Светлана Ефремова, Наташа Ричардсон, Ширли Хендерсон, Алекс Петтифер, Джон Грис, Эмма Робертс, Джейсон Уоткинс, Джуно Тэмпл, Ванесса Брэнч, Джонни Пакар, Кимберли Никсон, Пол Баттеруорт, Ванесса Ленгис, Мио Дзакула, Эйдан Куинн, Джефф Бриджес, Ник Фрост, Мисси Перегрим, Джули Уорнер, Селина Кэделл, Джон Патрик Амедори, Мэдди Керли, Никки СуХу, Дэйзи Донован, Келлан Луц
Описание: Главная героиня любит приключения и переживает трудный возраст. Она гимнастка и у неё есть большой потенциал, она талантлива и тренеры надеются, что из неё выйдет хорошая спортсменка. Однако, в один момент все в ее жизни идет на перекосяк, она бросает спорт и уходит в себя. Когда она попадет в неприятности у неё будет два выхода: вернуться в спорт или пойти в тюрьму..
Качество: HDTVRip
Формат: AVI
Видео кодек: XviD
Аудио кодек: МР3
Видео: 624x352, 23,976 fps, 871 kbps
Аудио: 48 kHz, 2 ch, 128 kbps

Скриншоты

Борисыч

Post 21-Aug-2020 06:56

[Quote]

- - - Год выпуска: 2006
Страна: США
Жанр: Фильм - катастрофа
Продолжительность: 02:09:09
Перевод: Профессиональный ( Дублированный )
Режиссер: Оливер Стоун
В ролях: Мэгги Джилленхол, Уильям Мапотер, Ник Дамичи, Майкл Пенья, Брэд Уильям Хенке, Николас Кейдж, Джей Эрнандес, Николас Туртурро, Мария Белло
Описание:
Страшные события 11 сентября 2001 года потрясли весь мир. После того как башни Всемирного Торгового Центра упали, под их обломками оказались погребены сотни людей. Спасатели работали двадцать четыре часа в сутки, пытаясь спасти тех, кто оказался в ловушке под обломками зданий. И даже когда, казалось бы, надежды на спасение уже нет и шанс найти живых людей стремится к нулю, спасатели продолжали поиски. Последними двумя спасенными из-под обломков Торгового Центра стали Уильям Химено и Джон МакЛафлин. Их нашли тогда, когда уже почти никто не верит что такое возможно.
Качество: НDRip
Формат: AVI
Видео кодек: XviD
Аудио кодек: АС3
Видео: 688x384, 23,976 fps, 1155 kbps
Аудио: 48 kHz, 6 ch, 448 kbps

Скриншоты

admin

Post 20-Jun-2019 00:54

[Quote]

Информация о фильме
Название: Элоиза /Дневник лесбиянки
Оригинальное название: Eloïse
Год выхода: 2009
Жанр: драма, мелодрама
Режиссер: Хесус Гарай
В ролях: Диана Гомез, Ариадна Каброл, Лаура Конежеро, Бернат Саумелл, Каролина Монтойя, Миранда Макаров, Нуриа Хоста, Эдуард Фарело, Хаум Мадаула, Пау Херреро
О фильме:
Азиа, 18-летняя девушка, находится в больнице в коматозном состоянии. Её мать и её бойфренд, Натаниэль, заботятся о ней. Понемногу мы увидим события, которые привели Азию в больницу, отношения с матерью, подругами и бойфрендом, и особенно с Элоизой, загадочной девушкой, которая покажет ей новый мир чувств...
"Хороший, трогательный и душевный фильм. Про то, как социальные предубеждения убивают чистую любовь." (с)
"Наши прокатчики фильм "Элоиза" переименовали в вульгарный низкопробный "Дневник лесбиянки", напрочь убив идею фильма, затоптав ее в грязь..."(с)

Страна: Испания
Студия: Els Quatre Gats Audiovisuals S.L., Televisió de Catalunya (TV3)
Продолжительность: 01:31:11
Перевод: Профессиональный (многоголосый)
Файл
Кодек: XviD
Качество: DVDRip
Видео: 720x384 (1.88:1), 25 fps, XviD MPEG-4 ~1390 kbps avg, 0.20 bit/pixel
Звук:
1. 48 kHz, AC3 Dolby Digital, 6 ch, ~448.00 kbps avg - рус.
2. 48 kHz, AC3 Dolby Digital, 6 ch, ~448.00 kbps avg - spa.
Субтитры: русские (внешние)

admin

Post 23-Jul-2018 04:42

[Quote]

Информация о фильме
Название: Апофеоз
Оригинальное название: Sublime
Год выхода: 2007
Жанр: психологический триллер, ужасы, драма, детектив
Режиссер: Тони Крантц
Сценарий: Эрик Йендерсен
В ролях: Томас Кэвэна, Кэт Койро, Лоуренс Хилтон-Джакобс, Кэтлин Йорк, Дэвид Клейтон Роджерс, Шэнна Коллинз, Кайл Галлнер, Кэс Анвар и др.
О фильме:
Джордж Гривс отмечает своё сорокалетие в кругу семьи и друзей, а на следующий день в сопровождении супруги отправляется в больницу на плановое обследование.
Очнулся он уже на другом этаже больницы, где медсестра сообщила ему, что было некоторое осложнение и что ему пришлось сделать операцию. По мере лёжки в палате мужчина начинает осознавать, что его врач перепутал его с пациентом с похожей фамилией, из — за чего ему была сделана неверная операция…

Страна: США
Продолжительность: 01:53:09
Перевод: Профессиональный (двухголосый закадровый) [НТВ+]
Файл
Кодек: XviD
Качество: HDRip
Видео: 720x304 (2.37:1), 23.976 fps, XviD build 56 ~1575 kbps avg, 0.30 bit/pixel
Аудио:48 kHz, AC3 Dolby Digital, 2/0 (L,R) ch, ~256 kbps
Субтитры: отсутствуют
Реклама отсутствует.

Скриншоты

admin

Post 10-Apr-2018 14:48

[Quote]

Звук: MP3, 48 KHz, 2 ch ~ 128 - Временная.
 

Current time is: 24-May 14:54

All times are UTC + 3