Search found 23 matches

Author Message

admin

Post 10-Aug-2019 01:49

[Quote]

Джона Хекс / Jonah Hex (2010) BDRip
Страна: США
Студия: Warner Bros. Pictures, Legendary Pictures
Год: 2010
Жанр: Фэнтези, Боевик, Вестерн
Режиссер: Джимми Хейуорд /Jimmy Hayward/
В ролях: Джош Бролин /Josh Brolin/, Джон Малкович /John Malkovich/, Меган Фокс /Megan Fox/, Майкл Фассбендер /Michael Fassbender/, Уилл Арнетт /Will Arnett/, Джон Галлахер мл. /John Gallagher Jr./, Том Вопат /Tom Wopat/, Майкл Шеннон /Michael Shannon/, Уэс Бентли /Wes Bentley/, Джулия Джонс /Julia Jones/
О фильме: Конец XIX века. Джона Хекс — странник и наемный убийца, последний, к кому обращаются, чтобы поймать кого-то из людей или нечто нечеловеческое… Сторонясь людей, герой тем не менее, поддерживает связь с Лейлой, работницей борделя. По заданию военных он должен будет выследить и поймать Квентина Тернбалла, шамана вуду, который собирается очистить Юг конфедератов, собрав армию из мертвецов.

Продолжительность: 01:21:28
Перевод: Русский профессиональный многоголосый перевод (BD CEE) + Оригинальная английская дорожка
Субтитры: Русские (надписи, полные), Английские
Информация о файле:
Качество: BDRip (Исходник: Blu-ray)
Формат: AVI; XviD, MPEG-4 codec
Видео: 720 x 304; 23.976 fps; 1778 kbps; 0.339 bit/pixel
Звук #1: Russian AC3 Dolby Digital; 384 Kbps; 5.1 ch; 48 KHz
Звук #2: English AC3 Dolby Digital; 384 Kbps; 5.1 ch; 48 KHz
Размер файла: 1493 Mb (1/3 DVD5)

Скриншоты

admin

Post 11-Jul-2019 01:09

[Quote]

Информация о фильме
Название: Руины
Оригинальное название: The Ruins
Год выхода: 2008
Жанр: ужасы, триллер
Режиссер: Картер Смит
Сценарий: Скотт Б. Смит
В ролях: Лаура Рэмси, Джонатан Такер, Джена Мэлоун, Шон Эшмор, Джо Андерсон, Серхио Кальдерон, Джесси Рамирес, Балдер Морено, Димитрий Бавеас, Патрисио Альмейда Родригес и др.
О фильме:
Они отправились в увеселительную поездку… но очередная остановка оказалась смертельным тупиком. Группа друзей приехала осмотреть нетронутую временем пирамиду индейцев майя и угодила в ловушку, где притаилось древнее зло, затянувшее героев в пучину ужаса и отчаяния.

Страна: США, Германия, Австралия
Продолжительность: 01:33:25
Перевод#1: Профессиональный (полное дублирование) (со вставками профессионального двухголосого перевода на расширенные моменты)
Перевод#2: Профессиональный (двухголосый закадровый)
Файл
Формат видео: AVI
Качество: BDRip |BDRemux 1080p|
Видео: 720x304 (2.37:1), 23.976 fps, XviD build 73 ~1999 kbps avg, 0.38 bit/pixel
Аудио#1: 48 kHz, AC3 Dolby Digital, 3/2 (L,C,R,l,r) + LFE ch, ~448 kbps |DUB - Русский
Аудио#2: 48 kHz, AC3 Dolby Digital, 3/2 (L,C,R,l,r) + LFE ch, ~448 kbps |DVO - Русский
Аудио#3: 48 kHz, AC3 Dolby Digital, 3/2 (L,C,R,l,r) + LFE ch, ~448 kbps | Английский
Субтитры: русские, английские [внешние]

Скриншоты

admin

Post 20-Jun-2019 00:54

[Quote]

Информация о фильме
Название: Элоиза /Дневник лесбиянки
Оригинальное название: Eloïse
Год выхода: 2009
Жанр: драма, мелодрама
Режиссер: Хесус Гарай
В ролях: Диана Гомез, Ариадна Каброл, Лаура Конежеро, Бернат Саумелл, Каролина Монтойя, Миранда Макаров, Нуриа Хоста, Эдуард Фарело, Хаум Мадаула, Пау Херреро
О фильме:
Азиа, 18-летняя девушка, находится в больнице в коматозном состоянии. Её мать и её бойфренд, Натаниэль, заботятся о ней. Понемногу мы увидим события, которые привели Азию в больницу, отношения с матерью, подругами и бойфрендом, и особенно с Элоизой, загадочной девушкой, которая покажет ей новый мир чувств...
"Хороший, трогательный и душевный фильм. Про то, как социальные предубеждения убивают чистую любовь." (с)
"Наши прокатчики фильм "Элоиза" переименовали в вульгарный низкопробный "Дневник лесбиянки", напрочь убив идею фильма, затоптав ее в грязь..."(с)

Страна: Испания
Студия: Els Quatre Gats Audiovisuals S.L., Televisió de Catalunya (TV3)
Продолжительность: 01:31:11
Перевод: Профессиональный (многоголосый)
Файл
Кодек: XviD
Качество: DVDRip
Видео: 720x384 (1.88:1), 25 fps, XviD MPEG-4 ~1390 kbps avg, 0.20 bit/pixel
Звук:
1. 48 kHz, AC3 Dolby Digital, 6 ch, ~448.00 kbps avg - рус.
2. 48 kHz, AC3 Dolby Digital, 6 ch, ~448.00 kbps avg - spa.
Субтитры: русские (внешние)

admin

Post 09-Jan-2019 21:37

[Quote]

Информация о фильме
Название: Смертный приговор
Оригинальное название: Death Sentence
Год выпуска: 2007
Жанр: боевик, триллер, криминал
Режиссер: Джеймс Ван
В ролях: Кевин Бейкон (Nick Hume), Гаррет Хедлунд (Billy Darley), Келли Престон (Helen Hume), Джордан Гаррет (Lucas Hume), Стюарт Лэфферти (Brendan Hume), Аиша Тайлер (Detective Wallis), Джон Гудман (Bones Darley), Мэтью О’Лири (Joe Darley), Эди Гатеги (Bodie), Эктор Атрею Руис (Heco), Канин Хауэлл (Baggy), Дэннис Кейффер (Jamie)
О фильме:
Ник - менеджер крупной компании, обходительный и вежливый человек с репутацией отличного семьянина. Его жизнь была прекрасна, до тех пор, пока однажды он не стал свидетелем того, что полностью и бесповоротно сделало его иным. Поселившаяся в нём ярость приводит его к твердой уверенности, что для защиты семьи он не остановится ни перед чем.

MPAA: R - Лицам до 17 лет обязательно присутствие взрослого
Страна: США
Студия: 20th Century Fox Film Corporation
Продолжительность: 01:51:10
Перевод: Профессиональный (многоголосый, закадровый), Профессиональный (двухголосый, закадровый)
Файл
Качество: WEB-DLRip-AVC
Формат: Matroska
Видео: 1032x430 at 23.976 fps, x264, ~2522 kbps
Аудио #1: Russian: AC3, 6 ch, ~448 kbps |DVO, П.Гланц и И.Королёва|
Аудио #2: Russian: AC3, 2.0 (L,R) ch, ~192 kbps |MVO, ТРК Россия|
Субтитры: Russian, English (SDH, Amazon)
***Исходник видео - Amazon;
***Сравнение данной версии с театральной;
***Релиз от: -=DoMiNo=---

M/I

General
Unique ID : 227718476815314116649773458831073296619 (0xAB50FBBC18E5F634A90329FAC98740EB)
Complete name : Смертный приговор_(2007)_WEB_DLRIP-AVC_[-=DoMiNo=-].mkv
Format : Matroska
Format version : Version 4
File size : 2.51 GiB
Duration : 1 h 51 min
Overall bit rate : 3 226 kb/s
Movie name : Смертный приговор
Deion : Ник - менеджер крупной компании, обходительный и вежливый человек с репутацией отличного семьянина. Его жизнь была прекрасна, до тех пор, пока однажды он не стал свидетелем того, что полностью и бесповоротно сделало его иным. Поселившаяся в нём ярость приводит его к твердой уверенности, что для защиты семьи он не остановится ни перед чем.
Attachments : poster.jpg
ACTORS : Кевин Бейкон (Nick Hume), Гаррет Хедлунд (Billy Darley), Келли Престон (Helen Hume), Джордан Гаррет (Lucas Hume), Стюарт Лэфферти (Brendan Hume), Аиша Тайлер (Detective Wallis), Джон Гудман (Bones Darley), Мэтью О’Лири (Joe Darley), Эди Гатеги (Bodie), Эктор Атрею Руис (Heco), Канин Хауэлл (Baggy), Дэннис Кейффер (Jamie)
COUNTRY : США
DATE : 2007
DIRECTOR : Джеймс Ван
ITUNEXTC : ru-movie|16+|375|
ORIGINAL_TITLE : Death Sentence
PUBLISHER : 20th Century Fox Film Corporation
RATING : 7.08
Video
ID : 1
Format : AVC
Format/Info : Advanced Video Codec
Format profile : High@L4.1
Format settings : CABAC / 12 Ref Frames
Format settings, CABAC : Yes
Format settings, ReFrames : 12 frames
Codec ID : V_MPEG4/ISO/AVC
Duration : 1 h 51 min
Bit rate : 2 522 kb/s
Width : 1 032 pixels
Height : 430 pixels
Display aspect ratio : 2.40:1
Frame rate mode : Constant
Frame rate : 23.976 (24000/1001) FPS
Color space : YUV
Chroma subsampling : 4:2:0
Bit depth : 8 bits
Scan type : Progressive
Bits/(Pixel*Frame) : 0.237
Stream size : 1.96 GiB (78%)
Title : RIP_BY_-=DoMiNo=-
Writing library : x264 core 157 r2935M 545de2f
Encoding settings : cabac=1 / ref=12 / deblock=1:-2:-2 / analyse=0x3:0x133 / me=umh / subme=11 / psy=1 / psy_rd=1.05:0.05 / mixed_ref=1 / me_range=32 / chroma_me=1 / trellis=2 / 8x8dct=1 / cqm=0 / deadzone=21,11 / fast_pskip=0 / chroma_qp_offset=-3 / threads=6 / lookahead_threads=1 / sliced_threads=0 / nr=0 / decimate=1 / interlaced=0 / bluray_compat=0 / constrained_intra=0 / bframes=12 / b_pyramid=2 / b_adapt=2 / b_bias=0 / direct=1 / weightb=1 / open_gop=0 / weightp=2 / keyint=250 / keyint_min=24 / scenecut=40 / intra_refresh=0 / rc=crf / mbtree=0 / crf=19.0 / qcomp=0.60 / qpmin=0 / qpmax=69 / qpstep=4 / ip_ratio=1.40 / pb_ratio=1.30 / aq=1:0.80
Language : English
Default : Yes
Forced : No
Color range : Limited
Color primaries : BT.709
Transfer characteristics : BT.709
Matrix coefficients : BT.709
Audio #1
ID : 2
Format : AC-3
Format/Info : Audio Coding 3
Commercial name : Dolby Digital
Codec ID : A_AC3
Duration : 1 h 51 min
Bit rate mode : Constant
Bit rate : 448 kb/s
Channel(s) : 6 channels
Channel layout : L R C LFE Ls Rs
Sampling rate : 48.0 kHz
Frame rate : 31.250 FPS (1536 SPF)
Bit depth : 16 bits
Compression mode : Lossy
Stream size : 356 MiB (14%)
Title : AC3 5.1 448Kbps (Профессиональный, двухголосый - П. Гланц и И. Королёва)
Language : Russian
Service kind : Complete Main
Default : Yes
Forced : No
Audio #2
ID : 3
Format : AC-3
Format/Info : Audio Coding 3
Commercial name : Dolby Digital
Codec ID : A_AC3
Duration : 1 h 51 min
Bit rate mode : Constant
Bit rate : 192 kb/s
Channel(s) : 2 channels
Channel layout : L R
Sampling rate : 48.0 kHz
Frame rate : 31.250 FPS (1536 SPF)
Bit depth : 16 bits
Compression mode : Lossy
Stream size : 153 MiB (6%)
Title : AC3 2.0 192Kbps (Профессиональный, многоголосый - ТРК Россия)
Language : Russian
Service kind : Complete Main
Default : No
Forced : No
Text #1
ID : 4
Format : UTF-8
Codec ID : S_TEXT/UTF8
Codec ID/Info : UTF-8 Plain Text
Language : Russian
Default : Yes
Forced : No
Text #2
ID : 5
Format : UTF-8
Codec ID : S_TEXT/UTF8
Codec ID/Info : UTF-8 Plain Text
Title : SDH, Amazon
Language : English
Default : No
Forced : No
Menu
00:00:00.000 : :Глава 1
00:12:09.979 : :Глава 2
00:26:13.530 : :Глава 3
00:38:58.628 : :Глава 4
00:53:32.209 : :Глава 5
01:06:45.293 : :Глава 6
01:20:25.821 : :Глава 7
01:30:28.298 : :Глава 8
01:39:27.545 : :Глава 9
01:46:06.402 : :Глава 10

Скриншоты

--

admin

Post 23-Jul-2018 04:42

[Quote]

Информация о фильме
Название: Апофеоз
Оригинальное название: Sublime
Год выхода: 2007
Жанр: психологический триллер, ужасы, драма, детектив
Режиссер: Тони Крантц
Сценарий: Эрик Йендерсен
В ролях: Томас Кэвэна, Кэт Койро, Лоуренс Хилтон-Джакобс, Кэтлин Йорк, Дэвид Клейтон Роджерс, Шэнна Коллинз, Кайл Галлнер, Кэс Анвар и др.
О фильме:
Джордж Гривс отмечает своё сорокалетие в кругу семьи и друзей, а на следующий день в сопровождении супруги отправляется в больницу на плановое обследование.
Очнулся он уже на другом этаже больницы, где медсестра сообщила ему, что было некоторое осложнение и что ему пришлось сделать операцию. По мере лёжки в палате мужчина начинает осознавать, что его врач перепутал его с пациентом с похожей фамилией, из — за чего ему была сделана неверная операция…

Страна: США
Продолжительность: 01:53:09
Перевод: Профессиональный (двухголосый закадровый) [НТВ+]
Файл
Кодек: XviD
Качество: HDRip
Видео: 720x304 (2.37:1), 23.976 fps, XviD build 56 ~1575 kbps avg, 0.30 bit/pixel
Аудио:48 kHz, AC3 Dolby Digital, 2/0 (L,R) ch, ~256 kbps
Субтитры: отсутствуют
Реклама отсутствует.

Скриншоты

admin

Post 10-Apr-2018 14:48

[Quote]

Звук: MP3, 48 KHz, 2 ch ~ 128 - Временная.

KSA

Post 10-Apr-2018 11:46

[Quote]

Информация о фильме
Название: В порядке вещей
Оригинальное название: My Normal
Год выхода: 2009
Жанр: драма, мелодрама
Режиссер: Ирвинг Шварц
В ролях: Николь Лалиберт, Ти Джонс, Доун Ноэль Пиньюола, Наама Кейтс, Абдул Малик Эбботт, Мэйн Андерс, Рени Гарзон, Жаклин Хенди, Хит Келтс, Sanli Ozlen
О фильме:
Натали трудится в БДСМ – салоне. Ее работа: доставлять состоятельным мужчинам удовольствие путем причинения страданий. Работу свою она любит и ловит от нее кайф даже больше, чем ее клиенты – мазохисты. В свободное время Натали устраивает личную жизнь, пишет автобиографический сценарий и мечтает о карьере в кино. И вот еще: она – лесбиянка...

Страна: США
Студия: Loisiada Productions
Продолжительность: 01:15:07
Перевод: любительский одноголосный, закадровый [Andi по субтитрам М. Васильева]
Файл
Кодек: XviD
Качество: DVDRip
Видео: 720x352 (16:9) 23,976 fps ~ 1170 Kbps
Звук: MP3, 48 KHz, 2 ch ~ 128 Kb/s
Субтитры: отсутствуют

Скриншоты

KSA

Post 03-Apr-2018 16:46

[Quote]

2012 / 2012
Год выхода: 2009
Жанр: Фантастика, драма
Режиссер: Роланд Эммерих
В ролях: Джон Кьюсак, Вуди Харрельсон, Тэнди Ньютон, Чиветел Эджиофор, Златко Бурич, Дэнни Гловер, Аманда Пит, Оливер Плэтт, Томас МакКарти, Генри О, Рон Селмур, Райан МакДональд, Патрик Бошо, Лайам Джеймс, Блу Манкума, Джими Мистри, Йоханн Урб, Морган Лили, Беатрис Розен, Александрэ Хауссманн, Филлипп Хауссманн, Джон Биллингсли, Чин Хань, Осрик Чау, Чанг Тсенг, Лиза Лу, Джордж Сигал, Стивен МакХэтти, Меррилин Гэнн, Патрик Гилмор, Дин Маршалл, Вив Ликок, Крис Бойд, Донна Ямамото, Дорон Белл, Дэвид Орт, Линдал Грант, Джейсон Диабло, Ти Олссон, Зинаид Мемишевич, Винсент Чэн
О фильме: Согласно календарю индейцев Майя, в 2012 году планеты солнечной системы окажутся на одной линии друг с другом, что приведет к глобальным природным катаклизмам: сильнейшие землетрясения, цунами и извержения вулканов превратят страны и целые континенты в руины. Недавно ученые подтвердили, что этот миф может стать реальностью.

Страна: США
Студия: Sony Pictures Entertainment , Farewell Productions, Centropolis Entertainment, The Mark Gordon Company
Продолжительность: 02:37:49
Перевод: Дублированный / Авторский одноголосый (А.Гаврилов), (Ю.Сербин)
Дата релиза: 03.04.2018
Файл
Кодек: x264
Качество: WEB-DLRip-AVC
Видео: MPEG-4 AVC, 2066 Кбит/с, 1024x576
Звук: Русский (AC3, 6 ch, 448 Кбит/с), английский (AC3, 6 ch, 448 Кбит/с)
Субтитры: Русские, английские
Семпл

Скриншоты

MI

Формат : Matroska
Размер файла : 4,26 Гигабайт
Продолжительность : 2ч 38мин
Общий поток : 3 859 Кбит/сек
Фильм : группа ExKinoRay, автор morfyi
Дата кодирования : UTC 2018-04-03 11:30:54
Программа-кодировщик : mkvmerge v5.8.0 ('No Sleep / Pillow') built on Sep 2 2012 15:37:04
Библиотека кодирования : libebml v1.2.3 + libmatroska v1.3.0
Видео
Формат : AVC
Формат/Информация : Advanced Video Codec
Профайл формата : High@L4.1
Настройка CABAC формата : Да
Настройка ReFrames формата : 12 кадры
Режим смешивания : Container profile=Unknown@4.1
Идентификатор кодека : V_MPEG4/ISO/AVC
Продолжительность : 2ч 37мин
Битрейт : 1 896 Кбит/сек
Номинальный битрейт : 2 066 Кбит/сек
Ширина : 1 024 пикс.
Высота : 576 пикс.
Соотношение кадра : 16/9
Частота кадров : 23,976 кадр/сек
Разрешение : 24 бит
Колориметрия : 4:2:0
Тип развёртки : Прогрессивная
Бит/(Пиксели*Кадры) : 0.146
Библиотека кодирования : x264 core 148 r2638 7599210
Настройки программы : cabac=1 / ref=12 / deblock=1:-3:-3 / analyse=0x3:0x113 / me=umh / subme=11 / psy=1 / psy_rd=1.00:0.15 / mixed_ref=1 / me_range=48 / chroma_me=1 / trellis=2 / 8x8dct=1 / cqm=0 / deadzone=21,11 / fast_pskip=0 / chroma_qp_offset=-3 / threads=6 / lookahead_threads=1 / sliced_threads=0 / nr=0 / decimate=0 / interlaced=0 / bluray_compat=0 / constrained_intra=0 / bframes=12 / b_pyramid=2 / b_adapt=2 / b_bias=0 / direct=3 / weightb=1 / open_gop=0 / weightp=2 / keyint=240 / keyint_min=23 / scenecut=40 / intra_refresh=0 / rc_lookahead=40 / rc=2pass / mbtree=0 / bitrate=2066 / ratetol=1.0 / qcomp=0.60 / qpmin=0 / qpmax=69 / qpstep=4 / cplxblur=20.0 / qblur=0.5 / vbv_maxrate=50000 / vbv_bufsize=62500 / nal_hrd=none / filler=0 / ip_ratio=1.40 / pb_ratio=1.30 / aq=3:0.80
Аудио #1
Формат : AC-3
Формат/Информация : Audio Coding 3
Идентификатор кодека : A_AC3
Продолжительность : 2ч 38мин
Режим расчёта битрейта : Постоянный
Битрейт : 448 Кбит/сек
Канал(ы) : 6 канала(ов)
Расположение каналов : Front: L C R, Rear: L R, LFE
Частота : 48,0 КГц
Заголовок : Дублированный
Язык : Russian
Аудио #2
Формат : AC-3
Формат/Информация : Audio Coding 3
Идентификатор кодека : A_AC3
Продолжительность : 2ч 38мин
Режим расчёта битрейта : Постоянный
Битрейт : 448 Кбит/сек
Канал(ы) : 6 канала(ов)
Расположение каналов : Front: L C R, Rear: L R, LFE
Частота : 48,0 КГц
Заголовок : Авторский одноголосый (А.Гаврилов)
Язык : Russian
Аудио #3
Формат : AC-3
Формат/Информация : Audio Coding 3
Идентификатор кодека : A_AC3
Продолжительность : 2ч 38мин
Режим расчёта битрейта : Постоянный
Битрейт : 448 Кбит/сек
Канал(ы) : 6 канала(ов)
Расположение каналов : Front: L C R, Rear: L R, LFE
Частота : 48,0 КГц
Заголовок : Авторский одноголосый (Ю.Сербин)
Язык : Russian
Аудио #4
Формат : AC-3
Формат/Информация : Audio Coding 3
Идентификатор кодека : A_AC3
Продолжительность : 2ч 38мин
Режим расчёта битрейта : Постоянный
Битрейт : 448 Кбит/сек
Канал(ы) : 6 канала(ов)
Расположение каналов : Front: L C R, Rear: L R, LFE
Частота : 48,0 КГц
Заголовок : Оригинал
Текст #1
Формат : UTF-8
Идентификатор кодека : S_TEXT/UTF8
Идентификатор кодека/Информация : UTF-8 Plain Text
Заголовок : Форсированные
Язык : Russian
Текст #2
Формат : UTF-8
Идентификатор кодека : S_TEXT/UTF8
Идентификатор кодека/Информация : UTF-8 Plain Text
Заголовок : Полные
Язык : Russian
Текст #3
Формат : UTF-8
Идентификатор кодека : S_TEXT/UTF8
Идентификатор кодека/Информация : UTF-8 Plain Text
Заголовок : Полные

admin

Post 11-Feb-2018 07:21

[Quote]

Информация о фильме
Название: Теперь ты в армии
Оригинальное название: Kein Bund fuers Leben
Год выхода: 2007
Жанр: Комедия
Режиссер: Гранц Хенман
В ролях: Франц Динда, Флориан Лукас, Аксель Штайн, Ян Хенрик Сталберг, Кристиан Зенгевальд, Рональд Ничке, Карстен Норгаард
О фильме: Молодой парень по имени Басти очень не хочет идти в армию. Пытаясь откосить от службы, Басти просит своего друга о помощи. Друг дает нашему герою анализы знакомой девчонки, у которой диабет, Басти сдает их как свои… но оказывается, что девчонка-то беременна! А поверить в то, что Басти забеременел, военком отказывается наотрез! Анализы — в унитаз, Басти — в казарму! Теперь его ждут такие приключения, о которых он даже не смел мечтать!

Страна: Германия
Продолжительность: 01:26:01
Перевод: Профессиональный многоголосый
Файл
Качество: DVDRip-AVC
Видео: MPEG-4 AVC, 2200 Кбит/с, 718x424@1020x424
Звук: Русский, немецкий (AC3, 6 ch, 448 Кбит/с)
Семпл
Инфо-файл

Скриншоты

admin

Post 28-Nov-2017 03:28

[Quote]

ЗнамениеKnowing«Что будет, когда закончатся числа?» Страна: США, Великобритания
Жанр: фантастика, триллер, драма, детектив
Год выпуска: 2009
Продолжительность: 02:01:29
Перевод: Профессиональный (дублированный) [Лицензия R5 ]
Перевод 2: Профессиональный (многоголосый закадровый) [Киномания]
Перевод 3: Авторский (одноголосый закадровый) [А.Гаврилов]
Перевод 4: Авторский (одноголосый закадровый) [Ю.Сербин]
Субтитры: русские,английские
Оригинальная аудиодорожка: английский
Режиссер: Алекс Пройас / Alex Proyas
В ролях: Николас Кейдж, Чандлер Кентербери, Роуз Бирн, Д.Г. Малуни, Лара Робинсон, Надя Таунсенд, Алан Хопгуд, Эдриэнн Пикеринг, Джошуа Лонг, Даниэль КартерОписание: После вскрытия «временной капсулы», в которую в 1959 группа школьников поместила рисунки со своим видением будущего, в руки к профессору Джону Кестлеру попадает загадочный лист, сверху до низу исписанный цифрами. В поисках расшифровки содержания листа, Кестлер устанавливает загадочную связь между цифрами и крупнейшими мировыми бедствиями, произошедшими на Земле за последние 50 лет. Если верить цифрам, трагедий не избежать и в будущем, только теперь Кестлер знает, когда их ожидать. Но есть ли возможность их предотвратить? И самое главное: что будет, когда цепочка цифр кончится?Доп. информация:

Автор рипа: IVAN@190282
Качество видео: BDRip-AVC |Знамение / Knowing (2009 1080p BD-Remux|
Формат видео: MKV
Видео: 1102x468 (2,35:1), 23.976 fps, 3278 Кbps, 0.256 bit/pixel
Аудио: 48 kHz, AC3 Dolby Digital, 3/2 (L,C,R,l,r) + LFE ch, 448.00 kbps | DUB
Аудио 2: 48 kHz, AC3 Dolby Digital, 3/2 (L,C,R,l,r) + LFE ch, 448.00 kbps | MVO
Аудио 3: 48 kHz, AC3 Dolby Digital, 3/2 (L,C,R,l,r) + LFE ch, 448.00 kbps | AVO отдельно
Аудио 4: 48 kHz, AC3 Dolby Digital, 3/2 (L,C,R,l,r) + LFE ch, 448.00 kbps | AVO отдельно
Аудио 5: 48 kHz, AC3 Dolby Digital, 3/2 (L,C,R,l,r) + LFE ch, 448.00 kbps | ENG
Формат субтитров: softsub (SRT)
Доп. информация о субтитрах: отключаемые

MediaInfo

General
Unique ID : 205710792111713088375979774571574131756 (0x9AC2751ADD175DA993097F76DE1EFC2C)
Complete name : E:\Мои рипы\Знамение\Знамение by_IVAN@190282.mkv
Format : Matroska
Format version : Version 4 / Version 2
File size : 3.92 GiB
Duration : 2h 1mn
Overall bit rate : 4 619 Kbps
Encoded date : UTC 2014-10-07 10:44:17
Writing application : mkvmerge v7.0.0 ('Where We Going') 64bit built on Jun 9 2014 15:16:27
Writing library : libebml v1.3.0 + libmatroska v1.4.1
DURATION : 01:52:43.464000000
NUMBER_OF_FRAMES : 1080
NUMBER_OF_BYTES : 40025
_STATISTICS_WRITING_APP : mkvmerge v7.0.0 ('Where We Going') 64bit built on Jun 9 2014 15:16:27
_STATISTICS_WRITING_DATE_UTC : 2014-10-07 10:44:17
_STATISTICS_TAGS : BPS DURATION NUMBER_OF_FRAMES NUMBER_OF_BYTESVideo
ID : 1
Format : AVC
Format/Info : Advanced Video Codec
Format profile : High@L4.1
Format settings, CABAC : Yes
Format settings, ReFrames : 13 frames
Codec ID : V_MPEG4/ISO/AVC
Duration : 2h 1mn
Bit rate : 3 278 Kbps
Width : 1 102 pixels
Height : 468 pixels
Display aspect ratio : 2.35:1
Original display aspect ratio : 2.35:1
Frame rate mode : Constant
Frame rate : 23.976 fps
Color space : YUV
Chroma subsampling : 4:2:0
Bit depth : 8 bits
Scan type : Progressive
Bits/(Pixel*Frame) : 0.265
Stream size : 2.70 GiB (69%)
Writing library : x264 core 142 r2479kMod dd79a61
Encoding settings : cabac=1 / ref=13 / deblock=1:-3:-3 / analyse=0x3:0x113 / me=umh / subme=11 / psy=1 / fade_compensate=0.00 / psy_rd=1.00:0.15 / mixed_ref=1 / me_range=48 / chroma_me=1 / trellis=2 / 8x8dct=1 / cqm=0 / deadzone=21,11 / fast_pskip=0 / chroma_qp_offset=0 / threads=7 / lookahead_threads=6 / sliced_threads=0 / slices=10 / nr=0 / decimate=1 / interlaced=0 / bluray_compat=0 / constrained_intra=0 / fgo=0 / bframes=16 / b_pyramid=2 / b_adapt=2 / b_bias=0 / direct=3 / weightb=1 / open_gop=1 / weightp=2 / keyint=240 / keyint_min=23 / scenecut=40 / intra_refresh=0 / rc_lookahead=40 / rc=2pass / mbtree=0 / bitrate=3278 / ratetol=1.0 / qcomp=0.60 / qpmin=0 / qpmax=69 / qpstep=4 / cplxblur=20.0 / qblur=0.5 / vbv_maxrate=50000 / vbv_bufsize=62500 / nal_hrd=none / filler=0 / ip_ratio=1.40 / pb_ratio=1.30 / aq=1:1.00
Default : Yes
Forced : No
Color primaries : BT.709
Transfer characteristics : BT.709
Matrix coefficients : BT.709Audio #1
ID : 2
Format : AC-3
Format/Info : Audio Coding 3
Mode extension : CM (complete main)
Format settings, Endianness : Big
Codec ID : A_AC3
Duration : 2h 1mn
Bit rate mode : Constant
Bit rate : 448 Kbps
Channel(s) : 6 channels
Channel positions : Front: L C R, Side: L R, LFE
Sampling rate : 48.0 KHz
Bit depth : 16 bits
Compression mode : Lossy
Stream size : 389 MiB (10%)
Title : dub
Default : Yes
Forced : NoAudio #2
ID : 3
Format : AC-3
Format/Info : Audio Coding 3
Mode extension : CM (complete main)
Format settings, Endianness : Big
Codec ID : A_AC3
Duration : 2h 1mn
Bit rate mode : Constant
Bit rate : 448 Kbps
Channel(s) : 6 channels
Channel positions : Front: L C R, Side: L R, LFE
Sampling rate : 48.0 KHz
Bit depth : 16 bits
Compression mode : Lossy
Stream size : 389 MiB (10%)
Title : mvo
Default : No
Forced : NoAudio #3
ID : 4
Format : AC-3
Format/Info : Audio Coding 3
Mode extension : CM (complete main)
Format settings, Endianness : Big
Codec ID : A_AC3
Duration : 2h 1mn
Bit rate mode : Constant
Bit rate : 448 Kbps
Channel(s) : 6 channels
Channel positions : Front: L C R, Side: L R, LFE
Sampling rate : 48.0 KHz
Bit depth : 16 bits
Compression mode : Lossy
Stream size : 389 MiB (10%)
Title : eng
Default : No
Forced : NoText #1
ID : 5
Format : UTF-8
Codec ID : S_TEXT/UTF8
Codec ID/Info : UTF-8 Plain Text
Default : Yes
Forced : NoText #2
ID : 6
Format : UTF-8
Codec ID : S_TEXT/UTF8
Codec ID/Info : UTF-8 Plain Text
Default : No
Forced : No

x264 log

x264 [info]: frame I:1336 Avg QP:11.33 size: 98711
x264 [info]: frame P:42186 Avg QP:14.30 size: 33107
x264 [info]: frame B:131247 Avg QP:15.62 size: 11067
x264 [info]: consecutive B-frames: 4.0% 3.5% 10.2% 25.8% 15.9% 25.8% 5.8% 4.6% 1.6% 0.8% 0.5% 0.6% 0.2% 0.1% 0.0% 0.0% 0.6%
x264 [info]: kb/s:3271.71
x264 [total]: encoded 174769 frames, 8.75 fps, 3271.71 kb/s, duration 5:33:03.46

Скриншот c названием фильма

Скриншоты

Пожалуйста кто скачал не сваливайте с раздачи!!!

admin

Post 11-Oct-2017 02:36

[Quote]

Скамейка запасныхThe Benchwarmers«3 переростка должны уделать команду 9-ти летних...справятся?»

Страна: США
Жанр: Комедия, спорт
Год выпуска: 2006
Продолжительность: 01:25:10
Перевод: Профессиональный (многоголосый закадровый) BD
Субтитры: английские
Оригинальная аудиодорожка: английский
Режиссер: Деннис Дуган / Dennis Dugan
В ролях: Роб Шнайдер, Дэвид Спейд, Джон Хидер, Джон Ловиц, Крэйг Килборн, Молли Симс, Тим Медоуз, Ник Свардсон, Эринн Бартлетт, Амори Ноласко
Описание: У Гаса, Ричи и Кларка большие проблемы с балансом желаний и возможностей. Они упёртые фанаты бейсбола и мечтают играть сами, однако злая судьба наделила их такой фантастической неуклюжестью и косорукостью, что спортивная карьера для них кажется абсолютно невозможной. Впрочем, если бог не дал им таланта, это не значит, что он обделил их упорством, смекалкой и толикой везения.
И вот друзья организовывают собственную команду, дабы попробовать пробиться хотя бы в Малую лигу. Это их единственный шанс выбраться со скамейки запасных - и как бы цели героев не расходились с их талантами, парни не намерены его упускать! Что же, раз в сто лет и палка стреляет, а записные неудачники получают шанс посрамить профи, пожалуй, всё же чаще. И, кажется, такой момент как раз наступил!..
Доп. информация:
Релиз группы:
Сохранены оригинальные главы как на Bluray
Качество видео: BDRip-AVC | Скамейка запасных / The Benchwarmers (2006) 1080p BD-Remux| HD club
Формат видео: MKV
Видео: 1104x598 (1,85:1), 23,976 fps, 4382 Кbps, 0.277 bit/pixe
Аудио: 48 kHz, AC3 Dolby Digital, 3/2 (L,C,R,l,r) + LFE ch, ~384.00 kbps avg MVO
Аудио 2: 48 kHz, AC3 Dolby Digital, 3/2 (L,C,R,l,r) + LFE ch, ~448.00 kbps avg ENG
Формат субтитров: softsub (SRT)

MediaInfo

General
Unique ID : 196482933990614737686548871554091585931 (0x93D13C92B16CCD15B5CE8D1E478A118B)
Complete name : E:\Мои рипы\Скамейка запасных\The Benchwarmers by_IVAN@190282.mkv
Format : Matroska
Format version : Version 4 / Version 2
File size : 3.16 GiB
Duration : 1h 25mn
Overall bit rate : 5 320 Kbps
Movie name : The Benchwarmers by_IVAN@190282
Encoded date : UTC 2016-03-02 03:31:43
Writing application : mkvmerge v8.8.0 ('Wind at my back') 64bit
Writing library : libebml v1.3.3 + libmatroska v1.4.4
Attachements : cover.jpg
DURATION : 01:22:59.563000000
NUMBER_OF_FRAMES : 2313
NUMBER_OF_BYTES : 62044
_STATISTICS_WRITING_APP : mkvmerge v8.8.0 ('Wind at my back') 64bit
_STATISTICS_WRITING_DATE_UT : 2016-03-02 03:31:43
_STATISTICS_TAGS : BPS DURATION NUMBER_OF_FRAMES NUMBER_OF_BYTES
Video
ID : 1
Format : AVC
Format/Info : Advanced Video Codec
Format profile : High@L4.1
Format settings, CABAC : Yes
Format settings, ReFrames : 12 frames
Codec ID : V_MPEG4/ISO/AVC
Duration : 1h 25mn
Bit rate : 4 382 Kbps
Width : 1 104 pixels
Height : 598 pixels
Display aspect ratio : 1.85:1
Frame rate mode : Constant
Frame rate : 23.976 fps
Color space : YUV
Chroma subsampling : 4:2:0
Bit depth : 8 bits
Scan type : Progressive
Bits/(Pixel*Frame) : 0.277
Stream size : 2.61 GiB (82%)
Title : The Benchwarmers by_IVAN@190282
Writing library : x264 core 148 r2579kMod 73ae2d1
Encoding settings : cabac=1 / ref=12 / deblock=1:-3:-3 / analyse=0x3:0x133 / me=umh / subme=11 / psy=1 / fade_compensate=0.00 / psy_rd=1.00:0.05 / mixed_ref=1 / me_range=48 / chroma_me=1 / trellis=2 / 8x8dct=1 / cqm=0 / deadzone=21,11 / fast_pskip=0 / chroma_qp_offset=-3 / threads=6 / lookahead_threads=6 / sliced_threads=0 / nr=0 / decimate=1 / interlaced=0 / bluray_compat=0 / constrained_intra=0 / fgo=0 / bframes=16 / b_pyramid=2 / b_adapt=2 / b_bias=0 / direct=3 / weightb=1 / open_gop=0 / weightp=2 / keyint=240 / keyint_min=23 / scenecut=40 / intra_refresh=0 / rc_lookahead=60 / rc=crf / mbtree=0 / crf=18.2000 / qcomp=0.60 / qpmin=0 / qpmax=69 / qpstep=4 / vbv_maxrate=50000 / vbv_bufsize=62500 / crf_max=0.0 / nal_hrd=none / filler=0 / ip_ratio=1.40 / pb_ratio=1.30 / aq=2:1.10
Language : English
Default : Yes
Forced : No
Color range : Limited
Color primaries : BT.709
Transfer characteristics : BT.709
Matrix coefficients : BT.709
DURATION : 01:25:10.105000000
NUMBER_OF_FRAMES : 122520
NUMBER_OF_BYTES : 2864967424
_STATISTICS_WRITING_APP : mkvmerge v8.8.0 ('Wind at my back') 64bit
_STATISTICS_WRITING_DATE_UT : 2016-03-02 03:31:43
_STATISTICS_TAGS : BPS DURATION NUMBER_OF_FRAMES NUMBER_OF_BYTES
Audio #1
ID : 2
Format : AC-3
Format/Info : Audio Coding 3
Mode extension : CM (complete main)
Format settings, Endianness : Big
Codec ID : A_AC3
Duration : 1h 25mn
Bit rate mode : Constant
Bit rate : 384 Kbps
Channel(s) : 6 channels
Channel positions : Front: L C R, Side: L R, LFE
Sampling rate : 48.0 KHz
Compression mode : Lossy
Stream size : 234 MiB (7%)
Title : Mvo
Language : Russian
Default : Yes
Forced : No
Audio #2
ID : 3
Format : AC-3
Format/Info : Audio Coding 3
Mode extension : CM (complete main)
Format settings, Endianness : Big
Codec ID : A_AC3
Duration : 1h 25mn
Bit rate mode : Constant
Bit rate : 448 Kbps
Channel(s) : 6 channels
Channel positions : Front: L C R, Side: L R, LFE
Sampling rate : 48.0 KHz
Compression mode : Lossy
Stream size : 273 MiB (8%)
Title : Eng
Language : English
Default : No
Forced : No
Text #1
ID : 4
Format : UTF-8
Codec ID : S_TEXT/UTF8
Codec ID/Info : UTF-8 Plain Text
Title : Eng
Language : English
Default : No
Forced : No
Text #2
ID : 5
Format : UTF-8
Codec ID : S_TEXT/UTF8
Codec ID/Info : UTF-8 Plain Text
Title : Eng SDH
Language : English
Default : No
Forced : No
Menu
00:00:00.000 : en:Chapter 1
00:04:04.244 : en:Chapter 2
00:06:04.530 : en:Chapter 3
00:13:18.714 : en:Chapter 4
00:17:18.245 : en:Chapter 5
00:22:51.745 : en:Chapter 6
00:30:55.353 : en:Chapter 7
00:33:52.947 : en:Chapter 8
00:38:45.489 : en:Chapter 9
00:41:24.023 : en:Chapter 10
00:49:57.202 : en:Chapter 11
00:55:25.030 : en:Chapter 12
00:59:37.907 : en:Chapter 13
01:06:10.466 : en:Chapter 14
01:11:44.550 : en:Chapter 15
01:14:08.444 : en:Chapter 16

x264 log

x264 [info]: frame I:1367 Avg QP:19.00 size:108153 PSNR Mean Y:44.28 U:47.75 V:48.82 Avg:45.24 Global:44.35
x264 [info]: frame P:27230 Avg QP:20.16 size: 44530 PSNR Mean Y:43.17 U:47.03 V:48.20 Avg:44.18 Global:43.07
x264 [info]: frame B:93923 Avg QP:21.94 size: 16019 PSNR Mean Y:42.58 U:46.91 V:48.29 Avg:43.66 Global:42.19
x264 [info]: consecutive B-frames: 3.0% 3.6% 8.8% 18.1% 18.3% 36.2% 4.9% 1.7% 1.6% 1.1% 0.8% 0.5% 0.3% 0.3% 0.3% 0.1% 0.6%
x264 [total]: encoded 122520 frames, 5.45 fps, 4485.18 kb/s, duration 6:14:53.52

Скриншот c названием фильма

Скриншоты

Убедительная просьба пожалуйста кто скачал не бросайте раздачу!!!

admin

Post 11-Oct-2017 02:09

[Quote]

РестлерThe Wrestler«Любовь. Боль. Слава.»

Страна: США, Франция
Жанр: Драма, спорт
Год выпуска: 2008
Продолжительность: 01:49:10
Перевод: Профессиональный (дублированный) Blu-ray
Субтитры: русские
Режиссер: Даррен Аронофски / Darren Aronofsky
В ролях: Микки Рурк, Мариса Томей, Ивэн Рэйчел Вуд, Марк Марголис, Тодд Бэрри, Уасс М. Стивенс, Джуда Фридлендер, Эрнест Миллер, Дилан Кейт Саммерс
Описание: Главный герой фильма - Рэнди «Баран» Робинсон - был звездой 80-х, но стал бледной копией самого себя. Получив инфаркт во время одного из матчей, борец услышал от врачей неприятную весть: если он продолжит выступления, то может умереть. Пытаясь начать жизнь заново, Рэнди устроился работать в магазин и налаживал отношения с дочерью. Но уж больно заманчивой была перспектива матча-реванша со старым соперником по кличке Аятолла…
Доп. информация:
Релиз группы:
Качество видео: BDRip-AVC | Рестлер / Wrestler (2008) Blu-ray|HD Club|
Формат видео: MKV
Видео: 1152x480 (2:40:1), 23,976 fps, 4212 Кbps, 0.318 bit/pixe
Аудио: 48 kHz, AC3 Dolby Digital, 3/2 (L,C,R,l,r) + LFE ch, ~448.00 kbps avg | DUB
Аудио 2: 48 kHz, AC3 Dolby Digital, 3/2 (L,C,R,l,r) + LFE ch, ~448.00 kbps avg | ENG
Формат субтитров: softsub (SRT)
Доп. информация о субтитрах: отключаемые

Знаете ли Вы что

* На главную роль претендовал Николас Кейдж.
* Тренером Микки Рурка был Афа Анойа.
* Сценарист фильма Роберт Д. Сигел снялся в фильме в небольшой роли фаната, который взял автограф у Рэнди Робинсона.
* Актриса Мариса Томей, сыгравшая подругу Рэнди, училась с режиссером фильма Дарреном Аронофски в одной школе (средняя школа Эдварда Мэроу в Нью-Йорке).

MediaInfo

General
Unique ID : 195417661881740800115730519675140194286 (0x9304129A5F0ACD45AC1FE3A31C163FEE)
Complete name : E:\Мои рипы\Реслер\Реслер by_IVAN@190282.mkv
Format : Matroska
Format version : Version 4 / Version 2
File size : 3.97 GiB
Duration : 1h 49mn
Overall bit rate : 5 212 Kbps
Encoded date : UTC 2015-01-06 03:25:09
Writing application : mkvmerge v7.0.0 ('Where We Going') 64bit built on Jun 9 2014 15:16:27
Writing library : libebml v1.3.0 + libmatroska v1.4.1
_STATISTICS_WRITING_APP : mkvmerge v7.0.0 ('Where We Going') 64bit built on Jun 9 2014 15:16:27
_STATISTICS_WRITING_DATE_UTC : 2015-01-06 03:25:09
_STATISTICS_TAGS : BPS DURATION NUMBER_OF_FRAMES NUMBER_OF_BYTES
DURATION : 01:48:49.485000000
NUMBER_OF_FRAMES : 1525
NUMBER_OF_BYTES : 53168
Video
ID : 1
Format : AVC
Format/Info : Advanced Video Codec
Format profile : High@L4.1
Format settings, CABAC : Yes
Format settings, ReFrames : 13 frames
Codec ID : V_MPEG4/ISO/AVC
Duration : 1h 49mn
Bit rate : 4 212 Kbps
Width : 1 152 pixels
Height : 480 pixels
Display aspect ratio : 2.40:1
Frame rate mode : Constant
Frame rate : 23.976 fps
Color space : YUV
Chroma subsampling : 4:2:0
Bit depth : 8 bits
Scan type : Progressive
Bits/(Pixel*Frame) : 0.318
Stream size : 3.21 GiB (81%)
Writing library : x264 core 144 r2525kMod 40bb568
Encoding settings : cabac=1 / ref=13 / deblock=1:-3:-3 / analyse=0x3:0x113 / me=umh / subme=11 / psy=1 / fade_compensate=0.00 / psy_rd=1.00:0.15 / mixed_ref=1 / me_range=48 / chroma_me=1 / trellis=2 / 8x8dct=1 / cqm=0 / deadzone=21,11 / fast_pskip=0 / chroma_qp_offset=0 / threads=6 / lookahead_threads=6 / sliced_threads=0 / slices=10 / nr=0 / decimate=1 / interlaced=0 / bluray_compat=0 / constrained_intra=0 / fgo=0 / bframes=16 / b_pyramid=2 / b_adapt=2 / b_bias=0 / direct=1 / weightb=1 / open_gop=1 / weightp=2 / keyint=240 / keyint_min=23 / scenecut=40 / intra_refresh=0 / rc_lookahead=40 / rc=crf / mbtree=0 / crf=19.6000 / qcomp=0.60 / qpmin=0 / qpmax=69 / qpstep=4 / vbv_maxrate=50000 / vbv_bufsize=62500 / crf_max=0.0 / nal_hrd=none / filler=0 / ip_ratio=1.40 / pb_ratio=1.30 / aq=1:1.00
Default : Yes
Forced : No
Color primaries : BT.709
Transfer characteristics : BT.709
Matrix coefficients : BT.709
Audio #1
ID : 2
Format : AC-3
Format/Info : Audio Coding 3
Mode extension : CM (complete main)
Format settings, Endianness : Big
Codec ID : A_AC3
Duration : 1h 49mn
Bit rate mode : Constant
Bit rate : 448 Kbps
Channel(s) : 6 channels
Channel positions : Front: L C R, Side: L R, LFE
Sampling rate : 48.0 KHz
Bit depth : 16 bits
Compression mode : Lossy
Stream size : 350 MiB (9%)
Title : Dub
Default : Yes
Forced : No
Audio #2
ID : 3
Format : AC-3
Format/Info : Audio Coding 3
Mode extension : CM (complete main)
Format settings, Endianness : Big
Codec ID : A_AC3
Duration : 1h 49mn
Bit rate mode : Constant
Bit rate : 448 Kbps
Channel(s) : 6 channels
Channel positions : Front: L C R, Side: L R, LFE
Sampling rate : 48.0 KHz
Bit depth : 16 bits
Compression mode : Lossy
Stream size : 350 MiB (9%)
Title : Eng
Default : No
Forced : No
Text #1
ID : 4
Format : UTF-8
Codec ID : S_TEXT/UTF8
Codec ID/Info : UTF-8 Plain Text
Title : Rus
Default : Yes
Forced : No
Text #2
ID : 5
Format : UTF-8
Codec ID : S_TEXT/UTF8
Codec ID/Info : UTF-8 Plain Text
Title : Eng
Default : No
Forced : No
Menu
00:00:00.000 : :Chapter 1
00:07:33.411 : :Chapter 2
00:12:00.302 : :Chapter 3
00:12:59.445 : :Chapter 4
00:15:55.370 : :Chapter 5
00:20:56.922 : :Chapter 6
00:23:15.434 : :Chapter 7
00:25:52.675 : :Chapter 8
00:29:59.255 : :Chapter 9
00:38:14.041 : :Chapter 10
00:46:43.842 : :Chapter 11
00:49:46.315 : :Chapter 12
00:53:19.528 : :Chapter 13
00:55:10.222 : :Chapter 14
00:58:07.858 : :Chapter 15
01:08:42.326 : :Chapter 16
01:12:22.337 : :Chapter 17
01:15:45.707 : :Chapter 18
01:19:10.162 : :Chapter 19
01:22:46.836 : :Chapter 20
01:25:09.686 : :Chapter 21
01:28:07.738 : :Chapter 22
01:31:15.552 : :Chapter 23
01:36:02.756 : :Chapter 24
01:37:35.890 : :Chapter 25
01:40:35.404 : :Chapter 26
01:45:16.518 : :Chapter 27
01:48:44.475 : :Chapter 28

x264 log

VIDEO ENCODING
x264 [info]: frame I:900 Avg QP:18.52 size: 68322
x264 [info]: frame P:34455 Avg QP:19.61 size: 35823
x264 [info]: frame B:121690 Avg QP:20.67 size: 18361
x264 [info]: consecutive B-frames: 1.6% 4.3% 9.6% 21.1% 15.5% 33.0% 5.2% 1.5% 2.8% 0.8% 1.3% 1.2% 0.7% 0.2% 0.3% 0.1% 0.9%
x264 [info]: kb/s:4311.53
x264 [total]: encoded 157045 frames, 3.52 fps, 4311.53 kb/s, duration 12:23:46.28

Скриншот c названием фильма

Скриншоты


Убедительная просьба пожалуйста кто скачал не бросайте раздачу!!!

admin

Post 11-Oct-2017 02:05

[Quote]

Перевозчик 3Transporter 3«Правила те же... Кроме одного...»

Страна: Франция, Великобритания
Жанр: Боевик, триллер, приключения, криминал
Год выпуска: 2008
Продолжительность: 01:43:34
Перевод: Профессиональный (дублированный) Blu-ray
Перевод 2: Авторский (одноголосый закадровый) А.Гаврилов
Перевод 3: Авторский (одноголосый закадровый) Ю.Немахов
Субтитры: русские,английские
Оригинальная аудиодорожка: английский
Режиссер: Оливье Мегатон / Olivier Megaton
В ролях: Джейсон Стэтхэм, Наталья Рудакова, Франсуа Берлеан, Роберт Нэппер, Ерун Краббе, Алекс Коболд, Дэвид Атракчи, Ян Сандберг, Эрик Эбони, Дэвид Камменос
Описание: После своих последних приключений в Майами, Фрэнк Мартин решил поменять работу «перевозчика» на спокойную и уединенную жизнь во французской Ривьере.
Но его планам не суждено было сбыться, когда к нему обратился бывший солдат из отряда «Дельта» Йонас Джонсон.
Он рассказал, что по заказу корпорации «Ecocorp», занимающейся переработкой и утилизацией отходов, похищена Валентина — дочь украинского министра по охране окружающей среды Леонида Фазилева — чтобы путем вымогательства получить официальное разрешение для утилизации ядовитых отходов в Украине.
Теперь задача героя — доставить Валентину через Европу в Одессу.
Чтобы обеспечить выполнение задания, Джонсон одевает Фрэнку и Валентине электронные браслеты, которые могут взорваться, если их обладатели удаляются на 20 метров от автомобиля.
Доп. информация:
Релиз группы:
Сохранены оригинальные главы как на Bluray
Качество видео: BDRip-AVC |Перевозчик 3 / Transporter 3 (2008) 1080p BD-Remux| HD club
Формат видео: MKV
Видео: 1136x484 (2:35:1), 23,976 fps, 4469 Кbps, 0.339 bit/pixe
Аудио: 48 kHz, AC3 Dolby Digital, 3/2 (L,C,R,l,r) + LFE ch, ~448.00 kbps avg | DUB
Аудио 2: 48 kHz, AC3 Dolby Digital, 3/2 (L,C,R,l,r) + LFE ch, ~448.00 kbps avg | ENG
Аудио 3: 48 kHz, AC3 Dolby Digital, 3/2 (L,C,R,l,r) + LFE ch, ~448.00 kbps avg | AVO отдельно
Аудио 4: 48 kHz, AC3 Dolby Digital, 3/2 (L,C,R,l,r) + LFE ch, ~448.00 kbps avg | AVO отдельно
Формат субтитров: softsub (SRT)
Доп. информация о субтитрах: отключаемые

MediaInfo

General
Unique ID : 252038882279026435490355374111700831910 (0xBD9CEC4D355984CAA3FAE0C68B944EA6)
Complete name : E:\Мои рипы\Перевозчик 3\Перевозчик 3 by_IVAN@190282.mkv
Format : Matroska
Format version : Version 4 / Version 2
File size : 3.95 GiB
Duration : 1h 43mn
Overall bit rate : 5 456 Kbps
Encoded date : UTC 2016-03-10 00:50:59
Writing application : mkvmerge v8.8.0 ('Wind at my back') 64bit
Writing library : libebml v1.3.3 + libmatroska v1.4.4
Attachements : cover.jpg
DURATION : 01:35:34.068000000
NUMBER_OF_FRAMES : 878
NUMBER_OF_BYTES : 29339
_STATISTICS_WRITING_APP : mkvmerge v8.8.0 ('Wind at my back') 64bit
_STATISTICS_WRITING_DATE_UT : 2016-03-10 00:50:59
_STATISTICS_TAGS : BPS DURATION NUMBER_OF_FRAMES NUMBER_OF_BYTES
Video
ID : 1
Format : AVC
Format/Info : Advanced Video Codec
Format profile : High@L4.1
Format settings, CABAC : Yes
Format settings, ReFrames : 14 frames
Codec ID : V_MPEG4/ISO/AVC
Duration : 1h 43mn
Bit rate : 4 452 Kbps
Width : 1 136 pixels
Height : 484 pixels
Display aspect ratio : 2.35:1
Frame rate mode : Constant
Frame rate : 23.976 fps
Color space : YUV
Chroma subsampling : 4:2:0
Bit depth : 8 bits
Scan type : Progressive
Bits/(Pixel*Frame) : 0.338
Stream size : 3.22 GiB (82%)
Writing library : x264 core 144 r2525kMod 40bb568
Encoding settings : cabac=1 / ref=14 / deblock=1:-3:-3 / analyse=0x3:0x113 / me=umh / subme=11 / psy=1 / fade_compensate=0.00 / psy_rd=1.00:0.15 / mixed_ref=1 / me_range=48 / chroma_me=1 / trellis=2 / 8x8dct=1 / cqm=0 / deadzone=21,11 / fast_pskip=0 / chroma_qp_offset=0 / threads=6 / lookahead_threads=6 / sliced_threads=0 / nr=0 / decimate=1 / interlaced=0 / bluray_compat=0 / constrained_intra=0 / fgo=0 / bframes=16 / b_pyramid=2 / b_adapt=2 / b_bias=0 / direct=1 / weightb=1 / open_gop=1 / weightp=2 / keyint=240 / keyint_min=23 / scenecut=40 / intra_refresh=0 / rc_lookahead=40 / rc=crf / mbtree=0 / crf=18.7000 / qcomp=0.60 / qpmin=0 / qpmax=69 / qpstep=4 / vbv_maxrate=50000 / vbv_bufsize=62500 / crf_max=0.0 / nal_hrd=none / filler=0 / ip_ratio=1.40 / pb_ratio=1.30 / aq=1:1.00
Default : Yes
Forced : No
Color range : Limited
Color primaries : BT.709
Transfer characteristics : BT.709
Matrix coefficients : BT.709
Audio #1
ID : 2
Format : AC-3
Format/Info : Audio Coding 3
Mode extension : CM (complete main)
Format settings, Endianness : Big
Codec ID : A_AC3
Duration : 1h 43mn
Bit rate mode : Constant
Bit rate : 448 Kbps
Channel(s) : 6 channels
Channel positions : Front: L C R, Side: L R, LFE
Sampling rate : 48.0 KHz
Compression mode : Lossy
Stream size : 332 MiB (8%)
Title : Dub
Default : Yes
Forced : No
Audio #2
ID : 3
Format : AC-3
Format/Info : Audio Coding 3
Mode extension : CM (complete main)
Format settings, Endianness : Big
Codec ID : A_AC3
Duration : 1h 43mn
Bit rate mode : Constant
Bit rate : 448 Kbps
Channel(s) : 6 channels
Channel positions : Front: L C R, Side: L R, LFE
Sampling rate : 48.0 KHz
Compression mode : Lossy
Stream size : 332 MiB (8%)
Title : Eng
Default : No
Forced : No
Text #1
ID : 4
Format : UTF-8
Codec ID : S_TEXT/UTF8
Codec ID/Info : UTF-8 Plain Text
Title : Rus
Default : Yes
Forced : No
Text #2
ID : 5
Format : UTF-8
Codec ID : S_TEXT/UTF8
Codec ID/Info : UTF-8 Plain Text
Title : Eng
Default : No
Forced : No
Menu
00:00:00.000 : en:Lower Level Breach
00:07:40.710 : en:Getting Away
00:16:40.874 : en:Environmental Business
00:24:08.989 : en:First Time for Everything
00:32:56.474 : en:Precious Cargo
00:42:38.889 : en:Unfinished Business
00:51:17.032 : en:We Have a Problem
01:00:12.317 : en:Long Term Commitment
01:10:46.825 : en:Detour
01:19:47.157 : en:Off Course
01:26:35.023 : en:You're Fired
01:35:51.871 : en:Exchanging Information
01:43:32.873 : en:Lighten Up

x264 log

VIDEO ENCODING
x264 [info]: frame I:1198 Avg QP:17.44 size: 76950
x264 [info]: frame P:39108 Avg QP:19.50 size: 40093
x264 [info]: frame B:108683 Avg QP:21.08 size: 17302
x264 [info]: consecutive B-frames: 5.1% 6.3% 12.0% 23.9% 14.7% 27.6% 5.9% 1.1% 1.5% 0.8% 0.5% 0.2% 0.2% 0.1% 0.0% 0.0% 0.1%
x264 [info]: kb/s:4558.06
x264 [total]: encoded 148989 frames, 4.06 fps, 4558.06 kb/s, duration 10:10:56.83

Скриншот c названием фильма

Скриншоты

Сравнения

Source by_IVAN@190282
Убедительная просьба пожалуйста кто скачал не бросайте раздачу!!!

admin

Post 09-Oct-2017 08:29

[Quote]

Судный деньDoomsday«У человечества есть срок годности...» Расширенная версия / Unrated Edition

Страна: Германия, США, Великобритания, ЮАР
Жанр: Фантастика, боевик, триллер
Год выпуска: 2008
Продолжительность: 01:52:50
Перевод: Профессиональный (дублированный) Blu-ray
Перевод 2: Профессиональный (многоголосый закадровый) Киномания
Перевод 3: Профессиональный (многоголосый закадровый) Кравец
Перевод 4: Авторский (одноголосый закадровый) А.Гаврилов
Перевод 5: Авторский (одноголосый закадровый) Ю.Немахов
Субтитры: русские,английские
Оригинальная аудиодорожка: английский
Режиссер: Нил Маршалл / Neil Marshall
В ролях: Рона Митра, Боб Хоскинс, Дэвид О’Хара, Адриан Лестер, Рик Уорден, Шон Пертуи, Даррен Морфитт, МайАнна Бёринг, Малкольм МакДауэлл, Кэрин Петерсон
Описание: Великобритания, недалёкое будущее. Смертельный и совершенно неизученный вирус, названный «Жнецом» («Reaper Virus») обрушился на страну, убивая десятки и сотни тысяч жителей. Не имея возможности решить проблему, правительство решает изолировать очаг заразы от не инфицированной местности, построив вокруг территории буйства «Жнеца» стену.
Проходит 30 лет, но вирус снова заявил о себе. Тогда было решено послать в заражённую область первоклассную команду спецназа для поисков возможных методов борьбы с вирусом. Ради выполнения цели и сохранения жизней ребятам придется пробиваться через настоящий оживший кошмар…
Доп. информация:
Релиз группы:
Сохранены оригинальные главы как на Bluray
Качество видео: BDRip-AVC | Судный день / Doomsday (2008) [Unrated Edition] 1080p BD-Remux|HD Club|
Формат видео: MKV
Видео: 1128x480 (2:35:1), 23,976 fps, 4500 Кbps, 0.348 bit/pixe
Аудио: 48 kHz, AC3 Dolby Digital, 3/2 (L,C,R,l,r) + LFE ch, ~448.00 kbps avg DUB
Аудио 2: 48 kHz, AC3 Dolby Digital, 3/2 (L,C,R,l,r) + LFE ch, ~448.00 kbps avg MVO
Аудио 3: 48 kHz, AC3 Dolby Digital, 3/2 (L,C,R,l,r) + LFE ch, ~448.00 kbps avg ENG
Аудио 4: 48 kHz, AC3 Dolby Digital, 3/2 (L,C,R,l,r) + LFE ch, ~448.00 kbps avg MVO отдельно
Аудио 5: 48 kHz, AC3 Dolby Digital, 3/2 (L,C,R,l,r) + LFE ch, ~448.00 kbps avg AVO
отдельно
Аудио 6: 48 kHz, AC3 Dolby Digital, 3/2 (L,C,R,l,r) + LFE ch, ~448.00 kbps avg AVO отдельно

Формат субтитров: softsub (SRT)
Доп. информация о субтитрах: отключаемые

MediaInfo

General
Unique ID : 235450806380122096032004883233796804207 (0xB1222D0418BDB6479047785F7A504E6F)
Complete name : D:\Мои рипы\Судный день\Doomsday by_IVAN@190282.mkv
Format : Matroska
Format version : Version 4 / Version 2
File size : 4.71 GiB
Duration : 1h 52mn
Overall bit rate : 5 974 Kbps
Encoded date : UTC 2016-03-04 00:49:18
Writing application : mkvmerge v8.8.0 ('Wind at my back') 64bit
Writing library : libebml v1.3.3 + libmatroska v1.4.4
Attachements : cover.jpg
DURATION : 01:44:17.878000000
NUMBER_OF_FRAMES : 847
NUMBER_OF_BYTES : 29637
_STATISTICS_WRITING_APP : mkvmerge v8.8.0 ('Wind at my back') 64bit
_STATISTICS_WRITING_DATE_UT : 2016-03-04 00:49:18
_STATISTICS_TAGS : BPS DURATION NUMBER_OF_FRAMES NUMBER_OF_BYTES
Video
ID : 1
Format : AVC
Format/Info : Advanced Video Codec
Format profile : High@L4.1
Format settings, CABAC : Yes
Format settings, ReFrames : 12 frames
Codec ID : V_MPEG4/ISO/AVC
Duration : 1h 52mn
Bit rate : 4 501 Kbps
Width : 1 128 pixels
Height : 480 pixels
Display aspect ratio : 2.35:1
Frame rate mode : Constant
Frame rate : 23.976 fps
Color space : YUV
Chroma subsampling : 4:2:0
Bit depth : 8 bits
Scan type : Progressive
Bits/(Pixel*Frame) : 0.348
Stream size : 3.56 GiB (76%)
Title : Doomsday by_IVAN@190282
Writing library : x264 core 146 r2538kMod 121396c
Encoding settings : cabac=1 / ref=12 / deblock=1:-3:-3 / analyse=0x3:0x133 / me=umh / subme=11 / psy=1 / fade_compensate=0.00 / psy_rd=1.00:0.05 / mixed_ref=1 / me_range=48 / chroma_me=1 / trellis=2 / 8x8dct=1 / cqm=0 / deadzone=21,11 / fast_pskip=0 / chroma_qp_offset=-3 / threads=6 / lookahead_threads=6 / sliced_threads=0 / nr=0 / decimate=1 / interlaced=0 / bluray_compat=0 / constrained_intra=0 / fgo=0 / bframes=16 / b_pyramid=2 / b_adapt=2 / b_bias=0 / direct=3 / weightb=1 / open_gop=0 / weightp=2 / keyint=240 / keyint_min=23 / scenecut=40 / intra_refresh=0 / rc_lookahead=60 / rc=crf / mbtree=0 / crf=18.5000 / qcomp=0.60 / qpmin=0 / qpmax=69 / qpstep=4 / vbv_maxrate=50000 / vbv_bufsize=62500 / crf_max=0.0 / nal_hrd=none / filler=0 / ip_ratio=1.40 / pb_ratio=1.30 / aq=2:1.80
Language : English
Default : Yes
Forced : No
Color range : Limited
Color primaries : BT.709
Transfer characteristics : BT.709
Matrix coefficients : BT.709
DURATION : 01:52:50.764000000
NUMBER_OF_FRAMES : 162336
NUMBER_OF_BYTES : 3918381804
_STATISTICS_WRITING_APP : mkvmerge v8.8.0 ('Wind at my back') 64bit
_STATISTICS_WRITING_DATE_UT : 2016-03-04 00:49:18
_STATISTICS_TAGS : BPS DURATION NUMBER_OF_FRAMES NUMBER_OF_BYTES
Audio #1
ID : 2
Format : AC-3
Format/Info : Audio Coding 3
Mode extension : CM (complete main)
Format settings, Endianness : Big
Codec ID : A_AC3
Duration : 1h 52mn
Bit rate mode : Constant
Bit rate : 448 Kbps
Channel(s) : 6 channels
Channel positions : Front: L C R, Side: L R, LFE
Sampling rate : 48.0 KHz
Compression mode : Lossy
Stream size : 362 MiB (7%)
Title : Dub
Language : Russian
Default : Yes
Forced : No
Audio #2
ID : 3
Format : AC-3
Format/Info : Audio Coding 3
Mode extension : CM (complete main)
Format settings, Endianness : Big
Codec ID : A_AC3
Duration : 1h 52mn
Bit rate mode : Constant
Bit rate : 448 Kbps
Channel(s) : 6 channels
Channel positions : Front: L C R, Side: L R, LFE
Sampling rate : 48.0 KHz
Compression mode : Lossy
Stream size : 362 MiB (7%)
Title : Eng
Language : English
Default : No
Forced : No
Audio #3
ID : 4
Format : AC-3
Format/Info : Audio Coding 3
Mode extension : CM (complete main)
Format settings, Endianness : Big
Codec ID : A_AC3
Duration : 1h 52mn
Bit rate mode : Constant
Bit rate : 448 Kbps
Channel(s) : 6 channels
Channel positions : Front: L C R, Side: L R, LFE
Sampling rate : 48.0 KHz
Compression mode : Lossy
Stream size : 362 MiB (7%)
Title : Mvo.Киномания
Language : Russian
Default : No
Forced : No
Text #1
ID : 5
Format : UTF-8
Codec ID : S_TEXT/UTF8
Codec ID/Info : UTF-8 Plain Text
Title : Rus
Language : Russian
Default : No
Forced : No
Text #2
ID : 6
Format : UTF-8
Codec ID : S_TEXT/UTF8
Codec ID/Info : UTF-8 Plain Text
Title : Eng
Language : English
Default : No
Forced : No
Menu
00:00:00.000 : en:Reaper Virus (Main Titles)
00:06:13.122 : en:Laws Of Nature
00:13:25.638 : en:Find A Cure
00:17:57.076 : en:No Rules, No Back Up
00:25:27.400 : en:Take Us In
00:30:53.142 : en:We Got A Live One
00:36:41.782 : en:Emergency Evacuation
00:44:33.045 : en:Passeport To The Promised Land
00:50:11.383 : en:Give 'Em Hell
00:57:18.351 : en:Get Me Out Of Here
01:00:12.483 : en:On The Move
01:06:41.747 : en:Natural Selection
01:13:17.684 : en:Inside The Hot Zone
01:16:58.780 : en:Nothing To Lose
01:22:59.808 : en:Under Attack
01:28:33.683 : en:Follow The Prize
01:32:31.837 : en:Here They Come
01:37:48.320 : en:Just A Job
01:41:31.960 : en:Hero Of The Hour
01:45:05.841 : en:End Titles

x264 log

VIDEO ENCODING
x264 [info]: frame I:1326 Avg QP:16.49 size: 74971 PSNR Mean Y:45.43 U:49.38 V:49.67 Avg:46.39 Global:44.66
x264 [info]: frame P:44396 Avg QP:18.05 size: 39230 PSNR Mean Y:44.45 U:49.02 V:49.41 Avg:45.51 Global:43.82
x264 [info]: frame B:116614 Avg QP:19.63 size: 17813 PSNR Mean Y:43.59 U:48.94 V:49.28 Avg:44.74 Global:43.03
x264 [info]: consecutive B-frames: 5.9% 6.2% 11.6% 27.6% 16.3% 26.5% 2.3% 1.6% 0.5% 0.5% 0.2% 0.2% 0.1% 0.1% 0.1% 0.1% 0.2%
x264 [total]: encoded 162336 frames, 6.41 fps, 4500.77 kb/s, duration 7:02:01.88

Скриншот c названием фильма

Скриншоты

Информация о дубляже

Unrated версия не выходила в дубляже, есть места без перевода

Убедительная просьба пожалуйста кто скачал не бросайте раздачу!!!

admin

Post 07-Oct-2017 08:33

[Quote]

Никогда Не СдавайсяNever Back Down«Win or Lose... Everyone Has Their Fight»

Страна: США
Жанр: Боевик, драма, спорт
Год выпуска: 2008
Продолжительность: 01:53:26
Перевод: Профессиональный (дублированный) Blu-ray
Субтитры: русские , английские
Оригинальная аудиодорожка: английский
Режиссер: Джефф Уадлоу / Jeff Wadlow
В ролях:
Шон Фарис, Эмбер Хёрд, Кэм Жиганде, Ивэн Питерс, Лесли Хоуп, Джимон Хонсу, Виатт Смит, Эффион Крокетт, Нил Браун мл., Лоурен Лич, Тиффани Маршалл, Александрия Иона
Описание: Джейк Тайлер вместе со всей своей семьей переезжает в Орландо, чтобы поддержать стремление младшего брата добиться успехов в профессиональной теннисной карьере. Джейк, который в родном городе был звёздой футбольной команды, на новом месте превращается в изгоя. Пытаясь как-то адаптироваться в новом обществе, Джейк принимает приглашение очаровательной одноклассницы Байи на вечеринку. Там он вопреки своим желаниям ввязывается в драку с местным задирой Райаном, в результате которой оказывается побитым и униженным.
Доп. информация:
Релиз группы:
Сохранены оригинальные главы как на Bluray
Качество видео: BDRip-AVC | Никогда Не Сдавайся / Never Back Down (2008) Blu-ray|HD Club|
Формат видео: MKV
Видео: 1152x480 (2:40:1), 23,976 fps, 3684 Кbps, 0.278 bit/pixe
Аудио: 48 kHz, AC3 Dolby Digital, 3/2 (L,C,R,l,r) + LFE ch, ~448.00 kbps avg | DUB
Аудио 2: 48 kHz, AC3 Dolby Digital, 3/2 (L,C,R,l,r) + LFE ch, ~448.00 kbps avg | ENG
Формат субтитров: softsub (SRT)
Доп. информация о субтитрах: отключаемые

Знаете ли Вы что

* Чтобы обрести облик настоящего бойца, Фэрису пришлось нарастить 15 фунтов мышечной массы.
* Съёмки проходили с 16 июля 2007 года в Лос-Анджелесе и Флориде.
* Рабочее название картины вплоть до декабря 2007 года - «Get Some».
* Спортсменов для фильма нашли в различных школах и спортазалах штата Флорида: Pure Pain Thai Kickboxing (город Winter Springs), в Gracie Bara и Shogun Fight School (город Orlando), а также в Kokopelli's Gym (город Longwood).
* Песня группы Papa Roach «To be loved» звучала в трейлере к фильму, но не была включена в фильм.

MediaInfo

General
Unique ID : 219587505911402085662001269861356554698 (0xA53303EB041129AEA27FF5CF14CA49CA)
Complete name : E:\Мои рипы\Никогда не сдавайся\Никогда не сдавайся by_IVAN@.190282.mkv
Format : Matroska
Format version : Version 4 / Version 2
File size : 3.70 GiB
Duration : 1h 53mn
Overall bit rate : 4 673 Kbps
Movie name : Никогда не сдавайся by_IVAN@190282
Encoded date : UTC 2016-02-23 18:31:26
Writing application : mkvmerge v8.8.0 ('Wind at my back') 64bit
Writing library : libebml v1.3.3 + libmatroska v1.4.4
Attachements : cover.jpg
DURATION : 01:44:43.568000000
NUMBER_OF_FRAMES : 1221
NUMBER_OF_BYTES : 38240
_STATISTICS_WRITING_APP : mkvmerge v8.8.0 ('Wind at my back') 64bit
_STATISTICS_WRITING_DATE_UT : 2016-02-23 18:31:26
_STATISTICS_TAGS : BPS DURATION NUMBER_OF_FRAMES NUMBER_OF_BYTES
Video
ID : 1
Format : AVC
Format/Info : Advanced Video Codec
Format profile : High@L4.1
Format settings, CABAC : Yes
Format settings, ReFrames : 13 frames
Codec ID : V_MPEG4/ISO/AVC
Duration : 1h 53mn
Bit rate : 3 684 Kbps
Width : 1 152 pixels
Height : 480 pixels
Display aspect ratio : 2.40:1
Frame rate mode : Constant
Frame rate : 23.976 fps
Color space : YUV
Chroma subsampling : 4:2:0
Bit depth : 8 bits
Scan type : Progressive
Bits/(Pixel*Frame) : 0.278
Stream size : 2.92 GiB (79%)
Title : Никогда не сдавайся by_IVAN@190282
Writing library : x264 core 144 r2525kMod 40bb568
Encoding settings : cabac=1 / ref=13 / deblock=1:-3:-3 / analyse=0x3:0x113 / me=umh / subme=11 / psy=1 / fade_compensate=0.00 / psy_rd=1.00:0.15 / mixed_ref=1 / me_range=48 / chroma_me=1 / trellis=2 / 8x8dct=1 / cqm=0 / deadzone=21,11 / fast_pskip=0 / chroma_qp_offset=0 / threads=6 / lookahead_threads=6 / sliced_threads=0 / slices=10 / nr=0 / decimate=1 / interlaced=0 / bluray_compat=0 / constrained_intra=0 / fgo=0 / bframes=16 / b_pyramid=2 / b_adapt=2 / b_bias=0 / direct=1 / weightb=1 / open_gop=1 / weightp=2 / keyint=240 / keyint_min=23 / scenecut=40 / intra_refresh=0 / rc_lookahead=40 / rc=crf / mbtree=0 / crf=19.2000 / qcomp=0.60 / qpmin=0 / qpmax=69 / qpstep=4 / vbv_maxrate=50000 / vbv_bufsize=62500 / crf_max=0.0 / nal_hrd=none / filler=0 / ip_ratio=1.40 / pb_ratio=1.30 / aq=1:1.00
Default : Yes
Forced : No
Color range : Limited
Color primaries : BT.709
Transfer characteristics : BT.709
Matrix coefficients : BT.709
Audio #1
ID : 2
Format : AC-3
Format/Info : Audio Coding 3
Mode extension : CM (complete main)
Format settings, Endianness : Big
Codec ID : A_AC3
Duration : 1h 53mn
Bit rate mode : Constant
Bit rate : 448 Kbps
Channel(s) : 6 channels
Channel positions : Front: L C R, Side: L R, LFE
Sampling rate : 48.0 KHz
Compression mode : Lossy
Stream size : 363 MiB (10%)
Title : Dub
Default : Yes
Forced : No
Audio #2
ID : 3
Format : AC-3
Format/Info : Audio Coding 3
Mode extension : CM (complete main)
Format settings, Endianness : Big
Codec ID : A_AC3
Duration : 1h 53mn
Bit rate mode : Constant
Bit rate : 448 Kbps
Channel(s) : 6 channels
Channel positions : Front: L C R, Side: L R, LFE
Sampling rate : 48.0 KHz
Compression mode : Lossy
Stream size : 363 MiB (10%)
Title : Eng
Language : English
Default : No
Forced : No
Text #1
ID : 4
Format : UTF-8
Codec ID : S_TEXT/UTF8
Codec ID/Info : UTF-8 Plain Text
Title : Rus
Default : No
Forced : No
Text #2
ID : 5
Format : UTF-8
Codec ID : S_TEXT/UTF8
Codec ID/Info : UTF-8 Plain Text
Title : Eng
Language : English
Default : No
Forced : No
Menu
00:00:00.000 : en:Gridiron Tyler
00:03:50.021 : en:From Here to Orlando
00:07:46.299 : en:I Got This
00:11:33.484 : en:People Are Talking
00:16:42.334 : en:Fight Night
00:20:19.635 : en:The Main Event
00:26:26.835 : en:What About the Other Guy?
00:29:28.850 : en:365 Combat Club
00:32:39.707 : en:Not for Beginners
00:37:04.013 : en:You Set Me Up
00:39:10.723 : en:Never Been More Sure
00:42:05.814 : en:Everyone Has Their Fight
00:43:50.002 : en:What's In the Bag?
00:46:57.105 : en:Half-Speed
00:50:23.186 : en:Road Rage
00:53:43.929 : en:Spectator Sport
00:56:17.290 : en:Take Off Your Gloves
00:59:25.603 : en:Angry All the Time
01:04:58.936 : en:Favorite Son
01:09:00.386 : en:Apologies Are Good
01:12:22.129 : en:Nice Contact
01:17:15.088 : en:He's Baiting You
01:22:17.015 : en:This Is My Fight
01:27:38.795 : en:The Beat Down
01:32:51.607 : en:A Kick to the Ribs
01:38:53.761 : en:Battle on the Blacktop
01:44:52.452 : en:Improving Significantly
01:46:32.928 : en:Credits

x264 log

VIDEO ENCODING
x264 [info]: frame I:1035 Avg QP:18.02 size: 66018
x264 [info]: frame P:45267 Avg QP:19.77 size: 31894
x264 [info]: frame B:116878 Avg QP:20.05 size: 14524
x264 [info]: consecutive B-frames: 5.8% 7.2% 12.0% 30.0% 14.8% 20.0% 3.7% 2.5% 1.3% 0.7% 0.6% 0.6% 0.4% 0.2% 0.1% 0.1% 0.1%
x264 [info]: kb/s:3772.69
x264 [total]: encoded 163180 frames, 3.61 fps, 3772.69 kb/s, duration 12:33:51.24

Скриншот c названием фильма

Скриншоты

Убедительная просьба пожалуйста кто скачал не бросайте раздачу!!!
 

Current time is: 14-Dec 05:18

All times are UTC + 3