Search found 126 matches

Author Message

admin

Post 22-Oct-2019 02:27

[Quote]

Информация о фильме
Название: Пробуждающая совесть
Оригинальное название: Skammerens datter
Год выпуска: 2015
Жанр: Приключения, фэнтези
Режиссер: Кеннет Кайнц
В ролях: Якоб Офтебро, Эллан Хайд, Мария Бонневи, Сёрен Маллинг, Олаф Йоханнессен, Стина Экблад, Петер Плаугборг, Лаура Бро, Роланд Мёллер, Йоуханн Г. Йоуханнссон
О фильме:
Дина унаследовала от матери сверхъестественный дар. Она может заглядывать в души людей, заставляя тех испытывать стыд за свои поступки. Когда единственного наследника престола обвинили в убийстве венценосной семьи, мать девочки обманом завлекают в замок, чтобы заставить обвиняемого сознаться в преступлении. Та отказывается использовать свою силу во зло и попадает в заточение. Теперь Дине предстоит раскрыть правду, попав в эпицентр борьбы за власть и подвергнув опасности собственную жизнь. В фэнтезийном мире Средневековья, где есть место драконам и настоящей магии, девочку и её семью ждут приключения и справедливая цель — утвердить на престоле законного наследника.

Страна: Дания, Норвегия, Чехия, Исландия, Швеция
Студия: Nepenthe Film, Storm Films
Продолжительность: 01:36:04
Перевод: Дублированный | iTunes
Файл
Формат: AVI
Качество: BDRip
Источник: |Skammerens.Datter.2015.BDRemux.TeamHD-potroks|
Видео: 720x304 (2.37:1), 24 fps, XviD build 73 ~1782 kbps avg, 0.34 bit/pixel
Звук: 48 kHz, AC3 Dolby Digital, 3/2 (L,C,R,l,r) + LFE ch, ~384 kbps
Субтитры: Нет

Скриншоты

Guest

Post 28-Aug-2019 11:00

[Quote]

Качество фильма -нормальное.
Сам фильм не понравился.
Идея фильма простая и понятная, но реализовано с большим количеством тупых сцен, бредовыми диалогами главных героев, и и конечно с обилием крови, но это - закон жанра подобных фильмов.
Не являюсь поклонником подобных гениальных шедевров, хотя конечно многим такое нравится.
На мой взгляд - на 1 из 10.
.

admin

Post 21-Sep-2018 04:22

[Quote]

Информация о фильме
Название: Превосходство
Оригинальное название: Transcendence
«What if a new intelligence was born?»
Год выхода: 2014
Жанр: Фантастика, драма, триллер
Режиссер: Уолли Пфистер
В ролях: Джонни Депп, Ребекка Холл, Пол Беттани, Киллиан Мёрфи, Кейт Мара, Коул Хаузер, Морган Фриман, Клифтон Коллинз мл., Кори Хардрикт, Фальк Хеншел
О фильме: Выдающийся исследователь в области изучения искусственного интеллекта доктор Уилл Кастер работает над созданием компьютера, который сможет собрать в себе все знания и опыт, накопленные человечеством. Достаточно спорные эксперименты, проводимые Уиллом, прославили его и в то же время сделали основной целью радикальной анти-технологической группировки. Экстремисты делают всё возможное, чтобы остановить учёного.
Однако в своих попытках уничтожить Уилла они добиваются обратного и становятся невольными участниками становления его абсолютного превосходства. Для его жены Эвелин и лучшего друга Макса Вотерса, тоже учёных-исследователей, встаёт вопрос, должны ли они продолжать этот эксперимент. Их худшие опасения претворяются в жизнь, когда жажда знаний Уилла переходит в неконтролируемую жажду власти…

Выпущено: Великобритания, Китай, США | Alcon Entertainment, DMG Entertainment, Straight Up Films, Syncopy
Продолжительность: 01:59:16
Перевод: Дублированный |НТВ+| + Оригинал (Английский)
Субтитры: Русские, Английские (полные, SDH, SDH цветные).
Дополнительные аудиодорожки:
+ Авторский (одноголосый, закадровый) Ю. Немахов
+ Одноголосый (закадровый) Д. Есарев
Файл:
Формат: AVI
Качество: BDRip (источник: HDCLUB / BD-Remux / 1080p)
Кодек: XviD, build 67 codec
Видео: 720 x 304; 23.976 fps; 1707 kbps; 0.325 bit/pixel
Аудио: AC3 Dolby Digital; 448 Kbps; 6 channels; 48 KHz |все дорожки|
Размер: 2235 Mb (1/2 DVD)

Скриншоты



admin

Post 08-Sep-2018 19:21

[Quote]

Информация о фильме
Название: Заброшенный
Оригинальное название: Forsaken
Год выхода: 2015
Жанр: Драма, вестерн
Режиссер: Джон Кассар
В ролях: Деми Мур, Кифер Сазерленд, Дональд Сазерленд, Брайан Кокс, Майкл Уинкотт, Лэндон Либуарон, Шиван Уильямс, Джонни Рис, Аарон Пул, Али Уэбб
О фильме:
Наёмный убийца Джон Генри оставляет своё кровавое ремесло и возвращается в родной город, надеясь восстановить отношения с собственным отцом.

Страна: Канада Франция США
Студия: Minds Eye Entertainment, Moving Pictures Media, Panacea Entertainment, Rollercoaster Films, Vortex Words Pictures
Продолжительность: 01:29:36
Перевод: Дублированный | Лицензия R5
Файл
Формат: AVI
Качество: BDRip | Blu-Ray 1080p |
Видео: XviD, 720x304, 23.976 fps, 1939 kbps
Аудио: AC3, 6 ch, 384 kbps
Субтитры: Нет

Скриншоты

admin

Post 17-Jul-2018 19:12

[Quote]

Информация о фильме
Название: Отладка
Оригинальное название: Debug
Год выхода: 2014
Жанр: ужасы, фантастика
Режиссер: Дэвид Хьюлетт
В ролях: Теника Дэвис, Джейсон Момоа, Адриан Холмс, Керр Хьюит, Кайл Мак, Джейдин Вонг, Сидни Лидер, Адам Батчер, Джинэнн Гуссен, Джессика Филлипс
О фильме:
Группу осужденных за различные киберпреступления хакеров отправляют на заброшенную космическую станцию. Их задача: починить суперкомпьютер, управляющий этой станцией. Если им это удастся, их ждет свобода. Проблема в том, что этот компьютер оказывается хитрее, чем все хакеры вместе взятые...
Благодарность порошков!

Страна: Канада
Студия: Copper Heart Entertainment, Monkeys & Parrots
Продолжительность: 01:25:54
Перевод: Профессиональный (многоголосый) iTunes
Файл
Кодек: XviD
Качество: BDRip (DEBUG_2014_BLUEBIRD)
Видео: 720x400 (1.80:1), 23.976 fps, XviD build 73 ~2054 kbps avg, 0.30 bit/pixel
Звук: 48 kHz, AC3 Dolby Digital, 3/2 (L,C,R,l,r) + LFE ch, ~384 kbps
Субтитры: нет

admin

Post 11-Jun-2018 05:12

[Quote]

Костяной томагавк / Bone Tomahawk
«John Brooder: An armed gentleman»
Год выпуска: 2015
Страна: США, Великобритания / Caliber Media Company, Realmbuilders Productions, The Jokers Films
Жанр: ужасы, вестерн
Продолжительность: 02:12:03
Перевод: Профессиональный (полное дублирование) [Лицензия R5]
Субтитры: Нет-Режиссер: С. Крэйг Залер / S. Craig Zahler-В ролях: Занн МаКларнон (Tall Trees), Патрик Уилсон (Arthur O'Dwyer), Курт Рассел (Sheriff Franklin Hunt), Шон Янг (Mrs. Porter), Лили Симмонс (Samantha O'Dwyer), Мэттью Фокс (John Brooder), Дэвид Аркетт (Purvis), Ричард Дженкинс (Chicory), Кэтрин Моррис (Lorna Hunt), Эдди Спирс (Serrated Tomahawk), Сид Хэйг (Buddy), Майкл Паре (Mr. Wallington)-Описание:
Четверо мужчин отправляются в отдаленные земли Дикого Запада, чтобы спасти группу пленных из пещер каннибалов.
-Рейтинг:
-Качество: BDRip | исх. Bone.Tomahawk.2015.1080p.BluRay.AVC.DTS-HD.MA.5.1 |
Формат: AVI
Видео кодек: XviD
Аудио кодек: AC3
Видео: 720x304 (2.37:1), 23.976 fps, XviD build 73 ~1906 kbps avg, 0.36 bit/pixel
Аудио: 48 kHz, AC3 Dolby Digital, 3/2 (L,C,R,l,r) + LFE ch, ~448 kbps
-

Скриншоты


admin

Post 04-Jun-2018 07:18

[Quote]

Информация о фильме
Название: Охотники на фазанов (Убийцы фазана)
Оригинальное название: Fasandræberne
Год выпуска: 2014
Жанр: Детектив, триллер, криминал
Режиссер: Миккель Нёргор
В ролях: Николай Ли Каас, Фарес Фарес, Даница Чурчич, Сара-Софи Бусснин, Йоханна Шмидт, Йохан Филип Асбек, Давид Денсик
О фильме:
В 1994 году двое детей близнецов были найдены зверски убитыми в летнем загородном доме. Ряд фактов указывал на причастность к делу группы молодых студентов, но расследование было прекращено, после того как местный отшельник признал себя виновным в этом инциденте. 20 лет спустя это дело попадает на стол Карлса Мёрка, который начинает подозревать, что в нем что-то не так…

Страна: Дания
Студия: Film i Väst, Zentropa Entertainments
Продолжительность: 01:59:40
Перевод: Профессиональный (многоголосый, закадровый) | iTunes
Файл
Формат: AVI
Качество: BDRip | BDRemux 1080p |
Видео: XviD, 720x304, 24 fps, 1290 kbps
Аудио 1: AC3, 2 ch, 192 kbps | RUS
Аудио 2: AC3, 2 ch, 256 kbps | Оригинал (Датский)
Субтитры: Нет

Скриншоты

admin

Post 20-May-2018 05:25

[Quote]

Информация о фильме
Название: Вход в никуда
Оригинальное название: Enter Nowhere
Год выхода: 2011
Жанр: триллер, детектив, фантастика
Режиссер: Джек Хеллер
В ролях: Кэтрин Уотерстон, Скотт Иствуд, Сара Пэкстон, Шон Сайпос, Кристофер Денэм, Джесси Перез, Лей Лезарк, Вик Финалборго
О фильме:
В центре сюжета фильма — несколько человек, оказавшихся волей случая в безлюдном сверхъестественном лесу. Мистические обстоятельства приводят героев в пустующую сторожку, где их судьбы переплетаются самым жестоким образом.

Страна: США
Студия: Caliber Media Company
Продолжительность: 01:26:15
Перевод: Любительский (многоголосый, закадровый) Creative Sound
Файл
Кодек: x264
Качество: HDRip-AVC
Видео: 1024x576 (16:9), 25 fps, x264 ~3229 kbps avg, 0.219 bit/pixel
Звук:
#1: 48 kHz, AC3 Dolby Digital, 2/0 (L,R) ch, ~192 kbps - MVO - Creative Sound
#2: 48 kHz, AC3 Dolby Digital, 2/0 (L,R) ch, ~192 kbps - Original

MediaInfo

General
Unique ID : 95527895783534307243673431662897996233 (0x47DE00E5776DB2A8387F3BCC935521C9)
Complete name : Enter Nowhere (2011) HDRip-AVC.mkv
Format : Matroska
Format version : Version 4 / Version 2
File size : 2.18 GiB
Duration : 1 h 26 min
Overall bit rate : 3 614 kb/s
Movie name : Enter Nowhere (2011)
Encoded date : UTC 2018-05-19 05:33:49
Writing application : mkvmerge v23.0.0 ('The Bride Said No') 64-bit
Writing library : libebml v1.3.6 + libmatroska v1.4.9
Video
ID : 1
Format : AVC
Format/Info : Advanced Video Codec
Format profile : High@L4.1
Format settings, CABAC : Yes
Format settings, RefFrames : 9 frames
Codec ID : V_MPEG4/ISO/AVC
Duration : 1 h 26 min
Bit rate : 3 229 kb/s
Width : 1 024 pixels
Height : 576 pixels
Display aspect ratio : 16:9
Frame rate mode : Constant
Frame rate : 25.000 FPS
Color space : YUV
Chroma subsampling : 4:2:0
Bit depth : 8 bits
Scan type : Progressive
Bits/(Pixel*Frame) : 0.219
Stream size : 1.94 GiB (89%)
Writing library : x264 core 155 r2901 7d0ff22
Encoding settings : cabac=1 / ref=9 / deblock=1:-3:-3 / analyse=0x3:0x113 / me=umh / subme=11 / psy=1 / psy_rd=1.00:0.00 / mixed_ref=1 / me_range=32 / chroma_me=1 / trellis=2 / 8x8dct=1 / cqm=0 / deadzone=21,11 / fast_pskip=1 / chroma_qp_offset=-4 / threads=6 / lookahead_threads=1 / sliced_threads=0 / nr=0 / decimate=1 / interlaced=0 / bluray_compat=0 / constrained_intra=0 / bframes=8 / b_pyramid=2 / b_adapt=2 / b_bias=0 / direct=1 / weightb=1 / open_gop=0 / weightp=2 / keyint=250 / keyint_min=25 / scenecut=40 / intra_refresh=0 / rc_lookahead=40 / rc=2pass / mbtree=1 / bitrate=3229 / ratetol=1.0 / qcomp=0.60 / qpmin=10 / qpmax=69 / qpstep=4 / cplxblur=20.0 / qblur=0.5 / vbv_maxrate=50000 / vbv_bufsize=62500 / nal_hrd=none / filler=0 / ip_ratio=1.40 / aq=1:0.90
Default : Yes
Forced : No
Audio #1
ID : 2
Format : AC-3
Format/Info : Audio Coding 3
Format settings, Endianness : Big
Codec ID : A_AC3
Duration : 1 h 26 min
Bit rate mode : Constant
Bit rate : 192 kb/s
Channel(s) : 2 channels
Channel positions : Front: L R
Sampling rate : 48.0 kHz
Frame rate : 31.250 FPS (1536 SPF)
Bit depth : 16 bits
Compression mode : Lossy
Stream size : 118 MiB (5%)
Title : MVO - Creative Sound
Language : Russian
Service kind : Complete Main
Default : Yes
Forced : No
Audio #2
ID : 3
Format : AC-3
Format/Info : Audio Coding 3
Format settings, Endianness : Big
Codec ID : A_AC3
Duration : 1 h 26 min
Bit rate mode : Constant
Bit rate : 192 kb/s
Channel(s) : 2 channels
Channel positions : Front: L R
Sampling rate : 48.0 kHz
Frame rate : 31.250 FPS (1536 SPF)
Bit depth : 16 bits
Compression mode : Lossy
Stream size : 118 MiB (5%)
Language : English
Service kind : Complete Main
Default : No
Forced : No
Text
ID : 4
Format : UTF-8
Codec ID : S_TEXT/UTF8
Codec ID/Info : UTF-8 Plain Text
Duration : 1 h 18 min
Bit rate : 1 b/s
Count of elements : 39
Stream size : 938 Bytes (0%)
Title : forced eng
Language : English
Default : No
Forced : No
Menu
00:00:00.000 : en:00:00:00.000
00:03:39.240 : en:00:03:39.240
00:09:19.240 : en:00:09:19.240
00:14:59.760 : en:00:14:59.760
00:20:26.000 : en:00:20:26.000
00:29:29.520 : en:00:29:29.520
00:37:17.080 : en:00:37:17.080
00:52:14.440 : en:00:52:14.440
00:56:09.320 : en:00:56:09.320
01:04:14.880 : en:01:04:14.880
01:10:49.320 : en:01:10:49.320
01:20:26.120 : en:01:20:26.120

Скриншоты

admin

Post 08-Apr-2018 17:37

[Quote]

Максимальное разрешение рипов в разделе 1152 на 648 !
Читайте пожалуйста правила: https://ivtracker.org/viewtopic.php?t=2607 и в следующий раз будьте внимательнее пожалуйста.

KSA

Post 08-Apr-2018 08:11

[Quote]

Информация о фильме
Название: Веб-камера
Оригинальное название: Webcam
Год выхода: 2015
Жанр: драма, комедия
Режиссер: Сигурдур Антон Фридтьофссон
В ролях: Анна Хафторсдоттир, Тельма Хульд Йоханнесдоттир, Юли Хейдар Хадльдорссон, Айвар Мар Агустссон, Гуннар Хельгасон, Гудмундур Снорри Сигурдарсон
О фильме:
Розалинд учится в колледже, но студенческая жизнь кажется ей не особенно интересной, поэтому она покупает веб-камеру и пробует себя в качестве вебкам-модели, исполняя за деньги любые прихоти онлайн-зрителей. Правда, личная жизнь героини совсем не строится, но счастье бродит где-то рядом...

Страна: Исландия
Студия: Stofa 224
Продолжительность: 01:49:00
Перевод: Любительский (одноголосый) innokent33 (StudiЯ)
Файл
Кодек: AVC
Качество: WEBRip-AVC
Видео: AVC, 1280х544, 25 fps, 2288 Kbps, 0.131 b/px
Звук:
1. 48 kHz, AC3 Dolby Digital, 2/0 (L,R) ch, ~192 kbps- рус.
2. 48 kHz, AC3 Dolby Digital, 2/0 (L,R) ch, ~192 kbps - ice.
Субтитры: русские (отключаемые) Вика Солодовникова, «Скандинавский калейдоскоп»

admin

Post 28-Nov-2017 03:54

[Quote]

Люди Икс: Дни минувшего будущегоX-Men: Days of Future Past«His past. Our future»
Страна: США, Великобритания
Жанр: Фантастика, боевик, триллер, приключения
Год выпуска: 2014
Продолжительность: 02:11:35
Перевод: Профессиональный (дублированный) [Лицензия BD CFE]
Субтитры: русские,английские
Оригинальная аудиодорожка: английский
Режиссер: Брайан Сингер / Bryan Singer
В ролях: Хью Джекман, Джеймс МакЭвой, Майкл Фассбендер, Дженнифер Лоуренс, Холли Берри, Николас Холт, Анна Пэкуин, Эллен Пейдж, Питер Динклэйдж, Шон Эшмор.
Описание: В недалёком будущем мутанты близки к истреблению роботами-охотниками на мутантов Стражами. Единственная надежда для мутантов выжить — предотвратить череду роковых событий, приведших к появлению Стражей. С помощью своих способностей, Китти Прайд перемещает сознание Росомахи в его молодое тело в 1973 год. В прошлом всё оказывается не так радужно: молодой Профессор Икс окончательно разочарован в своих идеях, Магнето содержится в тюрьме глубоко под землёй, а человечество не знает как реагировать на широкое появление мутантов…
Доп. информация:

Автор рипа: IVAN@190282
Качество видео: BDRip-AVC |Люди Икс: Дни минувшего будущего / X-Men: Days of Future Past(2014) 1080p Blu-ray CFE|
Формат видео: MKV
Видео: 1152x480 (2,35:1), 23.976 fps, 2301 Кbps, 0.174 bit/pixel
Аудио: 48 kHz, AC3 Dolby Digital, 3/2 (L,C,R,l,r) + LFE ch, 448.00 kbps | DUB
Аудио 2: 48 kHz, AC3 Dolby Digital, 3/2 (L,C,R,l,r) + LFE ch, 448.00 kbps | ENG
Формат субтитров: softsub (SRT)
Доп. информация о субтитрах: отключаемые

MediaInfo

General
Unique ID : 204551014997436001566958518385673164926 (0x99E317ADAD12A99497F61E5DE272D87E)
Complete name : E:\Мои рипы\Люди Икс Дни минувшего будущего\Люди Икс Дни минувшего будущего by_IVAN@190282.mkv
Format : Matroska
Format version : Version 4 / Version 2
File size : 2.94 GiB
Duration : 2h 11mn
Overall bit rate : 3 201 Kbps
Encoded date : UTC 2014-10-04 22:50:34
Writing application : mkvmerge v7.0.0 ('Where We Going') 64bit built on Jun 9 2014 15:16:27
Writing library : libebml v1.3.0 + libmatroska v1.4.1
DURATION : 00:17:56.282000000
NUMBER_OF_FRAMES : 24
NUMBER_OF_BYTES : 700
_STATISTICS_WRITING_APP : mkvmerge v7.0.0 ('Where We Going') 64bit built on Jun 9 2014 15:16:27
_STATISTICS_WRITING_DATE_UTC : 2014-10-04 22:50:34
_STATISTICS_TAGS : BPS DURATION NUMBER_OF_FRAMES NUMBER_OF_BYTES
Video
ID : 1
Format : AVC
Format/Info : Advanced Video Codec
Format profile : High@L4.1
Format settings, CABAC : Yes
Format settings, ReFrames : 13 frames
Codec ID : V_MPEG4/ISO/AVC
Duration : 2h 11mn
Bit rate : 2 301 Kbps
Width : 1 152 pixels
Height : 480 pixels
Display aspect ratio : 2.35:1
Original display aspect ratio : 2.35:1
Frame rate mode : Constant
Frame rate : 23.976 fps
Color space : YUV
Chroma subsampling : 4:2:0
Bit depth : 8 bits
Scan type : Progressive
Bits/(Pixel*Frame) : 0.174
Stream size : 2.06 GiB (70%)
Writing library : x264 core 142 r2479kMod dd79a61
Encoding settings : cabac=1 / ref=13 / deblock=1:-3:-3 / analyse=0x3:0x113 / me=umh / subme=11 / psy=1 / fade_compensate=0.00 / psy_rd=1.00:0.15 / mixed_ref=1 / me_range=48 / chroma_me=1 / trellis=2 / 8x8dct=1 / cqm=0 / deadzone=21,11 / fast_pskip=0 / chroma_qp_offset=0 / threads=6 / lookahead_threads=6 / sliced_threads=0 / slices=10 / nr=0 / decimate=1 / interlaced=0 / bluray_compat=0 / constrained_intra=0 / fgo=0 / bframes=16 / b_pyramid=2 / b_adapt=2 / b_bias=0 / direct=3 / weightb=1 / open_gop=1 / weightp=2 / keyint=240 / keyint_min=23 / scenecut=40 / intra_refresh=0 / rc_lookahead=40 / rc=2pass / mbtree=0 / bitrate=2301 / ratetol=1.0 / qcomp=0.60 / qpmin=0 / qpmax=69 / qpstep=4 / cplxblur=20.0 / qblur=0.5 / vbv_maxrate=50000 / vbv_bufsize=62500 / nal_hrd=none / filler=0 / ip_ratio=1.40 / pb_ratio=1.30 / aq=1:1.00
Default : Yes
Forced : No
Color primaries : BT.709
Transfer characteristics : BT.709
Matrix coefficients : BT.709
Audio #1
ID : 2
Format : AC-3
Format/Info : Audio Coding 3
Mode extension : CM (complete main)
Format settings, Endianness : Big
Codec ID : A_AC3
Duration : 2h 11mn
Bit rate mode : Constant
Bit rate : 448 Kbps
Channel(s) : 6 channels
Channel positions : Front: L C R, Side: L R, LFE
Sampling rate : 48.0 KHz
Bit depth : 16 bits
Compression mode : Lossy
Stream size : 422 MiB (14%)
Default : Yes
Forced : No
Audio #2
ID : 3
Format : AC-3
Format/Info : Audio Coding 3
Mode extension : CM (complete main)
Format settings, Endianness : Big
Codec ID : A_AC3
Duration : 2h 11mn
Bit rate mode : Constant
Bit rate : 448 Kbps
Channel(s) : 6 channels
Channel positions : Front: L C R, Side: L R, LFE
Sampling rate : 48.0 KHz
Bit depth : 16 bits
Compression mode : Lossy
Stream size : 422 MiB (14%)
Default : No
Forced : No
Text #1
ID : 4
Format : UTF-8
Codec ID : S_TEXT/UTF8
Codec ID/Info : UTF-8 Plain Text
Default : Yes
Forced : No
Text #2
ID : 5
Format : UTF-8
Codec ID : S_TEXT/UTF8
Codec ID/Info : UTF-8 Plain Text
Default : No
Forced : No
Text #3
ID : 6
Format : UTF-8
Codec ID : S_TEXT/UTF8
Codec ID/Info : UTF-8 Plain Text
Default : No
Forced : No

x264 log

x264 [info]: frame I:1779 Avg QP:15.39 size: 81620
x264 [info]: frame P:49391 Avg QP:18.90 size: 22071
x264 [info]: frame B:138129 Avg QP:20.33 size: 7498
x264 [info]: consecutive B-frames: 4.8% 8.4% 11.3% 19.0% 16.9% 30.5% 4.8% 1.1% 0.8% 0.5% 0.3% 0.1% 0.1% 0.2% 0.1% 0.2% 0.9%
x264 [info]: kb/s:2301.04
x264 [total]: encoded 189299 frames, 4.41 fps, 2301.04 kb/s, duration 11:56:00.58

Скриншот c названием фильма

Скриншоты

admin

Post 28-Nov-2017 03:50

[Quote]

Что случилось прошлой ночьюAbout Last Night «It's about compromise. It's about love. It's about a good wingman»
Страна: США
Жанр: Мелодрама, комедия
Год выпуска: 2014
Продолжительность: 01:40:14
Перевод: Профессиональный (многоголосый закадровый) [ iTunes]
Субтитры: английские
Оригинальная аудиодорожка: английский
Режиссер: Стив Пинк / Steve Pink
В ролях: Кевин Харт, Майкл Или, Реджина Холл, Джой Брайант, Кристофер МакДональд, Адам Родригес, Джо Ло Трульо, Пола Пэттон, Террелл Оуэнс, Катрин Шу...
Описание: История о двух парах, которые держат путь из бара в спальню, и оказываются подвергнуты испытанию в реальном мире…
Доп. информация:

Автор рипа: IVAN@190282
Качество видео: BDRip-AVC |Что случилось прошлой ночью / About Last Nightl (2014) 1080p BD-Remux|HD Club|
Формат видео: MKV
Видео: 1152x480 (2,35:1), 23.976 fps, 3268 Кbps, 0.246 bit/pixel
Аудио: 48 kHz, AC3 Dolby Digital, 3/2 (L,C,R,l,r) + LFE ch, 384.00 kbps | MVO
Аудио 2: 48 kHz, AC3 Dolby Digital, 3/2 (L,C,R,l,r) + LFE ch, 448.00 kbps | ENG

MediaInfo

General
Unique ID : 254245713637109338381377981715366520123 (0xBF45F17CEEEDC3A8A39121973817A53B)
Complete name : E:\Мои рипы\Что случилось прошлой ночью\Что случилось прошлой ночью by_IVAN@190282.mkv
Format : Matroska
Format version : Version 4 / Version 2
File size : 2.87 GiB
Duration : 1h 40mn
Overall bit rate : 4 104 Kbps
Encoded date : UTC 2014-10-21 15:19:45
Writing application : mkvmerge v7.0.0 ('Where We Going') 64bit built on Jun 9 2014 15:16:27
Writing library : libebml v1.3.0 + libmatroska v1.4.1
DURATION : 01:37:05.152000000
NUMBER_OF_FRAMES : 2582
NUMBER_OF_BYTES : 82654
_STATISTICS_WRITING_APP : mkvmerge v7.0.0 ('Where We Going') 64bit built on Jun 9 2014 15:16:27
_STATISTICS_WRITING_DATE_UTC : 2014-10-21 15:19:45
_STATISTICS_TAGS : BPS DURATION NUMBER_OF_FRAMES NUMBER_OF_BYTES
Video
ID : 1
Format : AVC
Format/Info : Advanced Video Codec
Format profile : High@L4.1
Format settings, CABAC : Yes
Format settings, ReFrames : 13 frames
Codec ID : V_MPEG4/ISO/AVC
Duration : 1h 40mn
Bit rate : 3 268 Kbps
Width : 1 152 pixels
Height : 480 pixels
Display aspect ratio : 2.35:1
Original display aspect ratio : 2.35:1
Frame rate mode : Constant
Frame rate : 23.976 fps
Color space : YUV
Chroma subsampling : 4:2:0
Bit depth : 8 bits
Scan type : Progressive
Bits/(Pixel*Frame) : 0.246
Stream size : 2.23 GiB (78%)
Writing library : x264 core 142 r2479kMod dd79a61
Encoding settings : cabac=1 / ref=13 / deblock=1:-3:-3 / analyse=0x3:0x113 / me=umh / subme=11 / psy=1 / fade_compensate=0.00 / psy_rd=1.00:0.15 / mixed_ref=1 / me_range=48 / chroma_me=1 / trellis=2 / 8x8dct=1 / cqm=0 / deadzone=21,11 / fast_pskip=0 / chroma_qp_offset=0 / threads=6 / lookahead_threads=6 / sliced_threads=0 / slices=10 / nr=0 / decimate=1 / interlaced=0 / bluray_compat=0 / constrained_intra=0 / fgo=0 / bframes=16 / b_pyramid=2 / b_adapt=2 / b_bias=0 / direct=3 / weightb=1 / open_gop=1 / weightp=2 / keyint=240 / keyint_min=23 / scenecut=40 / intra_refresh=0 / rc_lookahead=40 / rc=2pass / mbtree=0 / bitrate=3268 / ratetol=1.0 / qcomp=0.60 / qpmin=0 / qpmax=69 / qpstep=4 / cplxblur=20.0 / qblur=0.5 / vbv_maxrate=50000 / vbv_bufsize=62500 / nal_hrd=none / filler=0 / ip_ratio=1.40 / pb_ratio=1.30 / aq=1:1.00
Default : Yes
Forced : No
Color primaries : BT.709
Transfer characteristics : BT.709
Matrix coefficients : BT.709
Audio #1
ID : 2
Format : AC-3
Format/Info : Audio Coding 3
Mode extension : CM (complete main)
Format settings, Endianness : Big
Codec ID : A_AC3
Duration : 1h 40mn
Bit rate mode : Constant
Bit rate : 384 Kbps
Channel(s) : 6 channels
Channel positions : Front: L C R, Side: L R, LFE
Sampling rate : 48.0 KHz
Bit depth : 16 bits
Compression mode : Lossy
Stream size : 275 MiB (9%)
Title : mvo
Default : Yes
Forced : No
Audio #2
ID : 3
Format : AC-3
Format/Info : Audio Coding 3
Mode extension : CM (complete main)
Format settings, Endianness : Big
Codec ID : A_AC3
Duration : 1h 40mn
Bit rate mode : Constant
Bit rate : 448 Kbps
Channel(s) : 6 channels
Channel positions : Front: L C R, Side: L R, LFE
Sampling rate : 48.0 KHz
Bit depth : 16 bits
Compression mode : Lossy
Stream size : 321 MiB (11%)
Title : eng
Default : No
Forced : No
Text
ID : 4
Format : UTF-8
Codec ID : S_TEXT/UTF8
Codec ID/Info : UTF-8 Plain Text
Title : eng
Default : Yes
Forced : No

x264 log

x264 [info]: frame I:2166 Avg QP:14.07 size: 96601
x264 [info]: frame P:31647 Avg QP:16.20 size: 32583
x264 [info]: frame B:110380 Avg QP:18.20 size: 11019
x264 [info]: consecutive B-frames: 2.8% 3.5% 7.2% 22.4% 19.3% 33.3% 5.0% 4.1% 1.1% 0.3% 0.3% 0.5% 0.1% 0.1% 0.1% 0.0% 0.0%
x264 [info]: kb/s:3267.90
x264 [total]: encoded 144193 frames, 7.99 fps, 3267.90 kb/s, duration 5:00:48.17

Скриншот c названием фильма

Скриншоты

admin

Post 28-Nov-2017 03:47

[Quote]

СигналThe Signal«R U Agitated?»
Страна: США
Жанр: Фантастика, триллер
Год выпуска: 2014
Продолжительность: 01:37:11
Перевод: Авторский (одноголосый закадровый) [Ю.Немахов]
Субтитры: английские
Оригинальная аудиодорожка: английский
Режиссер: Уильям Юбэнк / William Eubank
В ролях: Лоуренс Фишборн, Патрик Дэвидсон, Брентон Туэйтес, Оливия Кук, Бо Напп, Джеффри Гроувер, Рой Кенни, Тимоти Холмс, Рикардо Кампос, Дрю Сайкес
Описание: Трое студентов-хакеров неожиданно начинают получать таинственные сообщения от незнакомца под ником NOMAD (Кочевник). Но они даже не подозревают, что имеют дело не с человеком, а с сигналами внеземного разума.
После серии необъяснимых происшествий друзья бегут из опасной ловушки, но тут же становятся объектами охоты «людей в чёрном», которые считают, что после контакта хакеры могут представлять угрозу для всего человечества.
Доп. информация:

Автор рипа: IVAN@190282
Качество видео: BDRip-AVC |Сигнал / The Signal (2014) 1080p BD-Remux|HD Club|
Формат видео: MKV
Видео: 1152x480 (2,35:1), 23.976 fps, 2334 Кbps, 0.174 bit/pixel
Аудио: 48 kHz, AC3 Dolby Digital, 3/2 (L,C,R,l,r) + LFE ch, 448.00 kbps | AVO
Аудио 2: 48 kHz, AC3 Dolby Digital, 3/2 (L,C,R,l,r) + LFE ch, 448.00 kbps | ENG
Формат субтитров: softsub (SRT)
Доп. информация о субтитрах: отключаемые

Знаете ли вы, что...

• Кульминация фильма снималась на стальном арочном мосту через ущелье Рио-Гранде в штате Нью-Мексико, который считается одним из самых эффектных и самых высоких (172 метра) в США.
• Композитор фильма Нима Фахрара собственноручно сделал некоторые из уникальных инструментов, на которых была сыграна музыка к фильму.

MediaInfo

General
Unique ID : 175708947916519028414821646119301881351 (0x84304FFB577A3EE9BF2777CA24491E07)
Complete name : E:\Мои рипы\Сигнал\Сигнал by_IVAN@190282.mkv
Format : Matroska
Format version : Version 4 / Version 2
File size : 2.19 GiB
Duration : 1h 37mn
Overall bit rate : 3 233 Kbps
Encoded date : UTC 2014-10-05 14:13:01
Writing application : mkvmerge v7.0.0 ('Where We Going') 64bit built on Jun 9 2014 15:16:27
Writing library : libebml v1.3.0 + libmatroska v1.4.1
DURATION : 01:31:26.689000000
NUMBER_OF_FRAMES : 893
NUMBER_OF_BYTES : 24992
_STATISTICS_WRITING_APP : mkvmerge v7.0.0 ('Where We Going') 64bit built on Jun 9 2014 15:16:27
_STATISTICS_WRITING_DATE_UTC : 2014-10-05 14:13:01
_STATISTICS_TAGS : BPS DURATION NUMBER_OF_FRAMES NUMBER_OF_BYTES
Video
ID : 1
Format : AVC
Format/Info : Advanced Video Codec
Format profile : High@L4.1
Format settings, CABAC : Yes
Format settings, ReFrames : 13 frames
Codec ID : V_MPEG4/ISO/AVC
Duration : 1h 37mn
Bit rate : 2 334 Kbps
Width : 1 152 pixels
Height : 480 pixels
Display aspect ratio : 2.35:1
Original display aspect ratio : 2.35:1
Frame rate mode : Constant
Frame rate : 23.976 fps
Color space : YUV
Chroma subsampling : 4:2:0
Bit depth : 8 bits
Scan type : Progressive
Bits/(Pixel*Frame) : 0.176
Stream size : 1.54 GiB (70%)
Writing library : x264 core 142 r2479kMod dd79a61
Encoding settings : cabac=1 / ref=13 / deblock=1:-3:-3 / analyse=0x3:0x113 / me=umh / subme=11 / psy=1 / fade_compensate=0.00 / psy_rd=1.00:0.15 / mixed_ref=1 / me_range=48 / chroma_me=1 / trellis=2 / 8x8dct=1 / cqm=0 / deadzone=21,11 / fast_pskip=0 / chroma_qp_offset=0 / threads=6 / lookahead_threads=6 / sliced_threads=0 / slices=10 / nr=0 / decimate=1 / interlaced=0 / bluray_compat=0 / constrained_intra=0 / fgo=0 / bframes=16 / b_pyramid=2 / b_adapt=2 / b_bias=0 / direct=3 / weightb=1 / open_gop=1 / weightp=2 / keyint=240 / keyint_min=23 / scenecut=40 / intra_refresh=0 / rc_lookahead=40 / rc=2pass / mbtree=0 / bitrate=2334 / ratetol=1.0 / qcomp=0.60 / qpmin=0 / qpmax=69 / qpstep=4 / cplxblur=20.0 / qblur=0.5 / vbv_maxrate=50000 / vbv_bufsize=62500 / nal_hrd=none / filler=0 / ip_ratio=1.40 / pb_ratio=1.30 / aq=1:1.00
Default : Yes
Forced : No
Color primaries : BT.709
Transfer characteristics : BT.709
Matrix coefficients : BT.709
Audio #1
ID : 2
Format : AC-3
Format/Info : Audio Coding 3
Mode extension : CM (complete main)
Format settings, Endianness : Big
Codec ID : A_AC3
Duration : 1h 37mn
Bit rate mode : Constant
Bit rate : 448 Kbps
Channel(s) : 6 channels
Channel positions : Front: L C R, Side: L R, LFE
Sampling rate : 48.0 KHz
Bit depth : 16 bits
Compression mode : Lossy
Stream size : 311 MiB (14%)
Default : Yes
Forced : No
Audio #2
ID : 3
Format : AC-3
Format/Info : Audio Coding 3
Mode extension : CM (complete main)
Format settings, Endianness : Big
Codec ID : A_AC3
Duration : 1h 37mn
Bit rate mode : Constant
Bit rate : 448 Kbps
Channel(s) : 6 channels
Channel positions : Front: L C R, Side: L R, LFE
Sampling rate : 48.0 KHz
Bit depth : 16 bits
Compression mode : Lossy
Stream size : 311 MiB (14%)
Default : No
Forced : No
Text
ID : 4
Format : UTF-8
Codec ID : S_TEXT/UTF8
Codec ID/Info : UTF-8 Plain Text
Default : Yes
Forced : No

x264 log

x264 [info]: frame I:1028 Avg QP:13.33 size: 81390
x264 [info]: frame P:32378 Avg QP:16.01 size: 23691
x264 [info]: frame B:106418 Avg QP:17.73 size: 7987
x264 [info]: consecutive B-frames: 3.8% 4.3% 11.2% 13.7% 14.6% 36.6% 6.1% 2.1% 1.6% 1.0% 1.3% 1.1% 0.8% 0.7% 0.3% 0.2% 0.9%
x264 [info]: kb/s:2332.92
x264 [total]: encoded 139824 frames, 4.22 fps, 2332.92 kb/s, duration 9:12:26.11

Скриншот c названием фильма

Скриншоты

admin

Post 28-Nov-2017 03:42

[Quote]

Крид: Наследие РоккиCreed«Your legacy is more than a name»

Страна: США
Жанр: Драма, Спорт
Год выпуска: 2015
Продолжительность: 2:13:10
Перевод: Профессиональный (многоголосый закадровый) Bluray
Субтитры: английские
Оригинальная аудиодорожка: английский
Режиссер: Райан Куглер / Ryan Coogler
В ролях:
Майкл Б. Джордан, Сильвестр Сталлоне, Тесса Томпсон, Филисия Рашад, Андре Уорд, Тони Белью, Ричи Костер, Джейкоб ’Стич’ Дюран, Грэм МакТавиш, Malik Bazille
Описание: В центре внимания сын Аполло Крида - первого серьезного соперника Рокки Бальбоа на ринге, впоследствии ставшего лучшим другом героя. Талант отца в какой-то момент проявляется и в Криде-младшем, и юноша отправляется на поиски наставника, коим для него в итоге становится постаревший Рокки, тоже не слишком жаждущий возвращаться к старым делам. Даже в качестве тренера.
Доп. информация:

Автор рипа: IVAN@190282
Сохранены оригинальные главы как на Bluray
Качество видео: BDRip-AVC |Крид: Наследие Рокки / Creed (2015) Blu-ray Disc -BLUEBIRD |
Формат видео: MKV
Видео: 1152x480 (2,40:1), 23.976 fps, 3667 Кbps, 0.277 bit/pixel
Аудио: 48 kHz, AC3 Dolby Digital, 3/2 (L,C,R,l,r) + LFE ch, 448.00 kbps | MVO
Аудио 2: 48 kHz, AC3 Dolby Digital, 3/2 (L,C,R,l,r) + LFE ch, 448.00 kbps | ENG
Формат субтитров: softsub (SRT)
Доп. информация о субтитрах: отключаемые

Знаете ли Вы что

Тесса Томпсон играет роль девушки Адониса, исполнительницы песен собственного сочинения. Томпсон и композитор Людвиг Горанссон вместе работали над сочинением девяти композиций для фильма.
Здание, в котором, по сценарию, располагается спортзал «Майти Микс», находится в районе Фрэнкфорд-авеню в Филадельфии.
Чтобы сохранить традицию, Сильвестр Сталлоне (Рокки Бальбоа) настоял на том, чтобы Майкл Б. Джордан (Адонис Крид) носил те же трусы в цветах американского флага, в которых Аполло Крид выступал в «Рокки» (1976), а сам Рокки появлялся в фильмах «Рокки 3» (1982) и «Рокки 4» (1985).
В момент выхода фильма на экраны Сильвестру Сталлоне столько же лет (69), сколько было Бёрджессу Мередиту, когда на экраны вышел «Рокки» (1976).
Это первый фильм в серии «Рокки», сценарий которого не был написан Сильвестром Сталлоне. Сценарий был написан Райаном Куглером в соавторстве с Аароном Ковингтоном. Куглер и Ковингтон консультировались со Сталлоне в процессе работы над сценарием.
Выход фильма в прокат состоялся 25 ноября 2015 года, ровно через 40 лет после дня, с которого начинается сюжет первого фильма серии.
Однажды в процессе съёмок Сильвестру Сталлоне пришлось разнимать двух разругавшихся боксёров.
Как и его отец Аполло, Адонис назван в честь персонажа из греческой мифологии. Аполло был назван в честь бога солнца, а его сын — в честь полубога красоты и желания.
До съёмок в фильме «Крид: Наследие Рокки» актёр Майкл Б. Джордан и автор сценария и режиссёр Райан Куглер вместе работали над биографической драмой «Станция «Фрутвейл» (2013).
Некоторые кадры фильма были сняты на трибунах футбольного мачта между командами «Эвертон» и «Вест Бромвич Альбион», транслировавшегося в программе «Футбол в понедельник вечером». Большой поклонник клуба «Эвертон», Сильвестр Сталлоне спросил болельщиков, не будут ли они возражать против съёмок. Они не возражали.
Сильвестр Сталлоне заявил, что гордится участием в проекте, который не теряет популярности уже несколько десятков лет. Сталлоне сказал: «Удивительно, что этот персонаж и то, что с ним происходит, остаются актуальными даже без каких-либо навороченных спецэффектов, автомобильных погонь, взрывов, которых много в других моих фильмах, без стрельбы, ругательств и секса… Это мне кажется просто потрясающим — поколение, которого и в помине не было, когда мы снимали третью часть «Рокки» (не говоря уже о первой), всё ещё находит этот персонаж интересным, позволяя моему герою выйти на новый уровень».
Сыгравший главную роль Майкл Б. Джордан родился в 1987 году, через два года после «смерти» Аполло Крида.
Это второй фильм после «Рэмбо», в котором вместе снялись Сильвестр Сталлоне и Грэм МакТавиш.
Это первый фильм серии «Рокки», распространением которого занимается компания «Warner Bros.»
Поначалу Сильвестру Сталлоне не хотелось заниматься ещё одним фильмом о Рокки Бальбоа. «Я наотрез отказался, — вспоминал обладатель премии «Оскар» о том, как Куглер впервые обратился к нему с этой идеей. — Прежний фильм дался мне с трудом. Я был так рад, что вся эта история закончилась, что я тогда подумал: «Ну всё, отстрелялись. Больше к этому можно не возвращаться». В общем, я Куглеру отказал.» Настойчивость режиссёра в конце концов одержала верх.
Эпизоды в ресторане Адрианы снимались в кафе «The Victor» в Филадельфии.
Майкл Б. Джордан очень благодарен Сильвестру Сталлоне за моральную поддержку. «Слай мне очень помог. Он мне посоветовал не лезть из кожи вон, чтобы поддержать высокое реноме остальных фильмов про Рокки, а просто быть самим собой," — рассказывал актёр.
Сильвестру Сталлоне было нелегко изображать постаревшего Рокки Бальбоа. «Трудно передать словами свои ощущения, когда садишься на стул перед гримером одним человеком, а через полтора часа встаёшь с него в образе немощного старика, — сказал актёр, которому исполнилось 69 лет. — А ведь все мы каждый день стареем. Я как-то особенно остро ощутил, что время-то идёт…»
Режиссёр Райан Куглер хотел сохранить в этом фильме сюжетную линию взаимоотношений отца и сына. «Бокс — это вид спорта, где крайне важна поддержка другого человека, — рассказывал он впоследствии. — Между боксёром и его тренером существует очень тесная связь. Мы знаем это на примере Тайсона и Каса Д`Амато. Мы видели это в отношениях Рокки и Мика. Это особенная связь, и мне хотелось её сохранить в новом фильме».
Это первый фильм после «Прослушки» (2002), в котором вместе снялись Вуд Харрис и Майкл Б. Джордан.
Изначально сценарий фильма занимал 204 страницы, но кое-что было выкинуто, а концовка переписывалась несколько раз. Было снято две различных концовки фильма.
В этом фильме вместе снялись Филисия Рашад и Тесса Томпсон. Актрисы вместе работали в фильме Тайлера Перри «Песни о любви» (2010). Рашад и Майкл Б. Джордан вместе работали в сериале «Косби» (1996), где Рашад была занята в главной роли, а Джордан появился в качестве приглашённой звезды.
Прорабатывая стиль Адониса на ринге, Майкл Б. Джордан черпал вдохновение в записях боёв таких известных боксёров, как Тимоти Брэдли, Пернелл Уитакер и Андре Уорд. Андре Уорд снялся в фильме «Крид: Наследие Рокки» в роли Дэнни Уилера.
Действие фильма разворачивается в 1998 и 2015 годах.
Съёмки нескольких тренировок проходили в помещении пустующего магазина в Филадельфии, переоборудованном под спортивный зал.
В спальне Поли, которую занял Адонис, можно заметить фотографии самого Сильвестра Сталлоне в образе Рокки и Сейджа Сталлоне в детстве.
На одной из тренировок Адонис появляется в футболке с надписью «Почему я дерусь? Да потому что ни петь, ни танцевать не умею». Эти слова Рокки сказал Адриане, когда они катались на коньках в первом фильме серии.

MediaInfo

General
Unique ID : 227256008125015008245104528895888226951 (0xAAF7EA449525BFB192CCC8C3FAE27A87)
Complete name : D:\Мои рипы\Крид Наследие Рокки\Creed by_IVAN@190282.mkv
Format : Matroska
Format version : Version 4 / Version 2
File size : 4.33 GiB
Duration : 2h 13mn
Overall bit rate : 4 655 Kbps
Movie name : Creed by_IVAN@190282
Encoded date : UTC 2016-02-18 05:25:57
Writing application : mkvmerge v8.8.0 ('Wind at my back') 64bit
Writing library : libebml v1.3.3 + libmatroska v1.4.4
Attachements : cover.png
DURATION : 02:11:55.824000000
NUMBER_OF_FRAMES : 2210
NUMBER_OF_BYTES : 73046
_STATISTICS_WRITING_APP : mkvmerge v8.8.0 ('Wind at my back') 64bit
_STATISTICS_WRITING_DATE_UT : 2016-02-18 05:25:57
_STATISTICS_TAGS : BPS DURATION NUMBER_OF_FRAMES NUMBER_OF_BYTES
Video
ID : 1
Format : AVC
Format/Info : Advanced Video Codec
Format profile : High@L4.1
Format settings, CABAC : Yes
Format settings, ReFrames : 11 frames
Codec ID : V_MPEG4/ISO/AVC
Duration : 2h 13mn
Bit rate : 3 667 Kbps
Width : 1 152 pixels
Height : 480 pixels
Display aspect ratio : 2.40:1
Frame rate mode : Constant
Frame rate : 23.976 fps
Color space : YUV
Chroma subsampling : 4:2:0
Bit depth : 8 bits
Scan type : Progressive
Bits/(Pixel*Frame) : 0.277
Stream size : 3.41 GiB (79%)
Title : Creed by_IVAN@190282
Writing library : x264 core 148 r2665kMod a01e339
Encoding settings : cabac=1 / ref=11 / deblock=1:-3:-3 / analyse=0x3:0x133 / me=umh / subme=11 / psy=1 / fade_compensate=0.00 / psy_rd=1.00:0.05 / mixed_ref=1 / me_range=48 / chroma_me=1 / trellis=2 / 8x8dct=1 / cqm=0 / deadzone=21,11 / fast_pskip=0 / chroma_qp_offset=-3 / threads=6 / lookahead_threads=6 / sliced_threads=0 / nr=0 / decimate=1 / interlaced=0 / bluray_compat=0 / constrained_intra=0 / fgo=0 / bframes=16 / b_pyramid=2 / b_adapt=2 / b_bias=0 / direct=3 / weightb=1 / open_gop=0 / weightp=2 / keyint=240 / keyint_min=23 / scenecut=40 / intra_refresh=0 / rc_lookahead=60 / rc=crf / mbtree=0 / crf=16.9000 / qcomp=0.60 / qpmin=0 / qpmax=69 / qpstep=4 / vbv_maxrate=50000 / vbv_bufsize=62500 / crf_max=0.0 / nal_hrd=none / filler=0 / ip_ratio=1.40 / pb_ratio=1.30 / aq=3:0.70
Language : English
Default : Yes
Forced : No
Color range : Limited
Color primaries : BT.709
Transfer characteristics : BT.709
Matrix coefficients : BT.709
DURATION : 02:13:09.982000000
NUMBER_OF_FRAMES : 191568
NUMBER_OF_BYTES : 3751944696
_STATISTICS_WRITING_APP : mkvmerge v8.8.0 ('Wind at my back') 64bit
_STATISTICS_WRITING_DATE_UT : 2016-02-18 05:25:57
_STATISTICS_TAGS : BPS DURATION NUMBER_OF_FRAMES NUMBER_OF_BYTES
Audio #1
ID : 2
Format : AC-3
Format/Info : Audio Coding 3
Mode extension : CM (complete main)
Format settings, Endianness : Big
Codec ID : A_AC3
Duration : 2h 13mn
Bit rate mode : Constant
Bit rate : 448 Kbps
Channel(s) : 6 channels
Channel positions : Front: L C R, Side: L R, LFE
Sampling rate : 48.0 KHz
Compression mode : Lossy
Stream size : 427 MiB (10%)
Title : MVO
Default : Yes
Forced : No
Audio #2
ID : 3
Format : AC-3
Format/Info : Audio Coding 3
Mode extension : CM (complete main)
Format settings, Endianness : Big
Codec ID : A_AC3
Duration : 2h 13mn
Bit rate mode : Constant
Bit rate : 448 Kbps
Channel(s) : 6 channels
Channel positions : Front: L C R, Side: L R, LFE
Sampling rate : 48.0 KHz
Compression mode : Lossy
Stream size : 427 MiB (10%)
Title : Eng
Language : English
Default : No
Forced : No
Text
ID : 4
Format : UTF-8
Codec ID : S_TEXT/UTF8
Codec ID/Info : UTF-8 Plain Text
Title : Eng SDH
Language : English
Default : No
Forced : No
Menu
00:00:00.000 : en:00:00:00.000
00:09:14.386 : en:00:09:14.386
00:22:06.742 : en:00:22:06.742
00:31:31.931 : en:00:31:31.931
00:41:34.658 : en:00:41:34.658
00:52:18.009 : en:00:52:18.009
01:01:32.063 : en:01:01:32.063
01:09:13.941 : en:01:09:13.941
01:19:00.986 : en:01:19:00.986
01:25:13.649 : en:01:25:13.649
01:32:27.792 : en:01:32:27.792
01:41:16.445 : en:01:41:16.445
01:50:14.441 : en:01:50:14.441
02:01:07.718 : en:02:01:07.718
02:06:34.962 : en:02:06:34.962

x264 log

x264 [info]: frame I:1207 Avg QP:14.92 size: 81696 PSNR Mean Y:48.87 U:52.41 V:52.58 Avg:49.75 Global:49.16
x264 [info]: frame P:44376 Avg QP:16.17 size: 35626 PSNR Mean Y:47.19 U:51.29 V:51.53 Avg:48.15 Global:47.46
x264 [info]: frame B:145985 Avg QP:18.28 size: 14196 PSNR Mean Y:46.10 U:50.76 V:51.00 Avg:47.14 Global:46.33
x264 [info]: consecutive B-frames: 3.0% 3.8% 12.1% 15.4% 14.2% 42.4% 4.1% 0.8% 0.9% 0.8% 0.8% 0.3% 0.4% 0.2% 0.2% 0.0% 0.4%
x264 [total]: encoded 191568 frames, 5.01 fps, 3756.65 kb/s, duration 10:37:34.72

Скриншот c названием фильма

Скриншоты

Сравнения

Source by_IVAN@190282 Sours vs by_IVAN@190282 http://screenshotcomparison.com/comparison/162350
Убедительная просьба пожалуйста кто скачал не бросайте раздачу!!!

admin

Post 28-Nov-2017 03:33

[Quote]

Шеф Адам ДжонсBurnt«Never underestimate a man with nothing to lose»

Страна: США
Жанр: Драма, комедия
Год выпуска: 2015
Продолжительность: 01:40:59
Перевод: Профессиональный (дублированный)
Субтитры: английские
Оригинальная аудиодорожка: английский
Режиссер: Джон Уэллс / John Wells
В ролях: Брэдли Купер, Сиенна Миллер, Омар Си, Даниэль Брюль, Риккардо Скамарчио, Ума Турман, Эмма Томпсон, Сэм Кили, Генри Гудман, Мэттью Риз
Описание: В центре сюжета - история некогда знаменитого шеф-повара, который из-за своего пагубного пристрастия теряет собственный ресторан в Париже, пониженный в рейтинге до унизительных двух звезд. Решив не сдаваться, он вновь собирает свою команду, перестраивает лондонский ресторан и надеется получить три звезды.
Доп. информация:

Автор рипа: IVAN@190282
Сохранены оригинальные главы как на Bluray
Качество видео: BDRip-AVC Шеф Адам Джонс / Burnt (Джон Уэллс / John Wells) [2015, США, Blu-ray disc (custom) ]
Формат видео: MKV
Видео: 1152x480 (2,40:1), 23.976 fps, 2318 Кbps, 0.175 bit/pixel
Аудио: 48 kHz, AC3 Dolby Digital, 3/2 (L,C,R,l,r) + LFE ch, 384.00 kbps | DUB
Аудио 2: 48 kHz, AC3 Dolby Digital, 3/2 (L,C,R,l,r) + LFE ch, 448.00 kbps | ENG
Формат субтитров: softsub (SRT)
Доп. информация о субтитрах: отключаемые

MediaInfo

General
Unique ID : 189504569250341636058054114141591321027 (0x8E9140A0AD6F3F3D982E08F9B20839C3)
Complete name : D:\Мои рипы\Шеф Адам Джонс\Burnt by_IVAN@190282.mkv
Format : Matroska
Format version : Version 4 / Version 2
File size : 2.27 GiB
Duration : 1h 40mn
Overall bit rate : 3 214 Kbps
Movie name : Burnt by_IVAN@190282
Encoded date : UTC 2016-02-16 16:28:10
Writing application : mkvmerge v8.8.0 ('Wind at my back') 64bit
Writing library : libebml v1.3.3 + libmatroska v1.4.4
Attachements : cover.jpg
DURATION : 01:36:02.507000000
NUMBER_OF_FRAMES : 1329
NUMBER_OF_BYTES : 45674
_STATISTICS_WRITING_APP : mkvmerge v8.8.0 ('Wind at my back') 64bit
_STATISTICS_WRITING_DATE_UT : 2016-02-16 16:28:10
_STATISTICS_TAGS : BPS DURATION NUMBER_OF_FRAMES NUMBER_OF_BYTES
Video
ID : 1
Format : AVC
Format/Info : Advanced Video Codec
Format profile : High@L4.1
Format settings, CABAC : Yes
Format settings, ReFrames : 11 frames
Codec ID : V_MPEG4/ISO/AVC
Duration : 1h 40mn
Bit rate : 2 318 Kbps
Width : 1 152 pixels
Height : 480 pixels
Display aspect ratio : 2.40:1
Frame rate mode : Constant
Frame rate : 23.976 fps
Color space : YUV
Chroma subsampling : 4:2:0
Bit depth : 8 bits
Scan type : Progressive
Bits/(Pixel*Frame) : 0.175
Stream size : 1.64 GiB (72%)
Title : Burnt by_IVAN@190282
Writing library : x264 core 148 r2665kMod a01e339
Encoding settings : cabac=1 / ref=11 / deblock=1:-3:-3 / analyse=0x3:0x133 / me=umh / subme=11 / psy=1 / fade_compensate=0.00 / psy_rd=1.00:0.05 / mixed_ref=1 / me_range=48 / chroma_me=1 / trellis=2 / 8x8dct=1 / cqm=0 / deadzone=21,11 / fast_pskip=0 / chroma_qp_offset=-3 / threads=6 / lookahead_threads=6 / sliced_threads=0 / nr=0 / decimate=1 / interlaced=0 / bluray_compat=0 / constrained_intra=0 / fgo=0 / bframes=16 / b_pyramid=2 / b_adapt=2 / b_bias=0 / direct=3 / weightb=1 / open_gop=0 / weightp=2 / keyint=240 / keyint_min=23 / scenecut=40 / intra_refresh=0 / rc_lookahead=60 / rc=crf / mbtree=0 / crf=17.0000 / qcomp=0.60 / qpmin=0 / qpmax=69 / qpstep=4 / vbv_maxrate=50000 / vbv_bufsize=62500 / crf_max=0.0 / nal_hrd=none / filler=0 / ip_ratio=1.40 / pb_ratio=1.30 / aq=3:0.70
Language : English
Default : Yes
Forced : No
Color range : Limited
Color primaries : BT.709
Transfer characteristics : BT.709
Matrix coefficients : BT.709
DURATION : 01:40:59.262000000
NUMBER_OF_FRAMES : 145277
NUMBER_OF_BYTES : 1802675991
_STATISTICS_WRITING_APP : mkvmerge v8.8.0 ('Wind at my back') 64bit
_STATISTICS_WRITING_DATE_UT : 2016-02-16 16:28:10
_STATISTICS_TAGS : BPS DURATION NUMBER_OF_FRAMES NUMBER_OF_BYTES
Audio #1
ID : 2
Format : AC-3
Format/Info : Audio Coding 3
Mode extension : CM (complete main)
Format settings, Endianness : Big
Codec ID : A_AC3
Duration : 1h 40mn
Bit rate mode : Constant
Bit rate : 384 Kbps
Channel(s) : 6 channels
Channel positions : Front: L C R, Side: L R, LFE
Sampling rate : 48.0 KHz
Compression mode : Lossy
Stream size : 277 MiB (12%)
Title : Dub Bluray
Default : Yes
Forced : No
Audio #2
ID : 3
Format : AC-3
Format/Info : Audio Coding 3
Mode extension : CM (complete main)
Format settings, Endianness : Big
Codec ID : A_AC3
Duration : 1h 40mn
Bit rate mode : Constant
Bit rate : 448 Kbps
Channel(s) : 6 channels
Channel positions : Front: L C R, Side: L R, LFE
Sampling rate : 48.0 KHz
Compression mode : Lossy
Stream size : 324 MiB (14%)
Title : Eng
Language : English
Default : No
Forced : No
Text
ID : 4
Format : UTF-8
Codec ID : S_TEXT/UTF8
Codec ID/Info : UTF-8 Plain Text
Title : Eng
Language : English
Default : No
Forced : No
Menu
00:00:00.000 : en:00:00:00.000
00:04:21.386 : en:00:04:21.386
00:10:20.328 : en:00:10:20.328
00:17:42.394 : en:00:17:42.394
00:23:23.360 : en:00:23:23.360
00:31:49.949 : en:00:31:49.949
00:37:52.687 : en:00:37:52.687
00:44:25.245 : en:00:44:25.245
00:50:55.177 : en:00:50:55.177
00:55:28.658 : en:00:55:28.658
01:01:41.239 : en:01:01:41.239
01:10:27.348 : en:01:10:27.348
01:16:13.735 : en:01:16:13.735
01:23:25.125 : en:01:23:25.125
01:30:54.365 : en:01:30:54.365
01:36:11.682 : en:01:36:11.682

x264 log

x264 [info]: frame I:1205 Avg QP:14.86 size: 69071 PSNR Mean Y:49.74 U:52.29 V:51.76 Avg:50.27 Global:49.83
x264 [info]: frame P:34657 Avg QP:15.80 size: 25013 PSNR Mean Y:48.68 U:52.25 V:50.94 Avg:49.19 Global:48.64
x264 [info]: frame B:109415 Avg QP:18.24 size: 7792 PSNR Mean Y:48.12 U:51.12 V:50.33 Avg:48.59 Global:47.97
x264 [info]: consecutive B-frames: 2.9% 4.2% 12.2% 22.6% 18.7% 32.7% 3.8% 1.0% 0.7% 0.4% 0.3% 0.1% 0.1% 0.1% 0.1% 0.0% 0.2%
x264 [total]: encoded 145277 frames, 6.08 fps, 2380.06 kb/s, duration 6:38:09.89

Скриншот c названием фильма

Скриншоты

Убедительная просьба пожалуйста кто скачал не бросайте раздачу!!!
 

Current time is: 29-Nov 20:21

All times are UTC + 3