Search found 143 matches

Author Message

admin

Post 22-Oct-2019 02:27

[Quote]

Информация о фильме
Название: Пробуждающая совесть
Оригинальное название: Skammerens datter
Год выпуска: 2015
Жанр: Приключения, фэнтези
Режиссер: Кеннет Кайнц
В ролях: Якоб Офтебро, Эллан Хайд, Мария Бонневи, Сёрен Маллинг, Олаф Йоханнессен, Стина Экблад, Петер Плаугборг, Лаура Бро, Роланд Мёллер, Йоуханн Г. Йоуханнссон
О фильме:
Дина унаследовала от матери сверхъестественный дар. Она может заглядывать в души людей, заставляя тех испытывать стыд за свои поступки. Когда единственного наследника престола обвинили в убийстве венценосной семьи, мать девочки обманом завлекают в замок, чтобы заставить обвиняемого сознаться в преступлении. Та отказывается использовать свою силу во зло и попадает в заточение. Теперь Дине предстоит раскрыть правду, попав в эпицентр борьбы за власть и подвергнув опасности собственную жизнь. В фэнтезийном мире Средневековья, где есть место драконам и настоящей магии, девочку и её семью ждут приключения и справедливая цель — утвердить на престоле законного наследника.

Страна: Дания, Норвегия, Чехия, Исландия, Швеция
Студия: Nepenthe Film, Storm Films
Продолжительность: 01:36:04
Перевод: Дублированный | iTunes
Файл
Формат: AVI
Качество: BDRip
Источник: |Skammerens.Datter.2015.BDRemux.TeamHD-potroks|
Видео: 720x304 (2.37:1), 24 fps, XviD build 73 ~1782 kbps avg, 0.34 bit/pixel
Звук: 48 kHz, AC3 Dolby Digital, 3/2 (L,C,R,l,r) + LFE ch, ~384 kbps
Субтитры: Нет

Скриншоты

AvesDemer

Post 28-Aug-2019 11:00

[Quote]

Качество фильма -нормальное.
Сам фильм не понравился.
Идея фильма простая и понятная, но реализовано с большим количеством тупых сцен, бредовыми диалогами главных героев, и и конечно с обилием крови, но это - закон жанра подобных фильмов.
Не являюсь поклонником подобных гениальных шедевров, хотя конечно многим такое нравится.
На мой взгляд - на 1 из 10.
.

admin

Post 10-Aug-2019 01:26

[Quote]

Запрещенный прием / Sucker Punch [Расширенная версия / Extended Cut] (2011) BDRip
от
HELLYWOOD
Год выпуска: 2011
Страна: США, Канада
Слоган: «К такому ты не готов!»
Жанр: фэнтези, боевик, триллер, приключения
Продолжительность: 02:07:30
Перевод: Дубляж CEE (со вставками «Кубик в кубе») + Оригинал + Двухголосый, закадровый («Кубик в кубе»)
Субтитры: Русские, Английские
Режиссер: Зак Снайдер / Zack Snyder
Сценарий: Зак Снайдер / Zack Snyder, Стив Шибуя / Steve Shibuya
Продюсер: Дебора Снайдер / Deborah Snyder, Зак Снайдер / Zack Snyder, Уэсли Коллер / Wesley Coller, Кристофер ДеФариа / Christopher DeFaria, Джон Дж. Джашни / Jon Jashni
Оператор: Ларри Фонг / Larry Fong
Композитор: Тайлер Бейтс / Tyler Bates, Мариус Де Фриз / Marius De Vries
В ролях: Эмили Браунинг, Эбби Корниш, Джена Мэлоун, Ванесса Энн Хадженс, Джеми Чунг, Карла Гуджино, Оскар Айзек, Джон Хэмм, Скотт Гленн, Ричард Цетрон
Дублёры: Маша Иващенко (Baby Doll), Александра Фатхи (Sweet Pea), Василиса Воронина (Rocket), Наталия Франкова (Blondie), Вероника Саркисова (Amber), Ольга Зубкова (Dr. Vera Gorski), Александр Коврижных (Blue Jones), Всеволод Кузнецов (High Roller / Doctor), Тимофей Спивак (Wise Man), Александр Носков (CJ), Борис Токарев (Stepfather), Сергей Вещёв (The Cook)
Бюджет: $82 000 000
Сборы в США: $36 392 502
Сборы в России: $3 831 792
Сборы в мире: $89 792 502
Мировая премьера: 21 марта 2011
Релиз на DVD: 21 июля 2011, «CP-Digital»
Релиз на Blu-ray: 21 июля 2011, «CP-Digital»
Описание: Действие развернется в 1950 году. Молодую девушку по настоянию ее злодейского отчима определяют в больницу для душевнобольных, где спустя пять дней главную героиню лоботомируют. Чтобы оградиться от боли, она выдумывает сказочный мир, где и начинает планировать свой побег - для этого ей нужно раздобыть пять предметов.

Файл:
Формат: AVI
Качество: BDRip (источник: /Blu-Ray Disc/ 1080p)
Видео: 720x304 (2.37:1), 23.976 fps, XviD build 64 ~1995 kbps avg, 0.38 bit/pixel
Аудио #1: 48 kHz, AC3 Dolby Digital, 3/2 (L,C,R,l,r) + LFE ch, ~448 kbps |Дубляж (со вставками «Кубик в кубе»)|
Аудио #2: 48 kHz, AC3 Dolby Digital, 3/2 (L,C,R,l,r) + LFE ch, ~448 kbps |Оригинал| (отдельным файлом)
Аудио #3: 48 kHz, AC3 Dolby Digital, 3/2 (L,C,R,l,r) + LFE ch, ~448 kbps |DVO| (отдельным файлом)
Размер: 2234.07 Mb

Знаете ли Вы, что...

    Аманда Сайфред была изначальным выбором продюсеров на роль Бэбидолл, однако ей пришлось отказаться от роли из-за занятости на других проектах.
    Ивэн Рэйчел Вуд была изначальным выбором продюсеров на роль Рокет, однако ей пришлось отказаться от роли из-за занятости на других проектах.
    Эмма Стоун могла исполнить роль Эмбер, однако предпочла сыграть в фильме «Отличница лёгкого поведения».
    Специально для картины актриса Эмили Браунинг записала кавер-версию известной песни группы Eurythimics - «Sweet Dreams», ее можно услышать в самом начале фильма.
    На двух самолётах, вертолёте и роботе, которые водит Эмбер, стоит цифра 5 (по числу девушек в команде). Помимо розового кролика, под изображением которого красным начертаны несколько иероглифов, на правом защитном щитке робота изображён череп в жёлтом круге, а на левом — две вишенки. Справа ближе к щитку видны изображения трёх немецких железных крестов.
    Над воротами психушки вывеска из литого железа: «Lennox House — Brattleboro, Vermont». Действительно, в городе Брэттлборо, штат Вермонт, есть психиатрическая больница Brattleboro Retreat. Но, в отличие от киношной, известна своими гуманными методами в отношении пациентов. Здания больниц в кино и реальности не имеют ничего схожего.
    Брелоки на пистолете Куколки: кролик, детская бутылочка, песочные часы, плюшевый мишка, череп с бантиком. На пистолете и катане гравировка в виде буквы «B» и переплетающихся стеблей, ягод вишни, ромашек и кроликов. На ножнах для катаны рисунок в виде золотых снежинок. Дизайн оружия придумала исполнительница роли Куколки - Эмили Браунинг.
    В поддержку фильма были выпущены четыре анимационных короткометражки режиссёра Бена Хайбона по мотивам каждого из миров, выдуманных Куколкой.
    Ванесса Энн Хадженс согласилась на роль Блонди по той причине, что актриса не раз изъявляла желание перестать ассоциироваться у зрительской аудитории, как Габриэлла Монтез из «Классного мюзикла».
    Эрик Дэйн был одним из кандидатов на роль Доктора (Мажора).
    Это первый фильм Зака Снайдера, получивший рейтинг PG-13. До этого фильмы этого режиссера получали исключительно рейтинг R.
    Несмотря на то, что Куколка является главной героиней «Запрещенного приема», у ее персонажа нет ни одной реплики в течение первых 20 минут фильма.

Скриншоты

admin

Post 11-Jul-2019 01:12

[Quote]

Иллюзия комфорта / Эмили / Emelie
Страна: США
Производство: Priority Pictures, Sandbar Pictures, ULTRAMEDIA, Uncorked Productions
Год выпуска: 2015
Жанр: ужасы, триллер
Продолжительность: 01:22:08
Режиссер: Майкл Телин / Michael Thelin
В ролях: Сара Болгер, Джошуа Раш, Карли Адамс, Томас Баир, Сьюзан Пурфар, Крис Битем, Элиша Али, Тайлер Азер, Карл Бэйли, Джейсон Джон Биби
Описание: После того как постоянная няня не смогла прийти, семья Томпсонов обращается к её подруге Анне, чтобы та посидела с детьми, пока родители празднуют годовщину. Поначалу Анна кажется детям настоящим чудом — девушка разрешает играть с тем, с чем им обычно играть запрещено. Но постепенно поведение няни становится всё более и более странным...

Перевод: Профессиональный (многоголосый, закадровый) | iTunes
Субтитры: нет-Качество: HDRip
Формат: AVI
Видео кодек: XviD
Аудио кодек: АС3
Видео: 720x304 (2.35:1), 23.976 fps, XviD build 73 ~2 144 kbps avg
Аудио: 48.0 kHz, AC3 Dolby Digital, 3/2 (L,C,R,l,r) + LFE ch, ~384 kbps
Дата премьеры (мир): 22 апреля 2015

Релиз от: порошков

Media Info

General
Формат : AVI
Формат/Информация : Audio Video Interleave
Размер файла : 1,46 Гбайт
Продолжительность : 1 ч. 22 м.
Общий поток : 2537 Кбит/сек
Название фильма : Эмили_2015_HDRip
Программа кодирования : VirtualDubMod 1.5.10.3 | (build 2550/release)
Авторское право : порошков
Видео
Идентификатор : 0
Формат : MPEG-4 Visual
Профиль формата : Advanced Simple@L5
Настройки формата : BVOP1 / Custom Matrix
Параметр BVOP формата : 1
Параметр QPel формата : Нет
Параметр GMC формата : Без точки перехода
Параметр матрицы формата : Выборочная
Идентификатор кодека : XVID
Идентификатор кодека/Подсказка : XviD
Продолжительность : 1 ч. 22 м.
Битрейт : 2144 Кбит/сек
Ширина : 720 пикселей
Высота : 304 пикселя
Соотношение сторон : 2,35:1
Частота кадров : 23,976 (24000/1001) кадра/сек
Цветовое пространство : YUV
Субдискретизация насыщенности : 4:2:0
Битовая глубина : 8 бит
Тип развёртки : Прогрессивная
Метод сжатия : С потерями
Бит/(Пиксели*Кадры) : 0.408
Размер потока : 1,23 Гбайт (84%)
Библиотека кодирования : XviD 73
Аудио
Идентификатор : 1
Формат : AC-3
Формат/Информация : Audio Coding 3
Коммерческое название : Dolby Digital
Идентификатор кодека : 2000
Продолжительность : 1 ч. 22 м.
Вид битрейта : Постоянный
Битрейт : 384 Кбит/сек
Каналы : 6 каналов
ChannelLayout : L R C LFE Ls Rs
Частота : 48,0 КГц
Частота кадров : 31,250 кадров/сек (1536 SPF)
Битовая глубина : 16 бит
Метод сжатия : С потерями
Размер потока : 226 Мбайт (15%)
Выравнивание : Разделение по промежуткам
Продолжительность промежутка : 42 мс. (1,00 видеокадр)
Время предзагрузки промежутка : 500 мс.

Скриншоты

admin

Post 20-May-2019 06:01

[Quote]

Название: Кто эти люди?
Оригинальное название: Loro chi?
Год выпуска: 2015
Жанр: Комедия
Режиссер: Фабио Бонифаччи, Франческо Миччике
В ролях: Марко Джаллини, Эдоардо Лео, Ивано Марескотти, Катринель Менгия, Бор Лиза, Маурицио Касагранде, Антонио Катания, Джампьеро Джудика, Пиппо Лоруссо
О фильме: Давиду уже под 40, а весь смысл его жизни - добиться уважения президента компании, получить прибавку к зарплате и повышение. Наконец ему выпадает такой шанс: Давид должен представить революционный патент, но... за день до презентации к нему подходит странный тип, Марчелло, восхищается им, предлагает выпить, а потом прокатиться до дома, где их ждут две симпатичные девушки... Давид поддается чарам ловкого мошенника и оказывается втянутым в невероятное приключение в компании Марчелло и его очаровательных сообщниц.

Выпущено: Италия, Apulia Film Commission,Banca Popolare di Sondrio,Ducati Enegia
Продолжительность: 01:35:33
Перевод: Профессиональный (многоголосый, закадровый) | ПилотКино
Файл
Качество: WEB-DLRip
Видео: XviD, 1801 Кбит/с, 704x384
Аудио: AC3, 6 ch, 384 Кбит/с

Скриншоты

admin

Post 04-May-2019 01:40

[Quote]

Информация о фильме
Название: Дурацкое дело нехитрое
Оригинальное название: Kraftidioten
Год выхода: 2014
Жанр: криминал, комедия
Режиссер: Ганс Петтер Моланд
В ролях: Стеллан Скарсгард, Биргитта Йорт Сёренсен, Тобиас Зантельман, Кристофер Хивью, Бруно Ганц, Якоб Офтебро, Пол Сверре Валхейм Хаген, Андерс Баасмо Кристиансен, Сергей Трифунович, Петер Андерссон
О фильме:
Норвегия. Зима. Трудолюбивый Нилс управляет мощным плужным снегоочистителем, который очищает дороги и горные проходы негостеприимного обледенелого ландшафта местности, где он сам живёт. Совсем недавно он был признан жителем года за свои старания, а теперь получает известие о том, что его сын погиб в результате передозировки героина. Отказываясь верить в правдивость официальной версии смерти своего сына, он начинает тайное расследование с целью найти предполагаемых убийц парня. Однако дальнейшие события разворачиваются самым непредсказуемым образом, и ему приходится стать таинственным героем, внушающим страх в преступном мире.

Страна: Норвегия, Дания, Швеция
Студия: Film i Väst, Paradox, Paradox Film 2
Продолжительность: 01:56:29
Перевод: Профессиональный (многоголосый, закадровый) | iTunes
Файл
Формат: AVI
Качество: BDRip | BDRemux 1080p |
Видео: XviD, 720x304, 24 fps, 1401 kbps
Звук: AC3, 6 ch, 384 kbps
Субтитры: Нет

Скриншоты

admin

Post 04-May-2019 01:38

[Quote]

Дурацкое дело нехитрое / Kraftidioten (2014) BDRip
от HQ-ViDEO

Информация о фильме
Название: Дурацкое дело нехитрое
Оригинальное название: Kraftidioten
Год выхода: 2014
Жанр: Триллер, Криминал, Драма
Режиссер: Ханс Петтер Муланд
В ролях: Стеллан Скарсгард, Якоб Офтебро, Кристофер Хивджу, Биргитта Йорт Сёренсен, Тобиас Зантельман, Бруно Ганц, Сергей Трифунович, Пол Сверре Валхейм Хаген, Петер Андерссон
О фильме: Норвегия. Зима. Трудолюбивый Нилс управляет мощным плужным снегоочистителем, который очищает дороги и горные проходы негостеприимного обледенелого ландшафта местности, где он сам живёт. Совсем недавно он был признан жителем года за свои старания, а теперь получает известие о том, что его сын погиб в результате передозировки героина. Отказываясь верить в правдивость официальной версии смерти своего сына, он начинает тайное расследование с целью найти предполагаемых убийц парня. Однако дальнейшие события разворачиваются самым непредсказуемым образом, и ему приходится стать таинственным героем, внушающим страх в преступном мире.

Выпущено: Норвегия, Дания, Швеция
Продолжительность: 01:56:29
Перевод: Профессиональный (многоголосый, закадровый) + Оригинал (Норвежский)
Субтитры: Норвежские, Английские.
Файл:
Формат: AVI
Качество: BDRip (источник: BD-Remux)
Кодек: XviD, build 67 codec
Видео: 720 x 304; 24.000 fps; 1959 kbps; 0.373 bit/pixel
Аудио #1: AC3 Dolby Digital; 256 Kbps; 2 channels; 48 KHz
Аудио #2: AC3 Dolby Digital; 448 Kbps; 6 channels; 48 KHz
Размер: 2233 Mb (1/2 DVD)

Скриншоты



admin

Post 21-Sep-2018 04:22

[Quote]

Информация о фильме
Название: Превосходство
Оригинальное название: Transcendence
«What if a new intelligence was born?»
Год выхода: 2014
Жанр: Фантастика, драма, триллер
Режиссер: Уолли Пфистер
В ролях: Джонни Депп, Ребекка Холл, Пол Беттани, Киллиан Мёрфи, Кейт Мара, Коул Хаузер, Морган Фриман, Клифтон Коллинз мл., Кори Хардрикт, Фальк Хеншел
О фильме: Выдающийся исследователь в области изучения искусственного интеллекта доктор Уилл Кастер работает над созданием компьютера, который сможет собрать в себе все знания и опыт, накопленные человечеством. Достаточно спорные эксперименты, проводимые Уиллом, прославили его и в то же время сделали основной целью радикальной анти-технологической группировки. Экстремисты делают всё возможное, чтобы остановить учёного.
Однако в своих попытках уничтожить Уилла они добиваются обратного и становятся невольными участниками становления его абсолютного превосходства. Для его жены Эвелин и лучшего друга Макса Вотерса, тоже учёных-исследователей, встаёт вопрос, должны ли они продолжать этот эксперимент. Их худшие опасения претворяются в жизнь, когда жажда знаний Уилла переходит в неконтролируемую жажду власти…

Выпущено: Великобритания, Китай, США | Alcon Entertainment, DMG Entertainment, Straight Up Films, Syncopy
Продолжительность: 01:59:16
Перевод: Дублированный |НТВ+| + Оригинал (Английский)
Субтитры: Русские, Английские (полные, SDH, SDH цветные).
Дополнительные аудиодорожки:
+ Авторский (одноголосый, закадровый) Ю. Немахов
+ Одноголосый (закадровый) Д. Есарев
Файл:
Формат: AVI
Качество: BDRip (источник: HDCLUB / BD-Remux / 1080p)
Кодек: XviD, build 67 codec
Видео: 720 x 304; 23.976 fps; 1707 kbps; 0.325 bit/pixel
Аудио: AC3 Dolby Digital; 448 Kbps; 6 channels; 48 KHz |все дорожки|
Размер: 2235 Mb (1/2 DVD)

Скриншоты



admin

Post 21-Sep-2018 04:16

[Quote]

Превосходство / Transcendence
«What if a new intelligence was born?»
Год выпуска: 2014
Страна: Великобритания, Китай, США
Жанр: фантастика, драма, триллер
Продолжительность: 01:59:16
Перевод: Профессиональный (полное дублирование) [НТВ+]
Субтитры: Нет-Режиссер: Уолли Пфистер / Wally Pfister-В ролях: Джонни Депп (Will Caster), Ребекка Холл (Evelyn Caster), Пол Беттани (Max Waters), Киллиан Мёрфи (Agent Buchanan), Кейт Мара (Bree), Коул Хаузер (Colonel Stevens), Морган Фриман (Joseph Tagger), Клифтон Коллинз мл. (Martin), Кори Хардрикт (Joel Edmund), Фальк Хеншел (Bob), Джош Стюарт (Paul), Люче Рэйнс (Roger)-Описание:
Выдающийся исследователь в области изучения искусственного интеллекта доктор Уилл Кастер работает над созданием компьютера, который сможет собрать в себе все знания и опыт, накопленные человечеством. Достаточно спорные эксперименты, проводимые Уиллом, прославили его и в то же время сделали основной целью радикальной анти-технологической группировки. Экстремисты делают всё возможное, чтобы остановить учёного.
Однако в своих попытках уничтожить Уилла они добиваются обратного и становятся невольными участниками становления его абсолютного превосходства. Для его жены Эвелин и лучшего друга Макса Вотерса, тоже учёных-исследователей, встаёт вопрос, должны ли они продолжать этот эксперимент. Их худшие опасения претворяются в жизнь, когда жажда знаний Уилла переходит в неконтролируемую жажду власти...-Рейтинг:

MPAA: PG-13 - Детям до 13 лет просмотр не желателен-Качество: BDRip | исх. Transcendence 2014 1080p Blu-ray AVC DTS-HD MA 5 1-HDW |
Формат: AVI
Видео кодек: XviD
Аудио кодек: AC3
Видео: 720x304 (2.37:1), 23.976 fps, XviD build 73 ~1296 kbps avg, 0.25 bit/pixel
Аудио: 48 kHz, AC3 Dolby Digital, 3/2 (L,C,R,l,r) + LFE ch, ~448 kbps-

Скриншоты


admin

Post 08-Sep-2018 19:21

[Quote]

Информация о фильме
Название: Заброшенный
Оригинальное название: Forsaken
Год выхода: 2015
Жанр: Драма, вестерн
Режиссер: Джон Кассар
В ролях: Деми Мур, Кифер Сазерленд, Дональд Сазерленд, Брайан Кокс, Майкл Уинкотт, Лэндон Либуарон, Шиван Уильямс, Джонни Рис, Аарон Пул, Али Уэбб
О фильме:
Наёмный убийца Джон Генри оставляет своё кровавое ремесло и возвращается в родной город, надеясь восстановить отношения с собственным отцом.

Страна: Канада Франция США
Студия: Minds Eye Entertainment, Moving Pictures Media, Panacea Entertainment, Rollercoaster Films, Vortex Words Pictures
Продолжительность: 01:29:36
Перевод: Дублированный | Лицензия R5
Файл
Формат: AVI
Качество: BDRip | Blu-Ray 1080p |
Видео: XviD, 720x304, 23.976 fps, 1939 kbps
Аудио: AC3, 6 ch, 384 kbps
Субтитры: Нет

Скриншоты

admin

Post 11-Aug-2018 04:16

[Quote]

Информация о фильме
Название: Убойная вечеринка (Кровавый душ)
Оригинальное название: Killer Party (The Shower)
Год выхода: 2014
Жанр: ужасы, комедия
Режиссер: Алекс Драммонд / Alex Drummond
В ролях: Дрю Бенда, Стефани Беран, Джон Броди, Рэйчел Драммонд, Курт Ёла, Алекс Фатович, Ивэн Гэмбл, Энди Хофф, Адам Карелл, Катерина Микайленко, Лиз Лоза, Мередит Лерла, Одри МакКенна, Пол Натонек, Роб Нортон, Тони Раго, Нил Родригез, Сюзанн Сена, Кристин Слоун, Стефани Тоби.
О фильме:
Группа друзей попадают в ловушку на детской вечеринке, когда загадочная вспышка эпидемии начинает превращать людей в маньяков-убийц.
9 побед и 10 номинаций.
Buffalo Dreams Fantastic Film Festival 2014
Cedar Rapids Independent Film Festival 2014
Louisville Fright Night Film Fest 2014
Macabre Faire Film Festival 2015
Nevermore Film Festival 2014
New Orleans Horror Film Festival 2014

Внимание: Присутствует ненормативная лексика!

Страна: США
Студия: Broken Water Productions
Продолжительность: 01:18:03
Перевод: Любительский (одноголосый)datynet; перевод: Куценко
Файл
Кодек: H.264
Качество: WEBRip-AVC
Видео: 720x400 (16:9), 23.976 fps, MPEG4 Video (H264) High@L3.1 ~ 1 100 kbps avg, 0.159 bit/pixel
Звук: 48 kHz, MPEG Layer 3, 2 ch, ~ 192 kbps avg
Субтитры: отсутствуют
Семпл

admin

Post 10-Aug-2018 04:35

[Quote]

Информация о фильме
Название: Риддик
Оригинальное название: Riddick
Год выхода: 2013
Жанр: фантастика, боевик, триллер
Режиссер: Дэвид Туи / David Twohy
В ролях: Вин Дизель, Хорди Молья, Мэттью Нэйбл, Кэти Сакхофф, Дэйв Батиста, Букем Вудбайн, Рауль Трухильо, Конрад Пла, Дэнни Бланко, Карл Урбан, Ноа Дэнби, Нил Напье, Нолан Фанк, Андреас Апергис, Кери Хилсон, Шарли Мари Дюпон, Ян Герсте, Антуанетта Никпрелаж, Александра Соколовская
О фильме:
Преданный своими и брошенный умирать на пустынной планете, Риддик сражается с хищниками за жизнь и становится сильнее и опаснее себя прежнего. Открывшие на него охоту галактические наемники оказываются пешками в грандиозном плане отмщения. С врагами, возникающими на его пути тогда, когда это нужно самому Риддику, он начинает поход во имя мести.

Страна: США, Великобритания
Студия: One Race Productions, Radar Pictures Inc., White Hare .
Продолжительность: 01:54:02
Перевод: Дубляж
Файл
Формат: MKV
Кодек: х264
Качество: BDRip-AVC
Видео: High@L4.1, 1024x576, 25 fps, ~2998 kbps
Звук: AC3 / 5.1 / 640 kbps
Субтитры: Нет--

M/I+x264 info:

x264 info:
x264 info: frame I:1359 Avg QP:14.35 size: 88144
x264 info: frame P:47823 Avg QP:17.54 size: 25638
x264 info: frame B:121890 Avg QP:19.27 size: 9989
x264 info: consecutive B-frames: 6.6% 7.3% 10.4% 29.1% 15.4% 18.2% 5.3% 4.8% 1.4% 0.9% 0.6%
General
Unique ID : 222931891647159324854084414117110154561 (0xA7B71EDD8EFE71AFA92CC4FF79790541)
Complete name : E:ВИДЕО_2Риддик_2013_BDRIP-AVC_RUS_O.M_[-=DoMiNo=-].mkv
Format : Matroska
Format version : Version 4 / Version 2
File size : 2.90 GiB
Duration : 1 h 54 min
Overall bit rate : 3 640 kb/s
Movie name : Риддик
Deion : Преданный своими и брошенный умирать на пустынной планете, Риддик сражается с хищниками за жизнь и становится сильнее и опаснее себя прежнего. Открывшие на него охоту галактические наемники оказываются пешками в грандиозном плане отмщения. С врагами, возникающими на его пути тогда, когда это нужно самому Риддику, он начинает поход во имя мести, чтобы в конечном счете вернуться на родную Фурию и спасти ее от уничтожения.
Writing application : XviD4PSP 7.0.455 DAILY
Writing library : Lavf57.71.100
ErrorDetectionType : Per level 1
Attachments : poster.jpg
ACTORS : Vin Diesel, Karl Urban, Katee Sackhoff, Jordi Mollà, Bokeem Woodbine, Nolan Gerard Funk, Noah Danby, Keri Hilson, Neil Napier, Dave Bautista, Matthew Nable, Andreas Apergis, Raoul Max Trujillo, Conrad Pla, Danny Blanco Hall, Antoinette Kalaj
COUNTRY : United States
DATE : 2013-09-02
DIRECTOR : David Twohy
GENRE : фантастика, боевик, триллер
HD_VIDEO : 1
ITUNEXTC : mpaa|R|400|
Language : und
MEDIA_TYPE : 9
ORIGINAL_TITLE : Riddick
PRODUCER : Ted Field, Vin Diesel, Samantha Vincent
PUBLISHER : One Race Productions, Riddick Canada Productions, Radar Pictures
RATING : 6.6
Video
ID : 1
Format : AVC
Format/Info : Advanced Video Codec
Format profile : High@L4.1
Format settings : CABAC / 12 Ref Frames
Format settings, CABAC : Yes
Format settings, ReFrames : 12 frames
Codec ID : V_MPEG4/ISO/AVC
Duration : 1 h 54 min
Bit rate : 2 998 kb/s
Width : 1 024 pixels
Height : 576 pixels
Display aspect ratio : 16:9
Frame rate mode : Constant
Frame rate : 25.000 FPS
Color space : YUV
Chroma subsampling : 4:2:0
Bit depth : 8 bits
Scan type : Progressive
Bits/(Pixel*Frame) : 0.203
Stream size : 2.33 GiB (80%)
Title : RIP_BY_-=DoMiNo=-
Writing library : x264 core 155 r2901M 7d0ff22
Encoding settings : cabac=1 / ref=12 / deblock=1:-1:-1 / analyse=0x3:0x133 / me=umh / subme=11 / psy=1 / psy_rd=1.00:0.00 / mixed_ref=1 / me_range=32 / chroma_me=1 / trellis=2 / 8x8dct=1 / cqm=0 / deadzone=21,11 / fast_pskip=0 / chroma_qp_offset=-2 / threads=6 / lookahead_threads=1 / sliced_threads=0 / nr=0 / decimate=1 / interlaced=0 / bluray_compat=0 / constrained_intra=0 / bframes=10 / b_pyramid=2 / b_adapt=2 / b_bias=0 / direct=3 / weightb=1 / open_gop=0 / weightp=2 / keyint=250 / keyint_min=25 / scenecut=40 / intra_refresh=0 / rc=2pass / mbtree=0 / bitrate=2998 / ratetol=1.0 / qcomp=0.60 / qpmin=0 / qpmax=69 / qpstep=4 / cplxblur=20.0 / qblur=0.5 / ip_ratio=1.40 / pb_ratio=1.30 / aq=3:0.85
Language : English
Default : Yes
Forced : No
Color range : Limited
Audio
ID : 2
Format : AC-3
Format/Info : Audio Coding 3
Codec ID : A_AC3
Duration : 1 h 54 min
Bit rate mode : Constant
Bit rate : 640 kb/s
Channel(s) : 6 channels
Channel positions : Front: L C R, Side: L R, LFE
Sampling rate : 48.0 kHz
Frame rate : 31.250 FPS (1536 SPF)
Bit depth : 16 bits
Compression mode : Lossy
Stream size : 522 MiB (18%)
Title : DUB
Language : Russian
Service kind : Complete Main
Default : Yes
Forced : No
Menu
00:00:00.000 : :Chapter 01
00:07:41.120 : :Chapter 02
00:11:46.760 : :Chapter 03
00:18:05.400 : :Chapter 04
00:25:35.960 : :Chapter 05
00:30:51.800 : :Chapter 06
00:37:51.280 : :Chapter 07
00:48:23.000 : :Chapter 08
00:53:38.120 : :Chapter 09
01:00:48.800 : :Chapter 10
01:08:49.319 : :Chapter 11
01:17:41.160 : :Chapter 12
01:24:02.400 : :Chapter 13
01:29:50.040 : :Chapter 14
01:35:55.600 : :Chapter 15
01:43:27.720 : :Chapter 16
01:50:04.120 : :Chapter 17
01:54:02.840 : :Chapter 18
---

admin

Post 17-Jul-2018 19:12

[Quote]

Информация о фильме
Название: Отладка
Оригинальное название: Debug
Год выхода: 2014
Жанр: ужасы, фантастика
Режиссер: Дэвид Хьюлетт
В ролях: Теника Дэвис, Джейсон Момоа, Адриан Холмс, Керр Хьюит, Кайл Мак, Джейдин Вонг, Сидни Лидер, Адам Батчер, Джинэнн Гуссен, Джессика Филлипс
О фильме:
Группу осужденных за различные киберпреступления хакеров отправляют на заброшенную космическую станцию. Их задача: починить суперкомпьютер, управляющий этой станцией. Если им это удастся, их ждет свобода. Проблема в том, что этот компьютер оказывается хитрее, чем все хакеры вместе взятые...
Благодарность порошков!

Страна: Канада
Студия: Copper Heart Entertainment, Monkeys & Parrots
Продолжительность: 01:25:54
Перевод: Профессиональный (многоголосый) iTunes
Файл
Кодек: XviD
Качество: BDRip (DEBUG_2014_BLUEBIRD)
Видео: 720x400 (1.80:1), 23.976 fps, XviD build 73 ~2054 kbps avg, 0.30 bit/pixel
Звук: 48 kHz, AC3 Dolby Digital, 3/2 (L,C,R,l,r) + LFE ch, ~384 kbps
Субтитры: нет

admin

Post 19-Jun-2018 05:36

[Quote]

Стрингер / Nightcrawler
«Секреты Лос-Анджелеса»
Год выпуска: 2014
Страна: США / Bold Films
Жанр: триллер, криминал
Продолжительность: 01:58:05
Перевод: Профессиональный (многоголосый, закадровый) [Лицензия R5]
Субтитры: Нет-Режиссер: Дэн Гилрой / Dan Gilroy-В ролях: Джейк Джилленхол (Louis Bloom), Рене Руссо (Nina Romina), Риз Ахмед (Rick), Билл Пэкстон (Joe Loder), Майкл Пападжон (Security Guard), Марко Родригес (Scrapyard Owner), Джеймс Хуанг (Marcus Mayhem Video), Кент Шокнек (Kent Shocknek), Пэт Харви (Pat Harvey), Шэрон Тэй (Sharon Tay), Рик Гарсиа (Rick Garcia), Леа Фредкин (Female Anchor)-Описание:
Луи Блум — молодой безработный парень, который всеми способами пытается устроиться на работу. Совершенно случайно ему удается записать на видео угон автомобиля, после чего он продает запись одной из телекомпаний города, представители которой приглашают его на работу репортера. Его специализацией становятся репортажи на криминальную тематику. Рассказывая о преступлениях, которые происходят в элитных районах города, Луи смог стать довольно известным человеком, поскольку его репортажи привлекают огромное количество зрителей. Но такая работа оказывается очень опасной, поскольку в кадр Луи могут попасть жестокие преступники, которые никогда не оставляют свидетелей. Кроме этого, после очередного репортажа с места преступления, Луи становится главным подозреваемым в его совершении..
-Рейтинг:
-Качество: BDRip | исх. Nightcrawler 2014 MULTi COMPLETE BLURAY-XORBiTANT |
Формат: AVI
Видео кодек: XviD
Аудио кодек: AC3
Видео: 720x304 (2.37:1), 23.976 fps, XviD build 73 ~1322 kbps avg, 0.25 bit/pixel
Аудио: 48 kHz, AC3 Dolby Digital, 3/2 (L,C,R,l,r) + LFE ch, ~448 kbps
-

Скриншоты


admin

Post 11-Jun-2018 05:20

[Quote]

Название фильма: Костяной томагавк
Оригинальное название фильма: Bone Tomahawk
Год выпуска: 2015
Производство: США / Caliber Media Company.
Жанр: ужасы, триллер, драма, приключения, вестерн
Продолжительность: 02:12:04
Перевод: Дубляж [R5]
Субтитры: русские (Notabenoid), английские (Full), английские (SDH)
Навигация по главам: есть-Режиссер: С. Крэйг Залер / S. Craig Zahler
В ролях:
Курт Рассел (Sheriff Hunt), Патрик Уилсон (Arthur), Мэттью Фокс (Brooder), Ричард Дженкинс (Chicory), Лили Симмонс (Samantha), Эван Йоникит (Deputy Nick), Дэвид Аркетт (Purvis), Фред Меламед (Clarence), Сид Хэйг (Buddy), Маэстро Харрелл (Gizzard), Джеймс Толкан (Pianist), Кэтрин Моррис (Lorna Hunt)-О фильме: Четверо мужчин отправляются в отдаленные земли Дикого Запада, чтобы спасти группу пленных из пещер каннибалов.-Бюджет: $1 800 000- -Качество: BDRip-AVC
Формат: MKV
Видео: 1108x464 (2.40:1), 2258 kbps, 23,976 fps
Аудио#1: AC3 / 5.1 / 48 kHz / 448 kbps / 16 bit | RUS
Аудио#2: AC3 / 5.1 / 48 kHz / 448 kbps / 16 bit | ENG

Скриншоты



 

Current time is: 12-Dec 15:22

All times are UTC + 3