Search found 500 matches

Author Message

admin

Post 10-Feb-2020 04:32

[Quote]

https://ivtracker.org/viewtopic.php?t=22790

admin

Post 10-Feb-2020 04:29

[Quote]

Информация о фильме
Название: Спрячь бабушку в холодильнике
Оригинальное название: Metti la nonna in freezer
Год выпуска: 2018
Жанр: Комедия
Режиссер: Джанкарло Фонтана, Джузеппе Стаси
В ролях: Фабио Де Луиджи, Мириам Леоне, Люсия Оконе, Марина Рокко, Франческо Ди Лива, Сьюзи Лауде, Карло Лука Де Руджиери, Маурицио Ломбарди, Эрос Паньи, Барбара Буше
О фильме:
Молодая художница Клаудия держит на плаву свою мастерскую только благодаря бабушкиной пенсии. И когда старушка умирает, Клаудии ничего не остается, как скрыть этот факт, чтобы продолжать получать деньги. Но девушку начинает преследовать дотошный и неподкупный полицейский Симоне, обожающий свою работу. Что же привлекло его внимание — сама Клаудия или ее «скелет в шкафу»?

Страна: Италия
Студия: Indigo Film, Rai Cinema
Продолжительность: 01:39:21
Перевод: Профессиональный (многоголосый, закадровый) | iTunes
Файл
Формат: AVI
Качество: WEB-DLRip
Источник: |SBV_HOLODILNIKE_2018_WEB-DL_1080p-BLUEBIRD|
Видео: 720x304 (2.37:1), 25 fps, XviD build 73 ~1710 kbps avg, 0.31 bit/pixel
Звук: 48 kHz, AC3 Dolby Digital, 3/2 (L,C,R,l,r) + LFE ch, ~384 kbps
Субтитры: Русские на надписи (вшиты)

Скриншоты

admin

Post 07-Feb-2020 03:43

[Quote]

Моё прекрасное лето с Софи / Une fille facile
Страна: Франция
Производство: Canal+ [fr], Les Films Velvet
Год выпуска: 2019
Жанр: драма, комедия
Продолжительность: 01:32:10
Режиссер: Ребекка Злотовски
Авторы сценария: Ребекка Злотовски, Тедди Лусси-Модесте
В ролях: Мина Фарид, Захия Дехар, Бенуа Мажимель, Нуно Лопеш, Клотильда Куро, Любна Абидар, Лакдхар Дриди, Анри-Ноэль Табари
Описание: Найме 16 лет, она живёт в Каннах. Учебный год закончился, впереди каникулы — в компании с приехавшей из Парижа 22-летней кузиной Софи, готовой научить подросшую сестрёнку правилам взрослой жизни. Лови момент — её главный девиз. А это значит — богатые и щедрые мужчины для того и существуют, чтобы делать счастливыми юных красавиц и дарить им удовольствия. Такое море соблазнов! Отказаться невозможно. Если, конечно, забыть, что за удовольствия положено платить...

Перевод: Профессиональный (полное дублирование) | iTunes
Субтитры: нет-Качество: WEB-DLRip
Формат: AVI
Видео кодек: XviD
Аудио кодек: АС3
Видео: 720x304 (2.35:1), 24.000 fps, XviD build 73 ~1870 kbps avg, 0.356 bit/pixel
Аудио: 48.0 kHz, AC3 Dolby Digital, 3/2 (L,C,R,l,r) + LFE ch, ~384 kbps
Дата премьеры (мир): 20 мая 2019
Дата премьеры (РФ): 16 января 2020, «Престиж Кино»
Релиз от: порошков

Media Info

General
Формат : AVI
Формат/Информация : Audio Video Interleave
Размер файла : 1,46 Гбайт
Продолжительность : 1 ч. 32 м.
Общий поток : 2263 Кбит/сек
Название фильма : Мое прекрасное лето с Софи_2019_WEB-DLRip
Программа кодирования : VirtualDubMod 1.5.10.3 | www.virtualdub-fr.org || (build 2550/release)
Авторское право : порошков
Видео
Идентификатор : 0
Формат : MPEG-4 Visual
Профиль формата : Advanced Simple@L5
Настройки формата : BVOP1 / Custom Matrix
Параметр BVOP формата : 1
Параметр QPel формата : Нет
Параметр GMC формата : Без точки перехода
Параметр матрицы формата : Выборочная
Идентификатор кодека : XVID
Идентификатор кодека/Подсказка : XviD
Продолжительность : 1 ч. 32 м.
Битрейт : 1870 Кбит/сек
Ширина : 720 пикселей
Высота : 304 пикселя
Соотношение сторон : 2,35:1
Частота кадров : 24,000 кадра/сек
Цветовое пространство : YUV
Субдискретизация насыщенности : 4:2:0
Битовая глубина : 8 бит
Тип развёртки : Прогрессивная
Метод сжатия : С потерями
Бит/(Пиксели*Кадры) : 0.356
Размер потока : 1,20 Гбайт (83%)
Библиотека кодирования : XviD 73
Аудио
Идентификатор : 1
Формат : AC-3
Формат/Информация : Audio Coding 3
Коммерческое название : Dolby Digital
Идентификатор кодека : 2000
Продолжительность : 1 ч. 32 м.
Вид битрейта : Постоянный
Битрейт : 384 Кбит/сек
Каналы : 6 каналов
ChannelLayout : L R C LFE Ls Rs
Частота : 48,0 КГц
Частота кадров : 31,250 кадров/сек (1536 SPF)
Метод сжатия : С потерями
Размер потока : 253 Мбайт (17%)
Выравнивание : Разделение по промежуткам
Продолжительность промежутка : 42 мс. (1,00 видеокадр)
Время предзагрузки промежутка : 500 мс.

Скриншоты

admin

Post 07-Feb-2020 03:36

[Quote]

Информация о фильме
Название: Предатель
Оригинальное название: Il traditore
Год выпуска: 2019
Жанр: Драма, биография, криминал
Режиссер: Марко Беллоккьо
В ролях: Пьерфранческо Фавино, Луиджи Ло Кашио, Фаусто Руссо Алези, Мария Фернанда Кандиду, Фабрицио Ферракане, Кали Никола, Джованни Калканьо, Бруно Карьелло, Бебо Сторти, Винченцо Пирротта
О фильме:
В начале 1980-х между боссами сицилийской мафии разгорается война за героиновый рынок. Один из мафиози, Томмазо Бушетта, пытается скрыться в Бразилии. В то время, как на его родине начинается бойня, Бушетта вынужден издалека наблюдать за тем, как его сыновей и братьев убивают в Палермо. Он понимает, что может стать следующим. Бразильская полиция арестовывает Бушетту и экстрадирует его в Италию. Мафиози принимает решение, которое кардинально изменит ситуацию для мафии, - он встречается с судьёй Джованни Фальконе и нарушает священную клятву, которую он дал Коза Ностре.

Страна: Италия, Франция, Бразилия, Германия
Студия: IBC Movie, Kavac Film, Rai Cinema
Продолжительность: 02:31:46
Перевод: Дублированный | iTunes
Файл
Формат: AVI
Качество: BDRip
Источник: |The.Traitor.2019.BluRay.1080p.DTS-HD.MA.5.1.AVC.REMUX-FraMeSToR|
Видео: 704x384 (1.83:1), 23.976 fps, XviD build 73 ~1239 kbps avg, 0.19 bit/pixel
Звук: 48 kHz, MPEG Layer 3, 2 ch, ~128.00 kbps avg
Субтитры: Русские форсированные (отдельно)

Скриншоты

admin

Post 04-Feb-2020 03:52

[Quote]

Информация о фильме
Название: 21 мост
Оригинальное название: 21 Bridges
Год выпуска: 2019
Жанр: Боевик, триллер, драма, криминал
Режиссер: Брайан Кирк
В ролях: Чэдвик Боузмэн, Сиенна Миллер, Тейлор Китч, Дж.К. Симмонс, Стэфан Джеймс, Кит Дэвид, Александр Сиддиг, Луис Канселми, Виктория Картахена, Гари Карр
О фильме:
Он охотится на преступников, которые совершили на Манхэттене дерзкое ограбление, оставив после себя 8 мертвых полицейских. А продажные копы тем временем охотятся на него, пытаясь подставить. Но преступникам не скрыться, так как первый раз в истории Нью-Йорка полиция перекрыла все выходы с острова, в том числе 21 мост.

Страна: США, AGBO
Студия: Huayi Brothers, MWM Studios
Продолжительность: 01:39:25
Перевод: Дублированный | iTunes
Файл
Формат: AVI
Качество: WEB-DLRip
Источник: |21 Bridges.2019.1080p.WEB-DL.H264.AC3-EVO|
Видео: 720x304 (2.37:1), 24 fps, XviD build 73 ~1709 kbps avg, 0.33 bit/pixel
Звук: 48 kHz, AC3 Dolby Digital, 3/2 (L,C,R,l,r) + LFE ch, ~384 kbps
Субтитры: Нет

Скриншоты

admin

Post 25-Jan-2020 21:09

[Quote]

Джон Уик 3 / John Wick: Chapter 3 - Parabellum
«Тик-так, мистер Уик»
Год выпуска: 2019
Страна: США / Summit Entertainment, 87Eleven, Lionsgate
Жанр: боевик, триллер, криминал
Продолжительность: 02:10:43
Перевод: Профессиональный (полное дублирование) [iTunes]
Субтитры: Русские форсированные (стилизованные, на надписи и прочее) - вшитые-Режиссер: Чад Стахелски-В ролях: Киану Ривз, Холли Берри, Иэн МакШейн, Лоуренс Фишборн, Марк Дакаскос, Азия Кейт Диллон, Лэнс Реддик, Тобиаш Сигал, Анжелика Хьюстон, Саид Тагмауи-Описание:
Суперкиллер Джон Уик после нарушения кодекса тайной гильдии ассасинов получает статус изгоя - экскомьюникадо. За его голову назначена цена в 14 миллионов долларов, и армия самых жестоких профессиональных убийц со всего мира открывает на него кровавую охоту.
-Рейтинг:
-*** Видеоряд без английского хардсаба.-Качество: BDRip | исх. John.Wick.Chapter.3.2019.D.MVO.BDREMUX.1080p.seleZen|
Формат: AVI
Видео кодек: XviD
Аудио кодек: AC3
Видео: 720x304 (2.37:1), 23.976 fps, XviD build 73 ~1401 kbps avg, 0.27 bit/pixel
Аудио: 48 kHz, AC3 Dolby Digital, 2/0 (L,R) ch, ~192 kbps
-

Скриншоты


admin

Post 23-Jan-2020 18:19

[Quote]

Терминатор: Тёмные судьбыTerminator: Dark Fate«Welcome to the Day after Judgment Day»

Год выпуска: 2019
Страна: США, Китай
Жанр: фантастика, боевик, приключения
Продолжительность: 02:08:05
Перевод: Профессиональный (дублированный) iTunes
Субтитры: русские форсированные,русские полные, английские
Оригинальная аудиодорожка: английский
Режиссер: Тим Миллер / Tim Miller
В ролях:Линда Хэмилтон, Арнольд Шварценеггер, Маккензи Дэвис, Наталия Рейес, Гэбриел Луна, Диего Бонета, Алисия Боррачеро, Энрике Арсе, Стивен Кри, Ферран Фернандес
Описание: Сара Коннор превратилась в настоящую охотницу за терминаторами и теперь занимается уничтожением роботов-убийц из будущего. Она считала, что главное — это не дать им добраться до Джона, но теперь появилась Дани Рамос, от выживания которой также зависит судьба человечества. Вместе с ней в бой вступает и загадочная девушка Грейс, смесь человека и машины.
Рейтинг MPAA: -Доп. информация:
IMDb: 6.4/10
Kinopoisk: 6.051/10
Sample | Релиз группы:
Качество: BDRip-AVC | TERMINATOR_DARK_FATE_REMUX_IVTRACKER |
Формат: MKV
Видео: 1152x482 (2.40:1), 23,976 fps, 3228 Кbps, 0.242 bit/pixe
Аудио: 48 kHz, AC3 Dolby Digital, 3/2 (L,C,R,l,r) + LFE ch, ~384.00 kbps avg DUB
Аудио 2: 48 kHz, AC3 Dolby Digital, 3/2 (L,C,R,l,r) + LFE ch, ~448.00 kbps avg ENG
Субтитры:Русские,английские

Mediainfo

General
Unique ID : 35379891746025972220061823535154318673 (0x1A9DEB56DEC992505710BBD62611CD51)
Complete name : D:\Terminator Dark Fate by_IVAN@190282.mkv
Format : Matroska
Format version : Version 4 / Version 2
File size : 3.71 GiB
Duration : 2h 8mn
Overall bit rate : 4 146 Kbps
Movie name : Terminator Dark Fate by_IVAN@190282
Encoded date : UTC 2020-02-04 05:45:19
Writing application : mkvmerge v40.0.0 ('Old Town Road + Pony') 64-bit
Writing library : libebml v1.3.9 + libmatroska v1.5.2
DURATION : 01:57:40.110000000
NUMBER_OF_FRAMES : 1388
NUMBER_OF_BYTES : 35285
_STATISTICS_WRITING_APP : mkvmerge v40.0.0 ('Old Town Road + Pony') 64-bit
_STATISTICS_WRITING_DATE_UTC : 2020-02-04 05:45:19
_STATISTICS_TAGS : BPS DURATION NUMBER_OF_FRAMES NUMBER_OF_BYTES
Attachment : Yes
Video
ID : 1
Format : AVC
Format/Info : Advanced Video Codec
Format profile : High@L4.1
Format settings, CABAC : Yes
Format settings, ReFrames : 11 frames
Codec ID : V_MPEG4/ISO/AVC
Duration : 2h 8mn
Bit rate : 3 232 Kbps
Width : 1 152 pixels
Height : 482 pixels
Display aspect ratio : 2.40:1
Frame rate mode : Constant
Frame rate : 23.976 fps
Color space : YUV
Chroma subsampling : 4:2:0
Bit depth : 8 bits
Scan type : Progressive
Bits/(Pixel*Frame) : 0.243
Stream size : 2.89 GiB (78%)
Title : Terminator Dark Fate by_IVAN@190282
Writing library : x264 core 159 r2991 1771b55
Encoding settings : cabac=1 / ref=11 / deblock=1:-3:-3 / analyse=0x3:0x113 / me=umh / subme=11 / psy=1 / psy_rd=1.00:0.05 / mixed_ref=1 / me_range=48 / chroma_me=1 / trellis=2 / 8x8dct=1 / cqm=0 / deadzone=21,11 / fast_pskip=0 / chroma_qp_offset=-3 / threads=6 / lookahead_threads=6 / sliced_threads=0 / nr=0 / decimate=1 / interlaced=0 / bluray_compat=0 / constrained_intra=0 / bframes=16 / b_pyramid=2 / b_adapt=2 / b_bias=0 / direct=3 / weightb=1 / open_gop=0 / weightp=2 / keyint=240 / keyint_min=23 / scenecut=40 / intra_refresh=0 / rc_lookahead=60 / rc=crf / mbtree=0 / crf=16.1 / qcomp=0.60 / qpmin=0 / qpmax=69 / qpstep=4 / vbv_maxrate=50000 / vbv_bufsize=62500 / crf_max=0.0 / nal_hrd=none / filler=0 / ip_ratio=1.40 / pb_ratio=1.30 / aq=3:0.80
Language : English
Default : Yes
Forced : No
Color primaries : BT.709
Transfer characteristics : BT.709
Matrix coefficients : BT.709
DURATION : 02:08:05.345000000
NUMBER_OF_FRAMES : 184264
NUMBER_OF_BYTES : 3182562657
_STATISTICS_WRITING_APP : mkvmerge v40.0.0 ('Old Town Road + Pony') 64-bit
_STATISTICS_WRITING_DATE_UTC : 2020-02-04 05:45:19
_STATISTICS_TAGS : BPS DURATION NUMBER_OF_FRAMES NUMBER_OF_BYTES
Audio #1
ID : 2
Format : AC-3
Format/Info : Audio Coding 3
Mode extension : CM (complete main)
Format settings, Endianness : Big
Codec ID : A_AC3
Duration : 2h 8mn
Bit rate mode : Constant
Bit rate : 384 Kbps
Channel(s) : 6 channels
Channel positions : Front: L C R, Side: L R, LFE
Sampling rate : 48.0 KHz
Bit depth : 16 bits
Compression mode : Lossy
Stream size : 352 MiB (9%)
Title : Dub
Language : Russian
Default : Yes
Forced : No
Audio #2
ID : 3
Format : AC-3
Format/Info : Audio Coding 3
Mode extension : CM (complete main)
Format settings, Endianness : Big
Codec ID : A_AC3
Duration : 2h 8mn
Bit rate mode : Constant
Bit rate : 448 Kbps
Channel(s) : 6 channels
Channel positions : Front: L C R, Side: L R, LFE
Sampling rate : 48.0 KHz
Bit depth : 16 bits
Compression mode : Lossy
Stream size : 411 MiB (11%)
Title : Eng
Language : English
Default : No
Forced : No
Text #1
ID : 4
Format : UTF-8
Codec ID : S_TEXT/UTF8
Codec ID/Info : UTF-8 Plain Text
Title : Rus forced
Language : Russian
Default : Yes
Forced : No
Text #2
ID : 5
Format : UTF-8
Codec ID : S_TEXT/UTF8
Codec ID/Info : UTF-8 Plain Text
Title : Rus full
Language : Russian
Default : No
Forced : No
Text #3
ID : 6
Format : UTF-8
Codec ID : S_TEXT/UTF8
Codec ID/Info : UTF-8 Plain Text
Title : Eng ful
Language : English
Default : No
Forced : No
Text #4
ID : 7
Format : UTF-8
Codec ID : S_TEXT/UTF8
Codec ID/Info : UTF-8 Plain Text
Title : Eng SDH
Language : English
Default : No
Forced : No
Menu
00:00:00.000 : :Chapter 01
00:04:19.843 : :Chapter 02
00:07:48.927 : :Chapter 03
00:11:47.916 : :Chapter 04
00:16:56.349 : :Chapter 05
00:22:10.663 : :Chapter 06
00:29:00.614 : :Chapter 07
00:33:25.754 : :Chapter 08
00:41:35.493 : :Chapter 09
00:47:02.695 : :Chapter 10
00:53:08.936 : :Chapter 11
00:57:56.807 : :Chapter 12
01:05:02.690 : :Chapter 13
01:13:07.967 : :Chapter 14
01:20:45.591 : :Chapter 15
01:27:29.744 : :Chapter 16
01:32:48.688 : :Chapter 17
01:41:45.850 : :Chapter 18
01:49:35.319 : :Chapter 19
01:57:58.613 : :Chapter 20

x264 log

x264 [info]: frame I:1258 Avg QP:14.26 size: 71559 PSNR Mean Y:51.33 U:55.71 V:55.22 Avg:52.29 Global:51.24
x264 [info]: frame P:46668 Avg QP:15.12 size: 31196 PSNR Mean Y:49.86 U:54.31 V:54.19 Avg:50.83 Global:49.58
x264 [info]: frame B:136338 Avg QP:17.36 size: 12005 PSNR Mean Y:49.26 U:54.00 V:53.45 Avg:50.23 Global:48.72
x264 [info]: consecutive B-frames: 3.8% 4.7% 16.3% 19.3% 17.9% 31.2% 3.4% 1.1% 0.7% 0.3% 0.3% 0.2% 0.2% 0.1% 0.1% 0.1% 0.3%
x264 [info]: mb I I16..4: 13.3% 65.3% 21.4%
x264 [info]: mb P I16..4: 3.2% 22.6% 4.1% P16..4: 24.3% 29.0% 10.0% 0.0% 0.0% skip: 6.8%
x264 [info]: mb B I16..4: 1.0% 3.2% 0.7% B16..8: 32.7% 24.8% 4.4% direct: 7.4% skip:25.9% L0:46.2% L1:41.3% BI:12.5%
x264 [info]: 8x8 transform intra:72.3% inter:53.9%
x264 [info]: direct mvs spatial:99.9% temporal:0.1%
x264 [info]: coded y,uvDC,uvAC intra: 76.0% 82.7% 71.3% inter: 27.4% 25.9% 8.0%
x264 [info]: i16 v,h,dc,p: 49% 16% 6% 28%
x264 [info]: i8 v,h,dc,ddl,ddr,vr,hd,vl,hu: 12% 11% 14% 8% 10% 10% 11% 11% 13%
x264 [info]: i4 v,h,dc,ddl,ddr,vr,hd,vl,hu: 26% 11% 16% 6% 9% 8% 8% 7% 9%
x264 [info]: i8c dc,h,v,p: 44% 29% 17% 11%
x264 [info]: Weighted P-Frames: Y:5.9% UV:4.1%
x264 [info]: ref P L0: 49.9% 7.6% 16.5% 6.9% 5.2% 3.8% 3.3% 1.9% 1.8% 1.5% 1.5% 0.2% 0.0%
x264 [info]: ref B L0: 71.8% 12.6% 5.6% 2.8% 2.1% 1.6% 1.5% 0.9% 0.8% 0.3%
x264 [info]: ref B L1: 95.2% 4.8%
x264 [info]: SSIM Mean Y:0.9909950 (20.455db)
x264 [info]: PSNR Mean Y:49.423 U:54.092 V:53.648 Avg:50.396 Global:48.935 kb/s:3312.86
x264 [total]: encoded 184264 frames, 1.55 fps, 3312.86 kb/s
-

Скриншот с названием фильма

Скриншоты

Торрент файл перезалит,звук заменен на дубляж с iTunes ,пожалуйста перекачайте торрент файл!
Убедительная просьба пожалуйста кто скачал не бросайте раздачу!!!

admin

Post 22-Jan-2020 20:14

[Quote]

Информация о фильме
Название: Малышка зомби
Оригинальное название: Zombi Child
Год выхода: 2019
Жанр: Фэнтези
Режиссер: Кирк Харрис
В ролях: Луиз Лабек, Висланда Луима, Катиана Мильфор, Макенсон Бижу, Адиль Давид, Нинон Франсуа, Матильда Риу, Жинит Попо, Неэми Пьер-Даоме, Саид Эль Алами
О фильме:
История Клервиуса Нарцисса, самого знаменитого в мире зомби, оживает в рассказе его внучки, которая переезжает в Париж, и, желая произвести впечатление на новых одноклассниц, невольно навлекает силы гаитянской вуду.

Страна: Франция
Студия: My New Pictures, Les Films du Bal, Arte France Cinéma
Продолжительность: 01:42:59
Перевод: Профессиональный многоголосый | iTunes
Файл
Формат: AVI
Качество: WEB-DLRip
Видео: 720x384 (1.88:1), 24.000 fps, XviD build 73 ~1631 kbps avg, 0.25 bit/pixel
Аудио 1: 48 kHz, AC3 Dolby Digital, 2/0 (L,R) ch, ~192 kbps | RUS
Аудио 2: 48 kHz, AC3 Dolby Digital, 2/0 (L,R) ch, ~192 kbps | FRA
Субтитры: Субтитры: Русские (forced, full)

Награды

Каннский кинофестиваль, 2019 год
Номинации (1):
Квир-Пальмовая ветвь за освещение ЛГБТ-темы в кино (Бертран Бонелло)
Сан-Себастьян, 2019 год
Номинации (1):
Премия Сабалтеги-Табакалера

Скриншоты

admin

Post 21-Jan-2020 14:07

[Quote]

Информация о фильме
Название: Аббатство Даунтон
Оригинальное название: Downton Abbey
Год выпуска: 2019
Жанр: Драма
Режиссер: Майкл Энглер
В ролях: Мэттью Гуд, Элизабет МакГоверн, Мэгги Смит, Имелда Стонтон, Мишель Докери, Таппенс Мидлтон, Кейт Филлипс, Аллен Лич, Джоанн Фроггатт, Софи МакШера, Хью Бонневилль
О фильме:
Главное событие в жизни каждого аристократа — прием правящего монарха в родовом гнезде. Однако в череде изысканных раутов и светских церемоний кто-то из обитателей роскошного особняка готовит покушение на короля.

Страна: Великобритания, США
Студия: Carnival Film & Television, Focus Features, Perfect World Pictures
Продолжительность: 02:01:43
Перевод: Дублированный | Лицензия BD EUR
Файл
Формат: AVI
Качество: BDRip
Источник: |Downton.Abbey.2019.1080p.Blu-ray.AVC.DTS-HD.MA.7.1-HDChina|
Видео: 720x304 (2.37:1), 23.976 fps, XviD build 73 ~1324 kbps avg, 0.25 bit/pixel
Звук: 48 kHz, AC3 Dolby Digital, 3/2 (L,C,R,l,r) + LFE ch, ~384 kbps
Субтитры: Нет

Скриншоты

admin

Post 20-Jan-2020 15:56

[Quote]

Информация о фильме
Название: Дело Коллини
Оригинальное название: Der Fall Collini
Год выпуска: 2019
Жанр: Триллер, драма, криминал
Режиссер: Марко Кройцпайнтнер
В ролях: Франко Неро, Александра Мария Лара, Элиас ЭмБарек, Яннис Нивёнер, Ханнес Вегенер, Хайнер Лаутербах, Стефано Кассетти, Манфред Цапатка, Пиа Стутценштайн, Эксел Мусташ
О фильме:
Каспару Лайнену предстоит расследовать запутанное дело непримечательного механика, итальянца Фабрицио Коллини, который на первый взгляд безо всяких мотивов убил немецкого бизнесмена Ханса Майера, после чего сам сдался полиции. Положение вещей осложняется не только молчанием Коллини и более опытным адвокатом, претендующим на пост главного героя, но и его личным причастием к делу: внучка жертвы Йоханна была его юношеской любовью. Однако Лайнену случайно удаётся найти зацепку, благодаря которой он понимает, что столкнулся с крупнейшим судебным скандалом Германии.

Страна: Германия
Студия: Constantin Film, SevenPictures Film
Продолжительность: 02:02:47
Перевод: Дублированный | iTunes
Файл
Формат: AVI
Качество: BDRip
Источник: |Der.Fall.Collini.2019.1080p.Remux.AVC.DTS-HR.5.1|
Видео: 720x304 (2.37:1), 24 fps, XviD build 73 ~2089 kbps avg, 0.40 bit/pixel
Звук: 48 kHz, AC3 Dolby Digital, 3/2 (L,C,R,l,r) + LFE ch, ~384 kbps
Субтитры: Нет

Скриншоты

admin

Post 20-Jan-2020 15:54

[Quote]

Информация о фильме
Название: Дело Коллини
Оригинальное название: Der Fall Collini
Год выпуска: 2019
Жанр: Триллер, драма, криминал
Режиссер: Марко Кройцпайнтнер
В ролях: Франко Неро, Александра Мария Лара, Элиас ЭмБарек, Яннис Нивёнер, Ханнес Вегенер, Хайнер Лаутербах, Стефано Кассетти, Манфред Цапатка, Пиа Стутценштайн, Эксел Мусташ
О фильме:
Каспару Лайнену предстоит расследовать запутанное дело непримечательного механика, итальянца Фабрицио Коллини, который на первый взгляд безо всяких мотивов убил немецкого бизнесмена Ханса Майера, после чего сам сдался полиции. Положение вещей осложняется не только молчанием Коллини и более опытным адвокатом, претендующим на пост главного героя, но и его личным причастием к делу: внучка жертвы Йоханна была его юношеской любовью. Однако Лайнену случайно удаётся найти зацепку, благодаря которой он понимает, что столкнулся с крупнейшим судебным скандалом Германии.

Страна: Германия
Студия: Constantin Film, SevenPictures Film
Продолжительность: 02:02:47
Перевод: Дублированный | iTunes
Файл
Формат: AVI
Качество: BDRip
Источник: |Der.Fall.Collini.2019.1080p.Remux.AVC.DTS-HR.5.1|
Видео: 720x304 (2.37:1), 24 fps, XviD build 73 ~1308 kbps avg, 0.25 bit/pixel
Звук: 48 kHz, AC3 Dolby Digital, 3/2 (L,C,R,l,r) + LFE ch, ~384 kbps
Субтитры: Нет

Скриншоты

admin

Post 16-Jan-2020 16:47

[Quote]

Информация о фильме
Название: Портрет девушки в огне
Оригинальное название: Portrait de la jeune fille en feu
Год выпуска: 2019
Жанр: Драма
Режиссер: Селин Сьямма
В ролях: Ноэми Мерлан, Адель Энель, Луана Байрами, Валерия Голино, Кристель Барас, Арман Буланжер, Ги Деламарш, Клеман Буассу, Мишель Клеман, Сесиль Морел
О фильме: Бретань, 1770. Марианна, художница, приезжает в имение на побережье, чтобы написать портрет дочери его владелицы - Элоизы. Картина нужна, чтобы отправить жениху Элоизы в Милан. В знак протеста против замужества девушка отказывается позировать, и гостью представляют как компаньонку для прогулок. Проводя все больше времени вместе, девушки начинают чувствовать взаимное притяжение.

Страна: Франция
Студия: Lilies Films, Arte France Cinéma, Hold Up Films
Продолжительность: 02:01:18
Перевод: Дублированный | iTunes
Файл
Формат: AVI
Качество: WEB-DLRip
Источник: |Portrait.de.la.jeune.fille.en.feu.2019.720p.WEB-DL.Rus.TeamHD|
Видео: 720x384 (1.88:1), 23.976 fps, XviD build 73 ~1330 kbps avg, 0.20 bit/pixel
Звук: 48 kHz, AC3 Dolby Digital, 3/2 (L,C,R,l,r) + LFE ch, ~384 kbps
Субтитры: Нет

Скриншоты

admin

Post 16-Jan-2020 16:43

[Quote]

Изгоняющий дьявола: Абаддон / The Assent
Страна: США
Производство: Boom Done Productions
Год выпуска: 2019
Жанр: ужасы, триллер
Продолжительность: 01:27:46
Режиссер: Пирри Реджинальд Тео
В ролях: Роберт Казински, Питер Джейсон, Флоренс Ванида Фэйвр, Кэйден Драгомер, Ханна Уорд, Дуглас Спэйн, Эйлин Дитц, Маргарита Рейес
Описание: Над семьёй Джоэла нависло проклятие. Недавно скончалась его жена, а маленького сына мучают кошмары. Призванный в дом священник убеждён, что их род захватил древний демон разрушения Абаддон, принимающий разные обличия. Если демона не остановить, его власть распространится и на другие семьи...

Перевод: Профессиональный (полное дублирование) | звук с онлайн-кинотеатра
Субтитры: нет-Качество: WEB-DLRip
Формат: AVI
Видео кодек: XviD
Аудио кодек: АС3
Видео: 720x304 (2.35:1), 23.976 fps, XviD build 67 ~1987 kbps avg, 0.379 bit/pixel
Аудио №1: 48.0 kHz, AC3 Dolby Digital, 2/0 (L,R) ch, ~192 kbps | RUS
Аудио №2: 48.0 kHz, AC3 Dolby Digital, 2/0 (L,R) ch, ~192 kbps | ENG
Дата премьеры (мир): 23 октября 2019
Дата премьеры (РФ): 9 января 2020, «Экспонента»

Релиз от: Dalemake

Media Info

General
Полное имя : The_Assent_2019_WEB-DLRip_by_Dalemake.avi
Формат : AVI
Формат/Информация : Audio Video Interleave
Размер файла : 1,46 Гбайт
Продолжительность : 1 ч. 27 м.
Общий поток : 2386 Кбит/сек
Программа кодирования : VirtualDubMod 1.5.10.3 | www.virtualdub-fr.org || (build 2550/release)
Библиотека кодирования : VirtualDubMod build 2550/release
Видео
Идентификатор : 0
Формат : MPEG-4 Visual
Профиль формата : Advanced Simple@L5
Настройки формата : BVOP1 / Custom Matrix
Параметр BVOP формата : 1
Параметр QPel формата : Нет
Параметр GMC формата : Без точки перехода
Параметр матрицы формата : Выборочная
Идентификатор кодека : XVID
Идентификатор кодека/Подсказка : XviD
Продолжительность : 1 ч. 27 м.
Битрейт : 1987 Кбит/сек
Ширина : 720 пикселей
Высота : 304 пикселя
Соотношение сторон : 2,35:1
Частота кадров : 23,976 (24000/1001) кадра/сек
Цветовое пространство : YUV
Субдискретизация насыщенности : 4:2:0
Битовая глубина : 8 бит
Тип развёртки : Прогрессивная
Метод сжатия : С потерями
Бит/(Пиксели*Кадры) : 0.379
Размер потока : 1,22 Гбайт (83%)
Библиотека кодирования : XviD 67
Аудио #1
Идентификатор : 1
Формат : AC-3
Формат/Информация : Audio Coding 3
Коммерческое название : Dolby Digital
Идентификатор кодека : 2000
Продолжительность : 1 ч. 27 м.
Вид битрейта : Постоянный
Битрейт : 192 Кбит/сек
Каналы : 2 канала
ChannelLayout : L R
Частота : 48,0 КГц
Частота кадров : 31,250 кадров/сек (1536 SPF)
Битовая глубина : 16 бит
Метод сжатия : С потерями
Размер потока : 121 Мбайт (8%)
Выравнивание : Разделение по промежуткам
Продолжительность промежутка : 42 мс. (1,00 видеокадр)
Время предзагрузки промежутка : 500 мс.
Аудио #2
Идентификатор : 2
Формат : AC-3
Формат/Информация : Audio Coding 3
Коммерческое название : Dolby Digital
Идентификатор кодека : 2000
Продолжительность : 1 ч. 27 м.
Вид битрейта : Постоянный
Битрейт : 192 Кбит/сек
Каналы : 2 канала
ChannelLayout : L R
Частота : 48,0 КГц
Частота кадров : 31,250 кадров/сек (1536 SPF)
Битовая глубина : 16 бит
Метод сжатия : С потерями
Размер потока : 121 Мбайт (8%)
Выравнивание : Разделение по промежуткам
Продолжительность промежутка : 42 мс. (1,00 видеокадр)
Время предзагрузки промежутка : 500 мс.

Скриншоты

admin

Post 16-Jan-2020 16:39

[Quote]

Название: Терминатор: Темные судьбы
Оригинальное название: Terminator: Dark Fate
Год выпуска: 2019
Жанр: Фантастика, боевик, приключения
Выпущено: США, Китай, Paramount Pictures, Twentieth Century Fox, Skydance Media
Режиссер: Тим Миллер
В ролях: Арнольд Шварценеггер, Маккензи Дэвис, Линда Хэмилтон, Эдвард Ферлонг, Гэбриел Луна, Наталия Рейес, Том Хоппер, Диего Бонета, Алисия Боррачеро, Энрике Арсе, Стивен Кри, Ферран Фернандес
О фильме: Сара Коннор превратилась в настоящую охотницу за терминаторами и теперь занимается уничтожением роботов-убийц из будущего. Она считала, что главное — это не дать им добраться до Джона, но теперь появилась Дани Рамос, от выживания которой также зависит судьба человечества. Вместе с ней в бой вступает и загадочная девушка Грейс, смесь человека и машины.

Техданные
Качество: WEBRip
Видео: XviD, ~ 1 299 kb/s, 720x304, 23.976 FPS
Аудио: AC3, 2 ch, 192 Кбит/с
Продолжительность: 02:08:39
Перевод: Любительский двухголосый закадровый (LakeFilms)
Присутствует реклама!

Скриншоты

admin

Post 10-Jan-2020 22:20

[Quote]

Информация о фильме
Название: Ночь в осаде
Оригинальное название: Trauma Center
«The enemy is closer than you think»
Год выхода: 2019
Жанр: Боевик, триллер
Режиссер: Мэтт Эскандари
В ролях: Брюс Уиллис, Никки Уилан, Стив Гуттенберг, Лорин Кент, Хезер Йохансен, Линн Гилмартин, Тексас Бэттл, Тито Ортис, Катрин Дэвис, Тайлер Джон Олсон
О фильме:
Избитая неизвестными испуганная женщина оказывается ночью одна в больничном изоляторе травматологического центра. Она раненая и обессилена, и теперь ей придётся найти в себе силы сбежать от двух киллеров, которые пришли за важной уликой, указывающей на их причастие к громким криминальным делам. К счастью, ветеран полиции получает задание защищать женщину.

Страна: США
Студия: BondIt, Buffalo 8 Productions, Emmett/Furla Films, Pimienta
Продолжительность: 01:38:00
Перевод: Профессиональный (полное дублирование) | iTunes
• Расширенная версия длиннее театральной на ~11 минут. Полный дублированный перевод.
Файл
Качество: WEB-DLRip
Формат: AVI
Кодек: XviD
Видео: 720x304 (2.35:1), 24 fps, XviD ~ 1734 Кbps avg, 0.330 bit/pixel
Аудио: AC3, 48 kHz, 6 ch, ~384.00 kbps avg | русский | iTunes
Субтитры: Отсутствуют

Скриншоты

 

Current time is: 21-Feb 21:50

All times are UTC + 3