Search found 500 matches

Author Message

admin

Post 10-Aug-2020 06:32

[Quote]

Железные леди / Teräsleidit
Страна: Финляндия
Жанр: комедия, драма
Год выпуска: 2020
Продолжительность: 01:24:56
Перевод: одноголосый закадровый - porcellus
Субтитры: финские
Оригинальная аудиодорожка: финская
Режиссер: Памела Тола / Pamela Tola
В ролях: Леэна Уотила, Сеэла Селла, Саара Паккасвирта, Хейкки Ноусилайнен, Пирьо Лонка, Самули Ниттимяки, Яни Воланен, Пентти Альгрен, Маркку Алмиала, Ола Блик
Описание: Накануне своего дня рождения пожилая женщина Инкери ударила опостылевшего мужа сковородкой по голове. Что делать с телом? Как жить дальше? Сдаваться в полицию или сбежать? За помощью Инкери обращается к своим престарелым сестрам. У железных леди еще есть порох в пороховницах и ягоды тоже есть. Тем временем, ни о чем не подозревающая дочь Инкери из последних сил пытается организовать приличествующее случаю торжество.

Сэмпл: http://multi-up.com/1265960
Качество видео: WEB-DLRip
Формат видео: AVI
Видео: 720x320 (2.25:1), 25 fps, XviD build 50 ~2065 kbps avg, 0.36 bit/pixel формат кадра адаптирован для прочтения субтитров
Аудио 1: 48 kHz, AC3 Dolby Digital, 2/0 (L,R) ch, ~192 kbps русская
Аудио 2: 48 kHz, AC3 Dolby Digital, 2/0 (L,R) ch, ~192 kbps финская
Формат субтитров: hardsub (неотключаемые)

MediaInfo

General
Complete name : H:\temp\Железные.леди.2020\Железные.леди.2020.avi
Format : AVI
Format/Info : Audio Video Interleave
Format profile : OpenDML
File size : 1.46 GiB
Duration : 1 h 24 min
Overall bit rate : 2 457 kb/s
Writing application : Lavf57.71.100
Video
ID : 0
Format : MPEG-4 Visual
Format profile : Advanced Simple@L5
Format settings, BVOP : 1
Format settings, QPel : No
Format settings, GMC : No warppoints
Format settings, Matrix : Default (MPEG)
Codec ID : XVID
Codec ID/Hint : XviD
Duration : 1 h 24 min
Bit rate : 2 054 kb/s
Width : 720 pixels
Height : 320 pixels
Display aspect ratio : 2.25:1
Frame rate : 25.000 FPS
Color space : YUV
Chroma subsampling : 4:2:0
Bit depth : 8 bits
Scan type : Progressive
Compression mode : Lossy
Bits/(Pixel*Frame) : 0.357
Stream size : 1.22 GiB (84%)
Writing library : XviD 1.2.1 (UTC 2008-12-04)
Audio #1
ID : 1
Format : AC-3
Format/Info : Audio Coding 3
Mode extension : CM (complete main)
Format settings, Endianness : Big
Codec ID : 2000
Duration : 1 h 24 min
Bit rate mode : Constant
Bit rate : 192 kb/s
Channel(s) : 2 channels
Channel positions : Front: L R
Sampling rate : 48.0 kHz
Frame rate : 31.250 FPS (1536 spf)
Bit depth : 16 bits
Compression mode : Lossy
Stream size : 117 MiB (8%)
Alignment : Aligned on interleaves
Interleave, duration : 32 ms (0.80 video frame)
Audio #2
ID : 2
Format : AC-3
Format/Info : Audio Coding 3
Mode extension : CM (complete main)
Format settings, Endianness : Big
Codec ID : 2000
Duration : 1 h 24 min
Bit rate mode : Constant
Bit rate : 192 kb/s
Channel(s) : 2 channels
Channel positions : Front: L R
Sampling rate : 48.0 kHz
Frame rate : 31.250 FPS (1536 spf)
Bit depth : 16 bits
Compression mode : Lossy
Stream size : 117 MiB (8%)
Alignment : Aligned on interleaves
Interleave, duration : 32 ms (0.80 video frame)

Скриншот c названием фильма

Скриншоты

admin

Post 10-Aug-2020 06:28

[Quote]

Момент истины / Last Moment of Clarity
Страна: США
Жанр: триллер
Год выпуска: 2020
Продолжительность: 01:30:12-Перевод: Одноголосый закадровый - zamez
Субтитры: нет
Оригинальная аудиодорожка: нет-Режиссер:
Колин Крисел / Colin Krisel, Джеймс Крисел / James Krisel-В ролях:
Самара Уивинг, Брайан Кокс, Карли Чаикин, Удо Кир, Хэл Озсэн, Павел Лычников, Николь Ансари-Кокс, Алекс Фернандес, Зак Эйвери, Карл Эдрард-Описание:
Сэм потерял девушку при трагических обстоятельствах. Он уже четыре года пытается найти виновных в её гибели, но однажды в кино замечает актрису похожую на любимую.- -Качество видео: WEB-DLRip
Формат видео: AVI
Видео: 720x304 (2.37:1), 23.976 fps, XviD build 73 ~1853 kbps avg, 0.35 bit/pixel
Аудио: 48 kHz, AC3 Dolby Digital, 3/2 (L,C,R,l,r) + LFE ch, ~448 kbps-Сэмпл-

MediaInfo


Формат                                   : AVI
Формат/Информация                        : Audio Video Interleave
Размер файла                             : 1,46 Гбайт
Продолжительность                        : 1 ч. 30 м.
Общий поток                              : 2 311 Кбит/сек
Название фильма                          : Момент истины_2020_WEB-DLRip
Программа кодирования                    : VirtualDubMod 1.5.10.3 | www.virtualdub-fr.org || (build 2550/release)
Авторское право                          : порошков
Видео
Идентификатор                            : 0
Формат                                   : MPEG-4 Visual
Профиль формата                          : Advanced Simple@L5
Настройки формата                        : BVOP1 / Custom Matrix
Параметр BVOP формата                    : 1
Параметр QPel формата                    : Нет
Параметр GMC формата                     : Без точки перехода
Параметр матрицы формата                 : Выборочная
Идентификатор кодека                     : XVID
Идентификатор кодека/Подсказка           : XviD
Продолжительность                        : 1 ч. 30 м.
Битрейт                                  : 1 853 Кбит/сек
Ширина                                   : 720 пикселей
Высота                                   : 304 пикселя
Соотношение сторон                       : 2,35:1
Частота кадров                           : 23,976 (24000/1001) кадра/сек
Цветовое пространство                    : YUV
Субдискретизация насыщенности            : 4:2:0
Битовая глубина                          : 8 бит
Тип развёртки                            : Прогрессивная
Метод сжатия                             : С потерями
Бит/(Пиксели*Кадры)                      : 0.353
Размер потока                            : 1,17 Гбайт (80%)
Библиотека кодирования                   : XviD 73
Аудио
Идентификатор                            : 1
Формат                                   : AC-3
Формат/Информация                        : Audio Coding 3
Коммерческое название                    : Dolby Digital
Идентификатор кодека                     : 2000
Продолжительность                        : 1 ч. 30 м.
Вид битрейта                             : Постоянный
Битрейт                                  : 448 Кбит/сек
Каналы                                   : 6 каналов
Channel layout                           : L R C LFE Ls Rs
Частота                                  : 48,0 КГц
Частота кадров                           : 31,250 кадров/сек (1536 SPF)
Метод сжатия                             : С потерями
Размер потока                            : 289 Мбайт (19%)
Выравнивание                             : Разделение по промежуткам
Продолжительность промежутка             : 42  мс. (1,00 видеокадр)
Время предзагрузки промежутка            : 500  мс.
Service kind                             : Complete Main

Скриншоты

[url=https://d.radikal.ru/d23/2006/a8/3ddc35ff021f.png]

admin

Post 10-Aug-2020 06:23

[Quote]

Реликвия / Relic
Страна: Австралия, США
Жанр: ужасы, драма
Год выпуска: 2020
Продолжительность: 01:29:37-Перевод: Профессиональный (многоголосый закадровый)
Субтитры: нет
Оригинальная аудиодорожка: нет-Режиссер:
Натали Эрика Джеймс / Natalie Erika James-В ролях:
Эмили Мортимер, Робин Невин, Белла Хиткот, Джереми Стэнфорд, Крис Бантон, Кристина О’Нилл, Катрина Главичич, Стив Роджерс, Робин Нортовер, Джон Браунинг-Описание: Когда пожилая вдова Эдна неожиданно исчезает, её дочь Кэй и внучка Сэм приезжают в уединённый семейный особняк, чтобы разобраться в произошедшем. Вскоре женщина возвращается, и близкие начинают замечать изменения в её поведении и пугающее присутствие в доме…- -Качество видео: WEB-DLRip
Формат видео: AVIВидео: 720x304 (2.37:1), 23.976 fps, XviD build 73 ~1932 kbps avg, 0.37 bit/pixel
Аудио: 48 kHz, AC3 Dolby Digital, 3/2 (L,C,R,l,r) + LFE ch, ~384 kbps-Сэмпл-

MediaInfo


Код:
Формат : AVI
Формат/Информация : Audio Video Interleave
Размер файла : 1,46 Гбайт
Продолжительность : 1 ч. 29 м.
Общий поток : 2 326 Кбит/сек
Название фильма : Реликвия_2020_WEB-DLRip
Программа кодирования : VirtualDubMod 1.5.10.3 | www.virtualdub-fr.org || (build 2550/release)
Авторское право : порошковВидео
Идентификатор : 0
Формат : MPEG-4 Visual
Профиль формата : Advanced Simple@L5
Настройки формата : BVOP1 / Custom Matrix
Параметр BVOP формата : 1
Параметр QPel формата : Нет
Параметр GMC формата : Без точки перехода
Параметр матрицы формата : Выборочная
Идентификатор кодека : XVID
Идентификатор кодека/Подсказка : XviD
Продолжительность : 1 ч. 29 м.
Битрейт : 1 933 Кбит/сек
Ширина : 720 пикселей
Высота : 304 пикселя
Соотношение сторон : 2,35:1
Частота кадров : 23,976 (24000/1001) кадра/сек
Цветовое пространство : YUV
Субдискретизация насыщенности : 4:2:0
Битовая глубина : 8 бит
Тип развёртки : Прогрессивная
Метод сжатия : С потерями
Бит/(Пиксели*Кадры) : 0.368
Размер потока : 1,21 Гбайт (83%)
Библиотека кодирования : XviD 73Аудио
Идентификатор : 1
Формат : AC-3
Формат/Информация : Audio Coding 3
Коммерческое название : Dolby Digital
Идентификатор кодека : 2000
Продолжительность : 1 ч. 29 м.
Вид битрейта : Постоянный
Битрейт : 384 Кбит/сек
Каналы : 6 каналов
Channel layout : L R C LFE Ls Rs
Частота : 48,0 КГц
Частота кадров : 31,250 кадров/сек (1536 SPF)
Метод сжатия : С потерями
Размер потока : 246 Мбайт (17%)
Выравнивание : Разделение по промежуткам
Продолжительность промежутка : 42 мс. (1,00 видеокадр)
Время предзагрузки промежутка : 500 мс.
Service kind : Complete Main

Скриншоты


admin

Post 10-Aug-2020 06:19

[Quote]

Половина Всего / The Half of It
Страна: США
Жанр: Комедия, мелодрама
Год выпуска: 2020
Продолжительность: 01:45:16-Перевод: Профессиональный (дублированный) Невафильм по заказу Netflix
Субтитры: русские, форсированные
Режиссер: Элис Ву / Alice Wu-В ролях: Энрике Мурсиано, Бекки Энн Бэйкер, Леа Льюис, Кэти Куртин, Колин Чоу, Вольфганг Новограц,
Алекссис Лемир, Хейли Мерфи, Алекс Д. Дженнингс, Дэниэл Димер и др.
Описание: Школьный спортсмен нанимает отличницу Элли, чтобы она помогла ему добиться руки и сердца местной красавицы.
Ситуация заметно осложняется, когда Элли понимает, что Дикон испытывает к ней романтические чувства.-
Сэмпл
Качество видео: WEB-DLRip | The.Half.Of.It.2020.1080p.NF.WEB-DL.DDP5.1.x264-NTG _THD|
Формат видео: AVI
Видео: 720x304 (2.37:1), 24 fps, XviD build 73 ~1528 kbps avg, 0.29 bit/pixel
Аудио: 48 kHz, AC3 Dolby Digital, 3/2 (L, C, R, l, r) + LFE ch, ~448 kbps
Формат субтитров: softsub (SRT)

MediaInfo

General
Complete name : C:The.Half.Of.It.2020.WEB-DLRip.1.46Gb.MegaPeer.avi
Format : AVI
Format/Info : Audio Video Interleave
File size : 1.46 GiB
Duration : 1 h 45 min
Overall bit rate : 1 986 kb/s
Writing application : VirtualDubMod 1.5.10.3 | www.virtualdub-fr.org || (build 2550/release)
Copyright : MegaPeer
Video #0
ID : 0
Format : MPEG-4 Visual
Format profile : Advanced Simple@L5
Format settings, BVOP : 1
Format settings, QPel : No
Format settings, GMC : No warppoints
Format settings, Matrix : Custom
Codec ID : XVID
Codec ID/Hint : XviD
Duration : 1 h 45 min
Bit rate : 1 451 kb/s
Width : 720 pixels
Height : 304 pixels
Display aspect ratio : 2.35:1
Frame rate : 24.000 FPS
Color space : YUV
Chroma subsampling : 4:2:0
Bit depth : 8 bits
Scan type : Progressive
Compression mode : Lossy
Bits/(Pixel*Frame) : 0.276
Stream size : 1.07 GiB (73%)
Writing library : XviD 73
Audio #1
ID : 1
Format : AC-3
Format/Info : Audio Coding 3
Mode extension : CM (complete main)
Format settings, Endianness : Big
Codec ID : 2000
Duration : 1 h 45 min
Bit rate mode : Constant
Bit rate : 448 kb/s
Channel(s) : 6 channels
Channel positions : Front: L C R, Side: L R, LFE
Sampling rate : 48.0 kHz
Frame rate : 31.250 FPS (1536 spf)
Bit depth : 16 bits
Compression mode : Lossy
Stream size : 337 MiB (23%)
Alignment : Split accross interleaves

Скриншоты

admin

Post 10-Aug-2020 06:16

[Quote]

Наследие лжи / Legacy of Lies- Год выхода: 2020
Страна: Нидерланды, Великобритания, Польша, Украина, США
Жанр: триллер, боевик
Продолжительность: 01:41:17
Перевод: Любительский (многоголосый закадровый) @MUZOBOZ@
Субтитры: нет
Оригинальная аудиодорожка: Английская-Режиссер:
Эд Бол / Adrian Bol-В ролях:
Скотт Эдкинс, Хонор Книфси, Мэтт Митлер, Мартин МакДугал, Андреа Василиу, Сами Карим, Том Эшли, Леон Суа, Юлия Соболь, Марко Робинсон-О фильме:
Мартин Бакстер, бывший оперативник МИ6, снова погружается в мир шпионажа, когда его просят помочь в раскрытии шокирующей правды о секретных операциях международных спецслужб.
IMDB [url=https://www.kinopoisk.ru/film/1201533/]КиноПоиск | Сэмпл |-Качество: WEB-DLRip
Формат: AVI
Видео: 720x304 (2.37:1), 23.976 fps, XviD build 69 ~1665 kbps avg, 0.32 bit/pixel
Аудио #1: 48 kHz, AC3 Dolby Digital, 2/0 (L,R) ch, ~192 kbps avg (RUS)
Аудио #2: 48 kHz, AC3 Dolby Digital, 2/0 (L,R) ch, ~192 kbps avg (ENG)
-

Скриншоты

-

MediaInfo

Общее
Полное имя                               : D:\Legacy_of_Lies_2020_WEB-DLRip_MVO_by_Dalemake.avi
Формат                                   : AVI
Формат/Информация                        : Audio Video Interleave
Размер файла                             : 1,46 Гбайт
Продолжительность                        : 1 ч. 41 м.
Общий поток                              : 2064 Кбит/сек
Программа кодирования                    : VirtualDubMod 1.5.10.3 | www.virtualdub-fr.org || (build 2550/release)
Библиотека кодирования                   : VirtualDubMod build 2550/release
Видео
Идентификатор                            : 0
Формат                                   : MPEG-4 Visual
Профиль формата                          : Advanced Simple@L5
Настройки формата                        : BVOP1 / Custom Matrix
Параметр BVOP формата                    : 1
Параметр QPel формата                    : Нет
Параметр GMC формата                     : Без точки перехода
Параметр матрицы формата                 : Выборочная
Идентификатор кодека                     : XVID
Идентификатор кодека/Подсказка           : XviD
Продолжительность                        : 1 ч. 41 м.
Битрейт                                  : 1666 Кбит/сек
Ширина                                   : 720 пикселей
Высота                                   : 304 пикселя
Соотношение сторон                       : 2,35:1
Частота кадров                           : 23,976 (24000/1001) кадра/сек
Частота кадров в оригинале               : 23,976 (23976/1000) кадра/сек
Цветовое пространство                    : YUV
Субдискретизация насыщенности            : 4:2:0
Битовая глубина                          : 8 бит
Тип развёртки                            : Прогрессивная
Метод сжатия                             : С потерями
Бит/(Пиксели*Кадры)                      : 0.317
Размер потока                            : 1,18 Гбайт (81%)
Библиотека кодирования                   : XviD 69
Аудио #1
Идентификатор                            : 1
Формат                                   : AC-3
Формат/Информация                        : Audio Coding 3
Коммерческое название                    : Dolby Digital
Идентификатор кодека                     : 2000
Продолжительность                        : 1 ч. 41 м.
Вид битрейта                             : Постоянный
Битрейт                                  : 192 Кбит/сек
Каналы                                   : 2 канала
ChannelLayout                            : L R
Частота                                  : 48,0 КГц
Частота кадров                           : 31,250 кадров/сек (1536 SPF)
Битовая глубина                          : 16 бит
Метод сжатия                             : С потерями
Размер потока                            : 139 Мбайт (9%)
Выравнивание                             : Разделение по промежуткам
Продолжительность промежутка             : 42  мс. (1,00 видеокадр)
Время предзагрузки промежутка            : 500  мс.
ServiceKind/String                       : Complete Main
Аудио #2
Идентификатор                            : 2
Формат                                   : AC-3
Формат/Информация                        : Audio Coding 3
Коммерческое название                    : Dolby Digital
Идентификатор кодека                     : 2000
Продолжительность                        : 1 ч. 41 м.
Вид битрейта                             : Постоянный
Битрейт                                  : 192 Кбит/сек
Каналы                                   : 2 канала
ChannelLayout                            : L R
Частота                                  : 48,0 КГц
Частота кадров                           : 31,250 кадров/сек (1536 SPF)
Битовая глубина                          : 16 бит
Метод сжатия                             : С потерями
Размер потока                            : 139 Мбайт (9%)
Выравнивание                             : Разделение по промежуткам
Продолжительность промежутка             : 42  мс. (1,00 видеокадр)
Время предзагрузки промежутка            : 500  мс.
ServiceKind/String                       : Complete Main
-

admin

Post 10-Aug-2020 06:08

[Quote]

Бладшот
Bloodshot
«Быть супергероем у него в крови»
Страна: США, Китай
Жанр: фантастика, боевик
Год выпуска: 2020
Продолжительность: 01:49:19
Перевод: Профессиональный (полное дублирование) [Пифагор | iTunes]
Субтитры: русские (форсированные, полные), английские (полные, SDH)
Оригинальная аудиодорожка: английский
Режиссер: Дэйв Уилсон / Dave Wilson
В ролях: Вин Дизель, Гай Пирс, Ламорн Моррис, Эйса Гонсалес, Сэм Хьюэн, Сиддхартх Дхананджай, Талула Райли, Тоби Кеббелл, Йоуханнес Хёйкьюр Йоуханнессон, Алекс Эрнандез
Описание: Военный Рэй Гаррисон возвращается из очередной горячей точки к любимой красавице-жене. Супруги проводят отпуск в Европе, но счастье длится недолго - террористы, не сумев вытянуть из Рэя нужную им информацию, убивают жену, а затем и его самого. Но вскоре корпорация RST возвращает его к жизни. Армия нанороботов в крови превратила Рэя в бессмертного Бладшота, и теперь солдат наделен сверхсилой и способностью мгновенно самоисцеляться, вот только память оставляет желать лучшего. Но вскоре воспоминания о последних мгновениях жизни возвращаются, и Бладшот отправляется мстить за смерть жены.

Автор рипа: stalkerok
Качество видео: BDRip-AVC | Исходник: Bloodshot.2020.BDREMUX.1080p.seleZen
Формат видео: MKV
Видео кодек: AVC
Аудио кодек: AC3
Видео: AVC, 2081 Кбит/сек, 1130x472 (2.40:1), 23,976 кадр/сек
Аудио №1: AC3, 384 Кбит/сек, 48 КГц, 5.1 - русский
Аудио №2: AC3, 384 Кбит/сек, 48 КГц, 5.1 - английский
Навигация по главам: есть

x264/MediaInfo

---[Information] [26.04.2020 21:26:17] x264 [info]: frame I:1386 Avg QP:17.26 size: 49727
---[Information] [26.04.2020 21:26:17] x264 [info]: frame P:40259 Avg QP:19.24 size: 20691
---[Information] [26.04.2020 21:26:17] x264 [info]: frame B:115627 Avg QP:22.36 size: 6957
---[Information] [26.04.2020 21:26:17] x264 [info]: consecutive B-frames: 4.6% 4.7% 10.2% 30.4% 17.3% 23.8% 4.1% 3.1% 0.7% 0.4% 0.2% 0.3% 0.0% 0.1% 0.0%
General
Unique ID : 274469838661892827838177525513886493031 (0xCE7CF7D61F7B2FE6406D1F4F4DFDE967)
Complete name : C:\temp\Bloodshot.2020\Bloodshot.2020.BDRip.x264.Rus.Eng.stalkerok.New-Team.mkv
Format : Matroska
Format version : Version 4
File size : 2.18 GiB
Duration : 1 h 49 min
Overall bit rate : 2 851 kb/s
Movie name : Bloodshot (2020) | Rip by stalkerok
Encoded date : UTC 2020-04-26 19:30:38
Writing application : mkvmerge v44.0.0 ('Domino') 64-bit
Writing library : libebml v1.3.10 + libmatroska v1.5.2
Video
ID : 1
Format : AVC
Format/Info : Advanced Video Codec
Format profile : High@L4.1
Format settings : CABAC / 12 Ref Frames
Format settings, CABAC : Yes
Format settings, Reference frames : 12 frames
Codec ID : V_MPEG4/ISO/AVC
Duration : 1 h 49 min
Bit rate : 2 081 kb/s
Width : 1 130 pixels
Height : 472 pixels
Display aspect ratio : 2.40:1
Frame rate mode : Constant
Frame rate : 23.976 FPS
Color space : YUV
Chroma subsampling : 4:2:0
Bit depth : 8 bits
Scan type : Progressive
Bits/(Pixel*Frame) : 0.163
Stream size : 1.59 GiB (73%)
Title : Bloodshot (2020) | Rip by stalkerok
Writing library : x264 core 160 r3000 33f9e14
Encoding settings : cabac=1 / ref=12 / deblock=1:-3:-2 / analyse=0x3:0x133 / me=umh / subme=11 / psy=1 / psy_rd=1.00:0.00 / mixed_ref=1 / me_range=32 / chroma_me=1 / trellis=2 / 8x8dct=1 / cqm=0 / deadzone=21,11 / fast_pskip=0 / chroma_qp_offset=-2 / threads=12 / lookahead_threads=3 / sliced_threads=0 / nr=0 / decimate=1 / interlaced=0 / bluray_compat=0 / constrained_intra=0 / bframes=14 / b_pyramid=2 / b_adapt=2 / b_bias=0 / direct=3 / weightb=1 / open_gop=0 / weightp=2 / keyint=240 / keyint_min=23 / scenecut=40 / intra_refresh=0 / rc_lookahead=60 / rc=crf / mbtree=0 / crf=19.9 / qcomp=0.65 / qpmin=0 / qpmax=69 / qpstep=4 / vbv_maxrate=50000 / vbv_bufsize=62500 / crf_max=0.0 / nal_hrd=none / filler=0 / ip_ratio=1.40 / pb_ratio=1.30 / aq=3:0.90
Default : Yes
Forced : No
Audio #1
ID : 2
Format : AC-3
Format/Info : Audio Coding 3
Commercial name : Dolby Digital
Codec ID : A_AC3
Duration : 1 h 49 min
Bit rate mode : Constant
Bit rate : 384 kb/s
Channel(s) : 6 channels
Channel layout : L R C LFE Ls Rs
Sampling rate : 48.0 kHz
Frame rate : 31.250 FPS (1536 SPF)
Compression mode : Lossy
Stream size : 300 MiB (13%)
Language : Russian
Service kind : Complete Main
Default : Yes
Forced : No
Audio #2
ID : 3
Format : AC-3
Format/Info : Audio Coding 3
Commercial name : Dolby Digital
Codec ID : A_AC3
Duration : 1 h 49 min
Bit rate mode : Constant
Bit rate : 384 kb/s
Channel(s) : 6 channels
Channel layout : L R C LFE Ls Rs
Sampling rate : 48.0 kHz
Frame rate : 31.250 FPS (1536 SPF)
Compression mode : Lossy
Stream size : 300 MiB (13%)
Language : English
Service kind : Complete Main
Default : No
Forced : No
Text #1
ID : 4
Format : UTF-8
Codec ID : S_TEXT/UTF8
Codec ID/Info : UTF-8 Plain Text
Duration : 1 h 47 min
Bit rate : 0 b/s
Count of elements : 10
Stream size : 400 Bytes (0%)
Title : Forced
Language : Russian
Default : Yes
Forced : No
Text #2
ID : 5
Format : UTF-8
Codec ID : S_TEXT/UTF8
Codec ID/Info : UTF-8 Plain Text
Duration : 1 h 48 min
Bit rate : 72 b/s
Count of elements : 1072
Stream size : 57.8 KiB (0%)
Title : Full
Language : Russian
Default : No
Forced : No
Text #3
ID : 6
Format : UTF-8
Codec ID : S_TEXT/UTF8
Codec ID/Info : UTF-8 Plain Text
Duration : 1 h 41 min
Bit rate : 46 b/s
Count of elements : 1140
Stream size : 34.8 KiB (0%)
Title : Full
Language : English
Default : No
Forced : No
Text #4
ID : 7
Format : UTF-8
Codec ID : S_TEXT/UTF8
Codec ID/Info : UTF-8 Plain Text
Duration : 1 h 47 min
Bit rate : 53 b/s
Count of elements : 1495
Stream size : 41.8 KiB (0%)
Title : SDH
Language : English
Default : No
Forced : No
Menu
00:00:00.000 : en:Chapter 01
00:07:06.384 : en:Chapter 02
00:13:56.210 : en:Chapter 03
00:20:36.861 : en:Chapter 04
00:25:05.546 : en:Chapter 05
00:32:11.179 : en:Chapter 06
00:41:41.499 : en:Chapter 07
00:46:39.380 : en:Chapter 08
00:53:35.629 : en:Chapter 09
01:02:28.495 : en:Chapter 10
01:08:59.344 : en:Chapter 11
01:12:42.525 : en:Chapter 12
01:19:15.918 : en:Chapter 13
01:26:49.996 : en:Chapter 14
01:31:07.379 : en:Chapter 15
01:38:31.531 : en:Chapter 16
01:44:11.245 : en:Chapter 17

Скриншоты

admin

Post 10-Aug-2020 06:03

[Quote]

Бессмертная гвардия / The Old Guard
Страна: США
Жанр: триллер, боевик, фэнтези
Год выпуска: 2020
Продолжительность: 02:04:28

Перевод: Профессиональный (дублированный) Netflix
Субтитры: Русские (forced)
Режиссер: Джина Принс-Байтвуд / Gina Prince-Bythewood
В ролях: Шарлиз Терон, Кики Лэйн, Маттиас Шонартс, Марван Кензари, Лука Маринелли, Чиветель Эджиофор, Гарри Меллинг, Вероника Нго, Наташа Карам
Описание: Скрытая группа бессмертных наёмников-убийц под командованием молодой и беспринципной Андромахи Энди много веков защищала людей от разнообразных опасностей. Их невозможно поймать, убить, раскрыть. Каждый из них обладает невероятным сверх способностями, которые всегда используют по назначению. В один из обычных дней команда отправляется на очередную миссию. Случайно они узнают о существовании ещё нескольких бессмертных с экстраординарными способностями. Один из бессмертных присоединяет к группе Энди. Группа узнаёт, что их секрет раскрыли, и некто искусственным путём пытается создать похожих бессмертных, чтобы заработать на них. Энди со своей группой предстоит вступить в неравную схватку с надвигающейся угрозой...

Сэмпл: http://multi-up.com/1265658
Качество видео: WEBRip (Исходник WEBRip 1080p)
Формат видео: AVI
Видео: XviD 73, 720x304, (2,35:1), 24,000 fps, 1471 Кбит/с, 8 бит, 0.28 bit/pixel
Аудио: Русский (АС3, 2 ch (Front: L R), 48,0 KHz, 192 Kbps)

MediaInfo

Общее
Полное имя : D:\Фильмы на трекер\Бессмертная гвардия (триллер, боевик 2020 год).avi
Формат : AVI
Формат/Информация : Audio Video Interleave
Размер файла : 1,45 Гбайт
Продолжительность : 2 ч. 4 м.
Общий поток : 1673 Кбит/сек
Программа кодирования : VirtualDubMod 1.5.10.3 | www.virtualdub-fr.org || (build 2550/release)
Библиотека кодирования : VirtualDubMod build 2550/release
Видео
Идентификатор : 0
Формат : MPEG-4 Visual
Профиль формата : Advanced Simple@L5
Параметр BVOP формата : 2
Параметр QPel формата : Нет
Параметр GMC формата : Без точки перехода
Параметр матрицы формата : Выборочная
Идентификатор кодека : XVID
Идентификатор кодека/Подсказка : XviD
Продолжительность : 2 ч. 4 м.
Битрейт : 1471 Кбит/сек
Ширина : 720 пикселей
Высота : 304 пикселя
Соотношение сторон : 2,35:1
Частота кадров : 24,000 кадра/сек
Цветовое пространство : YUV
Субдискретизация насыщенности : 4:2:0
Битовая глубина : 8 бит
Тип развёртки : Прогрессивная
Метод сжатия : С потерями
Бит/(Пиксели*Кадры) : 0.280
Размер потока : 1,28 Гбайт (88%)
Библиотека кодирования : XviD 73
Аудио
Идентификатор : 1
Формат : AC-3
Формат/Информация : Audio Coding 3
Расширение режима : CM (complete main)
Параметр Endianness формата : Big
Идентификатор кодека : 2000
Продолжительность : 2 ч. 4 м.
Вид битрейта : Постоянный
Битрейт : 192 Кбит/сек
Каналы : 2 канала
Расположение каналов : Front: L R
Частота : 48,0 КГц
Частота кадров : 31,250 кадров/сек (1536 spf)
Метод сжатия : С потерями
Размер потока : 171 Мбайт (11%)
Выравнивание : Разделение по промежуткам
Продолжительность промежутка : 42 мс. (1,00 видеокадр)
Время предзагрузки промежутка : 500 мс.

Скриншот c названием фильма

Скриншоты

admin

Post 04-Aug-2020 07:24

[Quote]

-Человек-невидимка / The Invisible Man-«Невидимое таит опасность»- -Страна: Австралия, США, Канада, Великобритания
Жанр: ужасы, фантастика, триллер, детектив
Год выпуска: 2020
Продолжительность: 02:04:23-Перевод: Профессиональный (дублированный) BD EUR
Субтитры: русские (форсированные)
Оригинальная аудиодорожка: нет-Режиссер: Ли Уоннелл / Leigh Whannell-В ролях: Элизабет Мосс, Оливер Джексон-Коэн, Харриет Дайер, Элдис Ходж, Сторм Рейд, Майкл Дорман, Бенедикт Харди, Рени Лим, Брайан Миган, Ник Кичи-Описание: На первый взгляд жизнь Сесилии кажется безупречной: огромный дом, бойфренд - гениальный ученый-миллионер. Но никто не знает, что на самом деле происходит за высокими стенами роскошного особняка... И даже идеально спланированный побег оказывается ловушкой. Невозможно спрятаться от преследователя, которого не видишь.- - -Качество видео: BDRip-AVC / The.Invisible.Man.2020.Lic.BDREMUX.1080p.seleZen
Формат видео: MKV-Видео: MPEG-4 AVC, 936x392 (2.40:1), 23.976 fps, ~1178 kbps avg, 0.134 bit/pixel
Аудио: 48 kHz, AC3 Dolby Digital, 3/2 (L,C,R,l,r) + LFE ch, ~448 kbps avg-

MediaInfo


Complete name               : D:\Раздача\Человек-невидимка (2020) BDRip-AVC_ivanes.mkv
Format                      : Matroska
Format version              : Version 2
File size                   : 1.44 GiB
Duration                    : 2 h 4 min
Overall bit rate            : 1 659 kb/s
Movie name                  : Человек-невидимка (2020) BDRip-AVC_ivanes
Encoded date                : UTC 2020-06-25 22:00:09
Writing application         : mkvmerge v4.4.0 ('Die Wiederkehr') сборка от Jan  3 2011 21:40:45
Writing library             : libebml v1.0.0 + libmatroska v1.0.0
Cover                       : Yes
Attachments                 : cover.jpg
Video
ID                          : 1
Format                      : AVC
Format/Info                 : Advanced Video Codec
Format profile              : High@L4.1
Format settings             : CABAC / 12 Ref Frames
Format settings, CABAC      : Yes
Format settings, Reference  : 12 frames
Codec ID                    : V_MPEG4/ISO/AVC
Duration                    : 2 h 4 min
Bit rate                    : 1 178 kb/s
Width                       : 936 pixels
Height                      : 392 pixels
Display aspect ratio        : 2.40:1
Frame rate mode             : Constant
Frame rate                  : 23.976 (24000/1001) FPS
Color space                 : YUV
Chroma subsampling          : 4:2:0
Bit depth                   : 8 bits
Scan type                   : Progressive
Bits/(Pixel*Frame)          : 0.134
Stream size                 : 1.02 GiB (71%)
Title                       : Rip by ivanes
Writing library             : x264 core 160 r3000 33f9e14
Encoding settings           : cabac=1 / ref=12 / deblock=1:-3:-1 / analyse=0x3:0x113 / me=umh / subme=10 / psy=1 / psy_rd=1.00:0.00 / mixed_ref=1 / me_range=32 / chroma_me=1 / trellis=2 / 8x8dct=1 / cqm=0 / deadzone=21,11 / fast_pskip=0 / chroma_qp_offset=-2 / threads=12 / lookahead_threads=3 / sliced_threads=0 / nr=0 / decimate=1 / interlaced=0 / bluray_compat=0 / constrained_intra=0 / bframes=14 / b_pyramid=2 / b_adapt=2 / b_bias=0 / direct=1 / weightb=1 / open_gop=0 / weightp=2 / keyint=240 / keyint_min=23 / scenecut=40 / intra_refresh=0 / rc_lookahead=60 / rc=crf / mbtree=1 / crf=15.1 / qcomp=0.65 / qpmin=0 / qpmax=69 / qpstep=4 / vbv_maxrate=50000 / vbv_bufsize=62500 / crf_max=0.0 / nal_hrd=none / filler=0 / ip_ratio=1.40 / aq=1:1.00
Default                     : Yes
Forced                      : No
Statistics Tags Issue       : mkvmerge v29.0.0 ('Like It Or Not') 64-bit 2020-06-25 21:59:46 / mkvmerge v4.4.0 ('Die Wiederkehr') сборка от Jan  3 2011 21:40:45 2020-06-25 22:00:09
FromStats_BitRate           : 1209462
FromStats_Duration          : 02:04:23.122000000
FromStats_FrameCount        : 178936
FromStats_StreamSize        : 1128295435
Audio
ID                          : 2
Format                      : AC-3
Format/Info                 : Audio Coding 3
Commercial name             : Dolby Digital
Codec ID                    : A_AC3
Duration                    : 2 h 4 min
Bit rate mode               : Constant
Bit rate                    : 448 kb/s
Channel(s)                  : 6 channels
Channel layout              : L R C LFE Ls Rs
Sampling rate               : 48.0 kHz
Frame rate                  : 31.250 FPS (1536 SPF)
Compression mode            : Lossy
Stream size                 : 399 MiB (27%)
Title                       : BD EUR
Language                    : Russian
Service kind                : Complete Main
Default                     : Yes
Forced                      : No
Text
ID                          : 3
Format                      : UTF-8
Codec ID                    : S_TEXT/UTF8
Codec ID/Info               : UTF-8 Plain Text
Title                       : Forced
Language                    : Russian
Default                     : Yes
Forced                      : No

Скриншоты

admin

Post 04-Aug-2020 07:19

[Quote]

Плохие парни навсегда / Bad Boys for Life
Страна: США, Мексика
Жанр: боевик, триллер, комедия, криминал
Год выпуска: 2020
Продолжительность: 02:03:58-Перевод: Профессиональный (дублированный) | iTunes
Субтитры: русские (forced)
Оригинальная аудиодорожка: нет-Режиссер:
Адиль Эль Арби / Adil El Arbi, Билал Фалла / Bilall Fallah-В ролях:
Уилл Смит, Мартин Лоуренс, Александр Людвиг, Ванесса Энн Хадженс, Майкл Бэй, Джо Пантолиано, Паола Нуньес, Чарльз Мелтон, Кейт дель Кастильо, Ники Джем, Джейкоб Скипио-Описание: Детективы Майк Лоури и Маркус Бёрнетт снова в деле! Правда, их отстраняют от всех операций, но разве отчаянных друзей когда-нибудь что-либо останавливало? Ведь на этот раз на Майка открывает охоту некто из его прошлой жизни. Так что парням придется отжечь по полной!- -Качество видео: BDRip | Bad.Boys.for.Life.2020.BDREMUX.1080p.seleZen
Формат видео: AVI
Видео: 720x304 (2.37:1), 23.976 fps, XviD build 73 ~1476 kbps avg, 0.28 bit/pixel
Аудио: 48 kHz, AC3 Dolby Digital, 2/0 (L,R) ch, ~192 kbps-Сэмпл-

MediaInfo


Формат                                   : AVI
Формат/Информация                        : Audio Video Interleave
Размер файла                             : 1,45 Гбайт
Продолжительность                        : 2 ч. 3 м.
Общий поток                              : 1 678 Кбит/сек
Название фильма                          : Плохие парни навсегда_2020_BDRip
Программа кодирования                    : VirtualDubMod 1.5.10.3 | www.virtualdub-fr.org || (build 2550/release)
Авторское право                          : порошков
Видео
Идентификатор                            : 0
Формат                                   : MPEG-4 Visual
Профиль формата                          : Advanced Simple@L5
Настройки формата                        : BVOP1 / Custom Matrix
Параметр BVOP формата                    : 1
Параметр QPel формата                    : Нет
Параметр GMC формата                     : Без точки перехода
Параметр матрицы формата                 : Выборочная
Идентификатор кодека                     : XVID
Идентификатор кодека/Подсказка           : XviD
Продолжительность                        : 2 ч. 3 м.
Битрейт                                  : 1 477 Кбит/сек
Ширина                                   : 720 пикселей
Высота                                   : 304 пикселя
Соотношение сторон                       : 2,35:1
Частота кадров                           : 23,976 (24000/1001) кадра/сек
Цветовое пространство                    : YUV
Субдискретизация насыщенности            : 4:2:0
Битовая глубина                          : 8 бит
Тип развёртки                            : Прогрессивная
Метод сжатия                             : С потерями
Бит/(Пиксели*Кадры)                      : 0.281
Размер потока                            : 1,28 Гбайт (88%)
Библиотека кодирования                   : XviD 73
Аудио
Идентификатор                            : 1
Формат                                   : AC-3
Формат/Информация                        : Audio Coding 3
Коммерческое название                    : Dolby Digital
Идентификатор кодека                     : 2000
Продолжительность                        : 2 ч. 3 м.
Вид битрейта                             : Постоянный
Битрейт                                  : 192 Кбит/сек
Каналы                                   : 2 канала
Channel layout                           : L R
Частота                                  : 48,0 КГц
Частота кадров                           : 31,250 кадров/сек (1536 SPF)
Метод сжатия                             : С потерями
Размер потока                            : 170 Мбайт (11%)
Выравнивание                             : Разделение по промежуткам
Продолжительность промежутка             : 42  мс. (1,00 видеокадр)
Время предзагрузки промежутка            : 500  мс.
Service kind                             : Complete Main

Скриншоты


admin

Post 04-Aug-2020 07:15

[Quote]

Махинаторы / Schemers
Страна: Великобритания
Жанр: комедия, биография, криминал
Год выпуска: 2020
Продолжительность: 01:30:30-Перевод: Профессиональный (многоголосый закадровый) | iTunes
Субтитры: нет
Оригинальная аудиодорожка: нет-Режиссер:
Дэйв Маклин / Dave Mclean-В ролях:
Конор Берри, Шон Коннор, Грант Роберт Килен, Тара Ли, Кит Кларк, Блэр Робертсон, Мингус Джонстон, Пола Мастертон, Кэролин Боннимэн, Ричард Мэйсон-Описание: Ранние 1980-е. Дэйви, молодой авантюрист из Шотландии, решает стать музыкальным продюсером. В то время по миру гремит с успехом английская группа Iron Maiden. Не имея никакого опыта в этой отрасли, но вооружившись оптимизмом что бы покорить Великобританию, он решает пригласить сразу их. Проблема в том, что за деньгами для амбициозного стартапа приходится обращаться к бандитам…- -Качество видео: WEB-DLRip
Формат видео: AVI
Видео: 720x304 (2.37:1), 24.000 fps, XviD build 73 ~1909 kbps avg, 0.36 bit/pixel
Аудио: 48 kHz, AC3 Dolby Digital, 3/2 (L,C,R,l,r) + LFE ch, ~384 kbps-Сэмпл-

MediaInfo


Формат                                   : AVI
Формат/Информация                        : Audio Video Interleave
Размер файла                             : 1,46 Гбайт
Продолжительность                        : 1 ч. 30 м.
Общий поток                              : 2 303 Кбит/сек
Название фильма                          : Махинаторы_2020_WEB-DLRip
Программа кодирования                    : VirtualDubMod 1.5.10.3 | www.virtualdub-fr.org || (build 2550/release)
Авторское право                          : порошков
Видео
Идентификатор                            : 0
Формат                                   : MPEG-4 Visual
Профиль формата                          : Advanced Simple@L5
Настройки формата                        : BVOP1 / Custom Matrix
Параметр BVOP формата                    : 1
Параметр QPel формата                    : Нет
Параметр GMC формата                     : Без точки перехода
Параметр матрицы формата                 : Выборочная
Идентификатор кодека                     : XVID
Идентификатор кодека/Подсказка           : XviD
Продолжительность                        : 1 ч. 30 м.
Битрейт                                  : 1 909 Кбит/сек
Ширина                                   : 720 пикселей
Высота                                   : 304 пикселя
Соотношение сторон                       : 2,35:1
Частота кадров                           : 24,000 кадра/сек
Цветовое пространство                    : YUV
Субдискретизация насыщенности            : 4:2:0
Битовая глубина                          : 8 бит
Тип развёртки                            : Прогрессивная
Метод сжатия                             : С потерями
Бит/(Пиксели*Кадры)                      : 0.363
Размер потока                            : 1,21 Гбайт (83%)
Библиотека кодирования                   : XviD 73
Аудио
Идентификатор                            : 1
Формат                                   : AC-3
Формат/Информация                        : Audio Coding 3
Коммерческое название                    : Dolby Digital
Идентификатор кодека                     : 2000
Продолжительность                        : 1 ч. 30 м.
Вид битрейта                             : Постоянный
Битрейт                                  : 384 Кбит/сек
Каналы                                   : 6 каналов
Channel layout                           : L R C LFE Ls Rs
Частота                                  : 48,0 КГц
Частота кадров                           : 31,250 кадров/сек (1536 SPF)
Метод сжатия                             : С потерями
Размер потока                            : 249 Мбайт (17%)
Выравнивание                             : Разделение по промежуткам
Продолжительность промежутка             : 42  мс. (1,00 видеокадр)
Время предзагрузки промежутка            : 500  мс.
Service kind                             : Complete Main

Скриншоты


admin

Post 02-Aug-2020 07:38

[Quote]

Мой создатель / Archive
Страна: Великобритания, Венгрия, США
Жанр: фантастика
Год выпуска: 2020
Продолжительность: 01:49:17-Перевод: Любительский (многоголосый закадровый) | HDRezka Studio
Субтитры: русские (forced)
Оригинальная аудиодорожка: нет-Режиссер:
Гэвин Ротери / Gavin Rothery-В ролях:
Рона Митра, Тео Джеймс, Тоби Джонс, Стэйси Мартин, Питер Фердинандо, Ричард Гловер, Ханс Петерсон, Джереми Вилер, Тимея Мадай Кинга-Описание: 2046-ой год. Время невероятных технологических открытий, могущественных корпораций и торжества искусственного интеллекта. Молодой ученый в секретной лаборатории занимается поиском вечной жизни для сильных мира сего. Но его истинная цель другая. Он пытается воскресить свою единственную любовь, погибшую несколько лет назад. Когда объект перестает выходить на связь, корпорация отправляет туда команду зачистки.- -Качество видео: WEB-DLRip
Формат видео: AVI
Видео: 720x320 (2.25:1), 23.976 fps, XviD build 73 ~1455 kbps avg, 0.26 bit/pixel
Аудио: 48 kHz, AC3 Dolby Digital, 3/2 (L,C,R,l,r) + LFE ch, ~448 kbps-Сэмпл-

MediaInfo


Формат                                   : AVI
Формат/Информация                        : Audio Video Interleave
Размер файла                             : 1,46 Гбайт
Продолжительность                        : 1 ч. 49 м.
Общий поток                              : 1 913 Кбит/сек
Название фильма                          : Мой создатель_2020_WEB-DLRip
Программа кодирования                    : VirtualDubMod 1.5.10.3 | www.virtualdub-fr.org || (build 2550/release)
Авторское право                          : порошков
Видео
Идентификатор                            : 0
Формат                                   : MPEG-4 Visual
Профиль формата                          : Advanced Simple@L5
Настройки формата                        : BVOP1 / Custom Matrix
Параметр BVOP формата                    : 1
Параметр QPel формата                    : Нет
Параметр GMC формата                     : Без точки перехода
Параметр матрицы формата                 : Выборочная
Идентификатор кодека                     : XVID
Идентификатор кодека/Подсказка           : XviD
Продолжительность                        : 1 ч. 49 м.
Битрейт                                  : 1 456 Кбит/сек
Ширина                                   : 720 пикселей
Высота                                   : 320 пикселей
Соотношение сторон                       : 2,25:1
Частота кадров                           : 23,976 (24000/1001) кадра/сек
Цветовое пространство                    : YUV
Субдискретизация насыщенности            : 4:2:0
Битовая глубина                          : 8 бит
Тип развёртки                            : Прогрессивная
Метод сжатия                             : С потерями
Бит/(Пиксели*Кадры)                      : 0.264
Размер потока                            : 1,11 Гбайт (76%)
Библиотека кодирования                   : XviD 73
Аудио
Идентификатор                            : 1
Формат                                   : AC-3
Формат/Информация                        : Audio Coding 3
Коммерческое название                    : Dolby Digital
Идентификатор кодека                     : 2000
Продолжительность                        : 1 ч. 49 м.
Вид битрейта                             : Постоянный
Битрейт                                  : 448 Кбит/сек
Каналы                                   : 6 каналов
Channel layout                           : L R C LFE Ls Rs
Частота                                  : 48,0 КГц
Частота кадров                           : 31,250 кадров/сек (1536 SPF)
Метод сжатия                             : С потерями
Размер потока                            : 350 Мбайт (23%)
Выравнивание                             : Разделение по промежуткам
Продолжительность промежутка             : 42  мс. (1,00 видеокадр)
Время предзагрузки промежутка            : 500  мс.
Service kind                             : Complete Main

Скриншоты


admin

Post 02-Aug-2020 07:23

[Quote]

Сопротивление / Resistance
Страна: Великобритания, Франция, Германия, США
Жанр: драма, военный, биография, история
Год выпуска: 2020
Продолжительность: 02:01:20-Перевод: Любительский (многоголосый закадровый) | VGMStudio
Субтитры: английские
Оригинальная аудиодорожка: английский-Режиссер:
Хонатан Якубович / Jonathan Jakubowicz-В ролях:
Джесси Айзенберг, Эд Харрис, Эдгар Рамирес, Клеманс Поэзи, Маттиас Швайгхёфер, Белла Рэмси, Геза Рёриг, Карл Маркович, Феликс Моати, Алисия фон Риттберг-Описание:
История группы еврейских бойскаутов, которые работали с французским Сопротивлением, чтобы спасти жизни десяти тысяч сирот во время Второй мировой войны.-
Качество видео: BDRip
Формат видео: AVI
Видео: 720x304 (2.37:1), 23.976 fps, XviD build 73 ~1921 kbps avg, 0.37 bit/pixel
Аудио 1: 48 kHz, AC3 Dolby Digital, 2/0 (L,R) ch, ~192 kbps | RUS
Аудио 2: 48 kHz, AC3 Dolby Digital, 3/2 (L,C,R,l,r) + LFE ch, ~448 kbps | ENG-Сэмпл-

MediaInfo


Формат                                   : AVI
Формат/Информация                        : Audio Video Interleave
Профиль формата                          : OpenDML
Размер файла                             : 2,18 Гбайт
Продолжительность                        : 2 ч. 1 м.
Общий поток                              : 2 569 Кбит/сек
Название фильма                          : Сопротивление_2020_BDRip
Программа кодирования                    : VirtualDubMod 1.5.10.3 | www.virtualdub-fr.org || (build 2550/release)
Авторское право                          : порошков
Видео
Идентификатор                            : 0
Формат                                   : MPEG-4 Visual
Профиль формата                          : Advanced Simple@L5
Настройки формата                        : BVOP1 / Custom Matrix
Параметр BVOP формата                    : 1
Параметр QPel формата                    : Нет
Параметр GMC формата                     : Без точки перехода
Параметр матрицы формата                 : Выборочная
Идентификатор кодека                     : XVID
Идентификатор кодека/Подсказка           : XviD
Продолжительность                        : 2 ч. 1 м.
Битрейт                                  : 1 911 Кбит/сек
Ширина                                   : 720 пикселей
Высота                                   : 304 пикселя
Соотношение сторон                       : 2,35:1
Частота кадров                           : 23,976 (24000/1001) кадра/сек
Цветовое пространство                    : YUV
Субдискретизация насыщенности            : 4:2:0
Битовая глубина                          : 8 бит
Тип развёртки                            : Прогрессивная
Метод сжатия                             : С потерями
Бит/(Пиксели*Кадры)                      : 0.364
Размер потока                            : 1,62 Гбайт (74%)
Библиотека кодирования                   : XviD 73
Аудио #1
Идентификатор                            : 1
Формат                                   : AC-3
Формат/Информация                        : Audio Coding 3
Коммерческое название                    : Dolby Digital
Идентификатор кодека                     : 2000
Продолжительность                        : 2 ч. 1 м.
Вид битрейта                             : Постоянный
Битрейт                                  : 192 Кбит/сек
Каналы                                   : 2 канала
Channel layout                           : L R
Частота                                  : 48,0 КГц
Частота кадров                           : 31,250 кадров/сек (1536 SPF)
Метод сжатия                             : С потерями
Размер потока                            : 167 Мбайт (7%)
Выравнивание                             : Разделение по промежуткам
Продолжительность промежутка             : 42  мс. (1,00 видеокадр)
Время предзагрузки промежутка            : 500  мс.
Заголовок                                : rus
Service kind                             : Complete Main
Аудио #2
Идентификатор                            : 2
Формат                                   : AC-3
Формат/Информация                        : Audio Coding 3
Коммерческое название                    : Dolby Digital
Идентификатор кодека                     : 2000
Продолжительность                        : 2 ч. 1 м.
Вид битрейта                             : Постоянный
Битрейт                                  : 448 Кбит/сек
Каналы                                   : 6 каналов
Channel layout                           : L R C LFE Ls Rs
Частота                                  : 48,0 КГц
Частота кадров                           : 31,250 кадров/сек (1536 SPF)
Метод сжатия                             : С потерями
Размер потока                            : 389 Мбайт (17%)
Выравнивание                             : Разделение по промежуткам
Продолжительность промежутка             : 42  мс. (1,00 видеокадр)
Время предзагрузки промежутка            : 500  мс.
Заголовок                                : eng
Service kind                             : Complete Main

Скриншоты


admin

Post 02-Aug-2020 07:17

[Quote]

Бекки / Becky
Страна: США
Жанр: боевик, триллер
Год выпуска: 2020
Продолжительность: 01:33:08-Перевод: Профессиональный (дублированный) | iTunes
Субтитры: нет
Оригинальная аудиодорожка: нет-Режиссер:
Джонатан Милотт / Jonathan Milott, Кэри Мернион / Cary Murnion-В ролях:
Лулу Уилсон, Джоэл МакХэйл, Кевин Джеймс, Аманда Бругел, Роберт Мэйллет, Райан Макдональд, Майк Дара, Чандра Майклс, Джеймс МакДугалл, Гейдж Грэхэм-Арбутнот-Описание: После смерти матери 14-летняя Бекки вместе с отцом приезжает отдохнуть в дом у озера. К несчастью для них именно в этот момент группа беглых преступников под предводительством безжалостного Доминика решает укрыться в загородном домике.- -Качество видео: BDRip | BECKY_2020_RMX_BLUEBIRD
Формат видео: AVI
Видео: 720x304 (2.37:1), 23.976 fps, XviD build 73 ~1847 kbps avg, 0.35 bit/pixel
Аудио: 48 kHz, AC3 Dolby Digital, 3/2 (L,C,R,l,r) + LFE ch, ~384 kbps-Сэмпл-

MediaInfo


Формат                                   : AVI
Формат/Информация                        : Audio Video Interleave
Размер файла                             : 1,46 Гбайт
Продолжительность                        : 1 ч. 33 м.
Общий поток                              : 2 241 Кбит/сек
Название фильма                          : Бекки_2020_BDRip
Программа кодирования                    : VirtualDubMod 1.5.10.3 | www.virtualdub-fr.org || (build 2550/release)
Авторское право                          : порошков
Видео
Идентификатор                            : 0
Формат                                   : MPEG-4 Visual
Профиль формата                          : Advanced Simple@L5
Настройки формата                        : BVOP1 / Custom Matrix
Параметр BVOP формата                    : 1
Параметр QPel формата                    : Нет
Параметр GMC формата                     : Без точки перехода
Параметр матрицы формата                 : Выборочная
Идентификатор кодека                     : XVID
Идентификатор кодека/Подсказка           : XviD
Продолжительность                        : 1 ч. 33 м.
Битрейт                                  : 1 847 Кбит/сек
Ширина                                   : 720 пикселей
Высота                                   : 304 пикселя
Соотношение сторон                       : 2,35:1
Частота кадров                           : 23,976 (24000/1001) кадра/сек
Цветовое пространство                    : YUV
Субдискретизация насыщенности            : 4:2:0
Битовая глубина                          : 8 бит
Тип развёртки                            : Прогрессивная
Метод сжатия                             : С потерями
Бит/(Пиксели*Кадры)                      : 0.352
Размер потока                            : 1,20 Гбайт (82%)
Библиотека кодирования                   : XviD 73
Аудио
Идентификатор                            : 1
Формат                                   : AC-3
Формат/Информация                        : Audio Coding 3
Коммерческое название                    : Dolby Digital
Идентификатор кодека                     : 2000
Продолжительность                        : 1 ч. 33 м.
Вид битрейта                             : Постоянный
Битрейт                                  : 384 Кбит/сек
Каналы                                   : 6 каналов
Channel layout                           : L R C LFE Ls Rs
Частота                                  : 48,0 КГц
Частота кадров                           : 31,250 кадров/сек (1536 SPF)
Метод сжатия                             : С потерями
Размер потока                            : 256 Мбайт (17%)
Выравнивание                             : Разделение по промежуткам
Продолжительность промежутка             : 42  мс. (1,00 видеокадр)
Время предзагрузки промежутка            : 500  мс.
Service kind                             : Complete Main

Скриншоты


admin

Post 31-Jul-2020 05:55

[Quote]

Кто не спрятался / The Rental
Страна: США
Жанр: ужасы, триллер
Год выпуска: 2020
Продолжительность: 01:28:17-Перевод: Одноголосый закадровый - BadBajo
Субтитры: нет
Оригинальная аудиодорожка: нет-Режиссер:
Дэйв Франко / Dave Franco-В ролях:
Дэн Стивенс, Элисон Бри, Тоби Хасс, Шейла Ванд, Джереми Аллен Уайт, Конни Веллман, Чанк-Описание: Вы снимали жилье через Airbnb? Смотрели красивые картинки на сайте и представляли идеальный отпуск? Две молодые пары решили оторваться на берегу океана и арендовали роскошную виллу. Они не знали, что в каждой комнате установлены камеры, и за ними пристально следят. Их маленькие секреты, а вместе с ними и тайна всего дома станут явью, но это лишь начало игры. Кто не спрятался…- -Качество видео: WEB-DLRip
Формат видео: AVI
Видео: 720x304 (2.37:1), 23.976 fps, XviD build 73 ~1904 kbps avg, 0.36 bit/pixel
Аудио: 48 kHz, AC3 Dolby Digital, 3/2 (L,C,R,l,r) + LFE ch, ~448 kbps-Сэмпл-

MediaInfo


Формат                                   : AVI
Формат/Информация                        : Audio Video Interleave
Размер файла                             : 1,46 Гбайт
Продолжительность                        : 1 ч. 28 м.
Общий поток                              : 2 362 Кбит/сек
Название фильма                          : Кто не спрятался_2020_WEB-DLRip
Программа кодирования                    : VirtualDubMod 1.5.10.3 | www.virtualdub-fr.org || (build 2550/release)
Авторское право                          : порошков
Видео
Идентификатор                            : 0
Формат                                   : MPEG-4 Visual
Профиль формата                          : Advanced Simple@L5
Настройки формата                        : BVOP1 / Custom Matrix
Параметр BVOP формата                    : 1
Параметр QPel формата                    : Нет
Параметр GMC формата                     : Без точки перехода
Параметр матрицы формата                 : Выборочная
Идентификатор кодека                     : XVID
Идентификатор кодека/Подсказка           : XviD
Продолжительность                        : 1 ч. 28 м.
Битрейт                                  : 1 905 Кбит/сек
Ширина                                   : 720 пикселей
Высота                                   : 304 пикселя
Соотношение сторон                       : 2,35:1
Частота кадров                           : 23,976 (24000/1001) кадра/сек
Цветовое пространство                    : YUV
Субдискретизация насыщенности            : 4:2:0
Битовая глубина                          : 8 бит
Тип развёртки                            : Прогрессивная
Метод сжатия                             : С потерями
Бит/(Пиксели*Кадры)                      : 0.363
Размер потока                            : 1,17 Гбайт (81%)
Библиотека кодирования                   : XviD 73
Аудио
Идентификатор                            : 1
Формат                                   : AC-3
Формат/Информация                        : Audio Coding 3
Коммерческое название                    : Dolby Digital
Идентификатор кодека                     : 2000
Продолжительность                        : 1 ч. 28 м.
Вид битрейта                             : Постоянный
Битрейт                                  : 448 Кбит/сек
Каналы                                   : 6 каналов
Channel layout                           : L R C LFE Ls Rs
Частота                                  : 48,0 КГц
Частота кадров                           : 31,250 кадров/сек (1536 SPF)
Метод сжатия                             : С потерями
Размер потока                            : 283 Мбайт (19%)
Выравнивание                             : Разделение по промежуткам
Продолжительность промежутка             : 42  мс. (1,00 видеокадр)
Время предзагрузки промежутка            : 500  мс.
Service kind                             : Complete Main

Скриншоты


admin

Post 31-Jul-2020 05:51

[Quote]

Пятеро одной крови / Da 5 Bloods
Страна: США
Жанр: драма, военный
Год выпуска: 2020
Продолжительность: 02:35:52-Перевод: Любительский (многоголосый закадровый) | HDRezka Studio | ненормативная лексика
Субтитры: русские (forced)
Оригинальная аудиодорожка: нет-Режиссер:
Спайк Ли / Spike Lee-В ролях: Делрой Линдо, Джонатан Мэйджерс, Кларк Питерс, Норм Льюис, Исайя Уитлок мл., Мелани Тьерри, Пол Уолтер Хаузер, Яспер Пяякконен, Джонни Нгуйен, Й. Лан-Описание: Ветераны войны во Вьетнаме возвращаются в далёкие джунгли, чтобы вновь обрести себя. Оказавшись в знакомой среде, где много лет назад им грозила постоянная опасность, они надеются спасти своего сбившегося с пути товарища.- -Качество видео: WEB-DLRip
Формат видео: AVI
Видео: 720x384 (1.88:1), 24.000 fps, XviD build 73 ~1154 kbps avg, 0.17 bit/pixel
Аудио: 48 kHz, AC3 Dolby Digital, 2/0 (L,R) ch, ~192 kbps-Сэмпл-

MediaInfo


Формат                                   : AVI
Формат/Информация                        : Audio Video Interleave
Размер файла                             : 1,48 Гбайт
Продолжительность                        : 2 ч. 35 м.
Общий поток                              : 1 356 Кбит/сек
Название фильма                          : Пятеро одной крови_2020_WEB-DLRip
Программа кодирования                    : VirtualDubMod 1.5.10.3 | www.virtualdub-fr.org || (build 2550/release)
Авторское право                          : порошков
Видео
Идентификатор                            : 0
Формат                                   : MPEG-4 Visual
Профиль формата                          : Advanced Simple@L5
Настройки формата                        : BVOP1 / Custom Matrix
Параметр BVOP формата                    : 1
Параметр QPel формата                    : Нет
Параметр GMC формата                     : Без точки перехода
Параметр матрицы формата                 : Выборочная
Идентификатор кодека                     : XVID
Идентификатор кодека/Подсказка           : XviD
Продолжительность                        : 2 ч. 35 м.
Битрейт                                  : 1 155 Кбит/сек
Ширина                                   : 720 пикселей
Высота                                   : 384 пикселя
Соотношение сторон                       : 1,85:1
Частота кадров                           : 24,000 кадра/сек
Цветовое пространство                    : YUV
Субдискретизация насыщенности            : 4:2:0
Битовая глубина                          : 8 бит
Тип развёртки                            : Прогрессивная
Метод сжатия                             : С потерями
Бит/(Пиксели*Кадры)                      : 0.174
Размер потока                            : 1,26 Гбайт (85%)
Библиотека кодирования                   : XviD 73
Аудио
Идентификатор                            : 1
Формат                                   : AC-3
Формат/Информация                        : Audio Coding 3
Коммерческое название                    : Dolby Digital
Идентификатор кодека                     : 2000
Продолжительность                        : 2 ч. 35 м.
Вид битрейта                             : Постоянный
Битрейт                                  : 192 Кбит/сек
Каналы                                   : 2 канала
Channel layout                           : L R
Частота                                  : 48,0 КГц
Частота кадров                           : 31,250 кадров/сек (1536 SPF)
Метод сжатия                             : С потерями
Размер потока                            : 214 Мбайт (14%)
Выравнивание                             : Разделение по промежуткам
Продолжительность промежутка             : 42  мс. (1,00 видеокадр)
Время предзагрузки промежутка            : 500  мс.
Service kind                             : Complete Main

Скриншоты


 

Current time is: 26-Sep 14:54

All times are UTC + 3