Search found 500 matches

Author Message

admin

Post 28-Dec-2020 18:37

[Quote]

Грейхаунд / Greyhound
Страна: Китай, Канада, США
Жанр: военный, боевик, история, биография
Год выпуска: 2020
Продолжительность: 01:31:42-Перевод: Профессиональный (дублированный)
Субтитры: русские (forced)
Оригинальная аудиодорожка: нет-Режиссер:
Аарон Шнайдер / Aaron Schneider-В ролях:
Том Хэнкс, Элизабет Шу, Карл Глусман, Стивен Грэм, Том Бриттни, Девин Друид, Ли Норрис, Роб Морган, Мануэль Рульфо, Грэйсон Расселл, Мэттью Зук, Максимилиан Осински, Майкл Бенц, Дэйв Дэвис-Описание:
1942 год. Новым капитаном эсминца ВМС США «Грейхаунд» становится морской офицер Эрнст Краузе, который до этого еще не участвовал в военных действиях.- -Качество видео: WEB-DLRip
Формат видео: AVI
Видео: 720x304 (2.37:1), 23.976 fps, XviD build 73 ~1814 kbps avg, 0.34 bit/pixel
Аудио: 48 kHz, AC3 Dolby Digital, 3/2 (L,C,R,l,r) + LFE ch, ~448 kbps-Сэмпл-

MediaInfo


Формат                                   : AVI
Формат/Информация                        : Audio Video Interleave
Размер файла                             : 1,46 Гбайт
Продолжительность                        : 1 ч. 31 м.
Общий поток                              : 2 272 Кбит/сек
Название фильма                          : Грейхаунд_2020_WEB-DLRip
Программа кодирования                    : VirtualDubMod 1.5.10.3 | www.virtualdub-fr.org || (build 2550/release)
Авторское право                          : порошков
Видео
Идентификатор                            : 0
Формат                                   : MPEG-4 Visual
Профиль формата                          : Advanced Simple@L5
Настройки формата                        : BVOP1 / Custom Matrix
Параметр BVOP формата                    : 1
Параметр QPel формата                    : Нет
Параметр GMC формата                     : Без точки перехода
Параметр матрицы формата                 : Выборочная
Идентификатор кодека                     : XVID
Идентификатор кодека/Подсказка           : XviD
Продолжительность                        : 1 ч. 31 м.
Битрейт                                  : 1 815 Кбит/сек
Ширина                                   : 720 пикселей
Высота                                   : 304 пикселя
Соотношение сторон                       : 2,35:1
Частота кадров                           : 23,976 (24000/1001) кадра/сек
Цветовое пространство                    : YUV
Субдискретизация насыщенности            : 4:2:0
Битовая глубина                          : 8 бит
Тип развёртки                            : Прогрессивная
Метод сжатия                             : С потерями
Бит/(Пиксели*Кадры)                      : 0.346
Размер потока                            : 1,16 Гбайт (80%)
Библиотека кодирования                   : XviD 73
Аудио
Идентификатор                            : 1
Формат                                   : AC-3
Формат/Информация                        : Audio Coding 3
Коммерческое название                    : Dolby Digital
Идентификатор кодека                     : 2000
Продолжительность                        : 1 ч. 31 м.
Вид битрейта                             : Постоянный
Битрейт                                  : 448 Кбит/сек
Каналы                                   : 6 каналов
Channel layout                           : L R C LFE Ls Rs
Частота                                  : 48,0 КГц
Частота кадров                           : 31,250 кадров/сек (1536 SPF)
Метод сжатия                             : С потерями
Размер потока                            : 294 Мбайт (20%)
Выравнивание                             : Разделение по промежуткам
Продолжительность промежутка             : 42  мс. (1,00 видеокадр)
Время предзагрузки промежутка            : 500  мс.
Service kind                             : Complete Main

Скриншоты


admin

Post 28-Dec-2020 18:35

[Quote]

Полночное небо / The Midnight Sky
Страна: США
Жанр: фантастика, фэнтези, триллер, драма
Год выпуска: 2020
Продолжительность: 01:58:32-Перевод: Профессиональный (дублированный) | Пифагор
Субтитры: русские (forced)
Оригинальная аудиодорожка: нет-Режиссер:
Джордж Клуни / George Clooney-В ролях: Джордж Клуни, Фелисити Джонс, Дэвид Ойелоуо, Тиффани Бун, Демиан Бичир, Кайл Чандлер, Caoilinn Springall, Софи Рандл, Итан Пек, Мириам Шор-Описание: Пожилой астроном Августин всю жизнь изучает звёзды. Когда приходят новости о некой катастрофе, он остаётся совершенно один на арктической исследовательской станции. Именно там он встречает загадочную девочку Айрис, пока постепенно затихают отголоски остального мира. В это время, возвращаясь после миссии у Юпитера, к Земле летит экипаж корабля «Эфир» во главе с капитаном Салливан. Августин и Салливан находятся далеко друг от друга, но их судьбы неразрывно связаны.- -Качество видео: WEB-DLRip
Формат видео: AVI
Видео: 704x336 (2.10:1), 24.000 fps, XviD build 73 ~1561 kbps avg, 0.28 bit/pixel
Аудио: 48 kHz, AC3 Dolby Digital, 2/0 (L,R) ch, ~192 kbps-Сэмпл-

MediaInfo


Формат                                   : AVI
Формат/Информация                        : Audio Video Interleave
Размер файла                             : 1,46 Гбайт
Продолжительность                        : 1 ч. 58 м.
Общий поток                              : 1 763 Кбит/сек
Название фильма                          : Полночное небо_2020_WEB-DLRip
Программа кодирования                    : VirtualDubMod 1.5.10.3 | www.virtualdub-fr.org || (build 2550/release)
Авторское право                          : порошков
Видео
Идентификатор                            : 0
Формат                                   : MPEG-4 Visual
Профиль формата                          : Advanced Simple@L5
Настройки формата                        : BVOP1 / Custom Matrix
Параметр BVOP формата                    : 1
Параметр QPel формата                    : Нет
Параметр GMC формата                     : Без точки перехода
Параметр матрицы формата                 : Выборочная
Идентификатор кодека                     : XVID
Идентификатор кодека/Подсказка           : XviD
Продолжительность                        : 1 ч. 58 м.
Битрейт                                  : 1 562 Кбит/сек
Ширина                                   : 704 пикселя
Высота                                   : 336 пикселей
Соотношение сторон                       : 2,095
Частота кадров                           : 24,000 кадра/сек
Цветовое пространство                    : YUV
Субдискретизация насыщенности            : 4:2:0
Битовая глубина                          : 8 бит
Тип развёртки                            : Прогрессивная
Метод сжатия                             : С потерями
Бит/(Пиксели*Кадры)                      : 0.275
Размер потока                            : 1,29 Гбайт (89%)
Библиотека кодирования                   : XviD 73
Аудио
Идентификатор                            : 1
Формат                                   : AC-3
Формат/Информация                        : Audio Coding 3
Коммерческое название                    : Dolby Digital
Идентификатор кодека                     : 2000
Продолжительность                        : 1 ч. 58 м.
Вид битрейта                             : Постоянный
Битрейт                                  : 192 Кбит/сек
Каналы                                   : 2 канала
Channel layout                           : L R
Частота                                  : 48,0 КГц
Частота кадров                           : 31,250 кадров/сек (1536 SPF)
Метод сжатия                             : С потерями
Размер потока                            : 163 Мбайт (11%)
Выравнивание                             : Разделение по промежуткам
Продолжительность промежутка             : 42  мс. (1,00 видеокадр)
Время предзагрузки промежутка            : 500  мс.
Service kind                             : Complete Main

Скриншоты


admin

Post 28-Dec-2020 18:31

[Quote]

Чудо-женщина: 1984 / Wonder Woman 1984
Страна: США, Великобритания, Испания
Жанр: фэнтези, боевик, приключения
Год выпуска: 2020
Продолжительность: 02:31:06-Перевод: Любительский (многоголосый закадровый) | DuoWave
Субтитры: нет
Оригинальная аудиодорожка: нет-Режиссер:
Пэтти Дженкинс / Patty Jenkins-В ролях: Галь Гадот, Крис Пайн, Кристен Уиг, Педро Паскаль, Робин Райт, Конни Нильсен, Лилли Аспелл, Амр Вакед, Кристоффер Полаха, Наташа Ротуэлл-Описание: Влиятельный и успешный бизнесмен Лорд мечтает стать богом среди смертных. Для этого он не жалеет средств и собирает со всех уголков света разнообразные магические артефакты, пытаясь найти тот, который сможет подарить ему безграничную силу и могущество. В поисках ему помогает специалист по древней истории доктор Барбара Энн Минерва. Так в руки Минервы попадает некий артефакт, который превращает её в дикую, кровожадную и неуправляемую женщину-кошку — Гепарду. Вне себя от ярости она начинает охоту за Лордом, по чьей вине и превратилась в монстра.- -Качество видео: WEB-DLRip
Формат видео: AVI
Видео: 720x304 (2.37:1), 23.976 fps, XviD build 73 ~1180 kbps avg, 0.23 bit/pixel
Аудио: 48 kHz, AC3 Dolby Digital, 2/0 (L,R) ch, ~192 kbps-Сэмпл-

MediaInfo


Формат                                   : AVI
Формат/Информация                        : Audio Video Interleave
Размер файла                             : 1,46 Гбайт
Продолжительность                        : 2 ч. 31 м.
Общий поток                              : 1 382 Кбит/сек
Название фильма                          : Wonder Woman 1984_2020_WEB-DLRip
Программа кодирования                    : VirtualDubMod 1.5.10.3 | www.virtualdub-fr.org || (build 2550/release)
Авторское право                          : порошков
Видео
Идентификатор                            : 0
Формат                                   : MPEG-4 Visual
Профиль формата                          : Advanced Simple@L5
Настройки формата                        : BVOP1 / Custom Matrix
Параметр BVOP формата                    : 1
Параметр QPel формата                    : Нет
Параметр GMC формата                     : Без точки перехода
Параметр матрицы формата                 : Выборочная
Идентификатор кодека                     : XVID
Идентификатор кодека/Подсказка           : XviD
Продолжительность                        : 2 ч. 31 м.
Битрейт                                  : 1 180 Кбит/сек
Ширина                                   : 720 пикселей
Высота                                   : 304 пикселя
Соотношение сторон                       : 2,35:1
Частота кадров                           : 23,976 (24000/1001) кадра/сек
Цветовое пространство                    : YUV
Субдискретизация насыщенности            : 4:2:0
Битовая глубина                          : 8 бит
Тип развёртки                            : Прогрессивная
Метод сжатия                             : С потерями
Бит/(Пиксели*Кадры)                      : 0.225
Размер потока                            : 1,25 Гбайт (85%)
Библиотека кодирования                   : XviD 73
Аудио
Идентификатор                            : 1
Формат                                   : AC-3
Формат/Информация                        : Audio Coding 3
Коммерческое название                    : Dolby Digital
Идентификатор кодека                     : 2000
Продолжительность                        : 2 ч. 31 м.
Вид битрейта                             : Постоянный
Битрейт                                  : 192 Кбит/сек
Каналы                                   : 2 канала
Channel layout                           : L R
Частота                                  : 48,0 КГц
Частота кадров                           : 31,250 кадров/сек (1536 SPF)
Метод сжатия                             : С потерями
Размер потока                            : 208 Мбайт (14%)
Выравнивание                             : Разделение по промежуткам
Продолжительность промежутка             : 42  мс. (1,00 видеокадр)
Время предзагрузки промежутка            : 500  мс.
Service kind                             : Complete Main

Скриншоты


Волк

Post 15-Dec-2020 23:45

[Quote]

Пустошь тьмы и зла / The Dark and the Wicked Страна: США
Жанр: ужасы
Год выпуска: 2020
Продолжительность: 01:35:16-Перевод: Профессиональный (дублированный) | iTunes
Субтитры: русские, английские
Оригинальная аудиодорожка: английский-Режиссер:
Брайан Бертино / Bryan Bertino-В ролях: Марин Айрлэнд, Майкл Эбботт мл., Ксандер Беркли, Линн Эндрюс, Джули Оливер-Тачстоун, Том Ноуики, Элла Бэллентайн, Мэл Кауэн, Минди Рэймонд, Крис Дабек, Майкл Загст-Описание: Брат с сестрой Майкл и Луиз приезжают на отдалённую родительскую ферму повидаться с тяжелобольным пожилым отцом, но мать не очень-то рада их видеть. Она говорит детям, что зря они приехали, и на следующий день вешается в сарае. Майклу обстоятельства её смерти кажутся странными, а Луиз находит дневник матери, где та описывает некую злобную сущность, что подбирается всё ближе.- -Качество видео: HDRip
Формат видео: AVI
Видео: 720x304 (2.37:1), 23.976 fps, XviD build 73 ~2245 kbps avg, 0.43 bit/pixel
Аудио 1: 48 kHz, AC3 Dolby Digital, 3/2 (L,C,R,l,r) + LFE ch, ~384 kbps | RUS
Аудио 2: 48 kHz, AC3 Dolby Digital, 3/2 (L,C,R,l,r) + LFE ch, ~448 kbps | ENG-Сэмпл-

MediaInfo


Код:
Формат : AVI
Формат/Информация : Audio Video Interleave
Профиль формата : OpenDML
Размер файла : 2,05 Гбайт
Продолжительность : 1 ч. 35 м.
Общий поток : 3 085 Кбит/сек
Название фильма : Пустошь тьмы и зла_2020_HDRip
Программа кодирования : VirtualDubMod 1.5.10.3 | www.virtualdub-fr.org || (build 2550/release)
Авторское право : порошковВидео
Идентификатор : 0
Формат : MPEG-4 Visual
Профиль формата : Advanced Simple@L5
Настройки формата : BVOP1 / Custom Matrix
Параметр BVOP формата : 1
Параметр QPel формата : Нет
Параметр GMC формата : Без точки перехода
Параметр матрицы формата : Выборочная
Идентификатор кодека : XVID
Идентификатор кодека/Подсказка : XviD
Продолжительность : 1 ч. 35 м.
Битрейт : 2 235 Кбит/сек
Ширина : 720 пикселей
Высота : 304 пикселя
Соотношение сторон : 2,35:1
Частота кадров : 23,976 (24000/1001) кадра/сек
Цветовое пространство : YUV
Субдискретизация насыщенности : 4:2:0
Битовая глубина : 8 бит
Тип развёртки : Прогрессивная
Метод сжатия : С потерями
Бит/(Пиксели*Кадры) : 0.426
Размер потока : 1,49 Гбайт (72%)
Библиотека кодирования : XviD 73Аудио #1
Идентификатор : 1
Формат : AC-3
Формат/Информация : Audio Coding 3
Коммерческое название : Dolby Digital
Идентификатор кодека : 2000
Продолжительность : 1 ч. 35 м.
Вид битрейта : Постоянный
Битрейт : 384 Кбит/сек
Каналы : 6 каналов
Channel layout : L R C LFE Ls Rs
Частота : 48,0 КГц
Частота кадров : 31,250 кадров/сек (1536 SPF)
Метод сжатия : С потерями
Размер потока : 262 Мбайт (12%)
Выравнивание : Разделение по промежуткам
Продолжительность промежутка : 42 мс. (1,00 видеокадр)
Время предзагрузки промежутка : 500 мс.
Заголовок : rus
Service kind : Complete MainАудио #2
Идентификатор : 2
Формат : AC-3
Формат/Информация : Audio Coding 3
Коммерческое название : Dolby Digital
Идентификатор кодека : 2000
Продолжительность : 1 ч. 35 м.
Вид битрейта : Постоянный
Битрейт : 448 Кбит/сек
Каналы : 6 каналов
Channel layout : L R C LFE Ls Rs
Частота : 48,0 КГц
Частота кадров : 31,250 кадров/сек (1536 SPF)
Метод сжатия : С потерями
Размер потока : 305 Мбайт (15%)
Выравнивание : Разделение по промежуткам
Продолжительность промежутка : 42 мс. (1,00 видеокадр)
Время предзагрузки промежутка : 500 мс.
Заголовок : eng
Service kind : Complete Main

Скриншоты


Волк

Post 15-Dec-2020 23:40

[Quote]

Ошибка нужно перенести в 2020

Волк

Post 15-Dec-2020 23:39

[Quote]

Близкие контакты / Proximity
Страна: США
Жанр: фантастика, драма
Год выпуска: 2020
Продолжительность: 01:59:23-Перевод: Профессиональный (многоголосый закадровый) | iTunes
Субтитры: русские (forced, full), английские (full, SDH)
Оригинальная аудиодорожка: английский-Режиссер: Эрик Демьюзи / Eric Demeusy-В ролях: Раян Мэссон, Хидли Куан, Кристиан Прентис, Шоу Джонс, Дон Скрибнер, Кристофер Мюррэй, Сара Навратил, Памела Холт, Кайли Контреари, Дэрин Купер-Описание: Рассказов об инопланетных существах, их летающих объектах и миссии на нашей планете – уже давно избитая тема, в которой есть как приверженцы верить, так и полностью отрицающие данные слухи. Одному из сотрудников космического ведомства, главному герою "Близости", пришлось испытать все на собственной шкуре, когда его забирают к себе инопланетяне. Похищенный парень вскоре вернется на землю, однако рассказы ученого все ставят под сомнение. Тогда, стремясь доказать правду, ученый отправляется в путь, полный неожиданных открытий. А вот докажет ли он свой контакт с инопланетянами остается вопросом...- -Качество видео: BDRip | Proximity 2020 1080p BluRay REMUX AVC DTS-HD MA5.1-iFT
Формат видео: AVI
Видео: 720x304 (2.37:1), 23.976 fps, XviD build 73 ~1837 kbps avg, 0.35 bit/pixel
Аудио 1: 48 kHz, AC3 Dolby Digital, 3/2 (L,C,R,l,r) + LFE ch, ~384 kbps | RUS
Аудио 2: 48 kHz, AC3 Dolby Digital, 3/2 (L,C,R,l,r) + LFE ch, ~384 kbps | ENG-Сэмпл-

MediaInfo


Формат                                   : AVI
Формат/Информация                        : Audio Video Interleave
Профиль формата                          : OpenDML
Размер файла                             : 2,18 Гбайт
Продолжительность                        : 1 ч. 59 м.
Общий поток                              : 2 612 Кбит/сек
Название фильма                          : Близкие контакты_2020_BDRip
Программа кодирования                    : VirtualDubMod 1.5.10.3 | www.virtualdub-fr.org || (build 2550/release)
Авторское право                          : порошков
Видео
Идентификатор                            : 0
Формат                                   : MPEG-4 Visual
Профиль формата                          : Advanced Simple@L5
Настройки формата                        : BVOP1 / Custom Matrix
Параметр BVOP формата                    : 1
Параметр QPel формата                    : Нет
Параметр GMC формата                     : Без точки перехода
Параметр матрицы формата                 : Выборочная
Идентификатор кодека                     : XVID
Идентификатор кодека/Подсказка           : XviD
Продолжительность                        : 1 ч. 59 м.
Битрейт                                  : 1 826 Кбит/сек
Ширина                                   : 720 пикселей
Высота                                   : 304 пикселя
Соотношение сторон                       : 2,35:1
Частота кадров                           : 23,976 (24000/1001) кадра/сек
Цветовое пространство                    : YUV
Субдискретизация насыщенности            : 4:2:0
Битовая глубина                          : 8 бит
Тип развёртки                            : Прогрессивная
Метод сжатия                             : С потерями
Бит/(Пиксели*Кадры)                      : 0.348
Размер потока                            : 1,52 Гбайт (70%)
Библиотека кодирования                   : XviD 73
Аудио #1
Идентификатор                            : 1
Формат                                   : AC-3
Формат/Информация                        : Audio Coding 3
Коммерческое название                    : Dolby Digital
Идентификатор кодека                     : 2000
Продолжительность                        : 1 ч. 59 м.
Вид битрейта                             : Постоянный
Битрейт                                  : 384 Кбит/сек
Каналы                                   : 6 каналов
Channel layout                           : L R C LFE Ls Rs
Частота                                  : 48,0 КГц
Частота кадров                           : 31,250 кадров/сек (1536 SPF)
Метод сжатия                             : С потерями
Размер потока                            : 328 Мбайт (15%)
Выравнивание                             : Разделение по промежуткам
Продолжительность промежутка             : 42  мс. (1,00 видеокадр)
Время предзагрузки промежутка            : 500  мс.
Заголовок                                : rus
Service kind                             : Complete Main
Аудио #2
Идентификатор                            : 2
Формат                                   : AC-3
Формат/Информация                        : Audio Coding 3
Коммерческое название                    : Dolby Digital
Идентификатор кодека                     : 2000
Продолжительность                        : 1 ч. 59 м.
Вид битрейта                             : Постоянный
Битрейт                                  : 384 Кбит/сек
Каналы                                   : 6 каналов
Channel layout                           : L R C LFE Ls Rs
Частота                                  : 48,0 КГц
Частота кадров                           : 31,250 кадров/сек (1536 SPF)
Метод сжатия                             : С потерями
Размер потока                            : 328 Мбайт (15%)
Выравнивание                             : Разделение по промежуткам
Продолжительность промежутка             : 42  мс. (1,00 видеокадр)
Время предзагрузки промежутка            : 500  мс.
Заголовок                                : eng
Service kind                             : Complete Main

Скриншоты


Волк

Post 15-Dec-2020 23:38

[Quote]

Манк / Mank
Страна: США
Жанр: драма, комедия, биография
Год выпуска: 2020
Продолжительность: 02:12:41-Перевод: Профессиональный (дублированный) | Пифагор
Субтитры: русские (forced, full), английские (full, SDH)
Оригинальная аудиодорожка: английский-Режиссер:
Дэвид Финчер / David Fincher-В ролях: Гари Олдман, Лили Коллинз, Аманда Сайфред, Таппенс Мидлтон, Ливэн Рамбин, Том Бёрк, Чарльз Дэнс, Том Пелфри, Арлисс Ховард, Элви Йост, Натали Денис Шперл, Джозеф Кросс, Тоби Леонард Мур, Джейми МакШейн, Сэм Тротон-Описание: История насыщенной жизни и алкоголизма знаменитого голливудского сценариста, критика и журналиста Хермана Манкевича.- -Качество видео: WEB-DLRip
Формат видео: AVI
Видео: 704x320 (2.20:1), 24.000 fps, XviD build 73 ~2237 kbps avg, 0.41 bit/pixel
Аудио 1: 48 kHz, AC3 Dolby Digital, 3/2 (L,C,R,l,r) + LFE ch, ~448 kbps | RUS
Аудио 2: 48 kHz, AC3 Dolby Digital, 3/2 (L,C,R,l,r) + LFE ch, ~448 kbps | ENG-Сэмпл-

MediaInfo


Формат                                   : AVI
Формат/Информация                        : Audio Video Interleave
Профиль формата                          : OpenDML
Размер файла                             : 2,91 Гбайт
Продолжительность                        : 2 ч. 12 м.
Общий поток                              : 3 140 Кбит/сек
Название фильма                          : Манк_2020_WEB-DLRip
Программа кодирования                    : VirtualDubMod 1.5.10.3 | www.virtualdub-fr.org || (build 2550/release)
Авторское право                          : порошков
Видео
Идентификатор                            : 0
Формат                                   : MPEG-4 Visual
Профиль формата                          : Advanced Simple@L5
Настройки формата                        : BVOP1 / Custom Matrix
Параметр BVOP формата                    : 1
Параметр QPel формата                    : Нет
Параметр GMC формата                     : Без точки перехода
Параметр матрицы формата                 : Выборочная
Идентификатор кодека                     : XVID
Идентификатор кодека/Подсказка           : XviD
Продолжительность                        : 2 ч. 12 м.
Битрейт                                  : 2 229 Кбит/сек
Ширина                                   : 704 пикселя
Высота                                   : 320 пикселей
Соотношение сторон                       : 2,2:1
Частота кадров                           : 24,000 кадра/сек
Цветовое пространство                    : YUV
Субдискретизация насыщенности            : 4:2:0
Битовая глубина                          : 8 бит
Тип развёртки                            : Прогрессивная
Метод сжатия                             : С потерями
Бит/(Пиксели*Кадры)                      : 0.412
Размер потока                            : 2,07 Гбайт (71%)
Библиотека кодирования                   : XviD 73
Аудио #1
Идентификатор                            : 1
Формат                                   : AC-3
Формат/Информация                        : Audio Coding 3
Коммерческое название                    : Dolby Digital
Идентификатор кодека                     : 2000
Продолжительность                        : 2 ч. 12 м.
Вид битрейта                             : Постоянный
Битрейт                                  : 448 Кбит/сек
Каналы                                   : 6 каналов
Channel layout                           : L R C LFE Ls Rs
Частота                                  : 48,0 КГц
Частота кадров                           : 31,250 кадров/сек (1536 SPF)
Метод сжатия                             : С потерями
Размер потока                            : 425 Мбайт (14%)
Выравнивание                             : Разделение по промежуткам
Продолжительность промежутка             : 42  мс. (1,00 видеокадр)
Время предзагрузки промежутка            : 500  мс.
Заголовок                                : rus
Service kind                             : Complete Main
Аудио #2
Идентификатор                            : 2
Формат                                   : AC-3
Формат/Информация                        : Audio Coding 3
Коммерческое название                    : Dolby Digital
Идентификатор кодека                     : 2000
Продолжительность                        : 2 ч. 12 м.
Вид битрейта                             : Постоянный
Битрейт                                  : 448 Кбит/сек
Каналы                                   : 6 каналов
Channel layout                           : L R C LFE Ls Rs
Частота                                  : 48,0 КГц
Частота кадров                           : 31,250 кадров/сек (1536 SPF)
Метод сжатия                             : С потерями
Размер потока                            : 425 Мбайт (14%)
Выравнивание                             : Разделение по промежуткам
Продолжительность промежутка             : 42  мс. (1,00 видеокадр)
Время предзагрузки промежутка            : 500  мс.
Заголовок                                : eng
Service kind                             : Complete Main

Скриншоты


Волк

Post 15-Dec-2020 23:37

[Quote]

Довод / Tenet
«Время уходит»
- Год выхода: 2020
Страна: Великобритания, США
Жанр: фантастика, боевик
Продолжительность: 02:30:09
Перевод: Профессиональный (полное дублирование) «Мосфильм-Мастер»
Субтитры: Русские (форс., полные), Английские (полные)
Оригинальная аудиодорожка: Английская-Режиссер:
Кристофер Нолан / Christopher Nolan-В ролях:
Джон Дэвид Вашингтон, Роберт Паттинсон, Элизабет Дебики, Кеннет Брана, Аарон Тейлор-Джонсон, Майкл Кейн, Химеш Патель, Юрий Колокольников, Димпл Кападиа, Клеманс Поэзи, Юхан Ульфсак, Джефферсон Холл, Иво Уукиви, Эндрю Ховард, Рич Кероло-О фильме:
После теракта в киевском оперном театре агент ЦРУ объединяется с британской разведкой, чтобы противостоять русскому олигарху, который сколотил состояние на торговле оружием. Для этого агенты используют инверсию времени, позволяющую времени идти вспять.
IMDB | КиноПоиск | Сэмпл |-Качество: BDRip-AVC [Tenet 2020 1080p Blu-ray Remux AVC DTS-HD MA 5.1 - KRaLiMaRKo]
Формат: MKV
Видео: 1152x648 (16:9), 23.976 fps, x264 ~3330 kbps avg, 0.186 bit/pixel
Аудио #1: 48 kHz, AC3 Dolby Digital, 3/2 (L,C,R,l,r) + LFE ch, ~384.00 kbps avg (RUS) - iTunes Russia
Аудио #2: 48 kHz, AC3 Dolby Digital, 3/2 (L,C,R,l,r) + LFE ch, ~448.00 kbps avg (ENG)
Формат субтитров: Softsub (.srt*)
-

Скриншоты

-

MediaInfo

Общее
Полное имя                               : F:\Tenet_2020_BDRip-AVC_by_Dalemake.mkv
Формат                                   : Matroska
Версия формата                           : Version 4
Размер файла                             : 4,37 Гбайт
Продолжительность                        : 2 ч. 30 м.
Общий поток                              : 4165 Кбит/сек
Дата кодирования                         : UTC 2020-12-15 08:55:52
Программа кодирования                    : mkvmerge v44.0.0 ('Domino') 64-bit
Библиотека кодирования                   : libebml v1.3.10 + libmatroska v1.5.2
Attachments                              : Poster.jpg
Видео
Идентификатор                            : 1
Формат                                   : AVC
Формат/Информация                        : Advanced Video Codec
Профиль формата                          : High@L4.1
Настройки формата                        : CABAC / 12 Ref Frames
Параметр CABAC формата                   : Да
Параметр RefFrames формата               : 12 кадров
Идентификатор кодека                     : V_MPEG4/ISO/AVC
Продолжительность                        : 2 ч. 30 м.
Битрейт                                  : 3330 Кбит/сек
Ширина                                   : 1152 пикселя
Высота                                   : 648 пикселей
Соотношение сторон                       : 16:9
Режим частоты кадров                     : Постоянный
Частота кадров                           : 23,976 (24000/1001) кадра/сек
Цветовое пространство                    : YUV
Субдискретизация насыщенности            : 4:2:0
Битовая глубина                          : 8 бит
Тип развёртки                            : Прогрессивная
Бит/(Пиксели*Кадры)                      : 0.186
Размер потока                            : 3,49 Гбайт (80%)
Заголовок                                : [Tenet_2020_All_Films_Rutracker_by_Dalemake]
Библиотека кодирования                   : x264 core 161 r3027 4121277
Настройки программы                      : cabac=1 / ref=12 / deblock=1:-3:-2 / analyse=0x3:0x113 / me=umh / subme=11 / psy=1 / psy_rd=1.00:0.00 / mixed_ref=1 / me_range=32 / chroma_me=1 / trellis=2 / 8x8dct=1 / cqm=0 / deadzone=21,11 / fast_pskip=0 / chroma_qp_offset=-4 / threads=3 / lookahead_threads=1 / sliced_threads=0 / nr=0 / decimate=1 / interlaced=0 / bluray_compat=0 / constrained_intra=0 / bframes=10 / b_pyramid=2 / b_adapt=2 / b_bias=0 / direct=3 / weightb=1 / open_gop=0 / weightp=2 / keyint=240 / keyint_min=23 / scenecut=40 / intra_refresh=0 / rc_lookahead=60 / rc=crf / mbtree=0 / crf=17.4 / qcomp=0.60 / qpmin=0 / qpmax=69 / qpstep=4 / vbv_maxrate=78125 / vbv_bufsize=62500 / crf_max=0.0 / nal_hrd=none / filler=0 / ip_ratio=1.40 / pb_ratio=1.35 / aq=1:1.00
Язык                                     : English
Default                                  : Да
Forced                                   : Нет
Аудио #1
Идентификатор                            : 2
Формат                                   : AC-3
Формат/Информация                        : Audio Coding 3
Коммерческое название                    : Dolby Digital
Идентификатор кодека                     : A_AC3
Продолжительность                        : 2 ч. 30 м.
Вид битрейта                             : Постоянный
Битрейт                                  : 384 Кбит/сек
Каналы                                   : 6 каналов
ChannelLayout                            : L R C LFE Ls Rs
Частота                                  : 48,0 КГц
Частота кадров                           : 31,250 кадров/сек (1536 SPF)
Битовая глубина                          : 16 бит
Метод сжатия                             : С потерями
Размер потока                            : 412 Мбайт (9%)
Заголовок                                : Dub - iTunes Russia
Язык                                     : Russian
ServiceKind/String                       : Complete Main
Default                                  : Да
Forced                                   : Нет
Аудио #2
Идентификатор                            : 3
Формат                                   : AC-3
Формат/Информация                        : Audio Coding 3
Коммерческое название                    : Dolby Digital
Идентификатор кодека                     : A_AC3
Продолжительность                        : 2 ч. 30 м.
Вид битрейта                             : Постоянный
Битрейт                                  : 448 Кбит/сек
Каналы                                   : 6 каналов
ChannelLayout                            : L R C LFE Ls Rs
Частота                                  : 48,0 КГц
Частота кадров                           : 31,250 кадров/сек (1536 SPF)
Битовая глубина                          : 16 бит
Метод сжатия                             : С потерями
Размер потока                            : 481 Мбайт (11%)
Заголовок                                : Original
Язык                                     : English
ServiceKind/String                       : Complete Main
Default                                  : Нет
Forced                                   : Нет
Текст #1
Идентификатор                            : 4
Формат                                   : UTF-8
Идентификатор кодека                     : S_TEXT/UTF8
Идентификатор кодека/Информация          : UTF-8 Plain Text
Продолжительность                        : 2 ч. 21 м.
Битрейт                                  : 0 бит/сек
ElementCount                             : 27
Размер потока                            : 745 байт (0%)
Заголовок                                : Forced
Язык                                     : Russian
Default                                  : Да
Forced                                   : Нет
Текст #2
Идентификатор                            : 5
Формат                                   : UTF-8
Идентификатор кодека                     : S_TEXT/UTF8
Идентификатор кодека/Информация          : UTF-8 Plain Text
Продолжительность                        : 2 ч. 28 м.
Битрейт                                  : 90 бит/сек
ElementCount                             : 1853
Размер потока                            : 98,8 Кбайт (0%)
Заголовок                                : Full
Язык                                     : Russian
Default                                  : Нет
Forced                                   : Нет
Текст #3
Идентификатор                            : 6
Формат                                   : UTF-8
Идентификатор кодека                     : S_TEXT/UTF8
Идентификатор кодека/Информация          : UTF-8 Plain Text
Продолжительность                        : 2 ч. 25 м.
Битрейт                                  : 52 бит/сек
ElementCount                             : 1872
Размер потока                            : 55,6 Кбайт (0%)
Заголовок                                : Full
Язык                                     : English
Default                                  : Нет
Forced                                   : Нет

Доп.информация

x264 [info]: frame I:2215  Avg QP:13.94  size: 86015
x264 [info]: frame P:48601 Avg QP:15.82  size: 36632
x264 [info]: frame B:165184 Avg QP:19.35  size: 10770
x264 [info]: consecutive B-frames:  2.4%  2.9%  8.1% 31.2% 15.6% 25.3%  5.4%  6.7%  1.4%  0.4%  0.5%
Encode vs. Source


-

admin

Post 12-Dec-2020 21:01

[Quote]

29495Здравствуйте .
Ваш форум мне показался очень привлекательным и перспективным. Хочу приобрести рекламное место для баннера в шапке, бюджет $500/месяц. Оплачивать буду через WebMoney, 50% сразу, а 50% через 2 недели. И еще, адрес моего сайта не будет противоречить тематике?
Спасибо! Напишите о Вашем решении мне в ПМ или на почту mailfast1984@gmail.com
Вам уже ответили на почту!Не нужно спамить своими предложениями на форуме! Все вопросы задавайте в личку!

Maximusvvq

Post 12-Dec-2020 14:21

[Quote]

Здравствуйте .
Ваш форум мне показался очень привлекательным и перспективным. Хочу приобрести рекламное место для баннера в шапке, бюджет $500/месяц. Оплачивать буду через WebMoney, 50% сразу, а 50% через 2 недели. И еще, адрес моего сайта не будет противоречить тематике?
Спасибо! Напишите о Вашем решении мне в ПМ или на почту mailfast1984@gmail.com

admin

Post 10-Dec-2020 18:41

[Quote]

Дьявол всегда здесь / The Devil All the Time- Год выхода: 2020
Страна: США
Жанр: триллер, драма, криминал
Продолжительность: 02:18:52
Перевод: Любительский (двухголосый закадровый) OnisFilms
Субтитры: нет-Режиссер:
Антонио Кампос / Antonio Campos-В ролях:
Том Холланд, Роберт Паттинсон, Билл Скарсгард, Джейсон Кларк, Себастиан Стэн, Миа Васиковска, Хейли Беннетт, Райли Кио, Гарри Меллинг, Элайза Сканлен-О фильме:
Город Нокерстифф, штат Огайо. Безутешный Уиллард Рассел готов на всё, лишь бы спасти умирающую жену. Он начинает молить небеса о спасении, забыв об остальном мире, в результате чего его сын Элвин вынужден превратиться из забитого школьника в решительного мужчину, способного взять дело в свои руки.-Релиз групп | IMDB | КиноПоиск | Сэмпл |-Качество: WEB-DLRip [NF]
Формат: AVI
Видео: 720x304 (2.37:1), 24 fps, XviD build 69 ~1308 kbps avg, 0.25 bit/pixel
Аудио: 48 kHz, AC3 Dolby Digital, 2/0 (L,R) ch, ~192 kbps avg
-

Скриншоты

-

MediaInfo

Общее
Полное имя                               : F:\The_Devil_All_the_Time_2020_WEB-DLRip_DVO_by_Dalemake.avi
Формат                                   : AVI
Формат/Информация                        : Audio Video Interleave
Размер файла                             : 1,46 Гбайт
Продолжительность                        : 2 ч. 18 м.
Общий поток                              : 1510 Кбит/сек
Программа кодирования                    : VirtualDubMod 1.5.10.3 | www.virtualdub-fr.org || (build 2550/release)
Библиотека кодирования                   : VirtualDubMod build 2550/release
Видео
Идентификатор                            : 0
Формат                                   : MPEG-4 Visual
Профиль формата                          : Advanced Simple@L5
Настройки формата                        : BVOP1 / Custom Matrix
Параметр BVOP формата                    : 1
Параметр QPel формата                    : Нет
Параметр GMC формата                     : Без точки перехода
Параметр матрицы формата                 : Выборочная
Идентификатор кодека                     : XVID
Идентификатор кодека/Подсказка           : XviD
Продолжительность                        : 2 ч. 18 м.
Битрейт                                  : 1309 Кбит/сек
Ширина                                   : 720 пикселей
Высота                                   : 304 пикселя
Соотношение сторон                       : 2,35:1
Частота кадров                           : 24,000 кадра/сек
Цветовое пространство                    : YUV
Субдискретизация насыщенности            : 4:2:0
Битовая глубина                          : 8 бит
Тип развёртки                            : Прогрессивная
Метод сжатия                             : С потерями
Бит/(Пиксели*Кадры)                      : 0.249
Размер потока                            : 1,27 Гбайт (87%)
Библиотека кодирования                   : XviD 69
Аудио
Идентификатор                            : 1
Формат                                   : AC-3
Формат/Информация                        : Audio Coding 3
Коммерческое название                    : Dolby Digital
Идентификатор кодека                     : 2000
Продолжительность                        : 2 ч. 18 м.
Вид битрейта                             : Постоянный
Битрейт                                  : 192 Кбит/сек
Каналы                                   : 2 канала
ChannelLayout                            : L R
Частота                                  : 48,0 КГц
Частота кадров                           : 31,250 кадров/сек (1536 SPF)
Битовая глубина                          : 16 бит
Метод сжатия                             : С потерями
Размер потока                            : 191 Мбайт (13%)
Выравнивание                             : Разделение по промежуткам
Продолжительность промежутка             : 42  мс. (1,00 видеокадр)
Время предзагрузки промежутка            : 500  мс.
ServiceKind/String                       : Complete Main
-

admin

Post 11-Dec-2020 22:46

[Quote]

29488Доброго времени суток .
Ваш форум мне показался очень привлекательным и перспективным. Хочу приобрести рекламное место для баннера в шапке, бюджет $500/месяц. Оплачивать буду через WebMoney, 50% сразу, а 50% через 2 недели. И еще, мой сайт не будет противоречить тематике?
Спасибо! Напишите о Вашем решении мне в ПМ или на почту roxys1980@gmail.com
Не нужно несколько раз писать одно и тоже сообщение с нескольких аккаунтов! Вам уже ответили в л. с. на аккаунте с ником Maximusvvq!
К тому же любые ссылки отличные от нашего сайта, а так же кроме тех что указаны в правилах трекера, запрещены без согласия с администрацией!
Задавайте ваши вопросы касаемо рекламы только в личном сообщении!
Любые ваши дальнейшие сообщения на форуме, содержащие ссылки будут удалены, а вам будет выставлено ограничение на отправку сообщений на форуме!

Raphaelqbt

Post 11-Dec-2020 19:07

[Quote]

Доброго времени суток .
Ваш форум мне показался очень привлекательным и перспективным. Хочу приобрести рекламное место для баннера в шапке, бюджет $500/месяц. Оплачивать буду через WebMoney, 50% сразу, а 50% через 2 недели. И еще, мой сайт не будет противоречить тематике?
Спасибо! Напишите о Вашем решении мне в ПМ или на почту roxys1980@gmail.com

admin

Post 10-Dec-2020 18:38

[Quote]

Кошмарные игрушки / Toys of Terror
Страна: США
Жанр: ужасы
Год выпуска: 2020
Продолжительность: 01:29:13
Перевод: Авторский (одноголосый закадровый) А. Дольский
Субтитры: нет
Режиссер: Николас Версо / Nicholas Verso
В ролях: Кайана Тереза, Джорджия Уотерс, Верити Маркс, Дайо Эд, Саул Элиас, Зои Фиш, Мюриэль Хог, Лорен Маршалл, Макс Нельсон, Эрни Питтс
Описание: Ханна Кэшмен пообещала своей семье веселый рождественский отдых, но когда они приезжают в разваливающийся старый приют в заснеженных лесах Вашингтона, они понимают, что она планирует заниматься ремонтом вместо отдыха, чтобы продать этот дом. Дети, Франклин, Зои и Алисия, бродя по жуткому особняку, находят тайник старых игрушек в заброшенной игровой комнате…
Доп. информация:
Сэмпл: http://sendfile.su/1585246
Качество видео: WEB-DLRip
Формат видео: AVI
Видео: 704x400 (1.76:1), 23.976 fps, XviD build 73 ~1950 kbps avg, 0.29 bit/pixel
Аудио: 48 kHz, AC3 Dolby Digital, 3/2 (L,C,R,l,r) + LFE ch, ~384 kbps

MediaInfo

Общее
Полное имя : E:\Koshmarnye.Igrushki.2020.AVO.AMZN.WEB-DLRip.1.46Gb_ExKinoRay_by_Twi7ter.avi
Формат : AVI
Формат/Информация : Audio Video Interleave
Размер файла : 1,46 Гбайт
Продолжительность : 1 ч. 29 м.
Общий поток : 2 344 Кбит/сек
Название фильма : Koshmarnye.Igrushki.2020.AVO.AMZN.WEB-DLRip.1.46Gb_ExKinoRay_by_Twi7ter
Режиссёр : Twi7ter
Жанр : Horror
Формат оригинала/Имя : Movie
Видео
Идентификатор : 0
Формат : MPEG-4 Visual
Профиль формата : Advanced Simple@L5
Настройки формата : BVOP2 / Custom Matrix
Параметр BVOP формата : 2
Параметр QPel формата : Нет
Параметр GMC формата : Без точки перехода
Параметр матрицы формата : Выборочная
Идентификатор кодека : XVID
Идентификатор кодека/Подсказка : XviD
Продолжительность : 1 ч. 29 м.
Битрейт : 1 951 Кбит/сек
Ширина : 704 пикселя
Высота : 400 пикселей
Соотношение сторон : 16:9
Частота кадров : 23,976 (24000/1001) кадра/сек
Цветовое пространство : YUV
Субдискретизация насыщенности : 4:2:0
Битовая глубина : 8 бит
Тип развёртки : Прогрессивная
Метод сжатия : С потерями
Бит/(Пиксели*Кадры) : 0.289
Размер потока : 1,22 Гбайт (83%)
Библиотека кодирования : XviD 73
Аудио
Идентификатор : 1
Формат : AC-3
Формат/Информация : Audio Coding 3
Коммерческое название : Dolby Digital
Идентификатор кодека : 2000
Продолжительность : 1 ч. 29 м.
Вид битрейта : Постоянный
Битрейт : 384 Кбит/сек
Каналы : 6 каналов
Channel layout : L R C LFE Ls Rs
Частота : 48,0 КГц
Частота кадров : 31,250 кадров/сек (1536 SPF)
Метод сжатия : С потерями
Размер потока : 245 Мбайт (16%)
Выравнивание : Соединение по промежуткам
Продолжительность промежутка : 42 мс. (1,00 видеокадр)
Время предзагрузки промежутка : 512 мс.
Service kind : Complete Main

Скриншот c названием фильма

Скриншоты

admin

Post 10-Dec-2020 18:36

[Quote]

Мулан / Mulan- Год выпуска: 2020
Страна: США, Китай, Канада
Жанр: боевик, фэнтези, драма
Продолжительность: 01:55:11
Перевод: Профессиональный (дублированный)
Субтитры: русские (форсированные)-Режиссер: Ники Каро / Niki Caro-В ролях: Лю Ифэй, Донни Йен, Гун Ли, Джет Ли, Джейсон Скотт Ли, Йосон Ань, Ма Ци, Розалинд Чао, Чжэн Пэйпэй, Сюзанна Тэнг, Рон Юань, Джан Ю, Чен Тэнг, Доа Моа, Джимми Вонг.-Описание: Изданный императором Китая указ о призыве на службу в армии одного мужчины из каждой семьи для защиты страны от северных захватчиков вдохновляет Мулан, старшую дочь почетного воина, занять в войсках место больного отца. Маскируясь под мужчину, девушка подвергается испытаниям на каждом шагу, проявляя свои внутреннюю силу и истинный потенциал. Мулан ждет эпичное путешествие, которое превратит её в доблестного воина, позволит заслужить уважение народа и стать гордостью отца.-Доп. информация: «Мулан» (англ. Mulan) — американский драматический фильм 2020 года, который является киноадаптацией одноименного мультфильма 1998 года, основанного на китайской легенде о Хуа Мулань. Режиссёром картины выступила Ники Каро, а сценарий написали Рик Джаффа, Аманда Сильвер, Лорен Хинек и Элизабет Мартин. Заглавную роль исполнила Лю Ифэй; в остальных ролях снялись Донни Йен, Джейсон Скотт Ли, Йосон Ан, Гун Ли и Джет Ли. «Мулан», производственный бюджет которого достигает 200 млн долларов, является самым дорогим фильмом в истории, снятым режиссёром-женщиной.-Качество видео: BDRip-AVC (Mulan.2020.BDREMUX.1080p.seleZen)
Формат видео: MKV | Sample
Видео: 764x320 (2.40:1), 23,976 fps, x264 ~1419 kbps avg, 0.242 bit/pixel
Аудио: 48 kHz, AC3 Dolby Digital, 3/2 (L,C,R,l,r) + LFE ch, ~384.00 kbps avg (RUS)

Инфо

Автор рипа: -=DoMiNo=-
Format : Matroska
Format version : Version 4
File size : 1.45 GiB
Duration : 1 h 55 min
Overall bit rate : 1 804 kb/s
Movie name : Mulan / 2020
Encoded date : UTC 2020-11-29 09:23:42
Writing application : mkvmerge v51.0.0 ('I Wish') 32-bit
Writing library : libebml v1.4.0 + libmatroska v1.6.2
Video
ID : 1
Format : AVC
Format/Info : Advanced Video Codec
Format profile : High@L4.1
Format settings : CABAC / 12 Ref Frames
Format settings, CABAC : Yes
Format settings, Reference : 12 frames
Codec ID : V_MPEG4/ISO/AVC
Duration : 1 h 55 min
Bit rate : 1 419 kb/s
Width : 764 pixels
Height : 320 pixels
Display aspect ratio : 2.40:1
Frame rate mode : Constant
Frame rate : 23.976 (24000/1001) FPS
Color space : YUV
Chroma subsampling : 4:2:0
Bit depth : 8 bits
Scan type : Progressive
Bits/(Pixel*Frame) : 0.242
Stream size : 1.14 GiB (79%)
Title : BDRip-AVC
Writing library : x264 core 161 r3027 4121277
Encoding settings : cabac=1 / ref=12 / deblock=1:-2:-1 / analyse=0x3:0x133 / me=umh / subme=11 / psy=1 / psy_rd=1.00:0.00 / mixed_ref=1 / me_range=32 / chroma_me=1 / trellis=2 / 8x8dct=1 / cqm=0 / deadzone=21,11 / fast_pskip=0 / chroma_qp_offset=-2 / threads=6 / lookahead_threads=1 / sliced_threads=0 / nr=0 / decimate=0 / interlaced=0 / bluray_compat=0 / constrained_intra=0 / bframes=11 / b_pyramid=2 / b_adapt=2 / b_bias=0 / direct=3 / weightb=1 / open_gop=0 / weightp=2 / keyint=250 / keyint_min=23 / scenecut=40 / intra_refresh=0 / rc=2pass / mbtree=0 / bitrate=1419 / ratetol=1.0 / qcomp=0.65 / qpmin=0 / qpmax=69 / qpstep=4 / cplxblur=20.0 / qblur=0.5 / ip_ratio=1.40 / pb_ratio=1.30 / aq=2:1.00
Language : English
Default : Yes
Forced : No
Color range : Limited
Color primaries : BT.709
Transfer characteristics : BT.709
Matrix coefficients : BT.709
Audio
ID : 2
Format : AC-3
Format/Info : Audio Coding 3
Commercial name : Dolby Digital
Codec ID : A_AC3
Duration : 1 h 55 min
Bit rate mode : Constant
Bit rate : 384 kb/s
Channel(s) : 6 channels
Channel layout : L R C LFE Ls Rs
Sampling rate : 48.0 kHz
Frame rate : 31.250 FPS (1536 SPF)
Compression mode : Lossy
Stream size : 316 MiB (21%)
Title : Dub
Language : Russian
Service kind : Complete Main
Default : Yes
Forced : No
Text
ID : 3
Format : UTF-8
Codec ID : S_TEXT/UTF8
Codec ID/Info : UTF-8 Plain Text
Duration : 3 min 8 s
Bit rate : 5 b/s
Count of elements : 2
Stream size : 133 Bytes (0%)
Title : Forced
Language : Russian
Default : Yes
Forced : No
Menu
00:00:00.000 : en:Chapter 01
00:04:44.117 : en:Chapter 02
00:06:26.469 : en:Chapter 03
00:09:29.152 : en:Chapter 04
00:13:27.223 : en:Chapter 05
00:20:51.584 : en:Chapter 06
00:26:33.675 : en:Chapter 07
00:29:03.992 : en:Chapter 08
00:36:48.832 : en:Chapter 09
00:41:41.708 : en:Chapter 10
00:50:45.668 : en:Chapter 11
00:57:19.061 : en:Chapter 12
01:01:13.336 : en:Chapter 13
01:11:22.820 : en:Chapter 14
01:16:34.924 : en:Chapter 15
01:22:11.552 : en:Chapter 16
01:29:59.060 : en:Chapter 17
01:34:59.819 : en:Chapter 18
01:38:52.385 : en:Chapter 19
01:44:40.399 : en:Chapter 20

Скриншоты

 

Current time is: 20-Jan 10:01

All times are UTC + 3