Search found 500 matches

Author Message

admin

Post 12-Dec-2019 17:53

[Quote]

Информация о фильме
Название: Любовь со взломом
Оригинальное название: Breaking & Exiting
Год выпуска: 2018
Жанр: Комедия
Режиссер: Питер Фачинелли
В ролях: Майло Гибсон, Джордан Хинсон, Адам Хубер, Жоаки де Алмейда, Жюстин Уачсбергер, Джеймс Кайсон Ли, Лили Энн Харрисон, Сесиль Кубило, Колин Фергюсон, Джон Хинсон
О фильме:
Гарри, харизматичный вор-домушник, попадает в неловкую ситуацию, когда во время очередного ограбления решает спасти хозяйку дома от самоубийства и попытаться вытащить её из пучины депрессии.

Страна: США
Студия: Kali Pictures
Продолжительность: 01:18:30
Перевод: Дублированный | iTunes
Файл
Формат: AVI
Качество: BDRip
Источник: |BREAKING_&_EXITING_2018_RMX_BLUEBIRD|
Видео: 720x304 (2.37:1), 23.976 fps, XviD build 73 ~2104 kbps avg, 0.40 bit/pixel
Звук: 48 kHz, AC3 Dolby Digital, 3/2 (L,C,R,l,r) + LFE ch, ~384 kbps
Субтитры: Нет

Скриншоты

admin

Post 12-Dec-2019 17:50

[Quote]

Любовь со взломом / Breaking & Exiting
«На что ты готов ради любви?»-

Год выпуска: 2018
Страна: США
Производство: Kali Pictures
Жанр: Комедия-Режиссёр: Питер Фачинелли
В ролях: Майло Гибсон, Джордан Хинсон, Адам Хубер, Жоаким ди Алмейда, Жюстин Уачсбергер, Джеймс Кайсон Ли, Лили Энн Харрисон, Сесиль Кубило, Колин Фергюсон, Джон Хинсон-Перевод: Дублированный | [iTunes]
Субтитры: Английские
Реклама: Отсутствует
Описание: Гарри, харизматичный вор-домушник, попадает в неловкую ситуацию, когда во время очередного ограбления сталкивается в ванной с Дейзи — хозяйкой дома, пытающейся покончить жизнь самоубийством. Сначала Гарри решает забрать награбленное и убежать, но что-то останавливает его, и он возвращается, чтобы спасти Дейзи жизнь. Казалось бы, что нужно девушке для счастья? Шикарный дом с бассейном, прекрасная внешность — вроде бы жизнь удалась. Что могло заставить человека пойти на самоубийство?
-Качество: BDRip-AVC | BluRay Disc | Love Break Ein Dieb zum Verlieben 2018 DUAL COMPLETE BLURAY-RedHands
Продолжительность: 01:18:31
Формат: MKV
Видео кодек: MPEG-4 AVC
Аудио кодек: AC3
Видео: 1024x426 (2.40:1), 23,976 fps, x264 ~1 984 kbps avg, 0.190 bit/pixel
Аудио #1: 48 kHz, AC3 Dolby Digital, 3/2 (L,C,R,l,r) + LFE ch, ~384.00 kbps avg | RUS (iTunes)
Аудио #2: 48 kHz, AC3 Dolby Digital, 3/2 (L,C,R,l,r) + LFE ch, ~448.00 kbps avg | ENG-Дата премьеры (мир): 17 августа 2018
Дата премьеры (РФ):
Цифровой релиз:

MediaInfo

Общее
Уникальный идентификатор : 252606093007150038861219886513480305990 (0xBE0A29F31A797325C6438FA36BF88D46)
Полное имя : F:OlLanDGroupBreaking.and.Exiting.2018.BDRip(AVC).OllanDGroup.mkv
Формат : Matroska
Версия формата : Version 4 / Version 2
Размер файла : 1,54 Гбайт
Продолжительность : 1 ч. 18 м.
Общий поток : 2811 Кбит/сек
Название фильма : Breaking and Exiting 2018 #TorpedoUK#
Дата кодирования : UTC 2019-09-26 11:38:30
Программа кодирования : mkvmerge v29.0.0 ('Like It Or Not') 64-bit
Библиотека кодирования : libebml v1.3.6 + libmatroska v1.4.9
Видео
Идентификатор : 1
Формат : AVC
Формат/Информация : Advanced Video Codec
Профиль формата : High@L4.1
Параметр CABAC формата : Да
Параметр ReFrames формата : 10 кадров
Идентификатор кодека : V_MPEG4/ISO/AVC
Продолжительность : 1 ч. 18 м.
Битрейт : 1984 Кбит/сек
Ширина : 1024 пикселя
Высота : 426 пикселей
Соотношение сторон : 2,40:1
Режим частоты кадров : Постоянный
Частота кадров : 23,976 (24000/1001) кадра/сек
Цветовое пространство : YUV
Субдискретизация насыщенности : 4:2:0
Битовая глубина : 8 бит
Тип развёртки : Прогрессивная
Бит/(Пиксели*Кадры) : 0.190
Размер потока : 1,08 Гбайт (70%)
Библиотека кодирования : x264 core 146 r2538 121396c
Настройки программы : cabac=1 / ref=10 / deblock=1:-3:-3 / analyse=0x3:0x113 / me=umh / subme=11 / psy=1 / psy_rd=1.00:0.03 / mixed_ref=1 / me_range=48 / chroma_me=1 / trellis=2 / 8x8dct=1 / cqm=0 / deadzone=21,11 / fast_pskip=1 / chroma_qp_offset=-6 / threads=6 / lookahead_threads=1 / sliced_threads=0 / nr=0 / decimate=1 / interlaced=0 / bluray_compat=0 / constrained_intra=0 / bframes=11 / b_pyramid=2 / b_adapt=2 / b_bias=0 / direct=3 / weightb=1 / open_gop=0 / weightp=2 / keyint=240 / keyint_min=23 / scenecut=40 / intra_refresh=0 / rc_lookahead=40 / rc=2pass / mbtree=0 / bitrate=1984 / ratetol=1.0 / qcomp=0.60 / qpmin=0 / qpmax=69 / qpstep=4 / cplxblur=20.0 / qblur=0.5 / vbv_maxrate=50000 / vbv_bufsize=62500 / nal_hrd=none / filler=0 / ip_ratio=1.40 / pb_ratio=1.30 / aq=1:1.00
Язык : English
Default : Да
Forced : Нет
Аудио #1
Идентификатор : 2
Формат : AC-3
Формат/Информация : Audio Coding 3
Расширение режима : CM (complete main)
Параметр Endianness формата : Big
Идентификатор кодека : A_AC3
Продолжительность : 1 ч. 18 м.
Вид битрейта : Постоянный
Битрейт : 384 Кбит/сек
Каналы : 6 каналов
Расположение каналов : Front: L C R, Side: L R, LFE
Частота : 48,0 КГц
Частота кадров : 31,250 кадров/сек (1536 spf)
Битовая глубина : 16 бит
Метод сжатия : С потерями
Размер потока : 216 Мбайт (14%)
Заголовок : DUB [iTunes]
Язык : Russian
Default : Да
Forced : Нет
Аудио #2
Идентификатор : 3
Формат : AC-3
Формат/Информация : Audio Coding 3
Расширение режима : CM (complete main)
Параметр Endianness формата : Big
Идентификатор кодека : A_AC3
Продолжительность : 1 ч. 18 м.
Вид битрейта : Постоянный
Битрейт : 448 Кбит/сек
Каналы : 6 каналов
Расположение каналов : Front: L C R, Side: L R, LFE
Частота : 48,0 КГц
Частота кадров : 31,250 кадров/сек (1536 spf)
Битовая глубина : 16 бит
Метод сжатия : С потерями
Размер потока : 252 Мбайт (16%)
Заголовок : [Original]
Язык : English
Default : Нет
Forced : Нет
Текст
Идентификатор : 4
Формат : UTF-8
Идентификатор кодека : S_TEXT/UTF8
Идентификатор кодека/Информация : UTF-8 Plain Text
Продолжительность : 1 ч. 14 м.
Битрейт : 72 бит/сек
Count of elements : 1373
Размер потока : 39,5 Кбайт (0%)
Заголовок : SDH
Язык : English
Default : Нет
Forced : Нет
Меню
00:00:00.000 : en:Chapter 1
00:12:12.982 : en:Chapter 2
00:21:43.010 : en:Chapter 3
00:30:40.005 : en:Chapter 4
00:41:21.979 : en:Chapter 5
00:51:59.950 : en:Chapter 6
01:01:32.981 : en:Chapter 7
01:07:52.944 : en:Chapter 8
01:12:49.991 : en:Chapter 9

Скриншоты



admin

Post 09-Dec-2019 03:55

[Quote]

Информация о фильме
Название: Соблазн
Оригинальное название: Sibyl
Год выхода: 2019
Жанр: Триллер, драма
Режиссер: Жюстин Трие
В ролях: Виржини Эфира, Адель Экзаркопулос, Гаспар Ульель, Сандра Хюллер, Лорэ Кэлами, Нильс Шнайдер, Поль Ами, Артур Харари, Adrien Bellemare, Jeane Arra-Bellanger
О фильме:
Сибил - опытная и успешная женщина-психотерапевт, желающая отказаться от практики, чтобы воплотить давнее желание написать книгу. В тот момент, когда ей будет так нужно вдохновение, рядом окажется юная актриса Марго, ищущая помощи и поддержки. Сибил, очарованная новой пациенткой, будет всё глубже погружаться в чужую историю, не замечая, как её собственная жизнь перевернётся с ног на голову.

Страна: Франция, Бельгия
Студия: Auvergne Rhône-Alpes Cinéma
Продолжительность: 01:40:56
Перевод: Профессиональный (многоголосый закадровый) | iTunes
Файл
Формат: AVI
Качество: BDRip
Источник: |Sibyl.2019.1080p.FRA.Blu-ray.AVC.DTS-HD.MA.5.1-4FR|
Видео: 720x304 (2.37:1), 23.976 fps, XviD build 73 ~1615 kbps avg, 0.31 bit/pixel
Звук: 48 kHz, AC3 Dolby Digital, 3/2 (L,C,R,l,r) + LFE ch, ~384 kbps
Субтитры: Нет

Скриншоты

admin

Post 08-Dec-2019 06:03

[Quote]

Информация о фильме
Название: Искусство самообороны
Оригинальное название: The Art of Self-Defense
Год выпуска: 2019
Жанр: Комедия, драма, спорт
Режиссер: Райли Стернс
В ролях: Джесси Айзенберг, Алессандро Нивола, Имоджен Путс, Стив Терада, Филлип Андре Ботельо, Каролин Амиге, Аполло Бакала, Хауке Бахр, Джейсон Бёрки, Джастин Итон
О фильме:
Стеснительный 34-летний бухгалтер с женственным именем Кэйси Дэвис как-то ночью отправляется за собачьим кормом. По дороге на него совершают нападение неизвестные на мотоциклах и сильно избивают, да так, что парень несколько дней вынужден пролежать в больнице. Встав на ноги, Кэйси отправляется покупать пистолет, и пока бумаги на огнестрельное оружие проходят одобрение, решает записаться в секцию карате. Там нерешительного парня радушно привечает брутальный сэнсэй, а новый товарищ обещает, что спорт изменит его жизнь.

Страна: США
Студия: End Cue
Продолжительность: 01:44:19
Перевод: Дублированный | iTunes
Файл
Формат: AVI
Качество: BDRip
Источник: |The.Art.of.Self-Defense.2019.BluRay.1080p.DTS-HD.MA.5.1.AVC.REMUX-FraMeSToR|
Видео: 704x384 (1.83:1), 23.976 fps, XviD build 73 ~1546 kbps avg, 0.24 bit/pixel
Звук: 48 kHz, AC3 Dolby Digital, 3/2 (L,C,R,l,r) + LFE ch, ~384 kbps
Субтитры: Русские форсированные (отдельно)

Скриншоты

admin

Post 07-Dec-2019 04:37

[Quote]

Информация о фильме
Название: В тихом омуте
Оригинальное название: I See You
Год выпуска: 2019
Жанр: Ужасы, триллер, драма, криминал, детектив
Режиссер: Адам Рэндолл
В ролях: Хелен Хант, Джон Тенни, Джуда Льюис, Оуэн Тиг, Либэ Барер, Грегори Алан Уильямс, Эллисон Кинг, Эрика Александр, Дженнифер Грэйс, Адам Керн
О фильме:
В идиллически тихом и спокойном городке бесследно пропадает двенадцатилетний мальчик. За расследование берется детектив, который переживает раскол в семье, узнав о недавней измене своей жены. Тем временем смертельная угроза подбирается уже к его собственному дому…

Страна: США
Студия: Head Gear Films, Kreo Films FZ, Local Hero
Продолжительность: 01:33:40
Перевод: Дублированный | iTunes
Файл
Формат: AVI
Качество: WEB-DLRip
Источник: |I_SEE_YOU_2019_WEB-DL_1080p-BLUEBIRD|
Видео: 720x320 (2.25:1), 25 fps, XviD build 73 ~1838 kbps avg, 0.32 bit/pixel
Звук: 48 kHz, AC3 Dolby Digital, 3/2 (L,C,R,l,r) + LFE ch, ~384 kbps
Субтитры: Нет

Скриншоты

admin

Post 06-Dec-2019 06:22

[Quote]

Информация о фильме
Название: К звёздам
Оригинальное название: Ad Astra
Год выхода: 2019
Жанр: Фантастика, триллер, драма, детектив, приключения
Режиссер: Джеймс Грэй
В ролях: Брэд Питт, Томми Ли Джонс, Рут Негга, Дональд Сазерленд, Кимберли Элиз, Лорен Дин, Донни Кешаварц, Шон Блейкмор, Бобби Ниш, Лиза Гэй Хэмилтон, Джон Финн, Джон Ортис, Фреда Фо Шен, Кайла Адамс, Рави Капур
О фильме:
Недалёкое будущее. Несколько лет назад человечество запустило программу поиска внеземной жизни «Проект «Лима»», во главе которой стоял капитан Клиффорд Макбрайд. Последний сигнал экспедиции был зафиксирован в районе Нептуна, и с тех пор о её судьбе ничего не было известно. Сам капитан Макбрайд стал героем и самым известным космонавтом, вдохновившим многих на исследование космоса. Через 16 лет после исчезновения «Проекта «Лима»» на Земле начинают происходить странные вспышки энергии, выводящие из строя электросистемы и сеящие хаос и разрушения. По данным американского космического агентства сигнал идёт с Нептуна, и теперь сыну знаменитого космонавта, майору Рою Макбрайду, поручается ответственная миссия. Он должен добраться до марсианской базы и оттуда попытаться связаться с предположительно живым отцом.

Страна: Китай, Бразилия, США
Студия: New Regency Pictures, Bona Film Group, Keep Your Head
Продолжительность: 02:03:01
Перевод: Дублированный | iTunes
Файл
Формат: AVI
Качество: WEB-DLRip
Источник: |Ad.Astra.2019.1080p.AMZN.WEB-DL.DDP5.1.H.264-NTG|
Видео: 720x304 (2.37:1), 23.976 fps, XviD build 73 ~1306 kbps avg, 0.25 bit/pixel
Звук: 48 kHz, AC3 Dolby Digital, 3/2 (L,C,R,l,r) + LFE ch, ~384 kbps
Субтитры: Русские форсированные (отдельно)

Скриншоты

admin

Post 06-Dec-2019 06:22

[Quote]

К звёздам / Ad Astra
«Ответы на наши вопросы лежат за пределами досягаемости»-

Год выпуска: 2019
Страна: Китай, Бразилия, США
Производство: New Regency Pictures, Bona Film Group, Keep Your Head
Жанр: Фантастика, триллер, драма, детектив, приключения
Режиссёр: Джеймс Грэй
В ролях: Брэд Питт, Томми Ли Джонс, Рут Негга, Дональд Сазерленд, Кимберли Элиз, Лорен Дин, Донни Кешаварц, Шон Блейкмор, Бобби Ниш, Лиза Гэй Хэмилтон, Джон Финн, Джон Ортис, Фреда Фо Шен, Кайла Адамс, Рави Капур
Перевод: Дублированный | [iTunes]
Субтитры: Русские (форс., полные)
Реклама: Отсутствует
Описание: Недалёкое будущее. Несколько лет назад человечество запустило программу поиска внеземной жизни «Проект «Лима»», во главе которой стоял капитан Клиффорд Макбрайд. Последний сигнал экспедиции был зафиксирован в районе Нептуна, и с тех пор о её судьбе ничего не было известно. Сам капитан Макбрайд стал героем и самым известным космонавтом, вдохновившим многих на исследование космоса. Через 16 лет после исчезновения «Проекта «Лима»» на Земле начинают происходить странные вспышки энергии, выводящие из строя электросистемы и сеящие хаос и разрушения. По данным американского космического агентства сигнал идёт с Нептуна, и теперь сыну знаменитого космонавта, майору Рою Макбрайду, поручается ответственная миссия. Он должен добраться до марсианской базы и оттуда попытаться связаться с предположительно живым отцом.

Качество: WEB-DLRip-AVC | AMZN Version |
Продолжительность: 02:03:02
Формат: MKV
Видео кодек: MPEG-4 AVC
Аудио кодек: AC3
Видео: 1024x426 (2.40:1), 23,976 fps, x264 ~1 781 kbps avg, 0.170 bit/pixel
Аудио: 48 kHz, AC3 Dolby Digital, 3/2 (L,C,R,l,r) + LFE ch, ~384.00 kbps avg | RUS (iTunes)
Дата премьеры (мир): 29 августа 2019
Дата премьеры (РФ): 26 сентября 2019, «Двадцатый Век Фокс СНГ»
Цифровой релиз: 6 декабря 2019, «Двадцатый Век Фокс СНГ»

MediaInfo

Общее
Уникальный идентификатор : 326399387455158776225925110184223567091 (0xF58E3C4405FB40DECA517D7F0EA1ECF3)
Полное имя : F:OlLanDGroupAd.Astra.2019.1080p.AMZN.WEB-DLRip(AVC).OlLanDGroup.mkv
Формат : Matroska
Версия формата : Version 4 / Version 2
Размер файла : 1,86 Гбайт
Продолжительность : 2 ч. 3 м.
Общий поток : 2165 Кбит/сек
Название фильма : Ad.Astra.2019 #TorpedoUK#
Дата кодирования : UTC 2019-12-06 01:35:27
Программа кодирования : mkvmerge v29.0.0 ('Like It Or Not') 64-bit
Библиотека кодирования : libebml v1.3.6 + libmatroska v1.4.9
Видео
Идентификатор : 1
Формат : AVC
Формат/Информация : Advanced Video Codec
Профиль формата : High@L4.1
Параметр CABAC формата : Да
Параметр ReFrames формата : 10 кадров
Идентификатор кодека : V_MPEG4/ISO/AVC
Продолжительность : 2 ч. 3 м.
Битрейт : 1781 Кбит/сек
Ширина : 1024 пикселя
Высота : 426 пикселей
Соотношение сторон : 2,40:1
Режим частоты кадров : Постоянный
Частота кадров : 23,976 (24000/1001) кадра/сек
Цветовое пространство : YUV
Субдискретизация насыщенности : 4:2:0
Битовая глубина : 8 бит
Тип развёртки : Прогрессивная
Бит/(Пиксели*Кадры) : 0.170
Размер потока : 1,53 Гбайт (82%)
Библиотека кодирования : x264 core 146 r2538 121396c
Настройки программы : cabac=1 / ref=10 / deblock=1:-2:-3 / analyse=0x3:0x113 / me=umh / subme=11 / psy=1 / psy_rd=0.95:0.07 / mixed_ref=1 / me_range=48 / chroma_me=1 / trellis=2 / 8x8dct=1 / cqm=0 / deadzone=21,11 / fast_pskip=1 / chroma_qp_offset=-6 / threads=6 / lookahead_threads=1 / sliced_threads=0 / nr=0 / decimate=1 / interlaced=0 / bluray_compat=0 / constrained_intra=0 / bframes=11 / b_pyramid=2 / b_adapt=2 / b_bias=0 / direct=3 / weightb=1 / open_gop=0 / weightp=2 / keyint=240 / keyint_min=23 / scenecut=40 / intra_refresh=0 / rc_lookahead=40 / rc=2pass / mbtree=0 / bitrate=1781 / ratetol=1.0 / qcomp=0.60 / qpmin=0 / qpmax=69 / qpstep=4 / cplxblur=20.0 / qblur=0.5 / vbv_maxrate=50000 / vbv_bufsize=62500 / nal_hrd=none / filler=0 / ip_ratio=1.40 / pb_ratio=1.30 / aq=1:1.00
Язык : English
Default : Да
Forced : Нет
Аудио
Идентификатор : 2
Формат : AC-3
Формат/Информация : Audio Coding 3
Расширение режима : CM (complete main)
Параметр Endianness формата : Big
Идентификатор кодека : A_AC3
Продолжительность : 2 ч. 3 м.
Вид битрейта : Постоянный
Битрейт : 384 Кбит/сек
Каналы : 6 каналов
Расположение каналов : Front: L C R, Side: L R, LFE
Частота : 48,0 КГц
Частота кадров : 31,250 кадров/сек (1536 spf)
Битовая глубина : 16 бит
Метод сжатия : С потерями
Размер потока : 338 Мбайт (18%)
Заголовок : DUB [iTunes]
Язык : Russian
Default : Да
Forced : Нет
Текст #1
Идентификатор : 3
Формат : UTF-8
Идентификатор кодека : S_TEXT/UTF8
Идентификатор кодека/Информация : UTF-8 Plain Text
Продолжительность : 2 ч. 2 м.
Битрейт : 0 бит/сек
Count of elements : 22
Размер потока : 871 байт (0%)
Заголовок : Forced
Язык : Russian
Default : Да
Forced : Нет
Текст #2
Идентификатор : 4
Формат : UTF-8
Идентификатор кодека : S_TEXT/UTF8
Идентификатор кодека/Информация : UTF-8 Plain Text
Продолжительность : 2 ч. 2 м.
Битрейт : 68 бит/сек
Count of elements : 1074
Размер потока : 61,5 Кбайт (0%)
Заголовок : Full
Язык : Russian
Default : Нет
Forced : Нет
Меню
00:00:00.000 : en:1
00:04:23.680 : en:2
00:08:49.696 : en:3
00:16:26.778 : en:4
00:22:34.812 : en:5
00:30:09.516 : en:6
00:35:09.274 : en:7
00:40:34.349 : en:8
00:44:46.392 : en:9
00:48:57.810 : en:10
00:53:52.813 : en:11
00:56:44.776 : en:12
01:01:32.897 : en:13
01:07:24.873 : en:14
01:12:13.411 : en:15
01:17:00.114 : en:16
01:21:36.181 : en:17
01:24:43.660 : en:18
01:31:17.553 : en:19
01:36:28.030 : en:20
01:41:00.594 : en:21
01:46:27.587 : en:22
01:50:01.050 : en:23
01:53:18.789 : en:24

Скриншоты



admin

Post 05-Dec-2019 04:30

[Quote]

Информация о фильме
Название: Арестант no name
Оригинальное название: Imprisoned
Год выхода: 2018
Жанр: Триллер
Режиссер: Пол Кампф
В ролях: Джон Хёрд, Лоренс Фишбёрн, Эсай Моралес, Эдвард Джеймс Олмос, Джон Уэртас, Хуан Пабло Раба, Фернанда Уррехола, Хуана Акоста, Ана Изабелль, Luis de La Rosa
О фильме:
Дилан Берк совершил много ошибок в прошлом, но теперь он живет мирной жизнью, зарабатывает на жизнь рыболовством, а его любимая, Мария, управляет кофейней в морском порту. Однако идиллия не может продолжаться вечно: тюремный надзиратель Даниэль Кальвин, чья жена погибла по вине Дилана 25 лет назад, жаждет мести.

Страна: США
Студия: Equitas Entertainment Partners, Pimienta
Продолжительность: 01:44:16
Перевод: Профессиональный (многоголосый, закадровый) | iTunes
Файл
Формат: AVI
Качество: WEB-DLRip
Источник: |Imprisoned.2018.720p.WEB-DL.Rus.TeamHD|
Видео: 720x304 (2.37:1), 24 fps, XviD build 73 ~1611 kbps avg, 0.31 bit/pixel
Звук: 48 kHz, AC3 Dolby Digital, 3/2 (L,C,R,l,r) + LFE ch, ~384 kbps
Субтитры: Русские форсированные (хардсаб)

Скриншоты

admin

Post 05-Dec-2019 04:20

[Quote]

Информация о фильме
Название: Иные
Оригинальное название: Freaks
Год выхода: 2018
Жанр: Фантастика, триллер, драма
Режиссер: Зак Липовски, Адам Б. Стейн
В ролях: Эмиль Хирш, Брюс Дерн, Грейс Пак, Аманда Крю, Лекси Колкер, Ава Телек, Мишель Харрисон, Мэтти Финочио, Алекс Паунович, АрДжей Фезерстонхо
О фильме:
В уединенном домике одного из районов Лос-Анджелеса живут маленькая девочка и ее заботливый отец. Вполне нормальная семья, если не считать, что девочка одним взглядом может поднять в воздух тяжеленный шкаф, а у отца всегда наготове снятый с предохранителя пистолет. Каждый день, уходя из дома, папа запирает дочь, и категорически запрещает открывать дверь. Ей нельзя ни с кем разговаривать и не позволено даже подходить к окну. Единственное развлечение девочки: тайком наблюдать из-за занавесок за фургончиком мороженщика, который целыми днями торчит возле их дома. Играет музыка и таинственной голос призывает её отпереть дверь и полакомиться сладеньким. Малышке так хочется мороженого, но ведь папа сказал, что это смертельно опасно: никто не должен её видеть!
И вот однажды девочка нарушает запрет, и начинаются самые невероятные события, которые только можно представить.

Страна: Канада, США
Студия: Amazing, Bloomgarden Films, My Way Entertainment
Продолжительность: 01:44:56
Перевод: Дублированный | iTunes
Файл
Формат: AVI
Качество: BDRip
Источник: |Freaks.2018.BluRay.1080p.AVC.DTS-HD.MA5.1-CHDBits|
Видео: 720x304 (2.37:1), 23.976 fps, XviD build 73 ~1534 kbps avg, 0.29 bit/pixel
Звук: 48 kHz, AC3 Dolby Digital, 3/2 (L,C,R,l,r) + LFE ch, ~384 kbps
Субтитры: Нет

Скриншоты

admin

Post 05-Dec-2019 04:15

[Quote]

Информация о фильме
Название: Арахисовый сокол
Оригинальное название: The Peanut Butter Falcon
Год выпуска: 2019
Жанр: Приключения
Режиссер: Тайлер Нилсон, Майк Шварц
В ролях: Шайа ЛаБаф, Дакота Джонсон, Зак Готтзаген, Джон Хоукс, Томас Хейден Чёрч, Брюс Дерн, Джон Бернтал, Джэйк Робертс, Мик Фоли
О фильме: Большое путешествие начинается с шага, а легендарное - с полета. Вылетев в окно, герой очутился в мире, где чего-то не хватало. Его новому другу - крупной суммы денег. Паре головорезов - головы друга. Молодой медсестре - любви. А ему - путешествий на плоту, погонь, пылающих костров и немного арахисового масла.

Страна: США
Студия: Armory Films, 1993, Lucky Treehouse
Продолжительность: 01:36:56
Перевод: Дублированный | iTunes
Файл
Формат: AVI
Качество: BDRip
Источник: |The.Peanut.Butter.Falcon.2019.BluRay.1080p.AVC.DTS-HD.MA5.1-CHDBits|
Видео: 720x304 (2.37:1), 23.976 fps, XviD build 73 ~1698 kbps avg, 0.32 bit/pixel
Звук: 48 kHz, AC3 Dolby Digital, 3/2 (L,C,R,l,r) + LFE ch, ~384 kbps
Субтитры: Нет

Скриншоты

admin

Post 04-Dec-2019 04:03

[Quote]

Информация о фильме
Название: SuperЗять
Оригинальное название: Le gendre de ma vie
Год выпуска: 2018
Жанр: Комедия
Режиссер: Франсуа Дезанья
В ролях: Кад Мерад, Полин Этьен, Жюли Гайе, Франсуа Деблок, Забу Брайтман, Гийом Лаббе, Хлоя Жуанне, Луиз Колдефи, Жереми Лопез, Беранжер Криеф
О фильме:
Если папа - псих, который в каждом твоём случайном знакомом видит своего будущего зятя - это большая проблема! Твоя старшая сестра доведена папиными выходками до отчаяния и решает скрыть свою свадьбу. А младшая уже вовсю борется за права женщин. И вы решаете его проучить...

Страна: Франция
Студия: Nac Films, Pathé, Liaison Films
Продолжительность: 01:40:49
Перевод: Дублированный | iTunes
Файл
Формат: AVI
Качество: BDRip
Источник: |Le.Gendre.De.Ma.Vie.2018.VOF.1080p.Bluray.Remux.AVC-ONLY|
Видео: 720x304 (2.37:1), 23.976 fps, XviD build 73 ~1680 kbps avg, 0.32 bit/pixel
Звук: 48 kHz, AC3 Dolby Digital, 3/2 (L,C,R,l,r) + LFE ch, ~384 kbps
Субтитры: Нет

Скриншоты

admin

Post 04-Dec-2019 03:57

[Quote]

Информация о фильме
Название: Рэмбо: Последняя кровь
Оригинальное название: Rambo: Last Blood
Год выхода: 2019
Жанр: Боевик, триллер, приключения
Режиссер: Адриан Грюнберг
В ролях: Сильвестр Сталлоне, Пас Вега, Ивет Монреаль, Луис Мэндилор, Оскар Хаенада, Шила Шах, Серхио Перис-Менчета, Джессика Мэдсен, Хоакин Косио, Адриана Барраса, Джени Ким, Паскасио Лопес, Александр Димитров
О фильме:
Он хранил секреты всю жизнь, но пришло время взглянуть в глаза прошлому. В последний раз собраться и стать безжалостной машиной для убийства. Рэмбо снова встанет на смертельно опасный путь — путь мести, который ему придется пройти до конца.

Страна: США, Испания, Болгария
Студия: Balboa Productions, Campbell Grobman Films, Dadi Film Group
Продолжительность: 01:41:07
Перевод: Дублированный | iTunes
Файл
Кодек: x.264
Качество: BDRip 1080p
Видео: MPEG-4 AVC, 9000 Kбит/с, 1920x804, 24.000 кадр/с
Аудио #1: Русский (АС3, 6 ch, 384 Кбит/с, 48.0 KHz) Профессиональный (дублированный) iTunes
Аудио #2: Английский (DTS, 6 ch, 1509 Кбит/с, 48.0 KHz)
Субтитры: Aнглийские (*srt)

MediaInfo

Источник: Rambo.Last.Blood.2019.1080p.BluRay.x264.DTS-Manning
General
Unique ID : 212345495246349120067146028932985431855 (0x9FC04139981F176688F41E76CCB2A72F)
Complete name : Rambo.Last.Blood.2019.BDRip.1080p.mkv
Format : Matroska
Format version : Version 4
File size : 7.69 GiB
Duration : 1 h 41 min
Overall bit rate : 10.9 Mb/s
Encoded date : UTC 2019-12-02 21:44:48
Writing application : mkvmerge v7.1.0 ('Good Love') 64bit built on Jul 27 2014 13:06:55
Writing library : libebml v1.3.0 + libmatroska v1.4.1
Video
ID : 1
Format : AVC
Format/Info : Advanced Video Codec
Format profile : High@L4.1
Format settings : CABAC / 5 Ref Frames
Format settings, CABAC : Yes
Format settings, Reference fra : 5 frames
Codec ID : V_MPEG4/ISO/AVC
Duration : 1 h 41 min
Bit rate : 9 000 kb/s
Width : 1 920 pixels
Height : 804 pixels
Display aspect ratio : 2.40:1
Frame rate mode : Constant
Frame rate : 24.000 FPS
Color space : YUV
Chroma subsampling : 4:2:0
Bit depth : 8 bits
Scan type : Progressive
Bits/(Pixel*Frame) : 0.243
Stream size : 6.35 GiB (83%)
Writing library : x264 core 157 r2935 545de2f
Encoding settings : cabac=1 / ref=5 / deblock=1:0:0 / analyse=0x3:0x133 / me=umh / subme=9 / psy=1 / psy_rd=1.00:0.00 / mixed_ref=1 / me_range=16 / chroma_me=1 / trellis=2 / 8x8dct=1 / cqm=0 / deadzone=21,11 / fast_pskip=1 / chroma_qp_offset=-2 / threads=12 / lookahead_threads=1 / sliced_threads=0 / nr=0 / decimate=1 / interlaced=0 / bluray_compat=0 / constrained_intra=0 / bframes=3 / b_pyramid=2 / b_adapt=2 / b_bias=0 / direct=3 / weightb=1 / open_gop=0 / weightp=2 / keyint=240 / keyint_min=24 / scenecut=40 / intra_refresh=0 / rc_lookahead=60 / rc=2pass / mbtree=1 / bitrate=9000 / ratetol=1.0 / qcomp=0.60 / qpmin=0 / qpmax=69 / qpstep=4 / cplxblur=20.0 / qblur=0.5 / vbv_maxrate=62500 / vbv_bufsize=78125 / nal_hrd=none / filler=0 / ip_ratio=1.40 / aq=1:1.00
Language : English
Default : Yes
Forced : No
Color range : Limited
Color primaries : BT.709
Transfer characteristics : BT.709
Matrix coefficients : BT.709
Audio #1
ID : 2
Format : AC-3
Format/Info : Audio Coding 3
Commercial name : Dolby Digital
Codec ID : A_AC3
Duration : 1 h 41 min
Bit rate mode : Constant
Bit rate : 384 kb/s
Channel(s) : 6 channels
Channel layout : L R C LFE Ls Rs
Sampling rate : 48.0 kHz
Frame rate : 31.250 FPS (1536 SPF)
Compression mode : Lossy
Stream size : 278 MiB (4%)
Title : DUB | iTunes
Language : Russian
Service kind : Complete Main
Default : Yes
Forced : No
Audio #2
ID : 3
Format : DTS
Format/Info : Digital Theater Systems
Codec ID : A_DTS
Duration : 1 h 41 min
Bit rate mode : Constant
Bit rate : 1 509 kb/s
Channel(s) : 6 channels
Channel layout : C L R Ls Rs LFE
Sampling rate : 48.0 kHz
Frame rate : 93.750 FPS (512 SPF)
Bit depth : 24 bits
Compression mode : Lossy
Stream size : 1.07 GiB (14%)
Language : English
Default : No
Forced : No
Text #1
ID : 4
Format : UTF-8
Codec ID : S_TEXT/UTF8
Codec ID/Info : UTF-8 Plain Text
Duration : 1 h 19 min
Bit rate : 8 b/s
Count of elements : 183
Stream size : 4.86 KiB (0%)
Title : Forced
Language : English
Default : No
Forced : No
Text #2
ID : 5
Format : UTF-8
Codec ID : S_TEXT/UTF8
Codec ID/Info : UTF-8 Plain Text
Duration : 1 h 29 min
Bit rate : 27 b/s
Count of elements : 629
Stream size : 17.9 KiB (0%)
Language : English
Default : No
Forced : No
Menu
00:00:00.000 : :Chapter 1
00:07:53.375 : :Chapter 2
00:14:11.208 : :Chapter 3
00:21:29.833 : :Chapter 4
00:30:17.625 : :Chapter 5
00:41:13.292 : :Chapter 6
00:51:15.500 : :Chapter 7
00:57:20.292 : :Chapter 8
01:08:21.375 : :Chapter 9
01:16:52.333 : :Chapter 10
01:25:36.833 : :Chapter 11
01:33:57.583 : :Chapter 12

Скриншоты

admin

Post 04-Dec-2019 03:56

[Quote]

Информация о фильме
Название: Рэмбо: Последняя кровь
Оригинальное название: Rambo: Last Blood
Год выпуска: 2019
Жанр: Боевик, триллер, приключения
Режиссер: Адриан Грюнберг
В ролях: Сильвестр Сталлоне, Пас Вега, Ивет Монреаль, Луис Мэндилор, Оскар Хаенада, Шила Шах, Серхио Перис-Менчета, Джессика Мэдсен, Хоакин Косио, Адриана Барраса, Джени Ким, Паскасио Лопес, Александр Димитров
О фильме:
Он хранил секреты всю жизнь, но пришло время взглянуть в глаза прошлому. В последний раз собраться и стать безжалостной машиной для убийства. Рэмбо снова встанет на смертельно опасный путь — путь мести, который ему придется пройти до конца.

Страна: США, Испания, Болгария
Студия: Balboa Productions, Campbell Grobman Films, Dadi Film Group
Продолжительность: 01:40:32
Перевод: Дублированный | iTunes
Файл
Формат: AVI
Качество: HDRip
Исходник: |Rambo.Last.Blood.2019.1080p.Bluray.DTS-HD.MA.5.1.X264-EVO|
Видео: 720x304 (2.37:1), 24 fps, XviD build 73 ~1673 kbps avg, 0.32 bit/pixel
Звук: 48 kHz, AC3 Dolby Digital, 3/2 (L,C,R,l,r) + LFE ch, ~384 kbps
Субтитры: Английские форсированные (хардсаб)
***За дубляж спасибо Teamhd

Скриншоты

admin

Post 04-Dec-2019 03:55

[Quote]

Рэмбо: Последняя кровь / Rambo: Last Blood
«Настоящий герой бьётся до конца»-

Год выпуска: 2019
Страна: США, Испания, Болгария
Производство: Balboa Productions, Campbell Grobman Films, Dadi Film Group
Жанр: Боевик, триллер, приключения, вестерн
Режиссёр: Адриан Грюнберг
В ролях: Сильвестр Сталлоне, Пас Вега, Ивет Монреаль, Луис Мэндилор, Оскар Хаенада, Шила Шах, Серхио Перис-Менчета, Джессика Мэдсен, Хоакин Косио, Адриана Барраса, Джени Ким, Паскасио Лопес, Александр Димитров
Перевод: Дублированный | [iTunes]
Субтитры: Нет
Реклама: Отсутствует
Описание: Он хранил секреты всю жизнь, но пришло время взглянуть в глаза прошлому. В последний раз собраться и стать безжалостной машиной для убийства. Рэмбо снова встанет на смертельно опасный путь — путь мести, который ему придется пройти до конца.

Качество: HDRip-AVC | BDRip 1080p | Rambo.Last.Blood.2019.BDRip.1080p
Продолжительность: 01:41:06
Формат: MKV
Видео кодек: MPEG-4 AVC
Аудио кодек: AC3
Видео: 1024x428 (2.40:1), 24,000 fps, x264 ~1 793 kbps avg, 0.170 bit/pixel
Аудио: 48 kHz, AC3 Dolby Digital, 3/2 (L,C,R,l,r) + LFE ch, ~384.00 kbps avg | RUS (iTunes)
Дата премьеры (мир): 18 сентября 2019
Дата премьеры (РФ): 19 сентября 2019, «MEGOGO Distribution»
Цифровой релиз: 3 декабря 2019, «Megogo Distribution»

MediaInfo

Общее
Уникальный идентификатор : 296874981835384798179295385893000322834 (0xDF580AAE87B68FC16FCEF2B7119E1F12)
Полное имя : F:OlLanDGroupRambo.Last.Blood.2019.BDRip(AVC).OllanDGroup.mkv
Формат : Matroska
Версия формата : Version 4 / Version 2
Размер файла : 1,53 Гбайт
Продолжительность : 1 ч. 41 м.
Общий поток : 2172 Кбит/сек
Название фильма : Rambo.Last.Blood.2019 #TorpedoUK#
Дата кодирования : UTC 2019-12-03 11:48:38
Программа кодирования : mkvmerge v29.0.0 ('Like It Or Not') 64-bit
Библиотека кодирования : libebml v1.3.6 + libmatroska v1.4.9
Видео
Идентификатор : 1
Формат : AVC
Формат/Информация : Advanced Video Codec
Профиль формата : High@L4.1
Параметр CABAC формата : Да
Параметр ReFrames формата : 10 кадров
Идентификатор кодека : V_MPEG4/ISO/AVC
Продолжительность : 1 ч. 41 м.
Битрейт : 1793 Кбит/сек
Ширина : 1024 пикселя
Высота : 428 пикселей
Соотношение сторон : 2,40:1
Режим частоты кадров : Постоянный
Частота кадров : 24,000 кадра/сек
Цветовое пространство : YUV
Субдискретизация насыщенности : 4:2:0
Битовая глубина : 8 бит
Тип развёртки : Прогрессивная
Бит/(Пиксели*Кадры) : 0.170
Размер потока : 1,26 Гбайт (82%)
Библиотека кодирования : x264 core 146 r2538 121396c
Настройки программы : cabac=1 / ref=10 / deblock=1:-3:-3 / analyse=0x3:0x113 / me=umh / subme=11 / psy=1 / psy_rd=0.98:0.04 / mixed_ref=1 / me_range=48 / chroma_me=1 / trellis=2 / 8x8dct=1 / cqm=0 / deadzone=21,11 / fast_pskip=1 / chroma_qp_offset=-6 / threads=6 / lookahead_threads=1 / sliced_threads=0 / nr=0 / decimate=1 / interlaced=0 / bluray_compat=0 / constrained_intra=0 / bframes=11 / b_pyramid=2 / b_adapt=2 / b_bias=0 / direct=3 / weightb=1 / open_gop=0 / weightp=2 / keyint=240 / keyint_min=24 / scenecut=40 / intra_refresh=0 / rc_lookahead=40 / rc=2pass / mbtree=0 / bitrate=1793 / ratetol=1.0 / qcomp=0.60 / qpmin=0 / qpmax=69 / qpstep=4 / cplxblur=20.0 / qblur=0.5 / vbv_maxrate=50000 / vbv_bufsize=62500 / nal_hrd=none / filler=0 / ip_ratio=1.40 / pb_ratio=1.30 / aq=1:1.00
Язык : English
Default : Да
Forced : Нет
Аудио
Идентификатор : 2
Формат : AC-3
Формат/Информация : Audio Coding 3
Расширение режима : CM (complete main)
Параметр Endianness формата : Big
Идентификатор кодека : A_AC3
Продолжительность : 1 ч. 41 м.
Вид битрейта : Постоянный
Битрейт : 384 Кбит/сек
Каналы : 6 каналов
Расположение каналов : Front: L C R, Side: L R, LFE
Частота : 48,0 КГц
Частота кадров : 31,250 кадров/сек (1536 spf)
Битовая глубина : 16 бит
Метод сжатия : С потерями
Размер потока : 278 Мбайт (18%)
Заголовок : DUB [iTunes]
Язык : Russian
Default : Да
Forced : Нет
Меню
00:00:00.000 : :Chapter 1
00:07:53.375 : :Chapter 2
00:14:11.208 : :Chapter 3
00:21:29.833 : :Chapter 4
00:30:17.625 : :Chapter 5
00:41:13.292 : :Chapter 6
00:51:15.500 : :Chapter 7
00:57:20.292 : :Chapter 8
01:08:21.375 : :Chapter 9
01:16:52.333 : :Chapter 10
01:25:36.833 : :Chapter 11
01:33:57.583 : :Chapter 12

Скриншоты



admin

Post 04-Dec-2019 03:52

[Quote]

Вальтер / Охранник / Walter
Страна: Франция Бельгия
Производство: Scope Pictures, SofiTVciné 5, Vertigo
Год выпуска: 2019
Жанр: комедия
Продолжительность: 01:35:24
Режиссер: Варант Суджян
В ролях: Исака Савадого, Альбан Иванов, Жюдит Эль Зейн, Давид Салль, Александр Антонио, Сэмюэл Джиан, Карим Джебли, Нордин Салхи
Описание: Для Горана и его подельников план был почти идеален: остаться на ночь в супермаркете и ограбить ювелирный магазин. Но никто не ожидал появления необычного охранника - Вальтера, бывшего военного командира.., который готов отправить всю компанию прямиком в ад...

Перевод: Любительский (многоголосый, закадровый) | AlphaProject
Субтитры: нет-Качество: WEB-DLRip
Формат: AVI
Видео кодек: XviD
Аудио кодек: АС3
Видео: 720x304 (2.35:1), 24.000 fps, XviD build 73 ~1982 kbps avg, 0.377 bit/pixel
Аудио: 48.0 kHz, AC3 Dolby Digital, 2/0 (L,R) ch, ~192 kbps | RUS / AlphaProject
Дата премьеры (мир): 13 марта 2019

Релиз от: Dalemake

Media Info

General
Полное имя : Walter_2019_WEB-DLRip_MVO_by_Dalemake.avi
Формат : AVI
Формат/Информация : Audio Video Interleave
Размер файла : 1,46 Гбайт
Продолжительность : 1 ч. 35 м.
Общий поток : 2184 Кбит/сек
Программа кодирования : VirtualDubMod 1.5.10.3 | (build 2550/release)
Библиотека кодирования : VirtualDubMod build 2550/release
Видео
Идентификатор : 0
Формат : MPEG-4 Visual
Профиль формата : Advanced Simple@L5
Настройки формата : BVOP1 / Custom Matrix
Параметр BVOP формата : 1
Параметр QPel формата : Нет
Параметр GMC формата : Без точки перехода
Параметр матрицы формата : Выборочная
Идентификатор кодека : XVID
Идентификатор кодека/Подсказка : XviD
Продолжительность : 1 ч. 35 м.
Битрейт : 1982 Кбит/сек
Ширина : 720 пикселей
Высота : 304 пикселя
Соотношение сторон : 2,35:1
Частота кадров : 24,000 кадра/сек
Цветовое пространство : YUV
Субдискретизация насыщенности : 4:2:0
Битовая глубина : 8 бит
Тип развёртки : Прогрессивная
Метод сжатия : С потерями
Бит/(Пиксели*Кадры) : 0.377
Размер потока : 1,32 Гбайт (91%)
Библиотека кодирования : XviD 73
Аудио
Идентификатор : 1
Формат : AC-3
Формат/Информация : Audio Coding 3
Коммерческое название : Dolby Digital
Идентификатор кодека : 2000
Продолжительность : 1 ч. 35 м.
Вид битрейта : Постоянный
Битрейт : 192 Кбит/сек
Каналы : 2 канала
ChannelLayout : L R
Частота : 48,0 КГц
Частота кадров : 31,250 кадров/сек (1536 SPF)
Битовая глубина : 16 бит
Метод сжатия : С потерями
Размер потока : 131 Мбайт (9%)
Выравнивание : Разделение по промежуткам
Продолжительность промежутка : 42 мс. (1,00 видеокадр)
Время предзагрузки промежутка : 500 мс.

Скриншоты

 

Current time is: 16-Dec 08:26

All times are UTC + 3