Search found 40 matches

Author Message

admin

Post 26-Jul-2021 05:53

[Quote]

Информация о фильме
Название: Первый клон
Оригинальное название: Seobok
Год выхода: 2020
Жанр: Фантастика, драма, боевик
Режиссер: Ли Ён-джу
В ролях: Кон Ю, Пак По-гом, Чо У-джин, Чан Ён-нам, Пак Пён-ын, Щин Сон-иль, На Гван-хун, Чон Ми-нам, Ли Он-джон, Хан Джи-хён
О фильме:
Бывший агент разведки Ки-хун неохотно возвращается в строй, чтобы сопроводить в безопасное место первого в мире клонированного человека. Но по пути на их конвой совершается нападение, и теперь Ки-хуну предстоит закончить миссию в одиночку, а его подопечный будет с интересом изучать окружающий мир.


Страна: Корея Южная
Студия: CJ Entertainment, STUDIO101, TPS Company
Продолжительность: 01:54:34
Перевод: Дублированный | iTunes
Файл
Качество: BDRip
Исходник: Seobok.2021.1080p.BluRay.REMUX.AVC.DTS-HD.MA.5.1-TRiToN
Формат: AVI
Кодек: XviD
Видео: 720x304 (2.35:1), 23.976 fps, XviD ~ 1432 Kbps avg, 0.273 bit/pixel
Аудио: AC3, 48 kHz, 6 ch, ~384.00 kbps avg | русский | iTunes
Субтитры: Русские (форсированные, полные) отдельно

Скриншоты

admin

Post 21-Jul-2021 05:23

[Quote]

Информация о фильме
Название: Ага
Год выхода: 2021
Жанр: Боевик, триллер
Режиссер: Фархат Серкебаев
В ролях: Мурат Бисенбин, Азамат Ибраев, Болат Абдильманов, Фархад Абдраимов, Александр Устюгов, Марйам Сатаева, Руслан Каирбаев, Нурсултан Мухаметжанов, Руслан Акылбаев, Руслан Ныгманов
О фильме:
Бахытжан Абдулаев — бывший меч трех Жузов — после громких дел в прошлом, перенеся утрату близких людей, оставляет криминальный путь. Уединившись в горах, он проживает жизнь отшельником. Однако, весть о жестоком убийстве родного племянника нарушает его спокойствие и идиллию. Баха узнает, что виновником является Сакен — сын местного олигарха Сансызбая, опасного и влиятельного человека, на которого не распространяются законы. Баха принимает решение выйти на тропу войны против самых могущественных и влиятельных кланов трех Жузов. Он готов пойти на все, чтобы восстановить справедливость. Возможно, даже заплатить ценой своей жизни.


Страна: Казахстан
Студия: Toraigyr Film
Продолжительность: 01:25:05
Перевод: Не требуется
Файл
Качество: WEBRip
Формат: AVI
Кодек: XviD
Видео: 720x304 (2.35:1), 24 fps, XviD ~ 2104 Kbps avg, 0.401 bit/pixel
Аудио: AC3, 48 kHz, 2 ch, ~192.00 kbps avg | русский |
Субтитры: Отсутствуют

Скриншоты

admin

Post 14-Jul-2021 04:39

[Quote]

«1945 год. Хасима. Мы должны сбежать из этого ада»
Информация о фильме
Название: Кунхам: Пограничный остров
Оригинальное название: Gun-ham-do / Gunhamdo / The Battleship Island
Год выхода: 2017
Жанр: Военный, драма, боевик, история
Режиссер: Рю Сын-ван
В ролях: Хван Джон-мин, Со Джи-соп, Сон Джун-ги, Ли Джон-хён, Ким Су-ан, Ли Гён-ён, Ким Мин-джэ, Ким Ин-у, Юн Гён-хо, Щин Сын-хван
О фильме:
Японцы называли этот остров Хасима. Шесть гектаров земли и бетона в 15 километрах от побережья Нагасаки. Здесь с конца XIX века профессиональные шахтеры добывали уголь из подводных забоев. Когда наступила война, и все ушли на фронт, на смену шахтерам стали привозить военнопленных китайцев и корейских переселенцев.
Корейцы называли этот остров Кунхам. Или Остров-Броненосец. Для них он был тюрьмой, из которой невозможно сбежать. Руководитель оркестра Ли Ган-ок поддался на уговоры японского рекрутёра, который обещал бесплатную дорогу и работу в Японии. Так он с малолетней дочерью оказался на Кунхаме в компании соотечественников, среди которых можно было встретить и бандитов, и героев-подпольщиков. И каждый из них был готов принять участие в побеге.


Страна: Корея Южная
Студия: CJ Entertainment, FilmK, Filmmaker R&K
Продолжительность: 02:31:17
Перевод: Профессиональный (полное дублирование) | iTunes
Файл
Качество: BDRip
Исходник: The.Battleship.Island.2017.DC.1080p.FRA.Blu-ray.AVC.DTS-HD.MA.5.1-iZON3
Формат: AVI
Кодек: XviD
Видео: 720x304 (2.35:1), 23.976 fps, XviD ~ 1967 Kbps avg, 0.375 bit/pixel
Аудио: AC3, 48 kHz, 6 ch, ~384.00 kbps avg | русский | iTunes |
Аудио: AC3, 48 kHz, 6 ch, ~384.00 kbps avg | корейский |
Субтитры: Отсутствуют

admin

Post 12-Jul-2021 03:32

[Quote]

Информация
Название: Двойной мир
Оригинальное название: Zheng tu / Double World
Год выхода: 2020
Жанр: Боевик, фэнтези
Режиссер: Тедди Чань
В ролях: Генри Лау, Питер Хо, Линь Чэньхань, Цзян Луся, Ло Чун-Хим, Ху Мин, Марк Чэн, Линь Сююй, Тайгер Сюй, Чжан Нинцзян
Описание:
С давних пор два соседних государства Северный Янь и Южный Чжао вели непримиримую вражду, но последние 10 лет между странами царит мир. Шпиону с Севера удалось занять пост верховного советника на Юге и устроить подставное покушение на монарха - теперь у советника Гуаня есть повод готовиться к войне и объявить большое состязание для самых сильных воинов. Сирота Дун Илун, который не знал своих родителей, и младший брат великого полководца Чу Хун, желающий убить Гуаня за предательство брата, отправляются из родной деревни в столицу, чтобы участвовать в состязании.


Страна: Китай
Студия: China Film Group Corporation (CFGC), Filmko Film Co., Giant Pictures
Продолжительность: 01:50:08
Перевод: Авторский (одноголосый, закадровый) | Андрей Дольский
Файл
Качество: BDRip
Исходник: Double.World.2020.BluRay.1080p.AVC.DTS-HD.MA5.1-MTeam
Формат: AVI
Кодек: XviD
Видео: 720x304 (2.35:1), 23.976 fps, XviD ~ 1441 Kbps avg, 0.275 bit/pixel
Аудио: AC3, 48 kHz, 6 ch, ~448.00 kbps avg | русский | А. Дольский
Субтитры: Отсутствуют

Скриншоты

admin

Post 09-Jul-2021 05:08

[Quote]

Информация о фильме
Название: Ассасин: Битва миров
Оригинальное название: A Writer's Odyssey: Assassin in red / Ci sha xiao shuo jia
Год выхода: 2021
Жанр: Фэнтези, боевик
Режиссер: Лу Ян
В ролях: Лэй Цзяинь, Ян Ми, Дун Цзыцзянь, Юй Хэвэй, Го Цзинфэй, Ван Шэнди, Тун Лия, Дун Цзэ, Ян И, Лю Тяньцзо
О фильме:
Сюжет повествует об удивительном фэнтезийном мире, где магия и мифические чудовища поражают и взор, и разум. На своем пути воин столкнется с суровыми испытаниями, станет свидетелем невероятных баталий и будет противостоять загадочным ассасинам в алом. Каждый его шаг должен быть решителен, но осторожен, ведь его действия найдут отклик за пределами реальности и изменят судьбы людей параллельного мира навсегда.


Страна: Китай
Студия: Free Whale Pictures, Huace Pictures
Продолжительность: 02:09:52
Перевод: Профессиональный (полное дублирование) | iTunes
Файл
Качество: WEB-DLRip
Исходник: A.Writers.Odyssey.2021.1080p.WEB-DL.x264.DDP5.1-TJUPT
Формат: AVI
Кодек: XviD
Видео: 704x384 (1.85:1), 25 fps, XviD ~ 1216 Kbps avg, 0.180 bit/pixel
Аудио: AC3, 48 kHz, 6 ch, ~384.00 kbps avg | русский | iTunes
Субтитры: Русские (форсированные) отдельно, английские (хардсаб), китайские (хардсаб)

admin

Post 01-Jun-2021 15:34

[Quote]

Информация о фильме
Название: Лес самоубийц
Оригинальное название: Suicide Forest Village / Jukai Mura
Год выхода: 2021
Жанр: Ужасы
Режиссер: Такаси Симидзу
В ролях: Анна Ямада, Маю Ямагути, Фудзю Камио, Юки Кура, Харука Кудо, Ринка Отани, Муга Цукадзи, Асука Куросава, Кадзуя Такахаси, Юми Адати
О фильме:
Таинственный ящик, запечатанный страшным заклинанием, попадает в мирное селение, и проклятие начинает распространяться повсюду. Оказывается, мистическая посылка пришла сюда из деревни в лесу Дзюкай, прозванного лесом самоубийц. Чтобы избавиться от проклятия и найти источник зла, нужно войти в проклятый лес. Но из него никогда не выйти живым.


Страна: Япония
Студия: Asmik Ace, Booster Project, Dentsu, Sanyo Kogyo, TBS, Toei, Toei Video
Продолжительность: 01:52:18
Перевод: Профессиональный (полное дублирование) | iTunes
Файл
Качество: WEB-DLRip
Формат: AVI
Кодек: XviD
Видео: 704x384 (1.85:1), 25 fps, XviD ~ 1473 Kbps avg, 0.218 bit/pixel
Аудио: AC3, 48 kHz, 6 ch, ~384.00 kbps avg | русский | iTunes
Субтитры: Отсутствуют

Скриншоты

admin

Post 18-May-2021 04:32

[Quote]

Информация о фильме
Название: Мастер меча / Мечник
Оригинальное название: Geomgaek / The Swordsman
Год выхода: 2020
Жанр: История, боевик
Режиссер: Джэ Хун Чхве
В ролях: Чжан Хёк, Хён Су Ким, Ман Сик Чон, Джо Таслим, На Гён Ли, Мин Хёк Ли, Хён Сон Чан, Юн Тэ Ким, Чжин Хо Чхве, Сын Хён Чжи, Ван Ги Чо, Сын Хун Юн, Сан А Кон, Ангелина Данилова, Чан Хён-сон, Ким Юн-тхэ, Юн Сын-хун
О фильме: Чосон, 1623 год. После свержения монарха Кванхэ-гуна страна погружается в хаос. Через несколько лет солдаты империи Цин забирают крестьян на чужой территории в рабы, их предводитель ищет достойного соперника для поединка на мечах, а простая девушка пытается найти лекарство для слепнущего отца.

Выпущено: Корея Южная / ISU Venture Capital, KTH, Opus Pictures
Продолжительность: 01:40:39
Озвучивание: Дублированное | iTunes
Файл
Формат: AVI
Качество: HDRip
Видео: XviD, 1685 Kb/s, 704x384
Аудио: Russian: 48 kHz, AC3 Dolby Digital, 3/2 (L, C, R, l, r) + LFE ch, ~384 Kbps | DUB | iTunes
Субтитры: Russian (Forced) - хардсаб.
Дополнительно: Сохранены оригинальные чаптеры.

Скриншоты


admin

Post 13-May-2021 05:18

[Quote]

Название: Вопль
Оригинальное название: Gokseong
Страна: Южная Корея
Жанр: драма, детектив, фэнтези, ужасы, триллер
Год выпуска: 2016
Продолжительность: 02:36:08
Режиссер: Хон Чжин На
В ролях: До Вон Квак, Чжон Мин Хван, Дзюн Кунимура, У Хи Чхон, Хван Хи Ким, Со Ён Чан, Хо Чжин, Хан Чхоль Чо, Кан Кук Сон, До Юн Ким, Ки Чхон Ким, Чон Ын Ли, Гви Хва Чхве, Пэ Су Чон
О фильме: В отдалённой лесной деревне Коксон происходят ужасные вещи: люди вдруг покрываются язвами, странно себя ведут и даже нападают на своих родных. Уже произошло несколько убийств. Полиция в растерянности. Судя по слухам, виноваты то ли какие-то ядовитые грибы, то ли приезжий японец. Местный полицейский Чон-гу смотрит на происходящее довольно отстранённо, но ровно до тех пор, пока этот кошмар не касается его дочери...

Качество: BDRip-AVC
Формат: MKV
Видео: MPEG-4 AVC, 2567 Kбит/с, 1024x428, 24 кадр/с
Аудио 1: русский, AC3, 448 kbps, 6 ch, 48 kHz [закадровый многоголосый, Good People]
Аудио 2: русский, AC3, 448 kbps, 6 ch, 48 kHz [авторский, Юрий Сербин]
Аудио 3: корейский, AC3, 448 kbps, 6 ch, 48 kHz [оригинал]
Субтитры 1: русские (SRT)
Субтитры 2: английские (SRT)
Главы/чаптеры

MediaInfo

Общее
Уникальный идентификатор : 4049791934541936212093233443749555483 (0x30BF62880C6B5B25CFCDBE8BCB0ED1B)
Полное имя : D:VideoВопль.2016.BDRip-AVC msltel.mkv
Формат : Matroska
Версия формата : Version 4
Размер файла : 4,27 Гбайт
Продолжительность : 2 ч. 36 м.
Общий поток : 3 913 Кбит/сек
Дата кодирования : UTC 2021-05-12 08:35:37
Программа кодирования : mkvmerge v44.0.0 ('Domino') 64-bit
Библиотека кодирования : libebml v1.3.10 + libmatroska v1.5.2
Видео
Идентификатор : 1
Формат : AVC
Формат/Информация : Advanced Video Codec
Профиль формата : High@L4.1
Настройки формата : CABAC / 16 Ref Frames
Параметр CABAC формата : Да
Параметр RefFrames формата : 16 кадров
Идентификатор кодека : V_MPEG4/ISO/AVC
Продолжительность : 2 ч. 36 м.
Битрейт : 2 567 Кбит/сек
Ширина : 1 024 пикселя
Высота : 428 пикселей
Соотношение сторон : 2,40:1
Режим частоты кадров : Постоянный
Частота кадров : 24,000 кадра/сек
Цветовое пространство : YUV
Субдискретизация насыщенности : 4:2:0
Битовая глубина : 8 бит
Тип развёртки : Прогрессивная
Бит/(Пиксели*Кадры) : 0.244
Размер потока : 2,80 Гбайт (66%)
Библиотека кодирования : x264 core 161 r3018 db0d417
Настройки программы : cabac=1 / ref=16 / deblock=1:-1:-1 / analyse=0x3:0x113 / me=umh / subme=10 / psy=1 / psy_rd=1.00:0.00 / mixed_ref=1 / me_range=32 / chroma_me=1 / trellis=2 / 8x8dct=1 / cqm=0 / deadzone=21,11 / fast_pskip=0 / chroma_qp_offset=-2 / threads=12 / lookahead_threads=3 / sliced_threads=0 / nr=0 / decimate=0 / interlaced=0 / bluray_compat=0 / constrained_intra=0 / bframes=13 / b_pyramid=2 / b_adapt=2 / b_bias=0 / direct=1 / weightb=1 / open_gop=0 / weightp=2 / keyint=230 / keyint_min=23 / scenecut=40 / intra_refresh=0 / rc_lookahead=40 / rc=crf / mbtree=0 / crf=18.0 / qcomp=0.60 / qpmin=0 / qpmax=69 / qpstep=4 / vbv_maxrate=62500 / vbv_bufsize=78125 / crf_max=0.0 / nal_hrd=none / filler=0 / ip_ratio=1.40 / pb_ratio=1.30 / aq=3:1.00
Язык : Korean
Default : Да
Forced : Нет
Аудио #1
Идентификатор : 2
Формат : AC-3
Формат/Информация : Audio Coding 3
Коммерческое название : Dolby Digital
Идентификатор кодека : A_AC3
Продолжительность : 2 ч. 36 м.
Вид битрейта : Постоянный
Битрейт : 448 Кбит/сек
Каналы : 6 каналов
Channel layout : L R C LFE Ls Rs
Частота : 48,0 КГц
Частота кадров : 31,250 кадров/сек (1536 SPF)
Метод сжатия : С потерями
Размер потока : 500 Мбайт (11%)
Заголовок : MVO Good People
Язык : Russian
Service kind : Complete Main
Default : Да
Forced : Нет
Аудио #2
Идентификатор : 3
Формат : AC-3
Формат/Информация : Audio Coding 3
Коммерческое название : Dolby Digital
Идентификатор кодека : A_AC3
Продолжительность : 2 ч. 36 м.
Вид битрейта : Постоянный
Битрейт : 448 Кбит/сек
Каналы : 6 каналов
Channel layout : L R C LFE Ls Rs
Частота : 48,0 КГц
Частота кадров : 31,250 кадров/сек (1536 SPF)
Метод сжатия : С потерями
Размер потока : 500 Мбайт (11%)
Заголовок : Юрий Сербин
Язык : Russian
Service kind : Complete Main
Default : Нет
Forced : Нет
Аудио #3
Идентификатор : 4
Формат : AC-3
Формат/Информация : Audio Coding 3
Коммерческое название : Dolby Digital
Идентификатор кодека : A_AC3
Продолжительность : 2 ч. 36 м.
Вид битрейта : Постоянный
Битрейт : 448 Кбит/сек
Каналы : 6 каналов
Channel layout : L R C LFE Ls Rs
Частота : 48,0 КГц
Частота кадров : 31,250 кадров/сек (1536 SPF)
Метод сжатия : С потерями
Размер потока : 500 Мбайт (11%)
Заголовок : оригинал
Язык : Korean
Service kind : Complete Main
Default : Нет
Forced : Нет
Текст #1
Идентификатор : 5
Формат : UTF-8
Идентификатор кодека : S_TEXT/UTF8
Идентификатор кодека/Информация : UTF-8 Plain Text
Продолжительность : 2 ч. 29 м.
Битрейт : 37 бит/сек
Count of elements : 1195
Размер потока : 40,8 Кбайт (0%)
Заголовок : русские
Язык : Russian
Default : Нет
Forced : Нет
Текст #2
Идентификатор : 6
Формат : UTF-8
Идентификатор кодека : S_TEXT/UTF8
Идентификатор кодека/Информация : UTF-8 Plain Text
Продолжительность : 2 ч. 29 м.
Битрейт : 26 бит/сек
Count of elements : 1297
Размер потока : 28,6 Кбайт (0%)
Заголовок : английские
Язык : English
Default : Нет
Forced : Нет
Меню
00:00:00.000 : en:00:00:00.000
00:09:28.125 : en:00:09:28.125
00:18:42.165 : en:00:18:42.165
00:26:49.458 : en:00:26:49.458
00:33:19.250 : en:00:33:19.250
00:42:51.125 : en:00:42:51.125
00:48:58.500 : en:00:48:58.500
00:57:56.458 : en:00:57:56.458
01:03:32.958 : en:01:03:32.958
01:12:30.916 : en:01:12:30.916
01:22:24.125 : en:01:22:24.125
01:29:01.957 : en:01:29:01.957
01:38:09.541 : en:01:38:09.541
01:42:59.875 : en:01:42:59.875
01:52:19.666 : en:01:52:19.666
01:58:12.332 : en:01:58:12.332
02:06:58.125 : en:02:06:58.125
02:13:58.916 : en:02:13:58.916
02:21:53.540 : en:02:21:53.540
02:30:45.083 : en:02:30:45.083

Скриншоты

Сравнение с исходником

Исходник vs Рип


admin

Post 17-Mar-2021 04:20

[Quote]

Информация о фильме
Название: Женщина, которая убежала
Оригинальное название: Domangchin yeoja / The Woman Who Ran
Год выхода: 2020
Жанр: Драма, комедия
Режиссер: Хон Сан-су
В ролях: Ким Мин-хи, Со Ён-хва, Сон Сон-ми, Ким Сэ-бёк, Квон Хэ-хё, Щин Сок-хо, Ха Сон-гук, Дарси Паке
О фильме:
Пока муж в командировке Кам-хи едет в пригород Сеула навестить трёх подруг, выпить и поговорить о жизни. За непринужденным общением приятельницы пытаются скрыть свои проблемы, только у Кам-хи всё хорошо — за пять лет счастливого брака она впервые разлучилась с мужем. Но тогда от чего она убежала?


Страна: Корея Южная
Студия: Contents Panda, Jeonwonsa Film
Продолжительность: 01:16:59
Перевод: Профессиональный (многоголосый, закадровый) | iTunes
Файл
Качество: WEB-DLRip
Формат: AVI
Кодек: XviD
Видео: 720x384 (1.85:1), 23.976 fps, XviD ~ 2126 Kbps avg, 0.321 bit/pixel
Аудио: AC3, 48 kHz, 6 ch, ~384.00 kbps avg | русский | iTunes
Аудио: AC3, 48 kHz, 2 ch, ~192.00 kbps avg | корейский |
Субтитры: Русские (полные), английские (полные) отдельно

Скриншоты

Guest

Post 03-Jun-2020 21:17

[Quote]

Вроде обычный криминальный сюжет в результате оказывается не таким простым.
Не сказать, что фильм очень вдохновил, но сделано вполне на уровне.
Стоило посмотреть. Юнь-Фат Чоу как играет понравился.

admin

Post 23-Jun-2019 20:23

[Quote]

Название: Проект «Гутенберг»
Оригинальное название: Wu shuang (Project Gutenberg)
Год выпуска: 2018
Жанр: Боевик, криминал, детектив
Выпущено: Китай, Гонконг, Bona Film Group, Emperor Multimedia Group (EMG), Pop Movies
Режиссер: Феликс Чон
В ролях: Юнь-Фат Чоу, Аарон Квок, Цзинчу Чжан, Кэтрин Чау, Дэвид Ван, Лиу Кай-Чи, Джастин Чунг, Джойс Фэн, Алекс Фун
О фильме: Сидящего в тюрьме мошенника Ли Маня вызывают на допрос в полицию. Его бывшая подруга Юэнь, а ныне — всемирно признанная художница, хочет внести за него залог, и теперь полиция пытается выяснить всё, что тот знает о своём бывшем подельнике по кличке Художник. Некоторое время назад Ли Мань жил в Канаде и безуспешно пытался стать настоящим художником, но арт-агенты хотели выставлять только работы Юэнь. Парень уже почти отчаялся, когда на него вышел Художник и предложил вместе с командой профессионалов создать супердоллары — неотличимые от настоящих подделки.

Продолжительность: 02:10:41
Перевод: Любительский двухголосый | HiWayGrope
Рекламы нет
Качество: HDRip
Видео: XviD, 1211 Кбит/с, 720x304
Аудио: Русский (AC3, 2 ch, 192 Кбит/с)
Аудио: Китайский (AC3, 2 ch, 192 Кбит/с)

Скриншоты


admin

Post 05-Dec-2019 04:27

[Quote]

Информация о фильме
Название: Царство
Оригинальное название: Kingdom
Год выхода: 2019
Жанр: Драма, боевик, военный, история
Режиссер: Синсуке Сато
В ролях: Рё Ёсидзава, Кэнто Ямадзаки, Масами Нагасава, Канна Хасимото, Масая Като, Каната Хонго, Синносукэ Мицусима, Масахиро Такасима, Джан Канаме, Такао Осава, Синносукэ Абэ, Мотоки Фуками, Дзюн Хасимото, Ватару Итиносэ, Рэндзи Исибаси
О фильме:
III век до н. э., период Сражающихся царств, когда на территории современного Китая было множество постоянно воевавших друг с другом небольших государств. Где-то на задворках одного из таких царств живут двое сирот и ежедневно тренируются, чтобы исполнить свою мечту стать великими генералами. Но один из друзей оказывается поразительно похож на правителя, и парня забирают во дворец в качестве его двойника.

Страна: Япония
Студия: East Japan Marketing & Communications Inc, KDDI Corporation
Продолжительность: 02:13:56
Перевод: Дублированный | Tunes
Файл
Формат: AVI
Качество: BDRip
Источник: |Kingdom 2019 Blu-ray REMUX 1080p AVC DTS-HD MA 5.1-HDVN|
Видео: 720x304 (2.37:1), 23.976 fps, XviD build 73 ~1359 kbps avg, 0.26 bit/pixel
Звук: 48 kHz, AC3 Dolby Digital, 2/0 (L,R) ch, ~192 kbps
Субтитры: Нет

Скриншоты

admin

Post 15-Sep-2019 05:30

[Quote]

Информация о фильме
Название: Частная военная компания
Оригинальное название: Take Point (PMC)
Год выпуска: 2018
Жанр: Боевик, триллер
Режиссер: Бён У Ким
В ролях: Чон У Ха, Сон Гён Ли, Кевин Дюран, Дженнифер Или, Мэлик Йоба, Спенсер Дэниелс, Роберт Кертис-Браун, Джефф Босли, Хорхе Пальо, Дин Доусон, Хён Бин Син, Сон Хёк Ким, Сон Чхан Сон
О фильме:
2024 год. В день президентских выборов в США, пытаясь повысить шансы на победу нужного кандидата, американское ЦРУ инициирует тайную операцию. Международная команда элитных наёмников должна проникнуть в бункер под демилитаризованной зоной и похитить министра обороны КНДР, чтобы тот выдал места расположения ядерного арсенала Севера. Но на месте отряд обнаруживает верховного лидера, захватывает его и тут же попадает под огонь неизвестных. Теперь, чтобы не развязать масштабный международный военный конфликт, наёмникам нужно любой ценой сохранить жизнь северокорейскому лидеру и самим выбраться из бункера живыми.

Страна: Корея Южная
Студия: CJ Entertainment, Frontier Works Comic, Perfect Storm Film
Продолжительность: 02:05:04
Перевод: Профессиональный (многоголосый, закадровый) | HDRezka Studio
Файл
Формат: AVI
Качество: BDRip
Источник: |Take.Point.2018.BDREMUX 1080p|
Видео: 704x384 (1.83:1), 23.976 fps, XviD build 73 ~1472 kbps avg, 0.23 bit/pixel
Звук: 48 kHz, AC3 Dolby Digital, 2/0 (L,R) ch, ~192 kbps
Субтитры: Русские форс. (отдельно)

Скриншоты

admin

Post 13-Jul-2019 06:21

[Quote]

Информация о фильме
Название: Фурия
Оригинальное название: Hai Phuong
Год выпуска: 2019
Жанр: Боевик, криминал
Режиссер: Ле-Ван Киэт
В ролях: Вероника Нго, Дженнифер Аликс, Фам Анх Хоа, Тхань Ньен Фан, Брианна Робертс, Элизабет Суит, Ким Лонг Тач, Хоа Чан
О фильме:
10 лет назад бывшая глава преступной группировки залегла на дно в сельской местности, родила девочку и наслаждается простым женским счастьем. Поскольку делать женщина ничего полезного не умеет, то занимается сбором долгов. Дочка Май из-за этого переживает и мечтает, что когда-нибудь они откроют рыбную ферму, и маме больше не нужно будет выполнять эту постыдную работу. Внезапно Май похищает международная организация торговцев людьми, и женщина превращается в смертоносную фурию — она пойдёт до конца, чтобы спасти дочь, а негодяям придется пожалеть о своем поступке...

Страна: Вьетнам
Студия: Studio 68, Netflix
Продолжительность: 01:37:19
Перевод: Профессиональный (многоголосый, закадровый) | СВ Студия
Внимание! Присутствует ненормативная лексика.
Файл
Формат: AVI
Качество: BDRip
Источник: |Furie 2019 1080p USA Blu-ray AVC DTS-HD MA 7.1-VinO|
Видео: 720x304 (2.37:1), 24 fps, XviD build 73 ~1690 kbps avg, 0.32 bit/pixel
Звук: 48 kHz, AC3 Dolby Digital, 3/2 (L,C,R,l,r) + LFE ch, ~448 kbps
Субтитры: Нет

Скриншоты

admin

Post 21-Jun-2019 20:35

[Quote]

Информация о фильме
Название: Бизнесмены
Год выпуска: 2018
Жанр: Драма, криминал
Режиссер: Акан Сатаев
В ролях: Аскар Ильясов, Айсулу Азимбаева, Шарип Серик, Расим Жубаев, Константин Крюков, Еркен Губашев, Санжар Мади, Дина Тасбулатова
Описание: 90-е годы прошлого века. Трое друзей, пытаясь наладить свою жизнь, сталкиваются с таким понятием, как бизнес. Однако бизнес - это всегда риск, и молодым предпринимателям придется пожертвовать многим ради успеха. Герои фильма становятся одними из первых, кто стоял у истоков рыночных отношений в Казахстане.

Страна: Казахстан
Студия: Astana Film Fund, Sataifilm
Продолжительность: 01:34:16
Перевод: Не требуется
Файл
Качество: WEB-DLRip
Формат: AVI
Видео: 720x320 (2.25:1), 24.000 fps, XviD build 73 ~1817 kbps avg, 0.33 bit/pixel
Аудио: 48 kHz, AC3 Dolby Digital, 3/2 (L,C,R,l,r) + LFE ch, ~384 kbps - iTunes
Субтитры: Нет

Скриншоты

MediaInfo

Формат : AVI
Формат/Информация : Audio Video Interleave
Размер файла : 1,46 Гбайт
Продолжительность : 1 ч. 34 м.
Общий поток : 2211 Кбит/сек
Название фильма : Бизнесмены_2018_WEB-DLRip
Программа кодирования : VirtualDubMod 1.5.10.3
Авторское право : порошков
Видео
Идентификатор : 0
Формат : MPEG-4 Visual
Профиль формата : Advanced Simple@L5
Настройки формата : BVOP1 / Custom Matrix
Параметр BVOP формата : 1
Параметр QPel формата : Нет
Параметр GMC формата : Без точки перехода
Параметр матрицы формата : Выборочная
Идентификатор кодека : XVID
Идентификатор кодека/Подсказка : XviD
Продолжительность : 1 ч. 34 м.
Битрейт : 1817 Кбит/сек
Ширина : 720 пикселей
Высота : 320 пикселей
Соотношение сторон : 2,25:1
Частота кадров : 24,000 кадра/сек
Цветовое пространство : YUV
Субдискретизация насыщенности : 4:2:0
Битовая глубина : 8 бит
Тип развёртки : Прогрессивная
Метод сжатия : С потерями
Бит/(Пиксели*Кадры) : 0.329
Размер потока : 1,20 Гбайт (82%)
Библиотека кодирования : XviD 73
Аудио
Идентификатор : 1
Формат : AC-3
Формат/Информация : Audio Coding 3
Коммерческое название : Dolby Digital
Идентификатор кодека : 2000
Продолжительность : 1 ч. 34 м.
Вид битрейта : Постоянный
Битрейт : 384 Кбит/сек
Каналы : 6 каналов
ChannelLayout : L R C LFE Ls Rs
Частота : 48,0 КГц
Частота кадров : 31,250 кадров/сек (1536 SPF)
Битовая глубина : 16 бит
Метод сжатия : С потерями
Размер потока : 259 Мбайт (17%)
Выравнивание : Разделение по промежуткам
Продолжительность промежутка : 42 мс. (1,00 видеокадр)
Время предзагрузки промежутка : 500 мс.
 

Current time is: 01-Aug 16:21

All times are UTC + 3