Search found 57 matches

Author Message

admin

Post 10-Apr-2022 05:54

[Quote]

Название: Грусть
Оригинальное название: Ku bei / The Sadness
Жанр: ужасы, боевик
Режиссер: Роб Джаббаз
Актеры: Берант Чжу, Реджина, Ван Цучян, Ying-Ru Chen, Ralf Chiu, Лань Вэйхуа, Эмерсон Цай
Описание:
Уже год на Земле бушует эпидемия загадочного вируса, к которой большинство населения планеты относится несерьезно. Молодая пара, как и многие, продолжает жить обычной жизнью, и однажды по пути на работу они сталкиваются с агрессивными плотоядными согражданами. Вирус мутировал неожиданным образом.

Производство: Тайвань, Machi Xcelsior Studios
Продолжительность: 01:39:58
Перевод: Авторский (BadBajo)
Субтитры: Английские (отключаемые)
Файл
Формат: Matroska
Качество: WEB-DLRip 720p
Видео: 1280x640 at 24.976 fps, x264@L4.1, ~2840 kbps
Аудио: AC3, 6 ch, ~640 kbps - | Русский |
Формат субтитров: softsub (SRT)

M/I

x264 [info]: frame I:949 Avg QP:16.53 size: 76387
x264 [info]: frame P:32941 Avg QP:18.10 size: 28231
x264 [info]: frame B:110069 Avg QP:19.32 size: 10240
General
Unique ID : 133069465861510412833091816736034208838 (0x641C3F34BFA463490D133D9AFBA53C46)
Complete name : L:The.Sadness.2021.Uncut.WEB-DLRip.x264.720p.mkv
Format : Matroska
Format version : Version 4
File size : 2.43 GiB
Duration : 1 h 39 min
Overall bit rate : 3 482 kb/s
Encoded date : UTC 2022-04-09 11:27:34
Writing application : mkvmerge v63.0.0 ('Everything') 64-bit
Writing library : libebml v1.4.2 + libmatroska v1.6.4
Cover : Yes
Attachments : cover.jpg / cover 2.jpg
Video
ID : 1
Format : AVC
Format/Info : Advanced Video Codec
Format profile : High@L4.1
Format settings : CABAC / 9 Ref Frames
Format settings, CABAC : Yes
Format settings, Reference : 9 frames
Codec ID : V_MPEG4/ISO/AVC
Duration : 1 h 39 min
Bit rate : 2 840 kb/s
Width : 1 280 pixels
Height : 640 pixels
Display aspect ratio : 2.000
Frame rate mode : Constant
Frame rate : 24.000 FPS
Color space : YUV
Chroma subsampling : 4:2:0
Bit depth : 8 bits
Scan type : Progressive
Bits/(Pixel*Frame) : 0.144
Stream size : 1.98 GiB (82%)
Title : -=DoMiNo=-
Writing library : x264 core 164 r3065+55M 280faca t_mod_New [(8 & 10)-bit@all X86_64]
Encoding settings : cabac=1 / ref=9 / deblock=1:-3:-2 / analyse=0x3:0x133 / me=umh / subme=9 / psy=1 / fade_compensate=0.00 / psy_rd=1.05:0.15 / mixed_ref=1 / me_range=32 / chroma_me=1 / trellis=2 / 8x8dct=1 / cqm=0 / deadzone=21,11 / fast_pskip=0 / chroma_qp_offset=-3 / threads=20 / lookahead_threads=5 / sliced_threads=0 / nr=0 / decimate=1 / interlaced=0 / bluray_compat=0 / constrained_intra=0 / fgo=0 / bframes=10 / b_pyramid=2 / b_adapt=2 / b_bias=0 / direct=1 / weightb=1 / open_gop=0 / weightp=2 / keyint=250 / keyint_min=24 / scenecut=40 / intra_refresh=0 / rc_lookahead=60 / rc=crf / mbtree=0 / crf=20.0000 / qcomp=0.60 / qpmin=0:0:0 / qpmax=69:69:69 / qpstep=4 / vbv_maxrate=50000 / vbv_bufsize=62500 / crf_max=0.0 / nal_hrd=none / filler=0 / ip_ratio=1.30 / pb_ratio=1.20 / aq=3:0.80 / aq-sensitivity=10.00 / aq-factor=1.00:1.00:1.00 / aq2=0 / aq3=0
Language : English
Default : Yes
Forced : No
Color range : Limited
Color primaries : BT.709
Transfer characteristics : BT.709
Audio
ID : 2
Format : AC-3
Format/Info : Audio Coding 3
Commercial name : Dolby Digital
Codec ID : A_AC3
Duration : 1 h 39 min
Bit rate mode : Constant
Bit rate : 640 kb/s
Channel(s) : 6 channels
Channel layout : L R C LFE Ls Rs
Sampling rate : 48.0 kHz
Frame rate : 31.250 FPS (1536 SPF)
Compression mode : Lossy
Stream size : 458 MiB (18%)
Title : AVO_BadBajo
Language : Russian
Service kind : Complete Main
Default : Yes
Forced : Yes
Text
ID : 3
Format : UTF-8
Codec ID : S_TEXT/UTF8
Codec ID/Info : UTF-8 Plain Text
Duration : 1 h 32 min
Bit rate : 29 b/s
Count of elements : 717
Stream size : 20.3 KiB (0%)
Language : English
Default : No
Forced : No
Menu
00:00:00.000 : :Глава 01
00:07:30.000 : :Глава 02
00:15:00.000 : :Глава 03
00:22:30.000 : :Глава 04
00:30:00.000 : :Глава 05
00:37:30.000 : :Глава 06
00:45:00.000 : :Глава 07
00:52:30.000 : :Глава 08
01:00:00.000 : :Глава 09
01:07:30.000 : :Глава 10
01:15:00.000 : :Глава 11
01:22:30.000 : :Глава 12
01:30:00.000 : :Глава 13
01:37:30.000 : :Глава 14

Скриншоты

admin

Post 09-Apr-2022 07:18

[Quote]

Информация о фильме
Название: Дерзкое ограбление
Оригинальное название: Paipeurain
Год выхода: 2021
Жанр: криминал
Режиссер: Ю Ха
В ролях: Со Ин-гук, Ли Су-хёк, Ым Мун-сок, Ю Сын-мок, Тхэ Хан-хо, Пэ Ю-рам, Пэ Да-бин, Ким Ён-гё, Чон Джэ-гван, Чи Дэ-хан
О фильме:
Наследник богатого семейства собирает команду из пяти суперпрофессионалов, чтобы реализовать план дерзкого ограбления. Им предстоит украсть нефть, спрятанную в туннеле на глубине десятков метров под землей.

Выпущено: Южная Корея / CJ Entertainment, Gom Pictures, LiTTLE BiG PiCTURES, m.o.vera Pictures, Megabox Plus M
Продолжительность: 01:47:37
Озвучивание: Дублированное [iTunes]
Файл
Формат: AVI
Качество: WEB-DLRip
Видео: XviD, 1552 Kb/s, 720x304
Аудио: Russian: AC3, 384 Kb/s (6 ch)
Субтитры: Нет.

Скриншоты

admin

Post 29-Mar-2022 04:46

[Quote]

Информация о фильме
Название: Портье: Мальчик на побегушках
Год выхода: 2021
Жанр: Комедия, криминал
Режиссер: Олжас Ибраев
В ролях: Жан Байжанбаев, Даурен Сергазин, Олжас Ибраев, Айжан Байзакова, Куат Хамитов, Серик Унербек, Зарина Хаджиметова
О фильме: Чтобы написать историю об отеле, молодой сценарист устраивается на работу в должности портье. Он знакомится с необычными постояльцами и сталкивается с приключениями, которые приведут его к непредсказуемому финалу.

Выпущено: Казахстан / Eighty Eight Entertainment
Продолжительность: 01:35:46
Перевод: не требуется (русский)
Файл
Качество: WEBRip 720p
Формат: MKV
Видео: MPEG-4 AVC/H.264, 3320 Кбит/сек, 1280x536
Аудио: Русский: AC3, 2 ch, 192 Кбит/сек
Субтитры: казахские [вшитые неотключаемые]

MediaInfo:

Общее
Уникальный идентификатор : 276214129991030348664753648758768262989 (0xCFCCE809E9B618AD51E984C79AABDF4D)
Полное имя : F:1.ФИЛЬМЫ2. ФИЛЬМЫ СНГМальчик на побегушках 2021Portye Malchik na pobegushkakh (2021) WEBRip 720p.mkv
Формат : Matroska
Версия формата : Version 4
Размер файла : 2,35 Гбайт
Продолжительность : 1 ч. 35 м.
Общий поток : 3 506 Кбит/сек
Программа кодирования : Lavf
Библиотека кодирования : Lavf
Авторское право : *=Z=*
ErrorDetectionType : Per level 1
Attachments : poster.png
Язык : und
Видео
Идентификатор : 1
Формат : AVC
Формат/Информация : Advanced Video Codec
Профиль формата : High@L4.1
Настройки формата : CABAC / 12 Ref Frames
Параметр CABAC формата : Да
Параметр RefFrames формата : 12 кадров
Идентификатор кодека : V_MPEG4/ISO/AVC
Продолжительность : 1 ч. 35 м.
Битрейт : 3 320 Кбит/сек
Ширина : 1 280 пикселей
Высота : 536 пикселей
Соотношение сторон : 2,40:1
Режим частоты кадров : Постоянный
Частота кадров : 25,000 кадров/сек
Цветовое пространство : YUV
Субдискретизация насыщенности : 4:2:0
Битовая глубина : 8 бит
Тип развёртки : Прогрессивная
Бит/(Пиксели*Кадры) : 0.194
Размер потока : 2,17 Гбайт (93%)
Заголовок : Kazakhstan (Eighty Eight Entertainment)
Библиотека кодирования : x264 core 159 r2991 1771b55
Настройки программы : cabac=1 / ref=12 / deblock=1:-3:-3 / analyse=0x3:0x133 / me=umh / subme=11 / psy=1 / psy_rd=1.00:0.00 / mixed_ref=1 / me_range=32 / chroma_me=1 / trellis=2 / 8x8dct=1 / cqm=0 / deadzone=21,18 / fast_pskip=0 / chroma_qp_offset=-2 / threads=5 / lookahead_threads=1 / sliced_threads=0 / nr=60 / decimate=0 / interlaced=0 / bluray_compat=0 / constrained_intra=0 / bframes=16 / b_pyramid=2 / b_adapt=2 / b_bias=10 / direct=3 / weightb=1 / open_gop=0 / weightp=2 / keyint=250 / keyint_min=25 / scenecut=40 / intra_refresh=0 / rc_lookahead=60 / rc=2pass / mbtree=0 / bitrate=3320 / ratetol=1.0 / qcomp=0.70 / qpmin=3 / qpmax=69 / qpstep=4 / cplxblur=20.0 / qblur=0.5 / vbv_maxrate=5000 / vbv_bufsize=4000 / nal_hrd=none / filler=0 / ip_ratio=1.40 / pb_ratio=1.30 / aq=1:0.60
Default : Да
Forced : Нет
Цветовой диапазон : Limited
Основные цвета : BT.709
Характеристики трансфера : BT.709
Коэффициенты матрицы : BT.709
Аудио
Идентификатор : 2
Формат : AC-3
Формат/Информация : Audio Coding 3
Коммерческое название : Dolby Digital
Идентификатор кодека : A_AC3
Продолжительность : 1 ч. 35 м.
Вид битрейта : Постоянный
Битрейт : 192 Кбит/сек
Каналы : 1 канал
Channel layout : C
Частота : 48,0 КГц
Частота кадров : 31,250 кадров/сек (1536 SPF)
Битовая глубина : 32 бит
Метод сжатия : С потерями
Размер потока : 132 Мбайт (5%)
Заголовок : Original (Russian)
Service kind : Complete Main
Default : Да
Forced : Нет
[]СЭМПЛ

admin

Post 28-Mar-2022 05:44

[Quote]

Якудза и семья / Yakuza to Kazoku / Yakuza and the Family
Год выпуска: 2021
Выпущено: Япония / Kadokawa Pictures
Жанр: драма, криминал
Режиссер: Митихито Фудзии / Michihito Fujii
В ролях: Го Аяно, Хироси Тати, Наоюки Фернандес, Хаято Итихара, Хаято Исомура, Рё Ивамацу, Суон Кан, Юкия Китамура, Рютаро Ниномия, Матико Оно, Сюн Сугата, Таро Суруга, Синобу Тэрадзима, Косукэ Тоёхара-О фильме: 1999 год. После смерти отца от передозировки наркотиками Кэндзи Ямамото, всей душой ненавидящий организованную преступность, случайно спасает от покушения босса местной группировки Сибасаки и привлекает к себе его внимание. Хотя парень был уверен, что никогда не станет бандитом, жизнь распоряжается иначе — теперь Кэндзи делает карьеру в рядах якудза, во главу угла ставя честь и преданность новой семье.

Продолжительность: 02:15:48
Перевод: Любительский, двухголосый закадровый (Pazl Voice)
Субтитры: Русские, форсированные (вшитые), полные (отдельно)
Формат: AVI
Качество: WEB-DLRip | Netflix
Видео: 704x400 (16:9), 23.976 fps, XviD build 67 ~ 1837 kbps
Аудио: 48 kHz, AC3 Dolby Digital, 3/2 (L,C,R,l,r) + LFE ch, ~ 448 kbps | RUS |

Скриншоты

-

admin

Post 17-Feb-2022 05:42

[Quote]

Спецдоставка / Teuksong
Год выпуска: 2022
Выпущено: Южная Корея, Matchmaker Entertainment M Pictures Co., Ltd
Жанр: Боевик, криминал
Режиссер: Пак Дэ Мин / Park Dae Min
В ролях: Со Дам Пак, Сэ Бёк Сон, Ый Сон Ким, Хён Джун Чон, Хе Ран Ём, Хён Мин Хан, Дон Вон Хо, У Чжин Юн, Рён О, До Гём Пэк, Су О Син, Сын Хо Ю, Сок Хо Чон, Док Мун Чхве
О фильме: Девушке-курьеру Ын Ха любое задание по плечу. Не особо заморачиваясь с моральными и юридическими аспектами своей работы, она честно доставляет что угодно куда угодно, когда вдруг решает помочь маленькому мальчику. Теперь за девушкой и её необычным «грузом» охотятся и полиция, и спецслужбы.

Продолжительность: 01:48:33
Перевод: Любительский, двухголосый закадровый (АрхиAsia)
Субтитры: Русские (форсированные, вшитые), полные (отдельно), [ASS, АрхиAsia]
Формат: AVI
Качество: WEB-DLRip
Видео: 720x304 (2,35:1), 23.976 fps, XviD build 67 ~ 1474 kbps
Аудио: 48 kHz, AC3 Dolby Digital, 3/2 (L,C,R,l,r) + LFE ch, ~ 448 kbps | RUS |

Скриншоты

-

admin

Post 07-Feb-2022 06:33

[Quote]

Название: Сигнал. Фильм
Оригинальное название: Gekijôban: Signal (Signal: The Movie)
Год выпуска: 2021
Производство: Япония / Just Creative Studio, A Really Happy Film
Жанр: Детектив, фантастика, криминал
Режиссер: Хадзимэ Хасимото
Продюсер: Такаси Хагивара, Ёко Тоёфуку, Итирю Обара
Актеры: Кэнтаро Сакагути, Кадзуки Китамура, Митико Китисэ, Юити Кимура, Тэцухиро Икэда, Каэдэ Аоно, Цуёси Ихара, Тэцуси Танака, Тэтта Сугимото, Такэси Кага
Описание:
2021 год. По вине водителя лимузина-такси происходит ДТП, в котором погибает высокопоставленный чиновник. Детектив Саэгуса и его команда сомневается в причине аварии и виновнике, ведь в деле много несостыковок, поэтому решают провести собственное расследование. Между тем, в 2009 году много административных служащих погибали в ДТП, однако полиция объявляла их все несчастными случаями. Детектив Ояма Такэси считает иначе, поэтому решает сам узнать всю правду. А в 23:23 вновь оживает рация и "связывает" прошлое и будущее. И вскоре Саэгуса и Ояма выясняют, что они столкнулись с угрозой биотерроризма. Фильм, продолжение сериала "Сигнал" 2018 года.
Скачать семпл
Продолжительность: 02:01:49
Качество видео: BDRip | Signal: Long-Term Unsolved Case Investigation – The Movie 2021 1080p HKG BluRay Raw AVC TrueHD 5.1-MTeam
Перевод: любительский (двуголосый, закадровый) АрхиAsia
Субтитры: Русские, английские
Видео: XviD, 1328 Кбит/с, 720x384
Аудио : Русский, японский (АС3, 6 ch, 384 Кбит/с)

Скриншоты

Дополнительная информация:

Переведено и озвучено: АрхиAsia
Перевод: Romaryllo
Русские субтитры: АрхиAsia
Редакция, тайминг: Macho
Озвучивали: Verner, Veda

admin

Post 06-Feb-2022 05:55

[Quote]

Информация о фильме
Название: Дверь в лето
Оригинальное название: Natsu e no Tobira: Kimi no Iru Mirai e / The Door Into Summer
Жанр: Фантастика, драма
Год выпуска: 2021
Режиссер: Такахиро Мики
Актеры: Кэнто Ямадзаки, Кая Киёхара, Наохито Фудзики, Бекон, Кэнта Хамано, Таидзо Харада, Хидэкадзу Масима, Нацуна Ватанабэ, Томорово Тагути, Рин Таканаси
Описание:
1995 год. Молодой учёный Соитиро Такакура занимается созданием робота и разработкой плазменного аккумулятора. Вне работы у парня есть кот Пито и невеста Рико. Но однажды его предают партнер по бизнесу и невеста. В отчаянии Соитиро решает заморозить себя в криокамере, надеясь, что когда он проснется, мир будет лучше. Придя в себя ото сна, он понимает, что оказался в 2025 году. По одноименному роману Роберта Хайнлайна.

Производство: Япония, Toho
Продолжительность: 01:58:56
Перевод: Любительский (двухголосый закадровый) | АрхиAsia
Субтитры: Русские, английские - отдельными файлами
Оригинальная аудиодорожка: японский
Файл
Качество видео: BDRip (исходник: BDRemux 1080p)
Формат видео: AVI
Видео: 720x384 (1.85:1), 23.976 fps, XviD MPEG-4 ~1714 kbps avg, 0.259 bit/pixel
Аудио 1: 48 kHz, AC3 Dolby Digital, 3/2 (L,C,R,l,r) + LFE ch, ~448 kbps | Двухголосый закадровый (АрхиAsia)
Аудио 2: 48 kHz, AC3 Dolby Digital, 3/2 (L,C,R,l,r) + LFE ch, ~448 kbps | Японский
Формат субтитров: softsub (ASS/SRT)
Релиз от: vitolinform

Дополнительная информация:

Озвучено: РГ АрхиAsia
Перевод и русские субтитры: ФСГ SubQueens // Palanika Chan
Редакция, тайминг: Macho
Роли озвучивали: Verner и Filiciya

Скриншоты

admin

Post 24-Jan-2022 18:11

[Quote]

Информация о фильме
Название: Ржавый клинок
Оригинальное название: Rusty Blade
Год выхода: 2022
Жанр: Боевик, драма
Режиссер: Сунь Хуи, Сун Сяобай
В ролях: Рэмбо Су, Сяо Цун, Лю Чусюань, Ван Чэн, Ян Лисяо, Ван Чжао, Мухтар, Лян Тинвэй и др.
О фильме: Линь Давэй, «помощник» уездного правительства, нуждается в деньгах, чтобы прокормить семью. Его коллега Лу Цянь склоняет Линя украсть у Цзинь Маньтана золото. Десять лет спустя родился старший сын императора, император помиловал преступников, и Линь Давэй вернулся домой. Однако в его родном городе дела пошли не так. Цзинь Маньтан объединил силы с контрабандистами, чтобы убить тысячи людей. Мечники, которых Лу Цянь послал убить Цзинь Маньтана, были уничтожены, и Тайпин оказался в опасности.
Выпущено: Китай
Продолжительность: 01:27:15
Перевод: Любительский (двухголосый закадровый) [АрхиAsia - Verner и Veda]
Файл
Качество: WEB-DLRip-AVC
Формат: MKV
Видео: MPEG-4 AVC, 2520 Кбит/сек, 1024x386
Аудио #1: Русский: AC3, 2 ch, 192 Кбит/сек
Аудио #2: Китайский: AC3, 2 ch, 192 Кбит/сек
Субтитры: русские, украинские [вшитые отключаемые], китайские, английские [вшитые неотключаемые]

MediaInfo:

Общее
Уникальный идентификатор : 294304404563679514732020364467975235480 (0xDD68F76FEA067E9965C978810DE42798)
Полное имя : F:1.ФИЛЬМЫ1. ФИЛЬМЫРжавый клинок Rusty Blade (2022)Rzhavyy klinok Rusty Blade (2022) WEB-DLRip-AVC.mkv
Формат : Matroska
Версия формата : Version 4
Размер файла : 1,77 Гбайт
Продолжительность : 1 ч. 27 м.
Общий поток : 2 900 Кбит/сек
Дата кодирования : UTC 2022-01-24 01:29:09
Программа кодирования : mkvmerge v64.0.0 ('Willows') 64-bit
Библиотека кодирования : libebml v1.4.2 + libmatroska v1.6.4
Attachments : poster.png
Видео
Идентификатор : 1
Формат : AVC
Формат/Информация : Advanced Video Codec
Профиль формата : High@L4.1
Настройки формата : CABAC / 16 Ref Frames
Параметр CABAC формата : Да
Параметр RefFrames формата : 16 кадров
Идентификатор кодека : V_MPEG4/ISO/AVC
Продолжительность : 1 ч. 27 м.
Битрейт : 2 520 Кбит/сек
Ширина : 1 024 пикселя
Высота : 386 пикселей
Соотношение сторон : 2,663
Режим частоты кадров : Постоянный
Частота кадров : 24,000 кадра/сек
Цветовое пространство : YUV
Субдискретизация насыщенности : 4:2:0
Битовая глубина : 8 бит
Тип развёртки : Прогрессивная
Бит/(Пиксели*Кадры) : 0.266
Размер потока : 1,53 Гбайт (87%)
Заголовок : China
Библиотека кодирования : x264 core 159 r2991 1771b55
Настройки программы : cabac=1 / ref=16 / deblock=1:-3:-3 / analyse=0x3:0x133 / me=umh / subme=11 / psy=1 / psy_rd=1.00:0.15 / mixed_ref=1 / me_range=32 / chroma_me=1 / trellis=2 / 8x8dct=1 / cqm=0 / deadzone=21,18 / fast_pskip=0 / chroma_qp_offset=-3 / threads=29 / lookahead_threads=3 / sliced_threads=0 / nr=60 / decimate=0 / interlaced=0 / bluray_compat=0 / constrained_intra=0 / bframes=16 / b_pyramid=2 / b_adapt=2 / b_bias=10 / direct=3 / weightb=1 / open_gop=0 / weightp=2 / keyint=240 / keyint_min=24 / scenecut=40 / intra_refresh=0 / rc_lookahead=60 / rc=2pass / mbtree=0 / bitrate=2520 / ratetol=1.0 / qcomp=0.70 / qpmin=3 / qpmax=69 / qpstep=4 / cplxblur=20.0 / qblur=0.5 / vbv_maxrate=5000 / vbv_bufsize=4000 / nal_hrd=none / filler=0 / ip_ratio=1.40 / pb_ratio=1.30 / aq=1:0.60
Язык : Chinese
Default : Да
Forced : Нет
Цветовой диапазон : Limited
Основные цвета : BT.709
Характеристики трансфера : BT.709
Коэффициенты матрицы : BT.709
Аудио #1
Идентификатор : 2
Формат : AC-3
Формат/Информация : Audio Coding 3
Коммерческое название : Dolby Digital
Идентификатор кодека : A_AC3
Продолжительность : 1 ч. 27 м.
Вид битрейта : Постоянный
Битрейт : 192 Кбит/сек
Каналы : 2 канала
Channel layout : L R
Частота : 48,0 КГц
Частота кадров : 31,250 кадров/сек (1536 SPF)
Битовая глубина : 32 бит
Метод сжатия : С потерями
Размер потока : 120 Мбайт (7%)
Заголовок : DVO (ArchiAsia - Verner and Veda)
Язык : Russian
Service kind : Complete Main
Default : Да
Forced : Нет
Аудио #2
Идентификатор : 3
Формат : AC-3
Формат/Информация : Audio Coding 3
Коммерческое название : Dolby Digital
Идентификатор кодека : A_AC3
Продолжительность : 1 ч. 27 м.
Вид битрейта : Постоянный
Битрейт : 192 Кбит/сек
Каналы : 2 канала
Channel layout : L R
Частота : 48,0 КГц
Частота кадров : 31,250 кадров/сек (1536 SPF)
Битовая глубина : 32 бит
Метод сжатия : С потерями
Размер потока : 120 Мбайт (7%)
Заголовок : Original (Chinese)
Язык : Chinese
Service kind : Complete Main
Default : Нет
Forced : Нет
Текст #1
Идентификатор : 4
Формат : ASS
Идентификатор кодека : S_TEXT/ASS
Идентификатор кодека/Информация : Advanced Sub Station Alpha
Продолжительность : 1 ч. 22 м.
Битрейт : 91 бит/сек
Count of elements : 876
Метод сжатия : Без потерь
Размер потока : 55,0 Кбайт (0%)
Заголовок : АрхиAsia // Romaryllo
Язык : Russian
Default : Да
Forced : Нет
Текст #2
Идентификатор : 5
Формат : ASS
Идентификатор кодека : S_TEXT/ASS
Идентификатор кодека/Информация : Advanced Sub Station Alpha
Продолжительность : 1 ч. 22 м.
Битрейт : 90 бит/сек
Count of elements : 876
Метод сжатия : Без потерь
Размер потока : 54,4 Кбайт (0%)
Язык : Ukrainian
Default : Да
Forced : Нет
СЭМПЛ

admin

Post 24-Jan-2022 18:04

[Quote]

Чудесный призрак / Wondeopul goseuteu / The Soul-Mate
Год выпуска: 2018
Выпущено: Южная Корея
Жанр: Комедия, Фэнтези, Мелодрама, Криминал
Режиссер: Чо Вон-хи / Jo Won-hee
В ролях: Ма Дон-сок, Ким Ён-гван, Ли Ю-ён, Чхве Гви-хва, Чу Джин-мо, Чхве Ю-ри, Ким А-ра, Хо Джэ-хо, Ко Гю-пхиль, Ли Ён-сок, Квак Чин-сок, Хан Сон-чхон, Хан Чхан-хён, Юн Хи-вон, Чха Рэ-хён
О фильме: Получив компромат на местный ночной клуб, новичок-полицейский Тхэ-джин попадает в засаду. Бандиты перестарались и случайно вогнали парня в кому, а его душа отделилась от тела. Страж закона очень хочет завершить расследование и вернуться к своей подружке, но теперь он — всего лишь бесплотный блуждающий призрак. Судьба посылает бедолаге шанс в виде равнодушного к правосудию соседа, хозяина секции по дзюдо. Тот может видеть призрака, разговаривать с ним, но принципиально не желает вмешиваться в чужие дела, заботясь только о маленькой дочке. Теперь Тхэ-джин не отцепится от нового знакомого, пока тот не поможет ему завершить начатое.

Продолжительность: 01:37:17
Перевод: Профессиональный, полное дублирование (Кинопоиск HD)
Субтитры: нет.
Формат: AVI
Качество: WEB-DLRip
Видео: 720x384 (1,85:1), 23,976 fps, XviD build 67 ~ 1698 kbps
Аудио: 48 kHz, AC3 Dolby Digital, 3/2 (L,C,R,l,r) + LFE ch, ~ 448 kbps | RUS |

Скриншоты

-

admin

Post 23-Jan-2022 22:28

[Quote]

«Смертельная игра началась»
Информация о фильме
Название: Обратный отсчёт
Оригинальное название: Balsinjehan
Год выхода: 2021
Жанр: Триллер, криминал, боевик
Режиссер: Ким Чхан-джу
В ролях: Чо У-джин, Ли Джэ-ин, Чин Гён, Ким Джи-хо, Чи Чхан-ук, Чон Сок-хо
О фильме:
Привычный план — отвезти детей в школу и отправиться на работу в банк — для героя неожиданно превращается в самый жуткий квест в жизни. Голос с незнакомого телефонного номера утверждает, что в автомобиле бомба. И если кто-то откроет дверь, все погибнут. Помощи просить нельзя. Что делать?


Страна: Корея Южная
Студия: CJ Entertainment, TPS Company
Продолжительность: 01:34:22
Перевод: Профессиональный ( многоголосый, закадровый) | Студия "Кипарис" | Кинопоиск HD
Файл
Качество: BDRip
Исходник: Hard.Hit.2021.COMPLETE.BLURAY-UNTOUCHED
Формат: AVI
Кодек: XviD
Видео: 720x304 (2.35:1), 23.976 fps, XviD ~ 1760 Kbps avg, 0.335 bit/pixel
Аудио: AC3, 48 kHz, 6 ch, ~448.00 kbps avg | русский | MVO
Субтитры: Русские (форсированные, полные) отдельно

Скриншоты

admin

Post 18-Jan-2022 04:25

[Quote]


Информация о фильме
Название: Ускользающий человек
Оригинальное название: Yucheitalja / Spiritwalker
Год выхода: 2021
Жанр: Боевик, фантастика, детектив
Режиссер: Юн Джэ-гын
В ролях: Юн Ге-сан, Пак Ён-у, Лим Джи-ён, Ю Сын-мок, Пак Чи-хван, Ли Сон-ук, Хон Ги-джун, Со Хён-у, Квон Хёк-пом, У Ган-мин
О фильме:
Человек обнаруживает себя на месте автомобильной аварии, в неизвестном теле, без малейшего понятия, кто он и как сюда попал. Он предпринимает отчаянные попытки отыскать самого себя и находит женщину, которая утверждает, что знает его. Все глубже погружаясь в тайну, он узнает о некой секретной организации, которая, судя по всему, преследует его.


Страна: Корея Южная
Студия: ABO Entertainment, BA Entertainment, Kiwi Media Group, Megabox Plus M, Saram Entertainment
Продолжительность: 01:48:27
Перевод: Профессиональный (полное дублирование) | iTunes
Файл
Качество: WEB-DLRip
Формат: AVI
Кодек: XviD
Видео: 720x304 (2.35:1), 24 fps, XviD ~ 1540 Kbps avg, 0.293 bit/pixel
Аудио: AC3, 48 kHz, 6 ch, ~384.00 kbps avg | русский | iTunes |
Субтитры: Отсутствуют

Скриншоты

admin

Post 14-Jan-2022 06:23

[Quote]

Год выпуска: 2021
Производство: Гонконг, My Way Film Company
Жанр: Боевик
Режиссер: Кен Ип
Актеры: Кэти Чоу, Ракель Сюй, Рэй Лю, Чу Сюй, Бяо Юэнь, Паваритх Монколписит, Лю Вэйсэнь, Хуан Гуань
Описание:
На секретной базе проводят эксперименты над людьми для создания препарата, позволяющего продлить жизнь. Ветеран боевых действий У Вэй (Рэй Луй) и несколько его товарищей проникают на базу, где спасают полицейского Гао Тяньмина (Юэнь Бяо), который два года собирал доказательства против главаря бандитов Ду Си. Силы не равны и наши герои отступают, но в скором времени они вернутся.

Продолжительность: 01:29:29
Перевод: Любительский одноголосый (Виктор Береговых)
Субтитры: Русские, английские - отдельными файлами
Качество видео: BDRip
Видео: Xvid, 720x304, ~1435 kbps
Аудио 1: AC3, 6 ch, 448 Кbps | Русский (AVO, Виктор Береговых)
Аудио 2: AC3, 6 ch, 448 Кbps | Китайский
Релиз от: vitolinform

Дополнительная информация:

Перевод и озвучивание: Виктор Береговых
Русские субтитры: Виктор Береговых
Заказ озвучивания: vitolinform

Скриншоты

admin

Post 10-Jan-2022 00:54

[Quote]

Токийские мстители / Tokyo Revengers
Год выпуска: 2021
Выпущено: Япония, Fuji Television Network, Warner Bros.
Жанр: Криминал, боевик, фантастика
Режиссер: Цутому Ханабуса / Tsutomu Hanabusa
В ролях: Такуми Китамура, Юки Ямада (I), Ёсукэ Сугино, Нобуюки Судзуки, Хаято Исомура, Кэйта Араи, Кадзуки Хорикэ, Мио Имада, Гордон Маэда, Сётаро Мамия
О фильме: Ханагаки Такэмити 26 лет, у него нет постоянной работы, да и вся его жизнь, по большому счету, жалкая. Однажды из новостей он узнает, что в ходе бандитских разборок были убиты Татибана Хината и ее младший брат Татибана Наото. Когда-то в средней школе он был влюблен в эту девушку. На следующий день кто-то толкает Ханагаки на железнодорожные пути, и он оказывается в прошлом. Теперь у него появилась возможность исправить будущее и предотвратить смерть Хинаты.

Продолжительность: 01:59:47
Перевод: Любительский, двухголосый закадровый (АрхиAsia)
Субтитры: Русские (full, (АрхиAsia ASS) (отдельно)
Формат: AVI
Качество: WEB-DLRip
Видео: 720x304 (2,35:1), 24,000 fps, XviD build 67 ~ 1357 kbps
Аудио: 48 kHz, AC3 Dolby Digital, 3/2 (L,C,R,l,r) + LFE ch, ~ 384 kbps | RUS | Ненорматив

Скриншоты

-

доп.инфо

Переведено и озвучено: РГ АрхиAsia
Перевод: Romaryllo
Редакция, тайминг: Macho
Роли озвучивали: Verner и Filiciya
Внимание! В переводе присутствует ненормативная лексика.
За исходник спасибо (Racketa aka vitolinform ®)

admin

Post 29-Dec-2021 01:08

[Quote]


Информация о фильме
Название: Месть земли
Оригинальное название: Feng bao
Год выхода: 2021
Жанр: Боевик
Режиссер: Ли Цзунь
В ролях: Чжу Илун, Хуан Чжичжун, Чэнь Шу, Цзяо Цзюньянь, Чэнь Тайшэн, Ван Гэ, Лу Сыюй, Хун Цзяньтао, Чжоу Сяооу, Бинь Цзы
О фильме:
Под воздействием глобальных геологических изменений надвигается серия геологических катастроф. Землетрясения, оползни, сели, провалы в земле угрожают жизни простых граждан. Также это может затронуть туннель, который возводили последние 10 лет.


Страна: Китай
Студия: China Film Co. Ltd., Shanghai Film (Group) Co.Ltd, Tianjin Maoyan WeyingMedia Co. Ltd
Продолжительность: 01:54:25
Перевод: Профессиональный (полное дублирование) | iTunes
Файл
Качество: WEB-DLRip
Формат: AVI
Кодек: XviD
Видео: 704x352 (2.000:1), 24 fps, XviD ~ 1434 Kbps avg, 0.241 bit/pixel
Аудио: AC3, 48 kHz, 6 ch, ~384.00 kbps avg | русский | iTunes |
Субтитры: Английские (хардсаб), китайские (хардсаб)

Скриншоты

admin

Post 02-Dec-2021 06:50

[Quote]


Информация о фильме
Название: Бесстрашный король кунг-фу
Оригинальное название: Fearless Kungfu King / Gong fu zong shi huo yuan jia
Год выхода: 2020
Жанр: Боевик, приключения
Режиссер: Хэй Цзи
В ролях: Ху Гофан, Жен Жоньюнь, Ван Ябинь
О фильме:
Когда Хо Юаньцзя был молод и агрессивен, он считал боевые искусства самым важным в жизни. Однако постепенно он понял, что действительно важно помочь стране и людям. Судьба приводит его в Тяньцзинь, где Хо встречает лидера реформистов господина Тана, которого он сопровождает в столицу. Во время этой захватывающей миссии Хо Юаньцзя понимает, как важно нести ответственность за свою страну


Страна: Китай
Студия: Beijing Mai Yang Culture Media
Продолжительность: 01:24:06
Перевод: Профессиональный (многоголосый, закадровый) | ТК "МАТЧ!"
Файл
Качество: WEB-DLRip
Формат: AVI
Кодек: XviD
Видео: 720x304 (2.35:1), 25 fps, XviD ~ 2132 Kbps avg, 0.390 bit/pixel
Аудио: AC3, 48 kHz, 2 ch, ~192.00 kbps avg | русский | MVO
Субтитры: Отсутствуют

Скриншоты

 

Current time is: 20-May 13:17

All times are UTC + 3