Search found 31 matches

Author Message

Guest

Post 03-Jun-2020 21:17

[Quote]

Вроде обычный криминальный сюжет в результате оказывается не таким простым.
Не сказать, что фильм очень вдохновил, но сделано вполне на уровне.
Стоило посмотреть. Юнь-Фат Чоу как играет понравился.

admin

Post 23-Jun-2019 20:23

[Quote]

Название: Проект «Гутенберг»
Оригинальное название: Wu shuang (Project Gutenberg)
Год выпуска: 2018
Жанр: Боевик, криминал, детектив
Выпущено: Китай, Гонконг, Bona Film Group, Emperor Multimedia Group (EMG), Pop Movies
Режиссер: Феликс Чон
В ролях: Юнь-Фат Чоу, Аарон Квок, Цзинчу Чжан, Кэтрин Чау, Дэвид Ван, Лиу Кай-Чи, Джастин Чунг, Джойс Фэн, Алекс Фун
О фильме: Сидящего в тюрьме мошенника Ли Маня вызывают на допрос в полицию. Его бывшая подруга Юэнь, а ныне — всемирно признанная художница, хочет внести за него залог, и теперь полиция пытается выяснить всё, что тот знает о своём бывшем подельнике по кличке Художник. Некоторое время назад Ли Мань жил в Канаде и безуспешно пытался стать настоящим художником, но арт-агенты хотели выставлять только работы Юэнь. Парень уже почти отчаялся, когда на него вышел Художник и предложил вместе с командой профессионалов создать супердоллары — неотличимые от настоящих подделки.

Продолжительность: 02:10:41
Перевод: Любительский двухголосый | HiWayGrope
Рекламы нет
Качество: HDRip
Видео: XviD, 1211 Кбит/с, 720x304
Аудио: Русский (AC3, 2 ch, 192 Кбит/с)
Аудио: Китайский (AC3, 2 ch, 192 Кбит/с)

Скриншоты


admin

Post 05-Dec-2019 04:27

[Quote]

Информация о фильме
Название: Царство
Оригинальное название: Kingdom
Год выхода: 2019
Жанр: Драма, боевик, военный, история
Режиссер: Синсуке Сато
В ролях: Рё Ёсидзава, Кэнто Ямадзаки, Масами Нагасава, Канна Хасимото, Масая Като, Каната Хонго, Синносукэ Мицусима, Масахиро Такасима, Джан Канаме, Такао Осава, Синносукэ Абэ, Мотоки Фуками, Дзюн Хасимото, Ватару Итиносэ, Рэндзи Исибаси
О фильме:
III век до н. э., период Сражающихся царств, когда на территории современного Китая было множество постоянно воевавших друг с другом небольших государств. Где-то на задворках одного из таких царств живут двое сирот и ежедневно тренируются, чтобы исполнить свою мечту стать великими генералами. Но один из друзей оказывается поразительно похож на правителя, и парня забирают во дворец в качестве его двойника.

Страна: Япония
Студия: East Japan Marketing & Communications Inc, KDDI Corporation
Продолжительность: 02:13:56
Перевод: Дублированный | Tunes
Файл
Формат: AVI
Качество: BDRip
Источник: |Kingdom 2019 Blu-ray REMUX 1080p AVC DTS-HD MA 5.1-HDVN|
Видео: 720x304 (2.37:1), 23.976 fps, XviD build 73 ~1359 kbps avg, 0.26 bit/pixel
Звук: 48 kHz, AC3 Dolby Digital, 2/0 (L,R) ch, ~192 kbps
Субтитры: Нет

Скриншоты

admin

Post 15-Sep-2019 05:30

[Quote]

Информация о фильме
Название: Частная военная компания
Оригинальное название: Take Point (PMC)
Год выпуска: 2018
Жанр: Боевик, триллер
Режиссер: Бён У Ким
В ролях: Чон У Ха, Сон Гён Ли, Кевин Дюран, Дженнифер Или, Мэлик Йоба, Спенсер Дэниелс, Роберт Кертис-Браун, Джефф Босли, Хорхе Пальо, Дин Доусон, Хён Бин Син, Сон Хёк Ким, Сон Чхан Сон
О фильме:
2024 год. В день президентских выборов в США, пытаясь повысить шансы на победу нужного кандидата, американское ЦРУ инициирует тайную операцию. Международная команда элитных наёмников должна проникнуть в бункер под демилитаризованной зоной и похитить министра обороны КНДР, чтобы тот выдал места расположения ядерного арсенала Севера. Но на месте отряд обнаруживает верховного лидера, захватывает его и тут же попадает под огонь неизвестных. Теперь, чтобы не развязать масштабный международный военный конфликт, наёмникам нужно любой ценой сохранить жизнь северокорейскому лидеру и самим выбраться из бункера живыми.

Страна: Корея Южная
Студия: CJ Entertainment, Frontier Works Comic, Perfect Storm Film
Продолжительность: 02:05:04
Перевод: Профессиональный (многоголосый, закадровый) | HDRezka Studio
Файл
Формат: AVI
Качество: BDRip
Источник: |Take.Point.2018.BDREMUX 1080p|
Видео: 704x384 (1.83:1), 23.976 fps, XviD build 73 ~1472 kbps avg, 0.23 bit/pixel
Звук: 48 kHz, AC3 Dolby Digital, 2/0 (L,R) ch, ~192 kbps
Субтитры: Русские форс. (отдельно)

Скриншоты

admin

Post 13-Jul-2019 06:21

[Quote]

Информация о фильме
Название: Фурия
Оригинальное название: Hai Phuong
Год выпуска: 2019
Жанр: Боевик, криминал
Режиссер: Ле-Ван Киэт
В ролях: Вероника Нго, Дженнифер Аликс, Фам Анх Хоа, Тхань Ньен Фан, Брианна Робертс, Элизабет Суит, Ким Лонг Тач, Хоа Чан
О фильме:
10 лет назад бывшая глава преступной группировки залегла на дно в сельской местности, родила девочку и наслаждается простым женским счастьем. Поскольку делать женщина ничего полезного не умеет, то занимается сбором долгов. Дочка Май из-за этого переживает и мечтает, что когда-нибудь они откроют рыбную ферму, и маме больше не нужно будет выполнять эту постыдную работу. Внезапно Май похищает международная организация торговцев людьми, и женщина превращается в смертоносную фурию — она пойдёт до конца, чтобы спасти дочь, а негодяям придется пожалеть о своем поступке...

Страна: Вьетнам
Студия: Studio 68, Netflix
Продолжительность: 01:37:19
Перевод: Профессиональный (многоголосый, закадровый) | СВ Студия
Внимание! Присутствует ненормативная лексика.
Файл
Формат: AVI
Качество: BDRip
Источник: |Furie 2019 1080p USA Blu-ray AVC DTS-HD MA 7.1-VinO|
Видео: 720x304 (2.37:1), 24 fps, XviD build 73 ~1690 kbps avg, 0.32 bit/pixel
Звук: 48 kHz, AC3 Dolby Digital, 3/2 (L,C,R,l,r) + LFE ch, ~448 kbps
Субтитры: Нет

Скриншоты

admin

Post 21-Jun-2019 20:35

[Quote]

Информация о фильме
Название: Бизнесмены
Год выпуска: 2018
Жанр: Драма, криминал
Режиссер: Акан Сатаев
В ролях: Аскар Ильясов, Айсулу Азимбаева, Шарип Серик, Расим Жубаев, Константин Крюков, Еркен Губашев, Санжар Мади, Дина Тасбулатова
Описание: 90-е годы прошлого века. Трое друзей, пытаясь наладить свою жизнь, сталкиваются с таким понятием, как бизнес. Однако бизнес - это всегда риск, и молодым предпринимателям придется пожертвовать многим ради успеха. Герои фильма становятся одними из первых, кто стоял у истоков рыночных отношений в Казахстане.

Страна: Казахстан
Студия: Astana Film Fund, Sataifilm
Продолжительность: 01:34:16
Перевод: Не требуется
Файл
Качество: WEB-DLRip
Формат: AVI
Видео: 720x320 (2.25:1), 24.000 fps, XviD build 73 ~1817 kbps avg, 0.33 bit/pixel
Аудио: 48 kHz, AC3 Dolby Digital, 3/2 (L,C,R,l,r) + LFE ch, ~384 kbps - iTunes
Субтитры: Нет

Скриншоты

MediaInfo

Формат : AVI
Формат/Информация : Audio Video Interleave
Размер файла : 1,46 Гбайт
Продолжительность : 1 ч. 34 м.
Общий поток : 2211 Кбит/сек
Название фильма : Бизнесмены_2018_WEB-DLRip
Программа кодирования : VirtualDubMod 1.5.10.3
Авторское право : порошков
Видео
Идентификатор : 0
Формат : MPEG-4 Visual
Профиль формата : Advanced Simple@L5
Настройки формата : BVOP1 / Custom Matrix
Параметр BVOP формата : 1
Параметр QPel формата : Нет
Параметр GMC формата : Без точки перехода
Параметр матрицы формата : Выборочная
Идентификатор кодека : XVID
Идентификатор кодека/Подсказка : XviD
Продолжительность : 1 ч. 34 м.
Битрейт : 1817 Кбит/сек
Ширина : 720 пикселей
Высота : 320 пикселей
Соотношение сторон : 2,25:1
Частота кадров : 24,000 кадра/сек
Цветовое пространство : YUV
Субдискретизация насыщенности : 4:2:0
Битовая глубина : 8 бит
Тип развёртки : Прогрессивная
Метод сжатия : С потерями
Бит/(Пиксели*Кадры) : 0.329
Размер потока : 1,20 Гбайт (82%)
Библиотека кодирования : XviD 73
Аудио
Идентификатор : 1
Формат : AC-3
Формат/Информация : Audio Coding 3
Коммерческое название : Dolby Digital
Идентификатор кодека : 2000
Продолжительность : 1 ч. 34 м.
Вид битрейта : Постоянный
Битрейт : 384 Кбит/сек
Каналы : 6 каналов
ChannelLayout : L R C LFE Ls Rs
Частота : 48,0 КГц
Частота кадров : 31,250 кадров/сек (1536 SPF)
Битовая глубина : 16 бит
Метод сжатия : С потерями
Размер потока : 259 Мбайт (17%)
Выравнивание : Разделение по промежуткам
Продолжительность промежутка : 42 мс. (1,00 видеокадр)
Время предзагрузки промежутка : 500 мс.

admin

Post 14-May-2019 08:24

[Quote]

Информация о фильме
Название: Детектив Ди: Четыре Небесных царя
Оригинальное название: Di Renjie: zhi si da tian wang
Год выхода: 2018
Жанр: Фэнтези, боевик, детектив, приключения
Режиссер: Харк Цуй
В ролях: Марк Чао, Карина Лау, Уилльям Фэн, Кенни Лин, Сандра Ма, Этан Жуань
О фильме:
За заслуги перед отечеством император дарует детективу Ди могущественный артефакт — Жезл Укрощения Драконов. Но императрица недовольна этим жестом, она считает, что таким образом император поставил под угрозу их власть, и Жезл надо немедленно вернуть. Миссия поручается давнему товарищу Ди, а в помощь ему императрица приставляет боевых магов. Но детектив Ди предвидел, что за артефактом начнется охота, и предпринял соответствующие меры.

Страна: Китай, Гонконг
Студия: Huayi Brothers
Продолжительность: 02:11:47
Перевод: Профессиональный многоголосый | HDRezka Studio
Файл
Кодек: AVC
Качество: BDRip-AVC
Видео: MPEG-4 AVC, 2000 Kбит/с, 1024x552, 24.000 кадр/с
Аудио #1: Русский (АС3, 2ch, 192 Кбит/с, 48.0 KHz) Профессиональный (многоголосый, закадровый) HDRezka Studio
Аудио #2: Китайский (АС3, 6ch, 384 Кбит/с, 48.0 KHz)
Субтитры: Русские, английские(*srt)

MediaInfo

General
Unique ID : 196222101340576519544390933294998516086 (0x939F0087CE6C5BBBAABC69925E227176)
Complete name : Detective.Dee.The.Four.Heavenly.Kings.2018.BDRip.mkv
Format : Matroska
Format version : Version 4 / Version 2
File size : 2.37 GiB
Duration : 2 h 11 min
Overall bit rate : 2 578 kb/s
Encoded date : UTC 2019-05-13 16:20:08
Writing application : mkvmerge v7.1.0 ('Good Love') 64bit built on Jul 27 2014 13:06:55
Writing library : libebml v1.3.0 + libmatroska v1.4.1
Video
ID : 1
Format : AVC
Format/Info : Advanced Video Codec
Format profile : High@L4.1
Format settings, CABAC : Yes
Format settings, RefFrames : 9 frames
Codec ID : V_MPEG4/ISO/AVC
Duration : 2 h 11 min
Bit rate : 2 000 kb/s
Width : 1 024 pixels
Height : 552 pixels
Display aspect ratio : 1.85:1
Frame rate mode : Constant
Frame rate : 24.000 FPS
Color space : YUV
Chroma subsampling : 4:2:0
Bit depth : 8 bits
Scan type : Progressive
Bits/(Pixel*Frame) : 0.147
Stream size : 1.84 GiB (78%)
Writing library : x264 core 148 r2638 7599210
Encoding settings : cabac=1 / ref=9 / deblock=1:-3:-3 / analyse=0x3:0x133 / me=umh / subme=11 / psy=1 / psy_rd=1.00:0.20 / mixed_ref=1 / me_range=48 / chroma_me=1 / trellis=2 / 8x8dct=1 / cqm=0 / deadzone=21,11 / fast_pskip=1 / chroma_qp_offset=-3 / threads=6 / lookahead_threads=1 / sliced_threads=0 / nr=0 / decimate=1 / interlaced=0 / bluray_compat=0 / constrained_intra=0 / bframes=10 / b_pyramid=2 / b_adapt=2 / b_bias=0 / direct=3 / weightb=1 / open_gop=0 / weightp=2 / keyint=250 / keyint_min=23 / scenecut=40 / intra_refresh=0 / rc_lookahead=60 / rc=2pass / mbtree=1 / bitrate=2000 / ratetol=1.0 / qcomp=0.60 / qpmin=0 / qpmax=69 / qpstep=4 / cplxblur=20.0 / qblur=0.5 / ip_ratio=1.40 / aq=1:1.00
Language : English
Default : Yes
Forced : No
Audio #1
ID : 2
Format : AC-3
Format/Info : Audio Coding 3
Format settings, Endianness : Big
Codec ID : A_AC3
Duration : 2 h 11 min
Bit rate mode : Constant
Bit rate : 192 kb/s
Channel(s) : 2 channels
Channel positions : Front: L R
Sampling rate : 48.0 kHz
Frame rate : 31.250 FPS (1536 SPF)
Bit depth : 16 bits
Compression mode : Lossy
Stream size : 181 MiB (7%)
Title : MVO | HDRezka Studio
Language : Russian
Service kind : Complete Main
Default : Yes
Forced : No
Audio #2
ID : 3
Format : AC-3
Format/Info : Audio Coding 3
Format settings, Endianness : Big
Codec ID : A_AC3
Duration : 2 h 11 min
Bit rate mode : Constant
Bit rate : 384 kb/s
Channel(s) : 6 channels
Channel positions : Front: L C R, Side: L R, LFE
Sampling rate : 48.0 kHz
Frame rate : 31.250 FPS (1536 SPF)
Bit depth : 16 bits
Compression mode : Lossy
Stream size : 362 MiB (15%)
Language : Chinese
Service kind : Complete Main
Default : No
Forced : No
Text #1
ID : 4
Format : UTF-8
Codec ID : S_TEXT/UTF8
Codec ID/Info : UTF-8 Plain Text
Duration : 2 h 7 min
Bit rate : 83 b/s
Count of elements : 1422
Stream size : 77.9 KiB (0%)
Language : Russian
Default : No
Forced : No
Text #2
ID : 5
Format : UTF-8
Codec ID : S_TEXT/UTF8
Codec ID/Info : UTF-8 Plain Text
Duration : 2 h 7 min
Bit rate : 44 b/s
Count of elements : 1629
Stream size : 41.7 KiB (0%)
Language : English
Default : No
Forced : No
Menu
00:00:00.000 : en:00:00:00.000
00:09:40.750 : en:00:09:40.750
00:17:55.250 : en:00:17:55.250
00:26:05.042 : en:00:26:05.042
00:37:59.583 : en:00:37:59.583
00:46:15.917 : en:00:46:15.917
01:00:41.708 : en:01:00:41.708
01:08:50.458 : en:01:08:50.458
01:17:11.417 : en:01:17:11.417
01:25:24.458 : en:01:25:24.458
01:35:17.125 : en:01:35:17.125
01:43:23.500 : en:01:43:23.500
01:53:10.167 : en:01:53:10.167
02:03:56.583 : en:02:03:56.583

Скриншоты

admin

Post 07-May-2019 01:35

[Quote]

Информация о фильме
Название: Ведьма
Оригинальное название: Manyeo
Год выпуска: 2018
Жанр: Боевик, триллер, фантастика
Режиссер: Хун Чжон Пак
В ролях: Да Ми Ким, Мин Су Чо, У Шик Чхве, Мин Си Го, Хи Сун Пак, Да Ын Чон, Чон У Чхве, Ми Хи О, Бён Ок Ким, Ки Ён Ли (I), Тхэ Вон Квон
О фильме:
Обычная старшеклассница пережила потерю памяти, после чего девушку удочерила пожилая пара. Вроде бы, жизнь начала налаживаться, но однажды неподалеку от ее дома происходит убийство, а после героиня встречает человека, утверждающего, что убийство — ее рук дело. Обычная старшеклассница оказывается запрограммированной убийцей, результатом секретных экспериментов.

Страна: Корея Южная
Студия: Peppermint & Company
Продолжительность: 02:05:41
Перевод: Профессиональный (многоголосый, закадровый) | HDrezka Studio
Файл
Формат: AVI
Качество: BDRip | Blu-Ray 1080p |
Видео: XviD, 720x304, 23.976 fps, 1462 kbps
Звук: AC3, 2 ch, 192 kbps
Субтитры: Русские форсированные (отдельно)

Скриншоты

admin

Post 29-Mar-2019 10:17

[Quote]

Информация о фильме
Название: Тень
Оригинальное название: Ying / Shadow
Год выхода: 2018
Жанр: Драма, боевик, история
Режиссер: Имоу Чжан
В ролях: Чао Ден, Ли Сунь, Кай Чжэн, Цяньюань Ван, Цзинчунь Ван, Цзюнь Ху, Сяотун Гуань, Лэй У, Бай Фэн
О фильме:
Сюжет разворачивается в эпоху Троецарствия, в древнем Китае с 220 г. по 280 г, в эпоху борьбы и ожесточенного противостояния между тремя различными государствами Китая. Чтобы обезопасить себя от наемных убийц в условиях постоянных войн и внутренних распрей, императоры и чиновники находили себе двойников, так называемых Теней. Эти люди верно служили своим хозяевам многие годы, рискуя ради них своей жизнью. Эта история храброго мужчины, который еще в детстве стал Тенью, она начинается, когда жене главного командира царства Пэй приходится принять самое сложное решение в ее жизни.

Страна: Китай, Гонконг
Студия: Perfect Village Entertainment, LeVision Pictures, Shanghai Tencent Pictures Culture Media
Продолжительность: 01:55:47
Перевод: Дублированный | iTunes
Файл
Формат: AVI
Качество: BDRip | BDRemux 1080p |
Видео: XviD, 720x304, 24 fps, 1348 kbps
Звук: AC3, 6 ch, 384 kbps
Субтитры: Нет

Скриншоты

admin

Post 22-Mar-2019 05:00

[Quote]

Информация о фильме
Название: Тройная угроза
Оригинальное название: Triple Threat
Год выпуска: 2019
Жанр: Боевик, триллер, криминал
Режиссер: Джесси Джонсон
В ролях: Тони Джа, Ико Уайс, Тайгер Чэнь, Скотт Эдкинс, Селина Джейд, Майкл Джей Уайт, Доминик Ванденберг, Яанин Висмитананда, Майкл Вон, Дэниэл Уайт
О фильме:
Международная преступная группировка посылает команду профессиональных киллеров убить дочь миллиардера, которая задумала положить конец их криминальной деятельности. Спасать девушку будут трое наёмников, в прошлом — успешных бойцов.

Страна: Таиланд, Китай, США
Студия: Aurora Alliance Films, Hamilton Entertainment, Kungfuman Culture Media, SC Films Thailand Co
Продолжительность: 01:35:51
Перевод: Дублированный | iTunes
Файл
Формат: AVI
Качество: WEB-DLRip
Видео: XviD, 720x304, 23.976 fps, 1787 kbps
Звук: AC3, 6 ch, 384 kbps
Субтитры: Нет

Скриншоты

admin

Post 12-Mar-2019 02:55

[Quote]

Информация о фильме
Название: Чёрная магия
Оригинальное название: Santet
Год выпуска: 2018
Жанр: Ужасы
Режиссер: Хелфи Кардит
В ролях: Келли Брук, Джаз Окампо, Аю Диа Паша, Рэй Сахетапи
О фильме: Ренди вместе со своей супругой Лорой и двумя детьми возвращается в отчий дом. Здесь совсем недавно его отец Дхарма наложил на себя руки, и теперь любящий сын беспокоится о своей матери, а она ведет себя после произошедшего с ее мужем неадекватно. В женщину словно вселился злой дух, она стала одержима черной магией. Она ведет себя, как сумасшедшая, и явно не хочет видеть в своем доме своего сына с невесткой и внуками. Все это приводит Ренди в ужас и смятение.

Страна: Индонезия
Продолжительность: 01:25:39
Перевод: Профессиональный (многоголосый закадровый) | HDRezka Studio
Файл
Качество: WEB-DLRip
Формат: AVI
Видео: 720x304 (2.37:1), 23.976 fps, XviD build 73 ~2230 kbps avg, 0.42 bit/pixel
Аудио: Russian: 48 kHz, AC3 Dolby Digital, 2/0 (L,R) ch, ~192 kbps
Субтитры: Нет

Скриншоты

MediaInfo

Формат : AVI
Формат/Информация : Audio Video Interleave
Размер файла : 1,45 Гбайт
Продолжительность : 1 ч. 25 м.
Общий поток : 2432 Кбит/сек
Программа кодирования : VirtualDubMod 1.5.10.3
Библиотека кодирования : VirtualDubMod build 2550/release
Видео
Идентификатор : 0
Формат : MPEG-4 Visual
Профиль формата : Advanced Simple@L5
Настройки формата : BVOP1 / Custom Matrix
Параметр BVOP формата : 1
Параметр QPel формата : Нет
Параметр GMC формата : Без точки перехода
Параметр матрицы формата : Выборочная
Идентификатор кодека : XVID
Идентификатор кодека/Подсказка : XviD
Продолжительность : 1 ч. 25 м.
Битрейт : 2230 Кбит/сек
Ширина : 720 пикселей
Высота : 304 пикселя
Соотношение сторон : 2,35:1
Частота кадров : 23,976 (24000/1001) кадра/сек
Цветовое пространство : YUV
Субдискретизация насыщенности : 4:2:0
Битовая глубина : 8 бит
Тип развёртки : Прогрессивная
Метод сжатия : С потерями
Бит/(Пиксели*Кадры) : 0.425
Размер потока : 1,33 Гбайт (92%)
Библиотека кодирования : XviD 73
Аудио
Идентификатор : 1
Формат : AC-3
Формат/Информация : Audio Coding 3
Коммерческое название : Dolby Digital
Идентификатор кодека : 2000
Продолжительность : 1 ч. 25 м.
Вид битрейта : Постоянный
Битрейт : 192 Кбит/сек
Каналы : 2 канала
Channel layout : L R
Частота : 48,0 КГц
Частота кадров : 31,250 кадров/сек (1536 SPF)
Битовая глубина : 16 бит
Метод сжатия : С потерями
Размер потока : 118 Мбайт (8%)
Выравнивание : Разделение по промежуткам
Продолжительность промежутка : 42 мс. (1,00 видеокадр)
Время предзагрузки промежутка : 500 мс.

admin

Post 04-Feb-2019 17:35

[Quote]

Пылающий / Burning
«У каждого есть своя тайна»-

Год выпуска: 2018
Страна: Корея Южная
Производство: Pine House Film, NHK, Now Films
Жанр: Детектив, триллер, драма-Режиссёр: Чан Дон Ли
В ролях: А Ин Ю, Стивен Юн, Чон Со Чон, Су Кён Ким, Сын Хо Чхве, Бок Ги Мин, Хэ Ра Пан, Бон Рён Ли-Перевод: Дублированный | [iTunes]
Субтитры: Нет
Реклама: Отсутствует
Описание: Молодой писатель Джонсу встречает старую знакомую, с которой они вместе росли. В ее жизни многое изменилось, и теперь перед ее очарованием сложно устоять. В поисках себя девушка отправляется в Африку и возвращается оттуда с новым другом по имени Бен. Бен — современный Гэтсби, у него нет изъянов, зато есть необычное хобби, узнав о котором, Джонсу лишается покоя.
-Качество: BDRip-AVC | BDRemux | Beoning.aka.Burning.2018.1080p.BluRay.Remux.AVC.DTS-HD.MA.5.1-ALiEN
Продолжительность: 02:28:13
Формат: MKV
Видео кодек: MPEG-4 AVC
Аудио кодек: AC3
Видео: 1024x428 (2.40:1), 24,000 fps, x264 ~1 759 kbps avg, 0.167 bit/pixel
Аудио #1: 48 kHz, AC3 Dolby Digital Plus, 3/2 (L,C,R,l,r) + LFE ch, ~384.00 kbps avg | RUS (iTunes)-Дата премьеры (мир): 16 мая 2018
Дата премьеры (РФ): 5 июля 2018, «ПРОвзгляд»
Цифровой релиз: 2 августа 2018, «НД Плэй»

MediaInfo

Общее
Уникальный идентификатор : 158392210304230402666050075123372953092 (0x77293AE668A94954B20F3A52EC228E04)
Полное имя : F:OlLanDGroupBeoning.aka.Burning.2018.BDRip(AVC).OlLanDGroup.mkv
Формат : Matroska
Версия формата : Version 4 / Version 2
Размер файла : 2,22 Гбайт
Продолжительность : 2 ч. 28 м.
Общий поток : 2143 Кбит/сек
Название фильма : Beoning.aka.Burning.2018 #TorpedoUK#
Дата кодирования : UTC 2019-02-04 12:08:02
Программа кодирования : mkvmerge v29.0.0 ('Like It Or Not') 64-bit
Библиотека кодирования : libebml v1.3.6 + libmatroska v1.4.9
Видео
Идентификатор : 1
Формат : AVC
Формат/Информация : Advanced Video Codec
Профиль формата : High@L4.1
Параметр CABAC формата : Да
Параметр ReFrames формата : 10 кадров
Идентификатор кодека : V_MPEG4/ISO/AVC
Продолжительность : 2 ч. 28 м.
Битрейт : 1759 Кбит/сек
Ширина : 1024 пикселя
Высота : 428 пикселей
Соотношение сторон : 2,40:1
Режим частоты кадров : Постоянный
Частота кадров : 24,000 кадра/сек
Цветовое пространство : YUV
Субдискретизация насыщенности : 4:2:0
Битовая глубина : 8 бит
Тип развёртки : Прогрессивная
Бит/(Пиксели*Кадры) : 0.167
Размер потока : 1,82 Гбайт (82%)
Библиотека кодирования : x264 core 146 r2538 121396c
Настройки программы : cabac=1 / ref=10 / deblock=1:-3:-3 / analyse=0x3:0x113 / me=umh / subme=11 / psy=1 / psy_rd=0.99:0.04 / mixed_ref=1 / me_range=48 / chroma_me=1 / trellis=2 / 8x8dct=1 / cqm=0 / deadzone=21,11 / fast_pskip=1 / chroma_qp_offset=-3 / threads=6 / lookahead_threads=1 / sliced_threads=0 / nr=0 / decimate=1 / interlaced=0 / bluray_compat=0 / constrained_intra=0 / bframes=11 / b_pyramid=2 / b_adapt=2 / b_bias=0 / direct=3 / weightb=1 / open_gop=0 / weightp=2 / keyint=240 / keyint_min=24 / scenecut=40 / intra_refresh=0 / rc_lookahead=40 / rc=2pass / mbtree=0 / bitrate=1759 / ratetol=1.0 / qcomp=0.60 / qpmin=0 / qpmax=69 / qpstep=4 / cplxblur=20.0 / qblur=0.5 / vbv_maxrate=50000 / vbv_bufsize=62500 / nal_hrd=none / filler=0 / ip_ratio=1.40 / pb_ratio=1.30 / aq=1:1.00
Язык : English
Default : Да
Forced : Нет
Аудио
Идентификатор : 2
Формат : AC-3
Формат/Информация : Audio Coding 3
Расширение режима : CM (complete main)
Параметр Endianness формата : Big
Идентификатор кодека : A_AC3
Продолжительность : 2 ч. 28 м.
Вид битрейта : Постоянный
Битрейт : 384 Кбит/сек
Каналы : 6 каналов
Расположение каналов : Front: L C R, Side: L R, LFE
Частота : 48,0 КГц
Частота кадров : 31,250 кадров/сек (1536 spf)
Битовая глубина : 16 бит
Метод сжатия : С потерями
Размер потока : 407 Мбайт (18%)
Заголовок : DUB [iTunes]
Язык : Russian
Default : Да
Forced : Нет
Меню
00:00:00.000 : :Chapter 1
00:25:02.292 : :Chapter 2
00:49:34.208 : :Chapter 3
01:14:56.667 : :Chapter 4
01:39:44.375 : :Chapter 5
02:04:45.333 : :Chapter 6

Скриншоты



admin

Post 04-Feb-2019 17:33

[Quote]

Информация о фильме
Название: Пылающий
Оригинальное название: Burning
Год выпуска: 2018
Жанр: Детектив, триллер, драма
Режиссер: Чан Дон Ли
В ролях: А Ин Ю, Стивен Юн, Чон Со Чон, Су Кён Ким, Сын Хо Чхве, Бок Ги Мин, Хэ Ра Пан, Бон Рён Ли
О фильме:
Молодой писатель Джонсу встречает старую знакомую, с которой они вместе росли. В ее жизни многое изменилось, и теперь перед ее очарованием сложно устоять. В поисках себя девушка отправляется в Африку и возвращается оттуда с новым другом по имени Бен. Бен — современный Гэтсби, у него нет изъянов, зато есть необычное хобби, узнав о котором, Джонсу лишается покоя.

Страна: Корея Южная
Студия: Pine House Film,NHK,Now Films
Продолжительность: 02:28:13
Перевод: Дублированный | iTunes
Файл
Формат: AVI
Качество: BDRip | BDRemux 1080p |
Видео: XviD, 720x304, 24 fps, 1648 kbps
Звук: AC3, 6 ch, 384 kbps
Субтитры: Нет

Скриншоты

admin

Post 04-Feb-2019 17:32

[Quote]

Информация о фильме
Название: Пылающий
Оригинальное название: Burning
Год выпуска: 2018
Жанр: Детектив, триллер, драма
Режиссер: Чан Дон Ли
В ролях: А Ин Ю, Стивен Юн, Чон Со Чон, Су Кён Ким, Сын Хо Чхве, Бок Ги Мин, Хэ Ра Пан, Бон Рён Ли
О фильме:
Молодой писатель Джонсу встречает старую знакомую, с которой они вместе росли. В ее жизни многое изменилось, и теперь перед ее очарованием сложно устоять. В поисках себя девушка отправляется в Африку и возвращается оттуда с новым другом по имени Бен. Бен — современный Гэтсби, у него нет изъянов, зато есть необычное хобби, узнав о котором, Джонсу лишается покоя.

Страна: Корея Южная
Студия: Pine House Film,NHK,Now Films
Продолжительность: 02:28:13
Перевод: Дублированный | iTunes
Файл
Формат: AVI
Качество: BDRip | BDRemux 1080p |
Видео: XviD, 720x304, 24 fps, 1208 kbps
Звук: AC3, 2 ch, 192 kbps
Субтитры: Нет

Скриншоты

admin

Post 18-Jan-2019 07:00

[Quote]

Информация о фильме
Название: Мститель
Оригинальное название: Revenger
Год выхода: 2019
Жанр: боевик, криминал
Режиссер: Шон-Вон Ли
В ролях: Брюс Хан, Пак Хи-сун, Юн Джин-со, Ким Ин-гвон, Пак Чхоль-мин
О фильме:
Чтобы отомстить за убийство семьи, мужчина едет на удаленный остров, где засел криминальный авторитет.

Страна: Сингапур
Студия: NETFLIX
Продолжительность: 01:42:52
Перевод: Любительский двухголосый (Horizon Studio) Присутствует ненормативная лексика
Файл
Кодек: AVC
Качество: WEBRip
Видео: ~ 1300 Кбит/с, 720x400, 23.976 fps
Звук: Русский / MP3 / 2.0 / 192kbs / 48 kHz
Присутствует реклама!

Скриншоты

 

Current time is: 27-Sep 06:08

All times are UTC + 3