Search found 60 matches

Author Message

admin

Post 10-Dec-2019 03:59

[Quote]

Информация о фильме
Название: Бандит, полицейский, дьявол
Оригинальное название: Akinjeon (The Gangster the Cop the Devil)
Год выпуска: 2019
Жанр: Боевик, криминал, триллер
Режиссер: Вон Тхэ Ли
В ролях: Дон Сок Ма, Му Ёль Ким, Сон Гю Ким (I), Юн Сун Ким, Хи Джун О, Мин Чхоль Чхве, Сон Бон Ан, Сын Мок Ю, Дон Вон Хо, Чжэ Мён Ю, Гю Ри Ким, Пэ Су Чон, Тхэ Хо Рю, Сун Бэ Чха, Му Чжэ Мин, Сан Чжон У, По Гён Пак, Со Хван Ли
О фильме:
2005 год. Криминальный босс провинциального города Чхонан Чан Дон-су подвергается нападению серийного убийцы и оказывается единственной выжившей жертвой. Репутация подмочена, единственный способ восстановить авторитет в глазах братвы - найти нападавшего и отомстить. Местный детектив Чон Тхэ-сок всей своей полицейской душой ненавидит организованную преступность, но ему приходится объединить силы с бандитом Дон-су, чтобы изловить ещё более ненавистного маньяка.

Страна: Южная Корея
Студия: B&C Group, BA Entertainment, Balboa Productions
Продолжительность: 01:49:54
Перевод: Дублированный | iTunes
Файл
Формат: AVI
Качество: BDRip
Источник: |The.Gangster.the.Cop.the.Devil.2019.1080p.BluRay.REMUX.AVC|
Видео: 720x304 (2.37:1), 24 fps, XviD build 73 ~1507 kbps avg, 0.29 bit/pixel
Звук: 48 kHz, AC3 Dolby Digital, 3/2 (L,C,R,l,r) + LFE ch, ~384 kbps
Субтитры: Нет

Скриншоты

admin

Post 05-Dec-2019 04:27

[Quote]

Информация о фильме
Название: Царство
Оригинальное название: Kingdom
Год выхода: 2019
Жанр: Драма, боевик, военный, история
Режиссер: Синсуке Сато
В ролях: Рё Ёсидзава, Кэнто Ямадзаки, Масами Нагасава, Канна Хасимото, Масая Като, Каната Хонго, Синносукэ Мицусима, Масахиро Такасима, Джан Канаме, Такао Осава, Синносукэ Абэ, Мотоки Фуками, Дзюн Хасимото, Ватару Итиносэ, Рэндзи Исибаси
О фильме:
III век до н. э., период Сражающихся царств, когда на территории современного Китая было множество постоянно воевавших друг с другом небольших государств. Где-то на задворках одного из таких царств живут двое сирот и ежедневно тренируются, чтобы исполнить свою мечту стать великими генералами. Но один из друзей оказывается поразительно похож на правителя, и парня забирают во дворец в качестве его двойника.

Страна: Япония
Студия: East Japan Marketing & Communications Inc, KDDI Corporation
Продолжительность: 02:13:56
Перевод: Дублированный | Tunes
Файл
Формат: AVI
Качество: BDRip
Источник: |Kingdom 2019 Blu-ray REMUX 1080p AVC DTS-HD MA 5.1-HDVN|
Видео: 720x304 (2.37:1), 23.976 fps, XviD build 73 ~1359 kbps avg, 0.26 bit/pixel
Звук: 48 kHz, AC3 Dolby Digital, 2/0 (L,R) ch, ~192 kbps
Субтитры: Нет

Скриншоты

admin

Post 30-Nov-2019 21:35

[Quote]

Информация о фильме
Название: Паразиты
Оригинальное название: Gisaengchung
Год выпуска: 2019
Жанр: Триллер, комедия, драма
Режиссер: Чжун Хо Пон
В ролях: Кан Хо Сон, Сон Гён Ли, Ё Чжон Чо, У Шик Чхве, Со Дам Пак, Хе Джин Чан, Джи Со Чон, Хён Джун Чон, Джон Ын Ли, Со Чжун Пак
О фильме:
Обычное корейское семейство жизнь не балует. Приходится жить в сыром грязном полуподвале, воровать интернет у соседей и перебиваться случайными подработками. Однажды друг сына семейства, уезжая на стажировку за границу, предлагает тому заменить его и поработать репетитором у старшеклассницы в богатой семье Пак. Подделав диплом о высшем образовании, парень отправляется в шикарный дизайнерский особняк и производит на хозяйку дома хорошее впечатление. Тут же ему в голову приходит необычный план по трудоустройству сестры.

Страна: Корея Южная
Студия: Barunson E&A, CJ E&M Film Financing & Investment Entertainment & Comics, CJ Entertainment
Продолжительность: 02:12:00
Перевод: Дублированный | iTunes
Файл
Формат: AVI
Качество: BDRip
Источник: |Gisaengchung.2019.BDRemux.TeamHD-potroks|
Видео: 720x304 (2.37:1), 23.976 fps, XviD build 73 ~1382 kbps avg, 0.26 bit/pixel
Звук: 48 kHz, AC3 Dolby Digital, 2/0 (L,R) ch, ~192 kbps
Субтитры: Русские форсированные (отдельно)

Скриншоты

admin

Post 15-Sep-2019 05:30

[Quote]

Информация о фильме
Название: Частная военная компания
Оригинальное название: Take Point (PMC)
Год выпуска: 2018
Жанр: Боевик, триллер
Режиссер: Бён У Ким
В ролях: Чон У Ха, Сон Гён Ли, Кевин Дюран, Дженнифер Или, Мэлик Йоба, Спенсер Дэниелс, Роберт Кертис-Браун, Джефф Босли, Хорхе Пальо, Дин Доусон, Хён Бин Син, Сон Хёк Ким, Сон Чхан Сон
О фильме:
2024 год. В день президентских выборов в США, пытаясь повысить шансы на победу нужного кандидата, американское ЦРУ инициирует тайную операцию. Международная команда элитных наёмников должна проникнуть в бункер под демилитаризованной зоной и похитить министра обороны КНДР, чтобы тот выдал места расположения ядерного арсенала Севера. Но на месте отряд обнаруживает верховного лидера, захватывает его и тут же попадает под огонь неизвестных. Теперь, чтобы не развязать масштабный международный военный конфликт, наёмникам нужно любой ценой сохранить жизнь северокорейскому лидеру и самим выбраться из бункера живыми.

Страна: Корея Южная
Студия: CJ Entertainment, Frontier Works Comic, Perfect Storm Film
Продолжительность: 02:05:04
Перевод: Профессиональный (многоголосый, закадровый) | HDRezka Studio
Файл
Формат: AVI
Качество: BDRip
Источник: |Take.Point.2018.BDREMUX 1080p|
Видео: 704x384 (1.83:1), 23.976 fps, XviD build 73 ~1472 kbps avg, 0.23 bit/pixel
Звук: 48 kHz, AC3 Dolby Digital, 2/0 (L,R) ch, ~192 kbps
Субтитры: Русские форс. (отдельно)

Скриншоты

AvesDemer

Post 25-Aug-2019 12:50

[Quote]

Корея Южная, да. Не Северная. Официальное название страны Республика Корея вдруг кто не в курсе.
Отличный фильм. Смеемся, плачем и наслаждаемся игрой актеров.

admin

Post 13-Jul-2019 06:49

[Quote]

Информация о фильме
Название: Наркобарон
Оригинальное название: Mayakwang / The Drug King
Год выхода: 2018
Жанр: криминал, боевик, драма
Режиссер: У Мин Хо
Сценарий: У Мин Хо
В ролях: Сон Кан Хо, Чо Джон Сок, Пэ Ду На, Ли Сон Мин, Юн Джэ Мун, Ким Со Джин, Ким Дэ Мён, Ли Хи Джун, Чо У Чжин, Ю Джэ Мён и др.
О фильме:
Корея 70-х — страна возможностей. Мелкий пусанский барыга, торгующий золотыми часами, однажды перевозит партию наркотиков в Японию. Там он узнаёт, что после войны в стране восходящего солнца не уменьшается спрос на метамфетамины, а в Пусане — лучший климат для их изготовления. Подкупив кого только можно и организовав производство, наш герой начинает масштабный экспорт наркопродукции под брендом «Сделано в Корее» и вскоре попадает в поле зрения молодого прокурора.

Страна: Южная Корея
Продолжительность: 02:18:50
Перевод: Любительский (одноголосый закадровый) [Виктор Береговых]
Файл
Формат видео: AVI
Качество: WEB-DLRip
Видео: 720x304 (2.37:1), 24 fps, XviD build 67 ~1886 kbps avg, 0.36 bit/pixel
Аудио#1: 48 kHz, AC3 Dolby Digital, 2/0 (L,R) ch, ~224 kbps | Русский
Аудио#2: 48 kHz, AC3 Dolby Digital, 3/2 (L,C,R,l,r) + LFE ch, ~448 kbps | Корейский (внешним файлом)
Субтитры: русские (Дмитрий Трашков), английские [внешние]

admin

Post 18-Jul-2019 05:49

[Quote]

Информация о фильме
Название: Большой брат
Оригинальное название: Dai si hing (Big Brother)
Год выпуска: 2018
Жанр: Боевик, комедия
Режиссер: Кам Ка-Вай
В ролях: Донни Йен, Джо Чэнь, Кан Юй, Брахим Ачаббаке, Альфред Чун, Джей Дэй, Семиквавер Иафета
О фильме:
Мистер Чэн приходит устраиваться учителем в обычную гонконгскую школу. Учебное заведение находится на грани закрытия, так как поступаемость в вузы у её выпускников почти нулевая. Но мистер Чэн, обладающий полезными знаниями, эффективными умениями и необычными методами преподавания, начинает бороться с неуспеваемостью и хромающей дисциплиной в классе.

Страна: Гонконг
Студия: Bullet Films,Mega-Vision Pictures (MVP)
Продолжительность: 01:41:06
Перевод: Профессиональный (многоголосый, закадровый) | HDRezka Studio
Файл
Формат: AVI
Качество: BDRip
Источник: |Big.Brother.2018.Repack.BluRay.1080p.AVC.TrueHD5.1-MTeam|
Видео: 720x304 (2.37:1), 24 fps, XviD build 73 ~1868 kbps avg, 0.35 bit/pixel
Звук: 48 kHz, AC3 Dolby Digital, 2/0 (L,R) ch, ~192 kbps
Субтитры: Русские форсированные (вшиты)

Скриншоты

admin

Post 13-Jul-2019 06:21

[Quote]

Информация о фильме
Название: Фурия
Оригинальное название: Hai Phuong
Год выпуска: 2019
Жанр: Боевик, криминал
Режиссер: Ле-Ван Киэт
В ролях: Вероника Нго, Дженнифер Аликс, Фам Анх Хоа, Тхань Ньен Фан, Брианна Робертс, Элизабет Суит, Ким Лонг Тач, Хоа Чан
О фильме:
10 лет назад бывшая глава преступной группировки залегла на дно в сельской местности, родила девочку и наслаждается простым женским счастьем. Поскольку делать женщина ничего полезного не умеет, то занимается сбором долгов. Дочка Май из-за этого переживает и мечтает, что когда-нибудь они откроют рыбную ферму, и маме больше не нужно будет выполнять эту постыдную работу. Внезапно Май похищает международная организация торговцев людьми, и женщина превращается в смертоносную фурию — она пойдёт до конца, чтобы спасти дочь, а негодяям придется пожалеть о своем поступке...

Страна: Вьетнам
Студия: Studio 68, Netflix
Продолжительность: 01:37:19
Перевод: Профессиональный (многоголосый, закадровый) | СВ Студия
Внимание! Присутствует ненормативная лексика.
Файл
Формат: AVI
Качество: BDRip
Источник: |Furie 2019 1080p USA Blu-ray AVC DTS-HD MA 7.1-VinO|
Видео: 720x304 (2.37:1), 24 fps, XviD build 73 ~1690 kbps avg, 0.32 bit/pixel
Звук: 48 kHz, AC3 Dolby Digital, 3/2 (L,C,R,l,r) + LFE ch, ~448 kbps
Субтитры: Нет

Скриншоты

admin

Post 08-Jul-2019 01:47

[Quote]

Название фильма: Жемчужина кунг-фу / Легендарный удар
Оригинальное название: Lang tzu yi chao
Год выпуска: 1978
Страна: Гонконг, Тайвань
Жанр: боевик, приключения, восточные единоборства
Продолжительность: 01:28:31
Перевод: Авторский (одноголосый, закадровый) [Сергей Кузнецов]
Cубтитры: нет
Режиссер: Фенг Хуанг / Feng Huang
В ролях: Синг Чан, Анджела Мао, Кон Чу, Картер Вон, Кенг Кэм, Ланг Чан, Чинг По Чанг, Йинг Чунг
Описание: Когда князь Юнг нанимает японского охранника для перевозки и охраны редких и драгоценных «Реликвий Дхармы», наступает ад, так как различные бойцы по всей стране соревнуются и ведут охоту за артефактом — реликвией буддизма.
Качество видео: DVDRip
Формат видео: AVI
Видео: 656x480 (1.37:1), 23.976 fps, XviD build 73 ~2135 kbps avg, 0.28 bit/pixel
Аудио: 48 kHz, AC3 Dolby Digital, 2/0 (L,R) ch, ~192.00 kbps avg
Ввиду древности исходника двд в видеоряде присутствует "плавающий леттербокс" (черные поля)

Скриншоты


В далеких 80-х и начале 90-х в советском прокате картина проходила под названием "Жемчужина кунг-фу", и конечно, те кто тогда адекватно воспринимал окружающую реальность в мировой киноиндустрии не могут его не помнить.
Всего несколько азиатских фильмов с "включением" :) большого количества восточных единоборств попали на экраны страны, и "Жемчужина кунг-фу" была одной из первых, возможно даже раньше, чем "Хон Гиль Дон".
Раздача ЭКСКЛЮЗИВНА, нигде в сети с таким качеством картины нет... приятного просмотра.

admin

Post 23-Jun-2019 20:23

[Quote]

Название: Проект «Гутенберг»
Оригинальное название: Wu shuang (Project Gutenberg)
Год выпуска: 2018
Жанр: Боевик, криминал, детектив
Выпущено: Китай, Гонконг, Bona Film Group, Emperor Multimedia Group (EMG), Pop Movies
Режиссер: Феликс Чон
В ролях: Юнь-Фат Чоу, Аарон Квок, Цзинчу Чжан, Кэтрин Чау, Дэвид Ван, Лиу Кай-Чи, Джастин Чунг, Джойс Фэн, Алекс Фун
О фильме: Сидящего в тюрьме мошенника Ли Маня вызывают на допрос в полицию. Его бывшая подруга Юэнь, а ныне — всемирно признанная художница, хочет внести за него залог, и теперь полиция пытается выяснить всё, что тот знает о своём бывшем подельнике по кличке Художник. Некоторое время назад Ли Мань жил в Канаде и безуспешно пытался стать настоящим художником, но арт-агенты хотели выставлять только работы Юэнь. Парень уже почти отчаялся, когда на него вышел Художник и предложил вместе с командой профессионалов создать супердоллары — неотличимые от настоящих подделки.

Продолжительность: 02:10:41
Перевод: Любительский двухголосый | HiWayGrope
Рекламы нет
Качество: HDRip
Видео: XviD, 1211 Кбит/с, 720x304
Аудио: Русский (AC3, 2 ch, 192 Кбит/с)
Аудио: Китайский (AC3, 2 ch, 192 Кбит/с)

Скриншоты


admin

Post 21-Jun-2019 20:35

[Quote]

Информация о фильме
Название: Бизнесмены
Год выпуска: 2018
Жанр: Драма, криминал
Режиссер: Акан Сатаев
В ролях: Аскар Ильясов, Айсулу Азимбаева, Шарип Серик, Расим Жубаев, Константин Крюков, Еркен Губашев, Санжар Мади, Дина Тасбулатова
Описание: 90-е годы прошлого века. Трое друзей, пытаясь наладить свою жизнь, сталкиваются с таким понятием, как бизнес. Однако бизнес - это всегда риск, и молодым предпринимателям придется пожертвовать многим ради успеха. Герои фильма становятся одними из первых, кто стоял у истоков рыночных отношений в Казахстане.

Страна: Казахстан
Студия: Astana Film Fund, Sataifilm
Продолжительность: 01:34:16
Перевод: Не требуется
Файл
Качество: WEB-DLRip
Формат: AVI
Видео: 720x320 (2.25:1), 24.000 fps, XviD build 73 ~1817 kbps avg, 0.33 bit/pixel
Аудио: 48 kHz, AC3 Dolby Digital, 3/2 (L,C,R,l,r) + LFE ch, ~384 kbps - iTunes
Субтитры: Нет

Скриншоты

MediaInfo

Формат : AVI
Формат/Информация : Audio Video Interleave
Размер файла : 1,46 Гбайт
Продолжительность : 1 ч. 34 м.
Общий поток : 2211 Кбит/сек
Название фильма : Бизнесмены_2018_WEB-DLRip
Программа кодирования : VirtualDubMod 1.5.10.3
Авторское право : порошков
Видео
Идентификатор : 0
Формат : MPEG-4 Visual
Профиль формата : Advanced Simple@L5
Настройки формата : BVOP1 / Custom Matrix
Параметр BVOP формата : 1
Параметр QPel формата : Нет
Параметр GMC формата : Без точки перехода
Параметр матрицы формата : Выборочная
Идентификатор кодека : XVID
Идентификатор кодека/Подсказка : XviD
Продолжительность : 1 ч. 34 м.
Битрейт : 1817 Кбит/сек
Ширина : 720 пикселей
Высота : 320 пикселей
Соотношение сторон : 2,25:1
Частота кадров : 24,000 кадра/сек
Цветовое пространство : YUV
Субдискретизация насыщенности : 4:2:0
Битовая глубина : 8 бит
Тип развёртки : Прогрессивная
Метод сжатия : С потерями
Бит/(Пиксели*Кадры) : 0.329
Размер потока : 1,20 Гбайт (82%)
Библиотека кодирования : XviD 73
Аудио
Идентификатор : 1
Формат : AC-3
Формат/Информация : Audio Coding 3
Коммерческое название : Dolby Digital
Идентификатор кодека : 2000
Продолжительность : 1 ч. 34 м.
Вид битрейта : Постоянный
Битрейт : 384 Кбит/сек
Каналы : 6 каналов
ChannelLayout : L R C LFE Ls Rs
Частота : 48,0 КГц
Частота кадров : 31,250 кадров/сек (1536 SPF)
Битовая глубина : 16 бит
Метод сжатия : С потерями
Размер потока : 259 Мбайт (17%)
Выравнивание : Разделение по промежуткам
Продолжительность промежутка : 42 мс. (1,00 видеокадр)
Время предзагрузки промежутка : 500 мс.

admin

Post 10-Jun-2019 02:08

[Quote]

-
Год выпуска: 2019
Страна: Китай
Производство: Beijing Culture, China Film Company Limited., United Entertainment Partners
Жанр: Фантастика, боевик-Режиссёр: Франт Гво
В ролях: Джеки Ву, Чусяо Цюй, Гуанцзе Ли, Нг Ман-Тат, Чжао Цзиньмай, Цзинцзин Цюй, Чжан Ичи, Ян Хаоюй, Аркадий Шароградский, Ли Хунчэнь, Цзян Чжиган, Чжан Хуань, Цзяинь Лэй, Нин Хао, Ван Чжи-Перевод: Профессиональный многоголосый | [HDRezka Studio], Авторский | [Дольский]
Субтитры: Русские (форс., полные), Английские (полные, SDH)
Реклама: Отсутствует
Описание: В ближайшем будущем становится известно, что Солнце скоро погаснет, и Солнечная система будет разрушена. Тогда человечество запускает масштабный проект под названием «Блуждающая Земля», цель которого — с помощью огромных двигателей по всему миру сдвинуть Землю и полететь искать новое пристанище. Через 17 лет путешествия земляне приближаются к Юпитеру. Гравитация гигантской планеты меняет траекторию Земли, вызывает глобальные землетрясения и ставит под угрозу весь проект по выживанию человечества.
-Качество: WEB-DLRip-AVC | NETFLIX Version |
Продолжительность: 02:05:30
Формат: MKV
Видео кодек: MPEG-4 AVC
Аудио кодек: AC3
Видео: 1024x402 (2.55:1), 24,000 fps, x264 ~1 216 kbps avg, 0.123 bit/pixel
Аудио #1: 48 kHz, AC3 Dolby Digital, 2 (L,R) ch, ~192.00 kbps avg | RUS (HDRezka Studio)
Аудио #2: 48 kHz, AC3 Dolby Digital, 2 (L,R) ch, ~256.00 kbps avg | RUS (Ljkmcrbq)-Дата премьеры (мир): 5 февраля 2019
Дата премьеры (РФ):
Цифровой релиз:

MediaInfo

Общее
Уникальный идентификатор : 310882166306596583328529282249952928757 (0xE9E1BA321336C87469CC24F508DD23F5)
Полное имя : F:OlLanDGroupThe.Wandering.Earth.2019.NF.WEB-DLRip(AVC).OlLanDGroup.mkv
Формат : Matroska
Версия формата : Version 4 / Version 2
Размер файла : 1,46 Гбайт
Продолжительность : 2 ч. 5 м.
Общий поток : 1665 Кбит/сек
Название фильма : The.Wandering.Earth.2019 #TorpedoUK#
Дата кодирования : UTC 2019-06-09 13:24:49
Программа кодирования : mkvmerge v29.0.0 ('Like It Or Not') 64-bit
Библиотека кодирования : libebml v1.3.6 + libmatroska v1.4.9
Видео
Идентификатор : 1
Формат : AVC
Формат/Информация : Advanced Video Codec
Профиль формата : High@L4.1
Параметр CABAC формата : Да
Параметр ReFrames формата : 10 кадров
Идентификатор кодека : V_MPEG4/ISO/AVC
Продолжительность : 2 ч. 5 м.
Битрейт : 1216 Кбит/сек
Ширина : 1024 пикселя
Высота : 402 пикселя
Соотношение сторон : 2,547
Режим частоты кадров : Постоянный
Частота кадров : 24,000 кадра/сек
Цветовое пространство : YUV
Субдискретизация насыщенности : 4:2:0
Битовая глубина : 8 бит
Тип развёртки : Прогрессивная
Бит/(Пиксели*Кадры) : 0.123
Размер потока : 1,07 Гбайт (73%)
Библиотека кодирования : x264 core 146 r2538 121396c
Настройки программы : cabac=1 / ref=10 / deblock=1:-2:-3 / analyse=0x3:0x113 / me=umh / subme=10 / psy=1 / psy_rd=0.95:0.07 / mixed_ref=1 / me_range=48 / chroma_me=1 / trellis=2 / 8x8dct=1 / cqm=0 / deadzone=21,11 / fast_pskip=1 / chroma_qp_offset=-3 / threads=6 / lookahead_threads=1 / sliced_threads=0 / nr=0 / decimate=1 / interlaced=0 / bluray_compat=0 / constrained_intra=0 / bframes=11 / b_pyramid=2 / b_adapt=2 / b_bias=0 / direct=3 / weightb=1 / open_gop=0 / weightp=2 / keyint=240 / keyint_min=24 / scenecut=40 / intra_refresh=0 / rc_lookahead=40 / rc=2pass / mbtree=0 / bitrate=1216 / ratetol=1.0 / qcomp=0.60 / qpmin=0 / qpmax=69 / qpstep=4 / cplxblur=20.0 / qblur=0.5 / vbv_maxrate=50000 / vbv_bufsize=62500 / nal_hrd=none / filler=0 / ip_ratio=1.40 / pb_ratio=1.30 / aq=1:1.00
Default : Да
Forced : Нет
Аудио #1
Идентификатор : 2
Формат : AC-3
Формат/Информация : Audio Coding 3
Расширение режима : CM (complete main)
Параметр Endianness формата : Big
Идентификатор кодека : A_AC3
Продолжительность : 2 ч. 5 м.
Вид битрейта : Постоянный
Битрейт : 192 Кбит/сек
Каналы : 2 канала
Расположение каналов : Front: L R
Частота : 48,0 КГц
Частота кадров : 31,250 кадров/сек (1536 spf)
Битовая глубина : 16 бит
Метод сжатия : С потерями
Размер потока : 172 Мбайт (12%)
Заголовок : MVO [HDRezka Studio]
Язык : Russian
Default : Да
Forced : Нет
Аудио #2
Идентификатор : 3
Формат : AC-3
Формат/Информация : Audio Coding 3
Расширение режима : CM (complete main)
Параметр Endianness формата : Big
Идентификатор кодека : A_AC3
Продолжительность : 2 ч. 5 м.
Вид битрейта : Постоянный
Битрейт : 256 Кбит/сек
Каналы : 2 канала
Расположение каналов : Front: L R
Частота : 48,0 КГц
Частота кадров : 31,250 кадров/сек (1536 spf)
Битовая глубина : 16 бит
Метод сжатия : С потерями
Размер потока : 229 Мбайт (15%)
Заголовок : AVO [Дольский]
Язык : Russian
Default : Нет
Forced : Нет
Текст #1
Идентификатор : 4
Формат : UTF-8
Идентификатор кодека : S_TEXT/UTF8
Идентификатор кодека/Информация : UTF-8 Plain Text
Продолжительность : 1 ч. 57 м.
Битрейт : 4 бит/сек
Count of elements : 88
Размер потока : 3,60 Кбайт (0%)
Заголовок : Forced
Язык : Russian
Default : Да
Forced : Нет
Текст #2
Идентификатор : 5
Формат : UTF-8
Идентификатор кодека : S_TEXT/UTF8
Идентификатор кодека/Информация : UTF-8 Plain Text
Продолжительность : 1 ч. 59 м.
Битрейт : 90 бит/сек
Count of elements : 1738
Размер потока : 78,9 Кбайт (0%)
Заголовок : Full
Язык : Russian
Default : Нет
Forced : Нет
Текст #3
Идентификатор : 6
Формат : UTF-8
Идентификатор кодека : S_TEXT/UTF8
Идентификатор кодека/Информация : UTF-8 Plain Text
Продолжительность : 1 ч. 58 м.
Битрейт : 59 бит/сек
Count of elements : 1653
Размер потока : 51,6 Кбайт (0%)
Заголовок : Full
Язык : English
Default : Нет
Forced : Нет
Текст #4
Идентификатор : 7
Формат : UTF-8
Идентификатор кодека : S_TEXT/UTF8
Идентификатор кодека/Информация : UTF-8 Plain Text
Продолжительность : 1 ч. 58 м.
Битрейт : 80 бит/сек
Count of elements : 2244
Размер потока : 69,7 Кбайт (0%)
Заголовок : SDH
Язык : English
Default : Нет
Forced : Нет

Скриншоты



admin

Post 20-May-2019 05:56

[Quote]

Слежка / Холодные глаза / Cold Eyes / Gamshijadeul
Год выпуска: 2013
Страна: Южная Корея
Жанр: детектив, экшн
Продолжительность: 01:58:57
Перевод: Любительский (двухголосый)
Русские субтитры: есть
Оригинальная аудиодорожка: Корейский
Режиссер: Чо Ый Сок / Jo Eui-seok, Ким Бён Со / Kim Byeong-seo
В ролях: Хан Хе Чжу, Соль Гён Гу, Чон У Сон, Ли Чун Хо
Описание: Новенькая сотрудница полицейского отдела наружного наблюдения Ха Ен Чжу вместе с мудрым наставником, и по совместительству шефом, Хван Сан Чжуном ловят группу преступников, виновных в дерзких ограблениях. В отделе отборные специалисты, но и их противник, опасный и таинственный главарь группировки, тоже не лыком шит.
На противостоянии интеллекта, опыта, инстинкта и, конечно, незаурядной концентрации внимания, строится основной конфликт этого фильма.
Доп. информация:
За перевод и предоставленные субтитры огромное спасибо indiotka
Озвучивание Ворон и Wenlana
Качество: HDRip
Исходник: Cold.Eyes.2013.720p.BluRay.x264-WiKi
Формат видео: avi
Видео: 720x304 (2.37:1), 24 fps, XviD MPEG-4 ~1722 kbps avg, 0.33 bit/pixel
Аудио: 48 kHz, AC3 Dolby Digital, 3/2 (L,C,R,l,r) + LFE ch, ~448 kbps (Русский)
Аудио: 48 kHz, AC3 Dolby Digital, 3/2 (L,C,R,l,r) + LFE ch, ~448 kbps (Корейский)
Формат субтитров: softsub (srt)

Скриншоты

Пример Субтитров

1
00:01:07,454 --> 00:01:09,454
Соль Гён Гу.
2
00:01:11,454 --> 00:01:13,454
Чон У Сон.
3
00:01:19,054 --> 00:01:20,654
Хан Хе Чжу.
4
00:01:57,720 --> 00:01:58,920
Алло.
5
00:01:58,920 --> 00:02:01,920
Это "Национальная кухня"?
Я могу сделать заказ?
6
00:02:02,520 --> 00:02:04,320
Конечно.
Подождите минутку.
7
00:02:12,720 --> 00:02:13,920
Слушаю. Говорите.
8
00:02:13,920 --> 00:02:16,920
Одну коробку номера 7
и три коробки номера 12.
9
00:02:30,720 --> 00:02:31,920
Что вы делаете?
10
00:02:32,520 --> 00:02:34,920
Вы вообще смотрите,
куда идете?
11
00:02:34,920 --> 00:02:36,720
Ну вот, все помялось.
12
00:02:39,120 --> 00:02:42,120
Дайте сюда!
Ненормальный.
13
00:02:54,720 --> 00:02:55,920
Да.
14
00:03:00,120 --> 00:03:01,320
Я понял.
15
00:03:12,120 --> 00:03:16,320
Следующая станция Ёксам.
16
00:05:55,680 --> 00:05:56,880
Говори.
17
00:06:06,480 --> 00:06:07,080
Что?
18
00:06:17,880 --> 00:06:19,680
Громче, не слышу ничего.
19
00:06:29,880 --> 00:06:31,080
Я перезвоню.
20
00:06:34,080 --> 00:06:40,080
Благодарим вас за посещение
нашего банка.
21
00:06:40,080 --> 00:06:43,680
Наш банк работает до четырех часов
тридцати минут.
22
00:06:46,080 --> 00:06:52,680
В ближайшее время ожидаются
автобусы 18, 468, 003, 100.
23
00:06:59,280 --> 00:07:00,480
Я уже заканчиваю.
Пока.
24
00:07:22,080 --> 00:07:23,280
1100 вон.
25
00:07:23,880 --> 00:07:26,280
Блин, еще 100.
26
00:07:28,680 --> 00:07:32,880
Блин, была ж вроде
еще сотня?
27
00:07:36,480 --> 00:07:37,680
Я возьму это.
28
00:08:58,680 --> 00:09:00,480
На перекрестке неисправна сигнальная лампа.
29
00:09:01,680 --> 00:09:05,880
Отчет о неисправности: повреждена сигнальная лампа.
Машина №11, займитесь.

отчет MediaInfo

Формат : AVI
Формат/Информация : Audio Video Interleave
Профиль формата : OpenDML
Размер файла : 2,18 Гбайт
Продолжительность : 1 ч. 59 м.
Общий поток : 2626 Кбит/сек
Программа кодирования : VirtualDubMod 1.5.10.2 (build 2542/release)
Библиотека кодирования : VirtualDubMod build 2542/release
Видео
Идентификатор : 0
Формат : MPEG-4 Visual
Профиль формата : Advanced Simple@L5
Параметр BVOP формата : 2
Параметр QPel формата : Нет
Параметр GMC формата : Без точки перехода
Параметр матрицы формата : Default (MPEG)
Идентификатор кодека : XVID
Идентификатор кодека/Подсказка : XviD
Продолжительность : 1 ч. 59 м.
Битрейт : 1712 Кбит/сек
Ширина : 720 пикселей
Высота : 304 пикселя
Соотношение сторон : 2,35:1
Частота кадров : 24,000 кадра/сек
Цветовое пространство : YUV
Субдискретизация насыщенности : 4:2:0
Битовая глубина : 8 бит
Тип развёртки : Прогрессивная
Метод сжатия : С потерями
Бит/(Пиксели*Кадры) : 0.326
Размер потока : 1,42 Гбайт (65%)
Библиотека кодирования : XviD 1.2.1 (UTC 2008-12-04)
Аудио #1
Идентификатор : 1
Формат : AC-3
Формат/Информация : Audio Coding 3
Расширение режима : CM (complete main)
Параметр Endianness формата : Big
Идентификатор кодека : 2000
Продолжительность : 1 ч. 59 м.
Вид битрейта : Постоянный
Битрейт : 448 Кбит/сек
Каналы : 6 каналов
Расположение каналов : Front: L C R, Side: L R, LFE
Частота : 48,0 КГц
Битовая глубина : 16 бит
Метод сжатия : С потерями
Размер потока : 381 Мбайт (17%)
Выравнивание : Разделение по промежуткам
Продолжительность промежутка : 42 мс. (1,00 видеокадр)
Время предзагрузки промежутка : 500 мс.
Аудио #2
Идентификатор : 2
Формат : AC-3
Формат/Информация : Audio Coding 3
Расширение режима : CM (complete main)
Параметр Endianness формата : Big
Идентификатор кодека : 2000
Продолжительность : 1 ч. 59 м.
Вид битрейта : Постоянный
Битрейт : 448 Кбит/сек
Каналы : 6 каналов
Расположение каналов : Front: L C R, Side: L R, LFE
Частота : 48,0 КГц
Битовая глубина : 16 бит
Метод сжатия : С потерями
Размер потока : 381 Мбайт (17%)
Выравнивание : Разделение по промежуткам
Продолжительность промежутка : 42 мс. (1,00 видеокадр)
Время предзагрузки промежутка : 500 мс.

admin

Post 14-May-2019 08:24

[Quote]

Информация о фильме
Название: Детектив Ди: Четыре Небесных царя
Оригинальное название: Di Renjie: zhi si da tian wang
Год выхода: 2018
Жанр: Фэнтези, боевик, детектив, приключения
Режиссер: Харк Цуй
В ролях: Марк Чао, Карина Лау, Уилльям Фэн, Кенни Лин, Сандра Ма, Этан Жуань
О фильме:
За заслуги перед отечеством император дарует детективу Ди могущественный артефакт — Жезл Укрощения Драконов. Но императрица недовольна этим жестом, она считает, что таким образом император поставил под угрозу их власть, и Жезл надо немедленно вернуть. Миссия поручается давнему товарищу Ди, а в помощь ему императрица приставляет боевых магов. Но детектив Ди предвидел, что за артефактом начнется охота, и предпринял соответствующие меры.

Страна: Китай, Гонконг
Студия: Huayi Brothers
Продолжительность: 02:11:47
Перевод: Профессиональный многоголосый | HDRezka Studio
Файл
Кодек: AVC
Качество: BDRip-AVC
Видео: MPEG-4 AVC, 2000 Kбит/с, 1024x552, 24.000 кадр/с
Аудио #1: Русский (АС3, 2ch, 192 Кбит/с, 48.0 KHz) Профессиональный (многоголосый, закадровый) HDRezka Studio
Аудио #2: Китайский (АС3, 6ch, 384 Кбит/с, 48.0 KHz)
Субтитры: Русские, английские(*srt)

MediaInfo

General
Unique ID : 196222101340576519544390933294998516086 (0x939F0087CE6C5BBBAABC69925E227176)
Complete name : Detective.Dee.The.Four.Heavenly.Kings.2018.BDRip.mkv
Format : Matroska
Format version : Version 4 / Version 2
File size : 2.37 GiB
Duration : 2 h 11 min
Overall bit rate : 2 578 kb/s
Encoded date : UTC 2019-05-13 16:20:08
Writing application : mkvmerge v7.1.0 ('Good Love') 64bit built on Jul 27 2014 13:06:55
Writing library : libebml v1.3.0 + libmatroska v1.4.1
Video
ID : 1
Format : AVC
Format/Info : Advanced Video Codec
Format profile : High@L4.1
Format settings, CABAC : Yes
Format settings, RefFrames : 9 frames
Codec ID : V_MPEG4/ISO/AVC
Duration : 2 h 11 min
Bit rate : 2 000 kb/s
Width : 1 024 pixels
Height : 552 pixels
Display aspect ratio : 1.85:1
Frame rate mode : Constant
Frame rate : 24.000 FPS
Color space : YUV
Chroma subsampling : 4:2:0
Bit depth : 8 bits
Scan type : Progressive
Bits/(Pixel*Frame) : 0.147
Stream size : 1.84 GiB (78%)
Writing library : x264 core 148 r2638 7599210
Encoding settings : cabac=1 / ref=9 / deblock=1:-3:-3 / analyse=0x3:0x133 / me=umh / subme=11 / psy=1 / psy_rd=1.00:0.20 / mixed_ref=1 / me_range=48 / chroma_me=1 / trellis=2 / 8x8dct=1 / cqm=0 / deadzone=21,11 / fast_pskip=1 / chroma_qp_offset=-3 / threads=6 / lookahead_threads=1 / sliced_threads=0 / nr=0 / decimate=1 / interlaced=0 / bluray_compat=0 / constrained_intra=0 / bframes=10 / b_pyramid=2 / b_adapt=2 / b_bias=0 / direct=3 / weightb=1 / open_gop=0 / weightp=2 / keyint=250 / keyint_min=23 / scenecut=40 / intra_refresh=0 / rc_lookahead=60 / rc=2pass / mbtree=1 / bitrate=2000 / ratetol=1.0 / qcomp=0.60 / qpmin=0 / qpmax=69 / qpstep=4 / cplxblur=20.0 / qblur=0.5 / ip_ratio=1.40 / aq=1:1.00
Language : English
Default : Yes
Forced : No
Audio #1
ID : 2
Format : AC-3
Format/Info : Audio Coding 3
Format settings, Endianness : Big
Codec ID : A_AC3
Duration : 2 h 11 min
Bit rate mode : Constant
Bit rate : 192 kb/s
Channel(s) : 2 channels
Channel positions : Front: L R
Sampling rate : 48.0 kHz
Frame rate : 31.250 FPS (1536 SPF)
Bit depth : 16 bits
Compression mode : Lossy
Stream size : 181 MiB (7%)
Title : MVO | HDRezka Studio
Language : Russian
Service kind : Complete Main
Default : Yes
Forced : No
Audio #2
ID : 3
Format : AC-3
Format/Info : Audio Coding 3
Format settings, Endianness : Big
Codec ID : A_AC3
Duration : 2 h 11 min
Bit rate mode : Constant
Bit rate : 384 kb/s
Channel(s) : 6 channels
Channel positions : Front: L C R, Side: L R, LFE
Sampling rate : 48.0 kHz
Frame rate : 31.250 FPS (1536 SPF)
Bit depth : 16 bits
Compression mode : Lossy
Stream size : 362 MiB (15%)
Language : Chinese
Service kind : Complete Main
Default : No
Forced : No
Text #1
ID : 4
Format : UTF-8
Codec ID : S_TEXT/UTF8
Codec ID/Info : UTF-8 Plain Text
Duration : 2 h 7 min
Bit rate : 83 b/s
Count of elements : 1422
Stream size : 77.9 KiB (0%)
Language : Russian
Default : No
Forced : No
Text #2
ID : 5
Format : UTF-8
Codec ID : S_TEXT/UTF8
Codec ID/Info : UTF-8 Plain Text
Duration : 2 h 7 min
Bit rate : 44 b/s
Count of elements : 1629
Stream size : 41.7 KiB (0%)
Language : English
Default : No
Forced : No
Menu
00:00:00.000 : en:00:00:00.000
00:09:40.750 : en:00:09:40.750
00:17:55.250 : en:00:17:55.250
00:26:05.042 : en:00:26:05.042
00:37:59.583 : en:00:37:59.583
00:46:15.917 : en:00:46:15.917
01:00:41.708 : en:01:00:41.708
01:08:50.458 : en:01:08:50.458
01:17:11.417 : en:01:17:11.417
01:25:24.458 : en:01:25:24.458
01:35:17.125 : en:01:35:17.125
01:43:23.500 : en:01:43:23.500
01:53:10.167 : en:01:53:10.167
02:03:56.583 : en:02:03:56.583

Скриншоты

admin

Post 07-May-2019 01:37

[Quote]

Информация о фильме
Название: Ведьма
Оригинальное название: Manyeo
Год выпуска: 2018
Жанр: Боевик, триллер, фантастика
Режиссер: Хун Чжон Пак
В ролях: Да Ми Ким, Мин Су Чо, У Шик Чхве, Мин Си Го, Хи Сун Пак, Да Ын Чон, Чон У Чхве, Ми Хи О, Бён Ок Ким, Ки Ён Ли (I), Тхэ Вон Квон
О фильме:
Обычная старшеклассница пережила потерю памяти, после чего девушку удочерила пожилая пара. Вроде бы, жизнь начала налаживаться, но однажды неподалеку от ее дома происходит убийство, а после героиня встречает человека, утверждающего, что убийство — ее рук дело. Обычная старшеклассница оказывается запрограммированной убийцей, результатом секретных экспериментов.

Страна: Корея Южная
Студия: Peppermint & Company
Продолжительность: 02:05:41
Перевод: Профессиональный (многоголосый, закадровый) | HDrezka Studio
Файл
Формат: AVI
Качество: BDRip | Blu-Ray 1080p |
Видео: XviD, 720x304, 23.976 fps, 2025 kbps
Аудио 1: AC3, 2 ch, 192 kbps | RUS
Аудио 2: AC3, 6 ch, 256 kbps | KOR
Субтитры: Русские (форс., полные) - отдельно | ненормативная лексика

Скриншоты

 

Current time is: 12-Dec 11:06

All times are UTC + 3