Search found 2 matches

Author Message

admin

Post 04-Apr-2021 14:54

[Quote]

Название: Душа
Оригинальное название: Soul
Год выхода: 2020
Производство: США / Pixar Animation Studios, Walt Disney Pictures
Жанр: Мультфильм, фэнтези, комедия, семейный
Перевод: Дублированный
Продолжительность: 01:40:32
Режиссеры: Пит Доктер, Кемп Пауэрс
В ролях: Джейми Фокс, Тина Фей, Грэм Нортон, Рэйчел Хаус, Анджела Бассетт, Алиси Брага, Ричард Айоади, Филисия Рашад, Доннел Роулингс, Амир-Халиб Томпсон
Описание: Главный герой мультфильма – Джо Гарднер, школьный учитель музыки, который мечтает играть джаз. Однажды удача улыбается ему, и он проходит прослушивание в джазовую группу – и уже вечером должен сесть за пианино и сыграть настоящий концерт на публике. Окрыленный, он идет домой, но по пути падает в люк – а после приходит в себя в неком странном месте (по сути, это некое пространство между жизнью и смертью). Там находятся юные души, которые еще не родились и которых нужно всему обучить. Решив во чтобы то ни стало вернуться на землю (ведь ему только-только начало везти!), Джо заключает союз с героем номер 22 – мятежной душой, которая не очень-то заинтересована в жизни на Земле. Затем Джо пытается показать 22, насколько прекрасен наш мир. В процессе этого он незаметно для себя придаст своей жизни новый смысл...
Формат: MKV
Качество: UHD BDRip-HEVC 1080p
Видео : HEVC/Х265, 1920x804, 4142 Kbps, 0.112 бит/(Пиксели*Кадры), 23.976 fps.
Аудио 01: AC3, 6 ch, 384 Kbps - Русский дублированный (iTunes)
Аудио 02: AC3, 6 ch, 384 Kbps - Украинский дублированный
Аудио 03: AC3, 6 ch, 640 Kbps - Английский
Субтитры: Русские (Full, Forced), украинские (Full, Forced), английские (Full, SDH)

Лог (x265 info) + Mediainfo

x265 [info]: Avg QP:12.37 kb/s
x265 [info]: Avg QP:13.89 kb/s
x265 [info]: Avg QP:16.10 kb/s
General
Unique ID : 319168566506470176707263933816844207876 (0xF01DA144AD9DC0C1B25864AA72624704)
Complete name : E:TorrentSoul (2020).mkv
Format : Matroska
Format version : Version 4
File size : 3.90 GiB
Duration : 1 h 40 min
Overall bit rate : 5 553 kb/s
Movie name : Soul (2020)
Encoded date : UTC 2021-04-02 03:30:38
Writing application : mkvmerge v54.0.0 ('F Maj Pixie') 64-bit
Writing library : libebml v1.4.2 + libmatroska v1.6.3
Cover : Yes
Attachments : cover
Video
ID : 1
Format : HEVC
Format/Info : High Efficiency Video Coding
Format profile : Main 10@L4.1@High
HDR format : SMPTE ST 2086, HDR10 compatible
Codec ID : V_MPEGH/ISO/HEVC
Duration : 1 h 40 min
Bit rate : 4 142 kb/s
Width : 1 920 pixels
Height : 804 pixels
Display aspect ratio : 2.40:1
Frame rate mode : Constant
Frame rate : 23.976 (23976/1000) FPS
Original frame rate : 23.976 (24000/1001) FPS
Color space : YUV
Chroma subsampling : 4:2:0 (Type 2)
Bit depth : 10 bits
Bits/(Pixel*Frame) : 0.112
Stream size : 2.91 GiB (75%)
Writing library : x265 3.4+10-g25b2c0703:[Windows][MSVC 1927][64 bit] 10bit
Encoding settings : cpuid=1111039 / frame-threads=4 / numa-pools=16 / wpp / no-pmode / no-pme / no-psnr / no-ssim / log-level=2 / input-csp=1 / input-res=1920x804 / interlace=0 / total-frames=144645 / level-idc=41 / high-tier=1 / uhd-bd=0 / ref=5 / no-allow-non-conformance / repeat-headers / annexb / no-aud / no-hrd / info / hash=0 / no-temporal-layers / open-gop / min-keyint=23 / keyint=240 / gop-lookahead=0 / bframes=16 / b-adapt=2 / b-pyramid / bframe-bias=0 / rc-lookahead=60 / lookahead-slices=4 / scenecut=40 / hist-scenecut=0 / radl=0 / no-splice / no-intra-refresh / ctu=32 / min-cu-size=8 / rect / no-amp / max-tu-size=32 / tu-inter-depth=4 / tu-intra-depth=4 / limit-tu=1 / rdoq-level=2 / dynamic-rd=0.00 / no-ssim-rd / signhide / no-tskip / nr-intra=0 / nr-inter=0 / no-constrained-intra / no-strong-intra-smoothing / max-merge=4 / limit-refs=2 / limit-modes / me=3 / subme=7 / merange=57 / temporal-mvp / no-frame-dup / no-hme / weightp / weightb / no-analyze-src-pics / deblock=-3:-3 / no-sao / no-sao-non-deblock / rd=6 / selective-sao=0 / no-early-skip / no-rskip / no-fast-intra / no-tskip-fast / no-cu-lossless / no-b-intra / no-splitrd-skip / rdpenalty=0 / psy-rd=2.00 / psy-rdoq=1.00 / no-rd-refine / no-lossless / cbqpoffs=0 / crqpoffs=0 / rc=crf / crf=17.0 / qcomp=0.60 / qpstep=4 / stats-write=0 / stats-read=0 / vbv-maxrate=50000 / vbv-bufsize=50000 / vbv-init=0.9 / crf-max=0.0 / crf-min=0.0 / ipratio=1.40 / pbratio=1.30 / aq-mode=1 / aq-strength=1.00 / no-cutree / zone-count=0 / no-strict-cbr / qg-size=32 / no-rc-grain / qpmax=69 / qpmin=0 / no-const-vbv / sar=1 / overscan=0 / videoformat=5 / range=0 / colorprim=9 / transfer=16 / colormatrix=9 / chromaloc=1 / chromaloc-top=2 / chromaloc-bottom=2 / display-window=0 / master-display=G(13250,34500)B(7500,3000)R(34000,16000)WP(15635,16450)L(10000000,0) / cll=0,0 / min-luma=0 / max-luma=1023 / log2-max-poc-lsb=8 / vui-timing-info / vui-hrd-info / slices=1 / no-opt-qp-pps / no-opt-ref-list-length-pps / no-multi-pass-opt-rps / scenecut-bias=0.05 / hist-threshold=0.01 / no-opt-cu-delta-qp / no-aq-motion / hdr10 / hdr10-opt / no-dhdr10-opt / no-idr-recovery-sei / analysis-reuse-level=0 / analysis-save-reuse-level=0 / analysis-load-reuse-level=0 / scale-factor=0 / refine-intra=0 / refine-inter=0 / refine-mv=1 / refine-ctu-distortion=0 / no-limit-sao / ctu-info=0 / no-lowpass-dct / refine-analysis-type=0 / copy-pic=1 / max-ausize-factor=1.0 / no-dynamic-refine / no-single-sei / no-hevc-aq / no-svt / no-field / qp-adaptation-range=1.00 / no-scenecut-aware-qpconformance-window-offsets / right=0 / bottom=0 / decoder-max-rate=0
Default : Yes
Forced : No
Color range : Limited
Color primaries : BT.2020
Transfer characteristics : PQ
Matrix coefficients : BT.2020 non-constant
Mastering display color primar : Display P3
Mastering display luminance : min: 0.0000 cd/m2, max: 1000 cd/m2
Audio #1
ID : 2
Format : AC-3
Format/Info : Audio Coding 3
Commercial name : Dolby Digital
Codec ID : A_AC3
Duration : 1 h 40 min
Bit rate mode : Constant
Bit rate : 384 kb/s
Channel(s) : 6 channels
Channel layout : L R C LFE Ls Rs
Sampling rate : 48.0 kHz
Frame rate : 31.250 FPS (1536 SPF)
Compression mode : Lossy
Delay relative to video : 731 ms
Stream size : 276 MiB (7%)
Title : Дубляж
Language : Russian
Service kind : Complete Main
Default : Yes
Forced : No
Audio #2
ID : 3
Format : E-AC-3
Format/Info : Enhanced AC-3
Commercial name : Dolby Digital Plus
Codec ID : A_EAC3
Duration : 1 h 40 min
Bit rate mode : Constant
Bit rate : 384 kb/s
Channel(s) : 6 channels
Channel layout : L R C LFE Ls Rs
Sampling rate : 48.0 kHz
Frame rate : 31.250 FPS (1536 SPF)
Compression mode : Lossy
Stream size : 276 MiB (7%)
Title : Дубляж
Language : Ukrainian
Service kind : Complete Main
Default : No
Forced : Yes
Audio #3
ID : 4
Format : AC-3
Format/Info : Audio Coding 3
Commercial name : Dolby Digital
Codec ID : A_AC3
Duration : 1 h 40 min
Bit rate mode : Constant
Bit rate : 640 kb/s
Channel(s) : 6 channels
Channel layout : L R C LFE Ls Rs
Sampling rate : 48.0 kHz
Frame rate : 31.250 FPS (1536 SPF)
Compression mode : Lossy
Stream size : 460 MiB (12%)
Language : English
Service kind : Complete Main
Default : No
Forced : No
Text #1
ID : 5
Format : UTF-8
Codec ID : S_TEXT/UTF8
Codec ID/Info : UTF-8 Plain Text
Duration : 1 h 9 min
Bit rate : 1 b/s
Count of elements : 22
Stream size : 1 016 Bytes (0%)
Title : Forced
Language : Russian
Default : Yes
Forced : No
Text #2
ID : 6
Format : UTF-8
Codec ID : S_TEXT/UTF8
Codec ID/Info : UTF-8 Plain Text
Duration : 1 h 39 min
Bit rate : 110 b/s
Count of elements : 1544
Stream size : 81.1 KiB (0%)
Title : Full
Language : Russian
Default : No
Forced : No
Text #3
ID : 7
Format : UTF-8
Codec ID : S_TEXT/UTF8
Codec ID/Info : UTF-8 Plain Text
Duration : 1 h 37 min
Bit rate : 1 b/s
Count of elements : 25
Stream size : 1.10 KiB (0%)
Title : Forced
Language : Ukrainian
Default : No
Forced : Yes
Text #4
ID : 8
Format : UTF-8
Codec ID : S_TEXT/UTF8
Codec ID/Info : UTF-8 Plain Text
Duration : 1 h 39 min
Bit rate : 100 b/s
Count of elements : 1341
Stream size : 73.2 KiB (0%)
Title : Full
Language : Ukrainian
Default : No
Forced : No
Text #5
ID : 9
Format : UTF-8
Codec ID : S_TEXT/UTF8
Codec ID/Info : UTF-8 Plain Text
Duration : 1 h 39 min
Bit rate : 68 b/s
Count of elements : 1576
Stream size : 49.8 KiB (0%)
Title : Full
Language : English
Default : No
Forced : No
Text #6
ID : 10
Format : UTF-8
Codec ID : S_TEXT/UTF8
Codec ID/Info : UTF-8 Plain Text
Duration : 1 h 40 min
Bit rate : 79 b/s
Count of elements : 1855
Stream size : 58.8 KiB (0%)
Title : SDH
Language : English
Default : No
Forced : No
Menu
00:00:00.000 : en:Joe
00:03:32.337 : en:Mom
00:04:57.923 : en:Audition
00:08:43.189 : en:Celebrate
00:09:18.892 : en:The Great Beyond
00:11:49.334 : en:Fall
00:12:29.457 : en:You Seminar
00:15:03.569 : en:Earth Portal
00:17:12.031 : en:Terry
00:18:24.687 : en:Theater
00:19:53.984 : en:Mentee 22
00:21:29.663 : en:Joe s Life
00:26:00.058 : en:Everything
00:29:47.786 : en:Meet the Mystics
00:36:07.916 : en:Alive
00:38:22.383 : en:Hospital Escape
00:39:53.307 : en:Nyc
00:41:55.805 : en:Moonwind
00:43:43.621 : en:Taxi
00:44:29.166 : en:Home
00:46:06.263 : en:Connie
00:49:38.183 : en:Tracking
00:50:40.537 : en:Line Up
00:51:28.126 : en:Barber
00:55:31.328 : en:Arrivel
00:56:59.791 : en:Rip
00:58:34.094 : en:Busker
01:00:31.794 : en:Suit
01:04:48.551 : en:Ready for Earth
01:07:53.361 : en:Pursuit
01:09:15.484 : en:Betrayed
01:12:33.974 : en:The Gig
01:15:32.361 : en:Lost
01:17:23.639 : en:Epiphany
01:21:15.453 : en:Ship Chase
01:22:57.806 : en:Rescue 22
01:26:43.323 : en:Earthbound
01:28:32.306 : en:Thank You
01:30:13.574 : en:End Credits

Скриншоты


admin

Post 02-Mar-2021 14:09

[Quote]

Информация о фильме
Название: Том и Джерри
Оригинальное название: Tom and Jerry
Год выхода: 2021
Жанр: Комедия, приключения, семейный, мультфильм
Режиссер: Тим Стори
В ролях: Хлоя Грейс Морец, Майкл Пенья, Роб Делани, Том, Джерри, Джордан Болджер, Пэтси Ферран, Паллави Шарда, Колин Жост, Соми Гуха, Аджай Чабра, Патрик Полетти, Дженис Ахерн, Камилла Арведсон, Кен Жонг, Джо Боун, Брайан Бовелл
О фильме:
Кайла, работница престижного отеля, где обитает мышонок Джерри, рискующий нарушить ход дорогой свадьбы, нанимает уличного кота Тома, чтобы разобраться с наглым грызуном. Но решить эту проблему не так-то просто.

Страна: Великобритания, Франция, Германия, США
Продолжительность: 01:41:02
Перевод: Профессиональный дублированный | Line
Файл
Кодек: H.265
Качество: WEB-DL 2160p
Видео: MPEG-H HEVC HDR Video, 3840x2160 (16:9), 23.976 fps, 17.9 Mb/s, 10 bit
Аудио 1: AC3, 48.0 kHz, 2 ch, 256 kb/s | RUS [DUB, Line] | Ред. Нечипорук
Аудио 2: E-AC3 JOC, 48.0 kHz, 6 ch, 768 kb/s | ENG [Оригинал]
Субтитры: Русские (Full[Focs]), английские (Full, SDH)
Сэмпл | Трейлер

Примечание

ЦитатаНечипорук писал:
Русская аудио-дорожка с дубляжом взята с онлайн кинотеатра. Она растянута, обработана компрессором и в ней полно аудио-рекламы, но при этом имеет очень красивый спектр. Поэтому я вырезал все русские диалоги и наложил их на оригинальную английскую дорожку. Её я перекодировал с Adobe Audition 2019 в стерео WAV и вырезал все английские диалоги на места наложенных русских диалогов и реплик в Sony Vegas Pro.

MI

General
Unique ID : 241520674313823651229867224715875380166 (0xB5B3309C4CF8F1E09C76FCAF6684EBC6)
Complete name : Tom.and.Jerry.(2021).WEB-DL.2160p.HDR.Line.mkv
Format : Matroska
Format version : Version 4
File size : 13.3 GiB
Duration : 1 h 41 min
Overall bit rate : 18.9 Mb/s
Encoded date : UTC 2021-02-28 19:51:47
Writing application : mkvmerge v8.3.0 ('Over the Horizon') 64bit
Writing library : libebml v1.3.1 + libmatroska v1.4.2
Video
ID : 1
Format : HEVC
Format/Info : High Efficiency Video Coding
Commercial name : HDR10
Format profile : Main 10@L5@Main
Codec ID : V_MPEGH/ISO/HEVC
Duration : 1 h 41 min
Bit rate : 17.9 Mb/s
Width : 3 840 pixels
Height : 2 160 pixels
Display aspect ratio : 16:9
Frame rate mode : Constant
Frame rate : 23.976 (24000/1001) FPS
Color space : YUV
Chroma subsampling : 4:2:0
Bit depth : 10 bits
Bits/(Pixel*Frame) : 0.090
Stream size : 12.6 GiB (95%)
Writing library : x265 3.4hy:[Linux][GCC 7.5.0][64 bit] 10bit
Encoding settings : cpuid=1111039 / frame-threads=1 / wpp / no-pmode / no-pme / no-psnr / no-ssim / log-level=2 / input-csp=1 / input-res=3840x2160 / interlace=0 / total-frames=0 / level-idc=0 / high-tier=1 / uhd-bd=0 / ref=4 / no-allow-non-conformance / repeat-headers / annexb / no-aud / no-hrd / info / hash=0 / no-temporal-layers / no-open-gop / min-keyint=96 / keyint=96 / gop-lookahead=0 / bframes=3 / b-adapt=2 / b-pyramid / bframe-bias=0 / rc-lookahead=25 / lookahead-slices=4 / scenecut=40 / hist-scenecut=0 / radl=0 / no-splice / no-intra-refresh / ctu=64 / min-cu-size=8 / rect / no-amp / max-tu-size=32 / tu-inter-depth=1 / tu-intra-depth=1 / limit-tu=0 / rdoq-level=2 / dynamic-rd=0.00 / no-ssim-rd / signhide / no-tskip / nr-intra=0 / nr-inter=0 / no-constrained-intra / strong-intra-smoothing / max-merge=3 / limit-refs=3 / limit-modes / me=3 / subme=3 / merange=57 / temporal-mvp / no-frame-dup / no-hme / weightp / no-weightb / no-analyze-src-pics / deblock=0:0 / sao / no-sao-non-deblock / rd=4 / selective-sao=4 / no-early-skip / rskip / no-fast-intra / no-tskip-fast / no-cu-lossless / no-b-intra / no-splitrd-skip / rdpenalty=0 / psy-rd=2.00 / psy-rdoq=1.00 / no-rd-refine / no-lossless / cbqpoffs=0 / crqpoffs=0 / rc=abr / bitrate=18000 / qcomp=0.60 / qpstep=4 / stats-write=0 / stats-read=2 / cplxblur=20.0 / qblur=0.5 / vbv-maxrate=24500 / vbv-bufsize=24500 / vbv-init=0.6 / vbv-end=0.6 / vbv-end-fr-adj=0.0 / ipratio=1.40 / pbratio=1.30 / aq-mode=2 / aq-strength=1.00 / cutree / zone-count=0 / no-strict-cbr / qg-size=32 / no-rc-grain / qpmax=69 / qpmin=0 / no-const-vbv / sar=0 / overscan=0 / videoformat=5 / range=0 / colorprim=9 / transfer=16 / colormatrix=9 / chromaloc=0 / display-window=0 / master-display=G(13250,34500)B(7500,3000)R(34000,16000)WP(15635,16450)L(10000000,1) / cll=537,113 / min-luma=0 / max-luma=1023 / log2-max-poc-lsb=8 / vui-timing-info / vui-hrd-info / no-concatenation / slices=1 / no-opt-qp-pps / no-opt-ref-list-length-pps / no-multi-pass-opt-rps / scenecut-bias=0.05 / hist-threshold=0.01 / no-opt-cu-delta-qp / no-aq-motion / hdr10 / no-hdr10-opt / no-dhdr10-opt / no-idr-recovery-sei / analysis-reuse-level=0 / analysis-save-reuse-level=0 / analysis-load-reuse-level=0 / scale-factor=0 / refine-intra=0 / refine-inter=0 / refine-mv=1 / refine-ctu-distortion=0 / no-limit-sao / ctu-info=0 / no-lowpass-dct / refine-analysis-type=0 / copy-pic=1 / max-ausize-factor=1.0 / no-dynamic-refine / no-single-sei / no-hevc-aq / no-svt / no-field / qp-adaptation-range=1.00 / no-scenecut-aware-qpconformance-window-offsets / right=0 / bottom=0 / decoder-max-rate=0
Default : Yes
Forced : No
Color range : Limited
Color primaries : BT.2020
Transfer characteristics : PQ
Matrix coefficients : BT.2020 non-constant
Mastering display color primaries : Display P3
Mastering display luminance : min: 0.0001 cd/m2, max: 1000 cd/m2
Maximum Content Light Level : 537 cd/m2
Maximum Frame-Average Light Level : 113 cd/m2
Audio #1
ID : 2
Format : AC-3
Format/Info : Audio Coding 3
Commercial name : Dolby Digital
Codec ID : A_AC3
Duration : 1 h 41 min
Bit rate mode : Constant
Bit rate : 256 kb/s
Channel(s) : 2 channels
Channel layout : L R
Sampling rate : 48.0 kHz
Frame rate : 31.250 FPS (1536 SPF)
Bit depth : 16 bits
Compression mode : Lossy
Stream size : 185 MiB (1%)
Title : DUB (Line)
Language : Russian
Service kind : Complete Main
Default : Yes
Forced : No
Audio #2
ID : 3
Format : E-AC-3 JOC
Format/Info : Enhanced AC-3 with Joint Object Coding
Commercial name : Dolby Digital Plus with Dolby Atmos
Codec ID : A_EAC3
Duration : 1 h 41 min
Bit rate mode : Constant
Bit rate : 768 kb/s
Channel(s) : 6 channels
Channel layout : L R C LFE Ls Rs
Sampling rate : 48.0 kHz
Frame rate : 31.250 FPS (1536 SPF)
Compression mode : Lossy
Stream size : 555 MiB (4%)
Language : English
Service kind : Complete Main
Default : No
Forced : No
Complexity index : 16
Number of dynamic objects : 15
Bed channel count : 1 channel
Bed channel configuration : LFE
Text #1
ID : 4
Format : UTF-8
Codec ID : S_TEXT/UTF8
Codec ID/Info : UTF-8 Plain Text
Duration : 1 h 40 min
Bit rate : 101 b/s
Count of elements : 1591
Stream size : 74.6 KiB (0%)
Title : Full (Focs)
Language : Russian
Default : No
Forced : No
Text #2
ID : 5
Format : UTF-8
Codec ID : S_TEXT/UTF8
Codec ID/Info : UTF-8 Plain Text
Duration : 1 h 39 min
Bit rate : 64 b/s
Count of elements : 1665
Stream size : 46.8 KiB (0%)
Title : Full
Language : English
Default : No
Forced : No
Text #3
ID : 6
Format : UTF-8
Codec ID : S_TEXT/UTF8
Codec ID/Info : UTF-8 Plain Text
Duration : 1 h 40 min
Bit rate : 89 b/s
Count of elements : 2310
Stream size : 66.0 KiB (0%)
Title : SDH
Language : English
Default : No
Forced : No

Скриншоты

 

Current time is: 28-Oct 10:16

All times are UTC + 3