Search found 7 matches

Author Message

admin

Post 06-May-2022 01:50

[Quote]

-Информация о фильме
Название: Плохие парни
Оригинальное название: The Bad Guys
Год выхода: 2022
Жанр: Мультфильм, комедия, криминал, приключения, семейный
Режиссер: Пьер Перифел
В ролях: Сэм Рокуэлл, Марк Мэрон, Аквафина, Крэйг Робинсон, Энтони Рамос, Ричард Айоади, Зази Битц, Алекс Борштейн, Лилли Сингх, Барбара Гудсон
Страна: США
Студия: DreamWorks Animation, Universal Pictures
Продолжительность: 01:40:07
Перевод: Профессиональный многоголосый
Файл
Качество: WEB-DL-HEVC 2160p
Контейнер: MKV
Видео: HEVC, 15.0 Mбит/с, 3840x1600, HDR10 Plus, 23.976 кадр/с, 10 бит
Аудио 01: Русский, AC-3, 48 kHz, 6 ch, 448 kbps - Jaskier
Аудио 02: Русский, AC-3, 48 kHz, 2 ch, 192 kbps - TVShows
Аудио 03: English, E-AC-3, 48 kHz, 6 ch, 640 kbps - Original
Субтитры: Русские (Full), английские (Full), английские (SDH)
Реклама: Отсутствует- - -Описание:
Мир еще не видел столь искусных авантюристов: ловкий карманник Мистер Волк, опытный взломщик сейфов Мистер Змей, хладнокровный мастер маскировки Мистер Акула, вспыльчивый и мускулистый Мистер Пиранья, а также остроумная хакер высшего класса Мисс Тарантула. Однако даже самые умные преступники иногда допускают ошибки. Чтобы спастись от неминуемый тюрьмы, главарь банды Мистер Волк вынужден идти на крайние меры: «Плохие парни» должны измениться в лучшую сторону. Или сделать вид? Но когда новый злодей угрожает городу, сможет ли Мистер Волк убедить остальных действительно стать… хорошими ребятами?

Скриншоты



admin

Post 04-Feb-2022 05:26

[Quote]

Информация о фильме
Название: Ледниковый период: Приключения Бака
Оригинальное название: The Ice Age Adventures of Buck Wild
Год выхода: 2022
Жанр: мультфильм, комедия, приключения, семейный
Режиссер: Грег Тирнан, Конрад Вернон, Лаура Бруссо
В ролях: Уткарш Амбудкар, Саймон Пегг, Винсент Тонг, Aaron Harris
О фильме:
Бесстрашный одноглазый хорек Бак объединяется с озорными братьями-опоссумами Крэшем и Эдди, когда они отправляются в новое приключение в мир динозавров.

Страна: США
Студия: 20th Century Studios, Bardel Entertainment Inc., Blue Sky Studios, Twentieth Century Animation
Продолжительность: 01:21:07
Перевод: Профессиональный (многоголосый закадровый) | HDRezka studio
Файл
Кодек: H.265
Качество: WEB-DL 2160p
Видео: MPEG-H HEVC HDR Video, 3840x2160 (16:9), 23.976 fps, 21.8 Mb/s, 10 bit
Аудио 1: AC3, 48.0 kHz, 6 ch, 448 kb/s | RUS [MVO, HDRezka Studio]
Аудио 2: AC3, 48.0 kHz, 6 ch, 384 kb/s | UKR [MVO, HDRezka Studio / DniproFilm]
Аудио 3: AC3, 48.0 kHz, 6 ch, 640 kb/s | ENG [Оригинал]
Субтитры: Русские (Forced, full), украинские (Forced), английские (Full, SDH)

MI

Общее
Уникальный идентификатор : 233844733641947901722398482579347562852 (0xAFECDB8430F610448945DFAECB596164)
Полное имя : The.Ice.Age.Adventures.of.Buck.Wild.(2022).WEB-DL.2160p.HDR.MVO.mkv
Формат : Matroska
Версия формата : Version 4 / Version 2
Размер файла : 13,2 Гбайт
Продолжительность : 1 ч. 21 м.
Общий поток : 23,3 Мбит/сек
Дата кодирования : UTC 2022-02-02 12:03:31
Программа кодирования : mkvmerge v8.3.0 ('Over the Horizon') 64bit
Библиотека кодирования : libebml v1.3.1 + libmatroska v1.4.2
Видео
Идентификатор : 1
Формат : HEVC
Формат/Информация : High Efficiency Video Coding
Профиль формата : Main 10@L5@Main
Идентификатор кодека : V_MPEGH/ISO/HEVC
Продолжительность : 1 ч. 21 м.
Битрейт : 21,8 Мбит/сек
Ширина : 3 840 пикселей
Высота : 2 160 пикселей
Соотношение сторон : 16:9
Режим частоты кадров : Постоянный
Частота кадров : 23,976 (24000/1001) кадра/сек
Цветовое пространство : YUV
Субдискретизация насыщенности : 4:2:0
Битовая глубина : 10 бит
Бит/(Пиксели*Кадры) : 0.110
Размер потока : 12,4 Гбайт (94%)
Библиотека кодирования : x265 3.5:[Linux][GCC 9.3.0][64 bit] 10bit
Настройки программы : cpuid=1111039 / frame-threads=1 / numa-pools=16 / wpp / no-pmode / no-pme / no-psnr / no-ssim / log-level=2 / input-csp=1 / input-res=3840x2160 / interlace=0 / total-frames=0 / level-idc=50 / high-tier=0 / uhd-bd=0 / ref=3 / no-allow-non-conformance / repeat-headers / annexb / no-aud / no-hrd / info / hash=0 / no-temporal-layers / no-open-gop / min-keyint=48 / keyint=48 / gop-lookahead=0 / bframes=2 / b-adapt=1 / b-pyramid / bframe-bias=0 / rc-lookahead=48 / lookahead-slices=8 / scenecut=0 / hist-scenecut=0 / radl=0 / no-splice / no-intra-refresh / ctu=32 / min-cu-size=8 / no-rect / no-amp / max-tu-size=16 / tu-inter-depth=2 / tu-intra-depth=2 / limit-tu=0 / rdoq-level=1 / dynamic-rd=0.00 / no-ssim-rd / signhide / no-tskip / nr-intra=0 / nr-inter=0 / no-constrained-intra / no-strong-intra-smoothing / max-merge=3 / limit-refs=1 / no-limit-modes / me=1 / subme=2 / merange=44 / temporal-mvp / no-frame-dup / no-hme / weightp / no-weightb / no-analyze-src-pics / deblock=0:0 / no-sao / no-sao-non-deblock / rd=4 / selective-sao=0 / early-skip / rskip / no-fast-intra / no-tskip-fast / no-cu-lossless / b-intra / no-splitrd-skip / rdpenalty=1 / psy-rd=1.60 / psy-rdoq=5.00 / no-rd-refine / no-lossless / cbqpoffs=0 / crqpoffs=0 / rc=abr / bitrate=23000 / qcomp=0.75 / qpstep=4 / stats-write=0 / stats-read=0 / vbv-maxrate=25000 / vbv-bufsize=25000 / vbv-init=0.9 / ipratio=1.40 / pbratio=1.30 / aq-mode=3 / aq-strength=1.00 / no-cutree / zone-count=0 / no-strict-cbr / qg-size=32 / no-rc-grain / qpmax=69 / qpmin=0 / no-const-vbv / sar=1 / overscan=0 / videoformat=5 / range=0 / colorprim=9 / transfer=16 / colormatrix=9 / chromaloc=0 / display-window=0 / cll=0,0 / min-luma=0 / max-luma=1023 / log2-max-poc-lsb=8 / vui-timing-info / vui-hrd-info / slices=1 / no-opt-qp-pps / no-opt-ref-list-length-pps / no-multi-pass-opt-rps / scenecut-bias=0.00 / hist-threshold=0.01 / no-opt-cu-delta-qp / no-aq-motion / no-hdr10 / hdr10-opt / no-dhdr10-opt / no-idr-recovery-sei / analysis-reuse-level=0 / analysis-save-reuse-level=0 / analysis-load-reuse-level=0 / scale-factor=0 / refine-intra=0 / refine-inter=0 / refine-mv=1 / refine-ctu-distortion=0 / no-limit-sao / ctu-info=0 / no-lowpass-dct / refine-analysis-type=0 / copy-pic=1 / max-ausize-factor=1.0 / no-dynamic-refine / no-single-sei / no-hevc-aq / no-svt / no-field / qp-adaptation-range=1.00 / no-scenecut-aware-qpconformance-window-offsets / right=0 / bottom=0
Default : Да
Forced : Нет
Цветовой диапазон : Limited
Основные цвета : BT.2020
Характеристики трансфера : PQ
Коэффициенты матрицы : BT.2020 non-constant
Аудио #1
Идентификатор : 2
Формат : AC-3
Формат/Информация : Audio Coding 3
Коммерческое название : Dolby Digital
Идентификатор кодека : A_AC3
Продолжительность : 1 ч. 21 м.
Вид битрейта : Постоянный
Битрейт : 448 Кбит/сек
Каналы : 6 каналов
Channel layout : L R C LFE Ls Rs
Частота : 48,0 КГц
Частота кадров : 31,250 кадров/сек (1536 SPF)
Метод сжатия : С потерями
Размер потока : 260 Мбайт (2%)
Заголовок : MVO (HDRezka Studio)
Язык : Russian
Service kind : Complete Main
Default : Да
Forced : Нет
Аудио #2
Идентификатор : 3
Формат : AC-3
Формат/Информация : Audio Coding 3
Коммерческое название : Dolby Digital
Идентификатор кодека : A_AC3
Продолжительность : 1 ч. 21 м.
Вид битрейта : Постоянный
Битрейт : 384 Кбит/сек
Каналы : 6 каналов
Channel layout : L R C LFE Ls Rs
Частота : 48,0 КГц
Частота кадров : 31,250 кадров/сек (1536 SPF)
Метод сжатия : С потерями
Размер потока : 223 Мбайт (2%)
Заголовок : MVO (HDRezka Studio / DniproFilm)
Язык : Ukrainian
Service kind : Complete Main
Default : Нет
Forced : Нет
Аудио #3
Идентификатор : 4
Формат : AC-3
Формат/Информация : Audio Coding 3
Коммерческое название : Dolby Digital
Идентификатор кодека : A_AC3
Продолжительность : 1 ч. 21 м.
Вид битрейта : Постоянный
Битрейт : 640 Кбит/сек
Каналы : 6 каналов
Channel layout : L R C LFE Ls Rs
Частота : 48,0 КГц
Частота кадров : 31,250 кадров/сек (1536 SPF)
Метод сжатия : С потерями
Размер потока : 371 Мбайт (3%)
Заголовок : Original
Язык : English
Service kind : Complete Main
Default : Нет
Forced : Нет
Текст #1
Идентификатор : 5
Формат : UTF-8
Идентификатор кодека : S_TEXT/UTF8
Идентификатор кодека/Информация : UTF-8 Plain Text
Продолжительность : 4 м. 42 с.
Битрейт : 3 бит/сек
Count of elements : 5
Размер потока : 124 байт (0%)
Заголовок : Forced
Язык : Russian
Default : Да
Forced : Нет
Текст #2
Идентификатор : 6
Формат : UTF-8
Идентификатор кодека : S_TEXT/UTF8
Идентификатор кодека/Информация : UTF-8 Plain Text
Продолжительность : 1 ч. 17 м.
Битрейт : 95 бит/сек
Count of elements : 1023
Размер потока : 53,9 Кбайт (0%)
Заголовок : Full
Язык : Russian
Default : Нет
Forced : Нет
Текст #3
Идентификатор : 7
Формат : UTF-8
Идентификатор кодека : S_TEXT/UTF8
Идентификатор кодека/Информация : UTF-8 Plain Text
Продолжительность : 4 м. 42 с.
Битрейт : 3 бит/сек
Count of elements : 5
Размер потока : 120 байт (0%)
Заголовок : Forced
Язык : Ukrainian
Default : Нет
Forced : Нет
Текст #4
Идентификатор : 8
Формат : UTF-8
Идентификатор кодека : S_TEXT/UTF8
Идентификатор кодека/Информация : UTF-8 Plain Text
Продолжительность : 1 ч. 17 м.
Битрейт : 63 бит/сек
Count of elements : 1065
Размер потока : 36,0 Кбайт (0%)
Заголовок : Full
Язык : English
Default : Нет
Forced : Нет
Текст #5
Идентификатор : 9
Формат : UTF-8
Идентификатор кодека : S_TEXT/UTF8
Идентификатор кодека/Информация : UTF-8 Plain Text
Продолжительность : 1 ч. 17 м.
Битрейт : 76 бит/сек
Count of elements : 1366
Размер потока : 43,4 Кбайт (0%)
Заголовок : SDH
Язык : English
Default : Нет
Forced : Нет

Скриншоты

admin

Post 29-Jan-2022 05:32

[Quote]

Информация о фильме
Название: Энканто
Оригинальное название: Encanto
Год выхода: 2021
Жанр: Мультфильм, мюзикл, фэнтези, комедия, приключения, семейный
Режиссер: Джаред Буш, Байрон Ховард, Чариз Кастро Смит
В ролях: Стефани Беатриз, Мария Сесилия Ботеро, Джон Легуизамо, Мауро Кастильо, Джессика Дарроу, Энджи Сепеда, Каролина Гайтан, Дайан Герреро, Уилмер Вальдеррама, Рензи Фелиз
О фильме:
Удивительная семья Мадригалов живет в спрятанном в горах Колумбии волшебном доме, расположенном в чудесном и очаровательном уголке под названием Энканто. Каждого ребёнка в семье Мадригалов магия этого места благословила уникальным даром - от суперсилы до способности исцелять. Увы, магия обошла стороной одну лишь юную Мирабель. Обнаружив, что магия Энканто находится в опасности, Мирабель решает, что именно она может быть последней надеждой на спасение своей особенной семьи.

Страна: США
Студия: Walt Disney Animation Studios, Walt Disney Pictures
Продолжительность: 01:42:47
Перевод: Дублированный[iTunes], любительский (двухголосый, закадровый)
Файл
Формат: MP4
Кодек: H.265
Качество: WebDL 2160p
Видео: HEVC, Dolby Vision Profile 5, 22,4 Mбит/с, 3840x2160, 23.976 кадр/с
Звук:
Аудио #1 Русский: AC3, 48.0 kHz, 5.1 ch, 384 Kbps [Дубляж, Невафильм]
Аудио #2 Русский: AC3, 48.0 kHz, 5.1 ch, 448 Kbps [DVO, Pazl Voice | Tnx.KinoPub]
Аудио #3 English: EAC3 JOC, 48.0 kHz, 5.1 ch, 768 Kbps [Original]
Субтитры: русские (форс., 2 х полные), английские (полные, SDH)
Дополнительная информация:
Релиз в MP4 в 5-м профиле Dolby Vision для воспроизведении на устройствах с поддержкой DV. Протестировано на тв-боксах Nvidia Shield 2019, Zidoo Z1000 Pro, Amazon FireTV Stick 4k, TiVo Stream 4K и Ugoos AM6+ и многих других, а также на встроенных плеерах телевизоров LG, Sony, Phillips и Panasonic.
На устройствах без поддержки Dolby Vision проигрываться не будет(или будет, но с искаженными цветами), так как в видеоряде отсутствует HDR слой

Mediainfo

Общее
Полное имя : \Slid-NASFilmsEncanto.2021.DSNP.2160p.WEB-DL.DDP5.1.Atmos.DoVi.by.DVT.mp4
Формат : MPEG-4
Профиль формата : Base Media / Version 2
Идентификатор кодека : mp42 (isom/mp42/dby1)
Размер файла : 17,1 Гбайт
Продолжительность : 1 ч. 42 м.
Режим общего битрейта : Переменный
Общий поток : 23,9 Мбит/сек
Название фильма : Encanto (2021). Release by Dolby Vision Torrents
Дата кодирования : UTC 2022-01-28 17:25:12
Дата пометки : UTC 2022-01-28 17:25:12
Программа кодирования : GPAC-1.1.0-DEV-rev1027-g1daa0b5f-master
Видео
Идентификатор : 1
Формат : HEVC
Формат/Информация : High Efficiency Video Coding
Профиль формата : Main 10@L5.2@Main
HDR format : Dolby Vision, Version 1.0, dvhe.05.06, BL+RPU
Идентификатор кодека : dvhe
Идентификатор кодека/Информация : High Efficiency Video Coding with Dolby Vision
Продолжительность : 1 ч. 42 м.
Битрейт : 22,4 Мбит/сек
Ширина : 3 840 пикселей
Высота : 2 160 пикселей
Соотношение сторон : 16:9
Режим частоты кадров : Постоянный
Частота кадров : 23,976 (24000/1001) кадра/сек
Цветовое пространство : YUV
Субдискретизация насыщенности : 4:2:0 (Type 0)
Битовая глубина : 10 бит
Бит/(Пиксели*Кадры) : 0.112
Размер потока : 15,9 Гбайт (93%)
Заголовок : Encanto (2021). Release by Dolby Vision Torrents
Язык : English
Default : Да
Alternate group : 1
Дата пометки : UTC 2022-01-28 17:25:43
Цветовой диапазон : Full
Codec configuration box : hvcC+dvcC
Аудио #1
Идентификатор : 2
Формат : AC-3
Формат/Информация : Audio Coding 3
Коммерческое название : Dolby Digital
Идентификатор кодека : ac-3
Продолжительность : 1 ч. 42 м.
Вид битрейта : Постоянный
Битрейт : 384 Кбит/сек
Максимальный битрейт : 406 Кбит/сек
Каналы : 6 каналов
Channel layout : L R C LFE Ls Rs
Частота : 48,0 КГц
Частота кадров : 31,250 кадров/сек (1536 SPF)
Метод сжатия : С потерями
Размер потока : 282 Мбайт (2%)
Заголовок : Dub, Невафильм
Язык : Russian
Service kind : Complete Main
Дата кодирования : UTC 2022-01-28 17:25:32
Дата пометки : UTC 2022-01-28 17:25:43
Аудио #2
Идентификатор : 3
Формат : AC-3
Формат/Информация : Audio Coding 3
Коммерческое название : Dolby Digital
Идентификатор кодека : ac-3
Продолжительность : 1 ч. 42 м.
Вид битрейта : Постоянный
Битрейт : 448 Кбит/сек
Максимальный битрейт : 473 Кбит/сек
Каналы : 6 каналов
Channel layout : L R C LFE Ls Rs
Частота : 48,0 КГц
Частота кадров : 31,250 кадров/сек (1536 SPF)
Метод сжатия : С потерями
Размер потока : 327 Мбайт (2%)
Заголовок : DVO, Pazl Voice
Язык : Russian
Service kind : Complete Main
Default : Нет
Дата кодирования : UTC 2021-12-27 07:56:44
Дата пометки : UTC 2022-01-28 17:25:43
Аудио #3
Идентификатор : 4
Формат : E-AC-3 JOC
Формат/Информация : Enhanced AC-3 with Joint Object Coding
Коммерческое название : Dolby Digital Plus with Dolby Atmos
Идентификатор кодека : ec-3
Продолжительность : 1 ч. 42 м.
Вид битрейта : Постоянный
Битрейт : 768 Кбит/сек
Максимальный битрейт : 811 Кбит/сек
Каналы : 6 каналов
Channel layout : L R C LFE Ls Rs
Частота : 48,0 КГц
Частота кадров : 31,250 кадров/сек (1536 SPF)
Метод сжатия : С потерями
Размер потока : 561 Мбайт (3%)
Заголовок : Original
Язык : English
Service kind : Complete Main
Default : Нет
Alternate group : 1
Дата пометки : UTC 2022-01-28 17:25:43
Complexity index : Not present / 16
Number of dynamic objects : 15
Bed channel count : 1 канал
Bed channel configuration : LFE
Текст #1
Идентификатор : 5
Формат : Timed Text
Идентификатор кодека : tx3g
Продолжительность : 1 ч. 14 м.
Вид битрейта : Переменный
Битрейт : 0 бит/сек
Размер потока : 86,0 байт (0%)
Заголовок : Forced
Язык : Russian
Default : Да
Forced : Нет
Alternate group : 2
Дата кодирования : UTC 2022-01-28 17:25:43
Дата пометки : UTC 2022-01-28 17:25:43
Текст #2
Идентификатор : 6
Формат : Timed Text
Идентификатор кодека : tx3g
Продолжительность : 1 ч. 41 м.
Вид битрейта : Переменный
Битрейт : 95 бит/сек
Размер потока : 70,5 Кбайт (0%)
Заголовок : Full
Язык : Russian
Forced : Нет
Дата кодирования : UTC 2022-01-28 17:25:43
Дата пометки : UTC 2022-01-28 17:25:43
Текст #3
Идентификатор : 7
Формат : Timed Text
Идентификатор кодека : tx3g
Продолжительность : 1 ч. 31 м.
Вид битрейта : Переменный
Битрейт : 106 бит/сек
Размер потока : 70,4 Кбайт (0%)
Заголовок : Full, MENINSUB
Язык : Russian
Forced : Нет
Дата кодирования : UTC 2021-12-27 07:57:03
Дата пометки : UTC 2022-01-28 17:25:43
Текст #4
Идентификатор : 8
Формат : Timed Text
Идентификатор кодека : tx3g
Продолжительность : 1 ч. 37 м.
Вид битрейта : Переменный
Битрейт : 97 бит/сек
Размер потока : 69,1 Кбайт (0%)
Заголовок : Full
Язык : English
Forced : Нет
Дата пометки : UTC 2022-01-28 17:25:43
Текст #5
Идентификатор : 9
Формат : Timed Text
Идентификатор кодека : tx3g
Продолжительность : 1 ч. 37 м.
Вид битрейта : Переменный
Битрейт : 108 бит/сек
Размер потока : 77,2 Кбайт (0%)
Заголовок : SDH
Язык : English
Forced : Нет
Дата пометки : UTC 2022-01-28 17:25:43
Меню
00:00:00.000 : :Chapter 01
00:03:57.654 : :Chapter 02
00:09:49.297 : :Chapter 03
00:15:07.573 : :Chapter 04
00:16:54.889 : :Chapter 05
00:21:48.807 : :Chapter 06
00:24:54.910 : :Chapter 07
00:28:58.612 : :Chapter 08
00:31:10.619 : :Chapter 09
00:38:35.104 : :Chapter 10
00:44:57.820 : :Chapter 11
00:53:39.967 : :Chapter 12
01:01:22.345 : :Chapter 13
01:06:28.067 : :Chapter 14
01:11:41.255 : :Chapter 15
01:16:38.135 : :Chapter 16
01:24:25.394 : :Chapter 17
01:31:02.207 : :Chapter 18

Скриншоты

Невозможно получить скрины с нормальными цветами с PC, так как невозможно захватить кадр слоя DV если в видеоряде отсутствуют метаданные HDR.

admin

Post 15-Jan-2022 06:11

[Quote]

Информация о фильме
Название: Монстры на каникулах: Трансформания
Оригинальное название: Hotel Transylvania: Transformania
Год выхода: 2022
Жанр: Мультфильм, ужасы, фэнтези, комедия, приключения, семейный
Режиссер: Дерек Драймон, Дженнифер Клуска
В ролях: Брайан Халл, Энди Сэмберг, Селена Гомес, Кэтрин Хан, Стив Бушеми, Дэвид Спейд, Кигэн-Майкл Ки, Эшер Блинкофф, Брэд Эбрелл, Фрэн Дрешер
О фильме:
Все смешалось в отеле «Трансильвания»: таинственное изобретение Ван Хельсинга, «монстрифицирующий луч», ломается и случайно превращает Дракулу и его приятелей в людей, а Джонни — наоборот, в монстра. Лишенные своих способностей и привычного облика Драк с друзьями и Джонни, с неожиданным удовольствием раскрывающий свою монстрическую сущность, отправляются в кругосветное путешествие на поиски средства от трансформании. И, конечно, им не обойтись без помощи Мэвис, пока не стало слишком поздно и они не свели друг друга с ума.

Страна: США
Студия: Columbia Pictures Corporation, Media Rights Capital, Sony Pictures Animation
Продолжительность: 01:27:31
Перевод: Профессиональный дублированный [Amazon Prime Video]
Файл
Формат: MP4
Кодек: H.265
Качество: WebDL 2160p
Видео: HEVC, Dolby Vision Profile 5, 14,7 Mбит/с, 3832x2080, 23.976 кадр/с
Звук:
Аудио #1 Русский: EAC3, 48.0 kHz, 5.1 ch, 640 Kbps [Дубляж]
Аудио #2 English: EAC3 JOC, 48.0 kHz, 5.1 ch, 448 Kbps [Original]
Субтитры: русские (форс., полные), украинские (полные), английские (полные, SDH)
Дополнительная информация:
Релиз в MP4 в 5-м профиле Dolby Vision для воспроизведении на устройствах с поддержкой DV. Протестировано на тв-боксах Nvidia Shield 2019, Zidoo Z1000 Pro, Amazon FireTV Stick 4k, TiVo Stream 4K и Ugoos AM6+ и многих других, а также на встроенных плеерах телевизоров LG, Sony, Phillips и Panasonic.
На устройствах без поддержки Dolby Vision проигрываться не будет(или будет, но с искаженными цветами), так как в видеоряде отсутствует HDR слой

Mediainfo

Общее
Уникальный идентификатор : 183013789076941013552324666905111521659 (0x89AF2C751B4AAC44889827B8A83F697B)
Полное имя : \Slid-NASFilmsHotel.Transylvania.Transformania.2022.AMZN.WEB-DL.DDP5.1.Atmos.HDR10Plus.DoVi.Hybrid.P8.by.DVT.mkv
Формат : Matroska
Версия формата : Version 4
Размер файла : 9,67 Гбайт
Продолжительность : 1 ч. 27 м.
Общий поток : 15,8 Мбит/сек
Название фильма : Hotel Transylvania. Transformania (2022). Release by Dolby Vision Torrents
Дата кодирования : UTC 2022-01-14 08:52:28
Программа кодирования : mkvmerge v64.0.0 ('Willows') 64-bit
Библиотека кодирования : libebml v1.4.2 + libmatroska v1.6.4
Видео
Идентификатор : 1
Формат : HEVC
Формат/Информация : High Efficiency Video Coding
Профиль формата : Main 10@L5@Main
HDR format : Dolby Vision, Version 1.0, dvhe.08.06, BL+RPU, HDR10 compatible / SMPTE ST 2094 App 4, Version 1, HDR10+ Profile B compatible
Идентификатор кодека : V_MPEGH/ISO/HEVC
Продолжительность : 1 ч. 27 м.
Битрейт : 14,7 Мбит/сек
Ширина : 3 840 пикселей
Высота : 2 080 пикселей
Соотношение сторон : 1,85:1
Режим частоты кадров : Постоянный
Частота кадров : 23,976 (24000/1001) кадра/сек
Цветовое пространство : YUV
Субдискретизация насыщенности : 4:2:0
Битовая глубина : 10 бит
Бит/(Пиксели*Кадры) : 0.077
Размер потока : 9,00 Гбайт (93%)
Заголовок : Hotel Transylvania. Transformania (2022). Release by Dolby Vision Torrents
Язык : English
Default : Да
Forced : Нет
Цветовой диапазон : Limited
Основные цвета : BT.2020
Характеристики трансфера : PQ
Коэффициенты матрицы : BT.2020 non-constant
Mastering display color primaries : Display P3
Mastering display luminance : min: 0.0001 cd/m2, max: 1000 cd/m2
Maximum Content Light Level : 429 cd/m2
Maximum Frame-Average Light Level : 323 cd/m2
Аудио #1
Идентификатор : 2
Формат : E-AC-3
Формат/Информация : Enhanced AC-3
Коммерческое название : Dolby Digital Plus
Идентификатор кодека : A_EAC3
Продолжительность : 1 ч. 27 м.
Вид битрейта : Постоянный
Битрейт : 640 Кбит/сек
Каналы : 6 каналов
Channel layout : L R C LFE Ls Rs
Частота : 48,0 КГц
Частота кадров : 31,250 кадров/сек (1536 SPF)
Метод сжатия : С потерями
Размер потока : 401 Мбайт (4%)
Заголовок : Дубляж
Язык : Russian
Service kind : Complete Main
Default : Да
Forced : Нет
Аудио #2
Идентификатор : 3
Формат : E-AC-3 JOC
Формат/Информация : Enhanced AC-3 with Joint Object Coding
Коммерческое название : Dolby Digital Plus with Dolby Atmos
Идентификатор кодека : A_EAC3
Продолжительность : 1 ч. 27 м.
Вид битрейта : Постоянный
Битрейт : 448 Кбит/сек
Каналы : 6 каналов
Channel layout : L R C LFE Ls Rs
Частота : 48,0 КГц
Частота кадров : 31,250 кадров/сек (1536 SPF)
Метод сжатия : С потерями
Размер потока : 280 Мбайт (3%)
Заголовок : Original
Язык : English
Service kind : Complete Main
Default : Нет
Forced : Нет
Complexity index : 16
Number of dynamic objects : 15
Bed channel count : 1 канал
Bed channel configuration : LFE
Текст #1
Идентификатор : 4
Формат : UTF-8
Идентификатор кодека : S_TEXT/UTF8
Идентификатор кодека/Информация : UTF-8 Plain Text
Продолжительность : 1 ч. 25 м.
Битрейт : 1 бит/сек
Count of elements : 20
Размер потока : 787 байт (0%)
Заголовок : Forced
Язык : Russian
Default : Да
Forced : Нет
Текст #2
Идентификатор : 5
Формат : UTF-8
Идентификатор кодека : S_TEXT/UTF8
Идентификатор кодека/Информация : UTF-8 Plain Text
Продолжительность : 1 ч. 26 м.
Битрейт : 74 бит/сек
Count of elements : 1030
Размер потока : 47,4 Кбайт (0%)
Заголовок : Full
Язык : Russian
Default : Нет
Forced : Нет
Текст #3
Идентификатор : 6
Формат : UTF-8
Идентификатор кодека : S_TEXT/UTF8
Идентификатор кодека/Информация : UTF-8 Plain Text
Продолжительность : 1 ч. 26 м.
Битрейт : 73 бит/сек
Count of elements : 1029
Размер потока : 46,7 Кбайт (0%)
Заголовок : Full
Язык : Ukrainian
Default : Нет
Forced : Нет
Текст #4
Идентификатор : 7
Формат : UTF-8
Идентификатор кодека : S_TEXT/UTF8
Идентификатор кодека/Информация : UTF-8 Plain Text
Продолжительность : 1 ч. 27 м.
Битрейт : 61 бит/сек
Count of elements : 1749
Размер потока : 39,1 Кбайт (0%)
Заголовок : Full
Язык : English
Default : Нет
Forced : Нет
Текст #5
Идентификатор : 8
Формат : UTF-8
Идентификатор кодека : S_TEXT/UTF8
Идентификатор кодека/Информация : UTF-8 Plain Text
Продолжительность : 1 ч. 27 м.
Битрейт : 68 бит/сек
Count of elements : 1878
Размер потока : 43,6 Кбайт (0%)
Заголовок : SDH
Язык : English
Default : Нет
Forced : Нет
Меню
00:00:00.000 : :Amazon Original
00:00:06.000 : :Studio Logo
00:00:39.000 : :Scene 3
00:06:19.000 : :Scene 4
00:09:44.000 : :Scene 5
00:15:49.000 : :Scene 6
00:18:10.000 : :Scene 7
00:22:49.000 : :Scene 8
00:26:39.000 : :Scene 9
00:28:54.000 : :Scene 10
00:31:21.000 : :Scene 11
00:33:01.000 : :Scene 12
00:34:11.000 : :Scene 13
00:36:28.000 : :Scene 14
00:37:07.000 : :Scene 15
00:38:13.000 : :Scene 16
00:40:54.000 : :Scene 17
00:45:33.000 : :Scene 18
00:47:15.000 : :Scene 19
00:48:32.000 : :Scene 20
00:51:44.000 : :Scene 21
00:57:04.000 : :Scene 22
01:05:33.000 : :Scene 23
01:13:43.000 : :Scene 24
01:17:02.000 : :Scene 25
01:17:48.000 : :End Credits

Скриншоты

Невозможно получить скрины с нормальными цветами с PC, так как невозможно захватить кадр слоя DV если в видеоряде отсутствуют метаданные HDR.

admin

Post 11-Dec-2021 03:37

[Quote]

Информация о фильме
Название: Дорога домой
Оригинальное название: Back to the Outback
Год выхода: 2021
Жанр: мультфильм, комедия, приключения, семейный
Режиссер: Гарри Криппс, Клер Де Шеню
В ролях: Джеки Уивер, Рэйчел Хаус, Айла Фишер, Гай Пирс, Уэйн Найт, Эрик Бана, Дизель Ла Торрака, Тим Минчин, Джиа Каридес, Энгус Имри
О фильме:
Самые опасные животные Австралии устали быть запертыми в террариуме под взглядами любопытных посетителей. Они совершают побег, чтобы вернуться на природу и жить свободно. Бунт возглавляет ядовитая змея Мэдди, ее первый помощник — ящерица Зои, «шипастый дьявол», в компанию также входят волосатый паук Фрэнк и скорпион Найджел. В последний момент к ним присоединяется и коала Красавчик, хотя с ним друзья не в ладах и брать его с собой никто не собирался. Так начинается жуткое и веселое путешествие по Австралии.

Страна: Австралия, США
Студия: Netflix Animation, Reel FX Creative Studios, Weed Road Pictures
Продолжительность: 01:35:41
Перевод: Дублированный | Netflix
Субтитры: Русские (forced, full), английские SDH
Качество: WEB-DL-HEVC 1080p | HDR
Контейнер: MKV
Видео: MPEG-H HEVC Video / 3587 kbps / 1920x1080 / 23.976 fps / 16:9 / Main 10@L4@Main / 4:2:0 / 10 bits / 1000nits / HDR10 / BT.2020
Аудио 1: Russian E-AC3 / 5.1 / 48 kHz / 640 kbps |Dub, Пифагор|
Аудио 2: English E-AC3+Atmos / 5.1 / 48 kHz / 768 kbps |original|
Формат субтитров: softsub [SRT]

M/I

General
Unique ID : 81560561089195085096626727442940842352 (0x3D5BFE20D18906481F1251D02B1A5170)
Complete name : H:HDДорога домой.2021.WEB-DL.1080p.HDR.mkv
Format : Matroska
Format version : Version 4
File size : 3.25 GiB
Duration : 1 h 35 min
Overall bit rate : 4 858 kb/s
Encoded date : UTC 2021-12-10 08:57:48
Writing application : mkvmerge v63.0.0 ('Everything') 64-bit
Writing library : libebml v1.4.2 + libmatroska v1.6.4
Attachments : poster.jpg
Video
ID : 1
Format : HEVC
Format/Info : High Efficiency Video Coding
Format profile : Main 10@L4@Main
HDR format : SMPTE ST 2086, HDR10 compatible
Codec ID : V_MPEGH/ISO/HEVC
Duration : 1 h 31 min
Bit rate : 3 587 kb/s
Width : 1 920 pixels
Height : 1 080 pixels
Display aspect ratio : 16:9
Frame rate mode : Constant
Frame rate : 24.000 FPS
Color space : YUV
Chroma subsampling : 4:2:0 (Type 2)
Bit depth : 10 bits
Bits/(Pixel*Frame) : 0.072
Stream size : 2.30 GiB (71%)
Default : Yes
Forced : No
Color range : Limited
Color primaries : BT.2020
Transfer characteristics : PQ
Matrix coefficients : BT.2020 non-constant
Mastering display color primaries : Display P3
Mastering display luminance : min: 0.0001 cd/m2, max: 1000 cd/m2
Maximum Content Light Level : 7722 cd/m2
Maximum Frame-Average Light Level : 530 cd/m2
Audio #1
ID : 2
Format : E-AC-3
Format/Info : Enhanced AC-3
Commercial name : Dolby Digital Plus
Codec ID : A_EAC3
Duration : 1 h 35 min
Bit rate mode : Constant
Bit rate : 640 kb/s
Channel(s) : 6 channels
Channel layout : L R C LFE Ls Rs
Sampling rate : 48.0 kHz
Frame rate : 31.250 FPS (1536 SPF)
Compression mode : Lossy
Stream size : 438 MiB (13%)
Title : Dub, Пифагор
Language : Russian
Service kind : Complete Main
Default : Yes
Forced : No
Audio #2
ID : 3
Format : E-AC-3 JOC
Format/Info : Enhanced AC-3 with Joint Object Coding
Commercial name : Dolby Digital Plus with Dolby Atmos
Codec ID : A_EAC3
Duration : 1 h 35 min
Bit rate mode : Constant
Bit rate : 768 kb/s
Channel(s) : 6 channels
Channel layout : L R C LFE Ls Rs
Sampling rate : 48.0 kHz
Frame rate : 31.250 FPS (1536 SPF)
Compression mode : Lossy
Stream size : 526 MiB (16%)
Language : English
Service kind : Complete Main
Default : No
Forced : No
Complexity index : 16
Number of dynamic objects : 15
Bed channel count : 1 channel
Bed channel configuration : LFE
Text #1
ID : 4
Format : UTF-8
Codec ID : S_TEXT/UTF8
Codec ID/Info : UTF-8 Plain Text
Duration : 1 h 31 min
Bit rate : 2 b/s
Count of elements : 36
Stream size : 1.88 KiB (0%)
Title : forced
Language : Russian
Default : Yes
Forced : No
Text #2
ID : 5
Format : UTF-8
Codec ID : S_TEXT/UTF8
Codec ID/Info : UTF-8 Plain Text
Duration : 1 h 31 min
Bit rate : 94 b/s
Count of elements : 1257
Stream size : 63.4 KiB (0%)
Title : full
Language : Russian
Default : No
Forced : No
Text #3
ID : 6
Format : UTF-8
Codec ID : S_TEXT/UTF8
Codec ID/Info : UTF-8 Plain Text
Duration : 1 h 31 min
Bit rate : 87 b/s
Count of elements : 1820
Stream size : 58.9 KiB (0%)
Title : SDH
Language : English
Default : No
Forced : No

Скриншоты

admin

Post 04-Apr-2021 14:54

[Quote]

Название: Душа
Оригинальное название: Soul
Год выхода: 2020
Производство: США / Pixar Animation Studios, Walt Disney Pictures
Жанр: Мультфильм, фэнтези, комедия, семейный
Перевод: Дублированный
Продолжительность: 01:40:32
Режиссеры: Пит Доктер, Кемп Пауэрс
В ролях: Джейми Фокс, Тина Фей, Грэм Нортон, Рэйчел Хаус, Анджела Бассетт, Алиси Брага, Ричард Айоади, Филисия Рашад, Доннел Роулингс, Амир-Халиб Томпсон
Описание: Главный герой мультфильма – Джо Гарднер, школьный учитель музыки, который мечтает играть джаз. Однажды удача улыбается ему, и он проходит прослушивание в джазовую группу – и уже вечером должен сесть за пианино и сыграть настоящий концерт на публике. Окрыленный, он идет домой, но по пути падает в люк – а после приходит в себя в неком странном месте (по сути, это некое пространство между жизнью и смертью). Там находятся юные души, которые еще не родились и которых нужно всему обучить. Решив во чтобы то ни стало вернуться на землю (ведь ему только-только начало везти!), Джо заключает союз с героем номер 22 – мятежной душой, которая не очень-то заинтересована в жизни на Земле. Затем Джо пытается показать 22, насколько прекрасен наш мир. В процессе этого он незаметно для себя придаст своей жизни новый смысл...
Формат: MKV
Качество: UHD BDRip-HEVC 1080p
Видео : HEVC/Х265, 1920x804, 4142 Kbps, 0.112 бит/(Пиксели*Кадры), 23.976 fps.
Аудио 01: AC3, 6 ch, 384 Kbps - Русский дублированный (iTunes)
Аудио 02: AC3, 6 ch, 384 Kbps - Украинский дублированный
Аудио 03: AC3, 6 ch, 640 Kbps - Английский
Субтитры: Русские (Full, Forced), украинские (Full, Forced), английские (Full, SDH)

Лог (x265 info) + Mediainfo

x265 [info]: Avg QP:12.37 kb/s
x265 [info]: Avg QP:13.89 kb/s
x265 [info]: Avg QP:16.10 kb/s
General
Unique ID : 319168566506470176707263933816844207876 (0xF01DA144AD9DC0C1B25864AA72624704)
Complete name : E:TorrentSoul (2020).mkv
Format : Matroska
Format version : Version 4
File size : 3.90 GiB
Duration : 1 h 40 min
Overall bit rate : 5 553 kb/s
Movie name : Soul (2020)
Encoded date : UTC 2021-04-02 03:30:38
Writing application : mkvmerge v54.0.0 ('F Maj Pixie') 64-bit
Writing library : libebml v1.4.2 + libmatroska v1.6.3
Cover : Yes
Attachments : cover
Video
ID : 1
Format : HEVC
Format/Info : High Efficiency Video Coding
Format profile : Main 10@L4.1@High
HDR format : SMPTE ST 2086, HDR10 compatible
Codec ID : V_MPEGH/ISO/HEVC
Duration : 1 h 40 min
Bit rate : 4 142 kb/s
Width : 1 920 pixels
Height : 804 pixels
Display aspect ratio : 2.40:1
Frame rate mode : Constant
Frame rate : 23.976 (23976/1000) FPS
Original frame rate : 23.976 (24000/1001) FPS
Color space : YUV
Chroma subsampling : 4:2:0 (Type 2)
Bit depth : 10 bits
Bits/(Pixel*Frame) : 0.112
Stream size : 2.91 GiB (75%)
Writing library : x265 3.4+10-g25b2c0703:[Windows][MSVC 1927][64 bit] 10bit
Encoding settings : cpuid=1111039 / frame-threads=4 / numa-pools=16 / wpp / no-pmode / no-pme / no-psnr / no-ssim / log-level=2 / input-csp=1 / input-res=1920x804 / interlace=0 / total-frames=144645 / level-idc=41 / high-tier=1 / uhd-bd=0 / ref=5 / no-allow-non-conformance / repeat-headers / annexb / no-aud / no-hrd / info / hash=0 / no-temporal-layers / open-gop / min-keyint=23 / keyint=240 / gop-lookahead=0 / bframes=16 / b-adapt=2 / b-pyramid / bframe-bias=0 / rc-lookahead=60 / lookahead-slices=4 / scenecut=40 / hist-scenecut=0 / radl=0 / no-splice / no-intra-refresh / ctu=32 / min-cu-size=8 / rect / no-amp / max-tu-size=32 / tu-inter-depth=4 / tu-intra-depth=4 / limit-tu=1 / rdoq-level=2 / dynamic-rd=0.00 / no-ssim-rd / signhide / no-tskip / nr-intra=0 / nr-inter=0 / no-constrained-intra / no-strong-intra-smoothing / max-merge=4 / limit-refs=2 / limit-modes / me=3 / subme=7 / merange=57 / temporal-mvp / no-frame-dup / no-hme / weightp / weightb / no-analyze-src-pics / deblock=-3:-3 / no-sao / no-sao-non-deblock / rd=6 / selective-sao=0 / no-early-skip / no-rskip / no-fast-intra / no-tskip-fast / no-cu-lossless / no-b-intra / no-splitrd-skip / rdpenalty=0 / psy-rd=2.00 / psy-rdoq=1.00 / no-rd-refine / no-lossless / cbqpoffs=0 / crqpoffs=0 / rc=crf / crf=17.0 / qcomp=0.60 / qpstep=4 / stats-write=0 / stats-read=0 / vbv-maxrate=50000 / vbv-bufsize=50000 / vbv-init=0.9 / crf-max=0.0 / crf-min=0.0 / ipratio=1.40 / pbratio=1.30 / aq-mode=1 / aq-strength=1.00 / no-cutree / zone-count=0 / no-strict-cbr / qg-size=32 / no-rc-grain / qpmax=69 / qpmin=0 / no-const-vbv / sar=1 / overscan=0 / videoformat=5 / range=0 / colorprim=9 / transfer=16 / colormatrix=9 / chromaloc=1 / chromaloc-top=2 / chromaloc-bottom=2 / display-window=0 / master-display=G(13250,34500)B(7500,3000)R(34000,16000)WP(15635,16450)L(10000000,0) / cll=0,0 / min-luma=0 / max-luma=1023 / log2-max-poc-lsb=8 / vui-timing-info / vui-hrd-info / slices=1 / no-opt-qp-pps / no-opt-ref-list-length-pps / no-multi-pass-opt-rps / scenecut-bias=0.05 / hist-threshold=0.01 / no-opt-cu-delta-qp / no-aq-motion / hdr10 / hdr10-opt / no-dhdr10-opt / no-idr-recovery-sei / analysis-reuse-level=0 / analysis-save-reuse-level=0 / analysis-load-reuse-level=0 / scale-factor=0 / refine-intra=0 / refine-inter=0 / refine-mv=1 / refine-ctu-distortion=0 / no-limit-sao / ctu-info=0 / no-lowpass-dct / refine-analysis-type=0 / copy-pic=1 / max-ausize-factor=1.0 / no-dynamic-refine / no-single-sei / no-hevc-aq / no-svt / no-field / qp-adaptation-range=1.00 / no-scenecut-aware-qpconformance-window-offsets / right=0 / bottom=0 / decoder-max-rate=0
Default : Yes
Forced : No
Color range : Limited
Color primaries : BT.2020
Transfer characteristics : PQ
Matrix coefficients : BT.2020 non-constant
Mastering display color primar : Display P3
Mastering display luminance : min: 0.0000 cd/m2, max: 1000 cd/m2
Audio #1
ID : 2
Format : AC-3
Format/Info : Audio Coding 3
Commercial name : Dolby Digital
Codec ID : A_AC3
Duration : 1 h 40 min
Bit rate mode : Constant
Bit rate : 384 kb/s
Channel(s) : 6 channels
Channel layout : L R C LFE Ls Rs
Sampling rate : 48.0 kHz
Frame rate : 31.250 FPS (1536 SPF)
Compression mode : Lossy
Delay relative to video : 731 ms
Stream size : 276 MiB (7%)
Title : Дубляж
Language : Russian
Service kind : Complete Main
Default : Yes
Forced : No
Audio #2
ID : 3
Format : E-AC-3
Format/Info : Enhanced AC-3
Commercial name : Dolby Digital Plus
Codec ID : A_EAC3
Duration : 1 h 40 min
Bit rate mode : Constant
Bit rate : 384 kb/s
Channel(s) : 6 channels
Channel layout : L R C LFE Ls Rs
Sampling rate : 48.0 kHz
Frame rate : 31.250 FPS (1536 SPF)
Compression mode : Lossy
Stream size : 276 MiB (7%)
Title : Дубляж
Language : Ukrainian
Service kind : Complete Main
Default : No
Forced : Yes
Audio #3
ID : 4
Format : AC-3
Format/Info : Audio Coding 3
Commercial name : Dolby Digital
Codec ID : A_AC3
Duration : 1 h 40 min
Bit rate mode : Constant
Bit rate : 640 kb/s
Channel(s) : 6 channels
Channel layout : L R C LFE Ls Rs
Sampling rate : 48.0 kHz
Frame rate : 31.250 FPS (1536 SPF)
Compression mode : Lossy
Stream size : 460 MiB (12%)
Language : English
Service kind : Complete Main
Default : No
Forced : No
Text #1
ID : 5
Format : UTF-8
Codec ID : S_TEXT/UTF8
Codec ID/Info : UTF-8 Plain Text
Duration : 1 h 9 min
Bit rate : 1 b/s
Count of elements : 22
Stream size : 1 016 Bytes (0%)
Title : Forced
Language : Russian
Default : Yes
Forced : No
Text #2
ID : 6
Format : UTF-8
Codec ID : S_TEXT/UTF8
Codec ID/Info : UTF-8 Plain Text
Duration : 1 h 39 min
Bit rate : 110 b/s
Count of elements : 1544
Stream size : 81.1 KiB (0%)
Title : Full
Language : Russian
Default : No
Forced : No
Text #3
ID : 7
Format : UTF-8
Codec ID : S_TEXT/UTF8
Codec ID/Info : UTF-8 Plain Text
Duration : 1 h 37 min
Bit rate : 1 b/s
Count of elements : 25
Stream size : 1.10 KiB (0%)
Title : Forced
Language : Ukrainian
Default : No
Forced : Yes
Text #4
ID : 8
Format : UTF-8
Codec ID : S_TEXT/UTF8
Codec ID/Info : UTF-8 Plain Text
Duration : 1 h 39 min
Bit rate : 100 b/s
Count of elements : 1341
Stream size : 73.2 KiB (0%)
Title : Full
Language : Ukrainian
Default : No
Forced : No
Text #5
ID : 9
Format : UTF-8
Codec ID : S_TEXT/UTF8
Codec ID/Info : UTF-8 Plain Text
Duration : 1 h 39 min
Bit rate : 68 b/s
Count of elements : 1576
Stream size : 49.8 KiB (0%)
Title : Full
Language : English
Default : No
Forced : No
Text #6
ID : 10
Format : UTF-8
Codec ID : S_TEXT/UTF8
Codec ID/Info : UTF-8 Plain Text
Duration : 1 h 40 min
Bit rate : 79 b/s
Count of elements : 1855
Stream size : 58.8 KiB (0%)
Title : SDH
Language : English
Default : No
Forced : No
Menu
00:00:00.000 : en:Joe
00:03:32.337 : en:Mom
00:04:57.923 : en:Audition
00:08:43.189 : en:Celebrate
00:09:18.892 : en:The Great Beyond
00:11:49.334 : en:Fall
00:12:29.457 : en:You Seminar
00:15:03.569 : en:Earth Portal
00:17:12.031 : en:Terry
00:18:24.687 : en:Theater
00:19:53.984 : en:Mentee 22
00:21:29.663 : en:Joe s Life
00:26:00.058 : en:Everything
00:29:47.786 : en:Meet the Mystics
00:36:07.916 : en:Alive
00:38:22.383 : en:Hospital Escape
00:39:53.307 : en:Nyc
00:41:55.805 : en:Moonwind
00:43:43.621 : en:Taxi
00:44:29.166 : en:Home
00:46:06.263 : en:Connie
00:49:38.183 : en:Tracking
00:50:40.537 : en:Line Up
00:51:28.126 : en:Barber
00:55:31.328 : en:Arrivel
00:56:59.791 : en:Rip
00:58:34.094 : en:Busker
01:00:31.794 : en:Suit
01:04:48.551 : en:Ready for Earth
01:07:53.361 : en:Pursuit
01:09:15.484 : en:Betrayed
01:12:33.974 : en:The Gig
01:15:32.361 : en:Lost
01:17:23.639 : en:Epiphany
01:21:15.453 : en:Ship Chase
01:22:57.806 : en:Rescue 22
01:26:43.323 : en:Earthbound
01:28:32.306 : en:Thank You
01:30:13.574 : en:End Credits

Скриншоты


admin

Post 02-Mar-2021 14:09

[Quote]

Информация о фильме
Название: Том и Джерри
Оригинальное название: Tom and Jerry
Год выхода: 2021
Жанр: Комедия, приключения, семейный, мультфильм
Режиссер: Тим Стори
В ролях: Хлоя Грейс Морец, Майкл Пенья, Роб Делани, Том, Джерри, Джордан Болджер, Пэтси Ферран, Паллави Шарда, Колин Жост, Соми Гуха, Аджай Чабра, Патрик Полетти, Дженис Ахерн, Камилла Арведсон, Кен Жонг, Джо Боун, Брайан Бовелл
О фильме:
Кайла, работница престижного отеля, где обитает мышонок Джерри, рискующий нарушить ход дорогой свадьбы, нанимает уличного кота Тома, чтобы разобраться с наглым грызуном. Но решить эту проблему не так-то просто.

Страна: Великобритания, Франция, Германия, США
Продолжительность: 01:41:02
Перевод: Профессиональный дублированный | Line
Файл
Кодек: H.265
Качество: WEB-DL 2160p
Видео: MPEG-H HEVC HDR Video, 3840x2160 (16:9), 23.976 fps, 17.9 Mb/s, 10 bit
Аудио 1: AC3, 48.0 kHz, 2 ch, 256 kb/s | RUS [DUB, Line] | Ред. Нечипорук
Аудио 2: E-AC3 JOC, 48.0 kHz, 6 ch, 768 kb/s | ENG [Оригинал]
Субтитры: Русские (Full[Focs]), английские (Full, SDH)
Сэмпл | Трейлер

Примечание

ЦитатаНечипорук писал:
Русская аудио-дорожка с дубляжом взята с онлайн кинотеатра. Она растянута, обработана компрессором и в ней полно аудио-рекламы, но при этом имеет очень красивый спектр. Поэтому я вырезал все русские диалоги и наложил их на оригинальную английскую дорожку. Её я перекодировал с Adobe Audition 2019 в стерео WAV и вырезал все английские диалоги на места наложенных русских диалогов и реплик в Sony Vegas Pro.

MI

General
Unique ID : 241520674313823651229867224715875380166 (0xB5B3309C4CF8F1E09C76FCAF6684EBC6)
Complete name : Tom.and.Jerry.(2021).WEB-DL.2160p.HDR.Line.mkv
Format : Matroska
Format version : Version 4
File size : 13.3 GiB
Duration : 1 h 41 min
Overall bit rate : 18.9 Mb/s
Encoded date : UTC 2021-02-28 19:51:47
Writing application : mkvmerge v8.3.0 ('Over the Horizon') 64bit
Writing library : libebml v1.3.1 + libmatroska v1.4.2
Video
ID : 1
Format : HEVC
Format/Info : High Efficiency Video Coding
Commercial name : HDR10
Format profile : Main 10@L5@Main
Codec ID : V_MPEGH/ISO/HEVC
Duration : 1 h 41 min
Bit rate : 17.9 Mb/s
Width : 3 840 pixels
Height : 2 160 pixels
Display aspect ratio : 16:9
Frame rate mode : Constant
Frame rate : 23.976 (24000/1001) FPS
Color space : YUV
Chroma subsampling : 4:2:0
Bit depth : 10 bits
Bits/(Pixel*Frame) : 0.090
Stream size : 12.6 GiB (95%)
Writing library : x265 3.4hy:[Linux][GCC 7.5.0][64 bit] 10bit
Encoding settings : cpuid=1111039 / frame-threads=1 / wpp / no-pmode / no-pme / no-psnr / no-ssim / log-level=2 / input-csp=1 / input-res=3840x2160 / interlace=0 / total-frames=0 / level-idc=0 / high-tier=1 / uhd-bd=0 / ref=4 / no-allow-non-conformance / repeat-headers / annexb / no-aud / no-hrd / info / hash=0 / no-temporal-layers / no-open-gop / min-keyint=96 / keyint=96 / gop-lookahead=0 / bframes=3 / b-adapt=2 / b-pyramid / bframe-bias=0 / rc-lookahead=25 / lookahead-slices=4 / scenecut=40 / hist-scenecut=0 / radl=0 / no-splice / no-intra-refresh / ctu=64 / min-cu-size=8 / rect / no-amp / max-tu-size=32 / tu-inter-depth=1 / tu-intra-depth=1 / limit-tu=0 / rdoq-level=2 / dynamic-rd=0.00 / no-ssim-rd / signhide / no-tskip / nr-intra=0 / nr-inter=0 / no-constrained-intra / strong-intra-smoothing / max-merge=3 / limit-refs=3 / limit-modes / me=3 / subme=3 / merange=57 / temporal-mvp / no-frame-dup / no-hme / weightp / no-weightb / no-analyze-src-pics / deblock=0:0 / sao / no-sao-non-deblock / rd=4 / selective-sao=4 / no-early-skip / rskip / no-fast-intra / no-tskip-fast / no-cu-lossless / no-b-intra / no-splitrd-skip / rdpenalty=0 / psy-rd=2.00 / psy-rdoq=1.00 / no-rd-refine / no-lossless / cbqpoffs=0 / crqpoffs=0 / rc=abr / bitrate=18000 / qcomp=0.60 / qpstep=4 / stats-write=0 / stats-read=2 / cplxblur=20.0 / qblur=0.5 / vbv-maxrate=24500 / vbv-bufsize=24500 / vbv-init=0.6 / vbv-end=0.6 / vbv-end-fr-adj=0.0 / ipratio=1.40 / pbratio=1.30 / aq-mode=2 / aq-strength=1.00 / cutree / zone-count=0 / no-strict-cbr / qg-size=32 / no-rc-grain / qpmax=69 / qpmin=0 / no-const-vbv / sar=0 / overscan=0 / videoformat=5 / range=0 / colorprim=9 / transfer=16 / colormatrix=9 / chromaloc=0 / display-window=0 / master-display=G(13250,34500)B(7500,3000)R(34000,16000)WP(15635,16450)L(10000000,1) / cll=537,113 / min-luma=0 / max-luma=1023 / log2-max-poc-lsb=8 / vui-timing-info / vui-hrd-info / no-concatenation / slices=1 / no-opt-qp-pps / no-opt-ref-list-length-pps / no-multi-pass-opt-rps / scenecut-bias=0.05 / hist-threshold=0.01 / no-opt-cu-delta-qp / no-aq-motion / hdr10 / no-hdr10-opt / no-dhdr10-opt / no-idr-recovery-sei / analysis-reuse-level=0 / analysis-save-reuse-level=0 / analysis-load-reuse-level=0 / scale-factor=0 / refine-intra=0 / refine-inter=0 / refine-mv=1 / refine-ctu-distortion=0 / no-limit-sao / ctu-info=0 / no-lowpass-dct / refine-analysis-type=0 / copy-pic=1 / max-ausize-factor=1.0 / no-dynamic-refine / no-single-sei / no-hevc-aq / no-svt / no-field / qp-adaptation-range=1.00 / no-scenecut-aware-qpconformance-window-offsets / right=0 / bottom=0 / decoder-max-rate=0
Default : Yes
Forced : No
Color range : Limited
Color primaries : BT.2020
Transfer characteristics : PQ
Matrix coefficients : BT.2020 non-constant
Mastering display color primaries : Display P3
Mastering display luminance : min: 0.0001 cd/m2, max: 1000 cd/m2
Maximum Content Light Level : 537 cd/m2
Maximum Frame-Average Light Level : 113 cd/m2
Audio #1
ID : 2
Format : AC-3
Format/Info : Audio Coding 3
Commercial name : Dolby Digital
Codec ID : A_AC3
Duration : 1 h 41 min
Bit rate mode : Constant
Bit rate : 256 kb/s
Channel(s) : 2 channels
Channel layout : L R
Sampling rate : 48.0 kHz
Frame rate : 31.250 FPS (1536 SPF)
Bit depth : 16 bits
Compression mode : Lossy
Stream size : 185 MiB (1%)
Title : DUB (Line)
Language : Russian
Service kind : Complete Main
Default : Yes
Forced : No
Audio #2
ID : 3
Format : E-AC-3 JOC
Format/Info : Enhanced AC-3 with Joint Object Coding
Commercial name : Dolby Digital Plus with Dolby Atmos
Codec ID : A_EAC3
Duration : 1 h 41 min
Bit rate mode : Constant
Bit rate : 768 kb/s
Channel(s) : 6 channels
Channel layout : L R C LFE Ls Rs
Sampling rate : 48.0 kHz
Frame rate : 31.250 FPS (1536 SPF)
Compression mode : Lossy
Stream size : 555 MiB (4%)
Language : English
Service kind : Complete Main
Default : No
Forced : No
Complexity index : 16
Number of dynamic objects : 15
Bed channel count : 1 channel
Bed channel configuration : LFE
Text #1
ID : 4
Format : UTF-8
Codec ID : S_TEXT/UTF8
Codec ID/Info : UTF-8 Plain Text
Duration : 1 h 40 min
Bit rate : 101 b/s
Count of elements : 1591
Stream size : 74.6 KiB (0%)
Title : Full (Focs)
Language : Russian
Default : No
Forced : No
Text #2
ID : 5
Format : UTF-8
Codec ID : S_TEXT/UTF8
Codec ID/Info : UTF-8 Plain Text
Duration : 1 h 39 min
Bit rate : 64 b/s
Count of elements : 1665
Stream size : 46.8 KiB (0%)
Title : Full
Language : English
Default : No
Forced : No
Text #3
ID : 6
Format : UTF-8
Codec ID : S_TEXT/UTF8
Codec ID/Info : UTF-8 Plain Text
Duration : 1 h 40 min
Bit rate : 89 b/s
Count of elements : 2310
Stream size : 66.0 KiB (0%)
Title : SDH
Language : English
Default : No
Forced : No

Скриншоты

 

Current time is: 20-May 12:51

All times are UTC + 3