Search found 352 matches

Author Message

admin

Post 16-May-2022 21:04

[Quote]

Информация о фильме
Название: Выпускной год / Выпускной класс
Оригинальное название: Senior Year
Год выпуска: 2022
Жанр: драма, комедия
Режиссер: Алекс Хардкасл / Alex Hardcastle
В ролях: Ребел Уилсон, Джастин Хартли, Алисия Сильверстоун, Энгаури Райс, Брэндон Скотт Джонс, Сэм Ричардсон, Зои Чао, Мэри Холлэнд, Крис Парнелл, Майкл Чимино, Джереми Рэй Тейлор, Joshua Colley, Avantika, Молли Браун, Тайлер Барнхардт
О фильме:
37-летняя женщина приходит в себя после двадцати лет, проведенных в коме, и возвращается в старшую школу, где когда-то была популярной чирлидершей.

Выпущено: США / Paramount Pictures, Broken Road Productions, Paramount Players, CBS Films
Продолжительность: 01:53:30
Перевод: Любительский (двухголосый, закадровый) | Pazl Voice
Файл
Качество видео: WEB-DLRip
Формат видео: AVI
Видео: 720x352 (2.045), 24.000 fps, XviD build 69 ~1390 kbps avg, 0.228 bit/pixel
Аудио 1: 48 kHz, AC3 Dolby Digital, 3/2 (L,C,R,l,r) + LFE ch, ~448 kbps | Двухголосый закадровый (Pazl Voice)
Отдельно, в папке раздачи:
Аудио 2: 48 kHz, AC3 Dolby Digital, 3/2 (L,C,R,l,r) + LFE ch, ~448 kbps | Английский
Субтитры: Русские, английские
Формат субтитров: softsub (SRT)

Скриншоты

admin

Post 16-May-2022 21:01

[Quote]

Информация о фильме
Название: 9 жизней
Оригинальное название: Nine Bullets
Год выхода: 2022
Жанр: триллер
Режиссер: Джиджи Гастон
В ролях: Лина Хиди, Дин Скотт Васкес, Сэм Уортингтон, Кэм Жиганде, Барбара Хёрши, Мартин Сенсмейер, Марк Менчака, Ла Ла Энтони, Стефани Арсила, Марлин Форте
О фильме:
Бывшая танцовщица решает изменить свою судьбу и во что бы то ни стало спасти мальчика по соседству, жизни которого угрожает мафия в лице ее бывшего возлюбленного.

Выпущено: США / Foresight Entertainment, Pop Films.Screen Media Films
Продолжительность: 01:36:33
Озвучивание: Дублированное [Велес]
Файл
Формат: AVI (XviD)
Качество: WEB-DLRip
Видео: 1622 Кb/s, 720x304
Аудио: Russian: AC3, 384 Kb/s (6 ch)

Скриншоты

admin

Post 15-May-2022 15:32

[Quote]

Информация о фильме
Название: Фантастические твари: Тайны Дамблдора
Оригинальное название: Fantastic Beasts: The Secrets of Dumbledore
Год выхода: 2022
Жанр: Фэнтези, приключения, семейный
Режиссер: Дэвид Йейтс
В ролях: Эдди Редмэйн, Джуд Лоу, Эзра Миллер, Дэн Фоглер, Элисон Судол, Каллум Тернер, Джессика Уильямс, Кэтрин Уотерстон, Мадс Миккельсен, Оливер Мазуччи и другие.
О фильме:
Профессор Альбус Дамблдор узнает, что могущественный темный волшебник Геллерт Грин-де-Вальд планирует захватить власть над миром. Понимая, что не сможет остановить его в одиночку, Дамблдор просит магозоолога Ньюта Саламандера возглавить команду из выдающихся волшебников и одного отважного магла-пекаря. Им предстоят невероятно опасные приключения, встреча со старыми и укрощение новых магических существ и борьба со сторонниками Грин-де-Вальда, которых становится все больше. Но какая роль в этой миссии уготована самому Дамблдору?

Страна: США, Великобритания
Студия: Heyday Films, Warner Bros.
Продолжительность: 02:22:34
Перевод: Профессиональный (многоголосый, закадровый) NewComers
Субтитры 1: Корейские на видео (хардсаб)
Субтитры 2: Русские на надписи (хардсаб)
Субтитры 3: Английские (SRT)
Файл
Формат: Matroska
Качество: WEBRip-AVC
Видео: 1024x426 at 23.976 fps, x264@L4.1, ~1591 kbps
Аудио 1: AAC, 2 ch, ~196 kbps - | Русский |
Аудио 2: AAC, 2 ch, ~127 kbps - | Английский |
► Без Рекламы!

M/I

General
Unique ID : 68016674335858640151896816883070267486 (0x332B88F4965B58C5B5294C961DF5F05E)
Complete name : K:Fantastic.Beasts.The.Secrets.of.Dumbledore.2022.x264.mkv
Format : Matroska
Format version : Version 4
File size : 1.91 GiB
Duration : 2 h 22 min
Overall bit rate : 1 917 kb/s
Encoded date : UTC 2022-05-11 14:03:09
Writing application : mkvmerge v63.0.0 ('Everything') 64-bit
Writing library : libebml v1.4.2 + libmatroska v1.6.4
Cover : Yes
Attachments : cover.jpg / cover 2.jpg
Video
ID : 1
Format : AVC
Format/Info : Advanced Video Codec
Format profile : High@L4.1
Format settings : CABAC / 10 Ref Frames
Format settings, CABAC : Yes
Format settings, Reference : 10 frames
Codec ID : V_MPEG4/ISO/AVC
Duration : 2 h 22 min
Bit rate : 1 591 kb/s
Width : 1 024 pixels
Height : 426 pixels
Display aspect ratio : 2.40:1
Frame rate mode : Constant
Frame rate : 23.976 (24000/1001) FPS
Color space : YUV
Chroma subsampling : 4:2:0
Bit depth : 8 bits
Scan type : Progressive
Bits/(Pixel*Frame) : 0.152
Stream size : 1.58 GiB (83%)
Title : -=DoMiNo=-
Writing library : x264 core 164 r3094 bfc87b7
Encoding settings : cabac=1 / ref=10 / deblock=1:-2:-2 / analyse=0x3:0x133 / me=umh / subme=10 / psy=1 / psy_rd=1.10:0.20 / mixed_ref=1 / me_range=32 / chroma_me=1 / trellis=2 / 8x8dct=1 / cqm=0 / deadzone=21,11 / fast_pskip=0 / chroma_qp_offset=-3 / threads=17 / lookahead_threads=3 / sliced_threads=0 / nr=0 / decimate=0 / interlaced=0 / bluray_compat=0 / constrained_intra=0 / bframes=10 / b_pyramid=2 / b_adapt=2 / b_bias=0 / direct=3 / weightb=1 / open_gop=0 / weightp=2 / keyint=250 / keyint_min=23 / scenecut=40 / intra_refresh=0 / rc_lookahead=60 / rc=crf / mbtree=0 / crf=18.0 / qcomp=0.65 / qpmin=0 / qpmax=69 / qpstep=4 / vbv_maxrate=50000 / vbv_bufsize=62500 / crf_max=0.0 / nal_hrd=none / filler=0 / ip_ratio=1.35 / pb_ratio=1.25 / aq=2:1.00
Language : English
Default : Yes
Forced : No
Color range : Limited
Color primaries : BT.709
Transfer characteristics : BT.709
Matrix coefficients : BT.709
Audio #1
ID : 2
Format : AAC LC
Format/Info : Advanced Audio Codec Low Complexity
Codec ID : A_AAC-2
Duration : 2 h 22 min
Bit rate : 196 kb/s
Channel(s) : 2 channels
Channel layout : L R
Sampling rate : 48.0 kHz
Frame rate : 46.875 FPS (1024 SPF)
Compression mode : Lossy
Stream size : 200 MiB (10%)
Language : Russian
Default : Yes
Forced : No
Audio #2
ID : 3
Format : AAC LC SBR
Format/Info : Advanced Audio Codec Low Complexity with Spectral Band Replication
Commercial name : HE-AAC
Format settings : Explicit
Codec ID : A_AAC-2
Duration : 2 h 22 min
Bit rate : 127 kb/s
Channel(s) : 2 channels
Channel layout : L R
Sampling rate : 48.0 kHz
Frame rate : 23.438 FPS (2048 SPF)
Compression mode : Lossy
Stream size : 129 MiB (7%)
Language : English
Default : No
Forced : No
Text
ID : 4
Format : UTF-8
Codec ID : S_TEXT/UTF8
Codec ID/Info : UTF-8 Plain Text
Duration : 2 h 11 min
Bit rate : 35 b/s
Count of elements : 1204
Stream size : 33.9 KiB (0%)
Language : English
Default : No
Forced : No
Menu
00:00:00.000 : :Глава 01
00:12:30.000 : :Глава 02
00:25:00.000 : :Глава 03
00:37:30.000 : :Глава 04
00:50:00.000 : :Глава 05
01:02:30.000 : :Глава 06
01:15:00.000 : :Глава 07
01:27:30.000 : :Глава 08
01:40:00.000 : :Глава 09
01:52:30.000 : :Глава 10
02:05:00.000 : :Глава 11
02:17:30.000 : :Глава 12

admin

Post 15-May-2022 15:03

[Quote]

Морбиус / Morbius
Год выпуска: 2022
Выпущено: США / Columbia Pictures, Marvel Entertainment
Жанр: Ужасы, фантастика, боевик, триллер, фэнтези
Режиссер: Даниэль Эспиноса / Daniel Espinosa
В ролях: Джаред Лето, Майкл Китон, Адриа Архона, Джаред Харрис, Мэтт Смит, Тайриз Гибсон, Кори Джонсон, Арчи Рено, Чарли Шотуэлл, Аль Мадригал
О фильме: Майкл Морбиус с детства страдает от редкого заболевания крови и всю свою сознательную жизнь посвятил поискам лекарства. В какой-то момент Майкл видит возможное спасение в крови летучих мышей и решается на рискованный эксперимент. Опыт вызывает неожиданную реакцию: вступив в связь с больными клетками, он меняет тело Морбиуса, превращая его в кровожадного монстра.

Продолжительность: 01:43:26
Перевод: Профессиональный, многоголосый закадровый (NewComers)
Субтитры: Русские, английские
Формат: AVI
Качество: WEB-DLRip
Видео: 720x304 (2,35:1), 29.970 fps, XviD build 67 ~ 1603 kbps
Аудио #1: 48 kHz, MP3, 2/0 (L,R) ch, ~ 192 kbps | RUS |
Аудио #2: 48 kHz, MP3, 2/0 (L,R) ch, ~ 192 kbps | ENG |

Скриншоты

-

admin

Post 13-May-2022 21:04

[Quote]

Информация о фильме
Название: 7 хранителей гробницы
Оригинальное название: 7 Guardians of the Tomb
Год выхода: 2018
Жанр: боевик, приключения, ужасы
Режиссер: Кимбл Рендалл
В ролях: Келлан Латс, Ли Бинбин, У Чунь, Келси Грэммер, Стэф Доусон, Ясмин Кассим, Тим Драксл, Шэйн Джейкобсон, Райан Джонсон, Джейсон Чонг
О фильме:
Команда археологов отправляется в древние подземелья, чтобы найти потерянного товарища, но находят вместо него колонию разумных пауков-людоедов.

Выпущено: Китай, Австралия, Россия, Таиланд / Nest Holdings, Sleeping Otters Productions
Продолжительность: 01:30:24
Озвучивание: Профессиональное (многоголосое) | iTunes
Файл
Формат: AVI
Качество: WEB-DLRip
Видео: XviD, 1910 Kb/s, 720x304
Аудио: Russian: AC3, 384 Kb/s (6 ch)
Субтитры: Нет
Скачать: Сэмпл

Скриншоты


admin

Post 13-May-2022 21:02

[Quote]

Информация о фильме
Название: Затерянный город
Оригинальное название: The Lost City
Год выхода: 2022
Жанр: боевик, мелодрама, комедия, приключения
Режиссер: Аарон Ни, Адам Ни
В ролях: Сандра Баллок, Ченнинг Татум, Дэниэл Рэдклифф, Да Вин Джой Рэндольф, Оскар Нуньес, Патти Харрисон, Брэд Питт, Рэймонд Ли, Томас Форбс-Джонсон, Эктор Анибал
О фильме:
Лоретта Сейдж пишет популярные любовно-приключенческие романы. События в них непременно разворачиваются в экзотических местах, а главный герой — красавчик и мечта героинь Дэш, которого в жизни воплощает модель Алан. Во время промотура нового бестселлера Лоретту похищает эксцентричный миллиардер, уверенный, что она сможет привести его к сокровищам древнего затерянного города из ее последней книги. Алан решает доказать, что может быть героем в реальной жизни, а не только на страницах книг, и отправляется Лоретте на выручку.

Выпущено: США / 3dot productions, Exhibit A, Fortis Films, Paramount Pictures
Продолжительность: 01:51:45
Озвучивание: Профессиональное (многоголосое) | Jaskier
Файл
Формат: AVI
Качество: WEB-DLRip | AMZN
Видео: XviD, 1879 Kb/s, 720x304
Аудио: Russian / English: AC3, 448 Kb/s (6 ch)
Субтитры: Russian (Full), English - отдельно
Скачать: Сэмпл

Скриншоты


admin

Post 13-May-2022 20:55

[Quote]

Информация о фильме
Название: Варяг
Оригинальное название: The Northman
Год выхода: 2022
Жанр: Фэнтези, боевик, триллер, драма, приключения, история
Режиссер: Роберт Эггерс
В ролях: Александр Скарсгард, Николь Кидман, Клас Банг, Итэн Хоук, Аня Тейлор-Джой, Густав Линд, Эллиотт Роуз, Уиллем Дефо, Фил Мартин, Эльдар Скар и другие.
О фильме:
Фильм основан на саге о Амлете из древнескандинавской хроники, записанной Саксоном Грамматиком. Сюжет рассказывает о том, как викинг Фьолнир убивает своего брата, конунга Хорвендила, и берёт в жёны его супругу Гудрун. Амлет, сын Хорвендила, скрывается и клянётся отомстить убийце отца. Когда Амлет становится старше, он объединяется со славянской ведьмой Ольгой, похищенной викингами, и стремится вернуться домой, чтобы убить Фьолнира.

Страна: США
Студия: Focus Features, Perfect World (Beijing) Pictures Co., Regency Television, Square Peg, Universal Pictures
Продолжительность: 02:17:18
Перевод: Профессиональный (многоголосый, закадровый) | NewComers
Субтитры: Русские (forced - на надписи), английские (forced, full, SDH)
Файл
Формат: Matroska
Качество: WEB-DLRip-AVC | AMZN
Видео: 1024x512 at 23.976 fps, x264@L4.1, ~2433 kbps
Аудио 1: AC3, 6 ch, ~384 kbps - | Русский |
Аудио 2: AC3, 6 ch, ~384 kbps - | Английский |
Формат субтитров: softsub (SRT)
► Без Рекламы!

M/I

x264 [info]: frame I:960 Avg QP:15.99 size: 61634
x264 [info]: frame P:42546 Avg QP:18.28 size: 25110
x264 [info]: frame B:154005 Avg QP:19.86 size: 8944
General
Unique ID : 140649336561853374054037257307091211586 (0x69D013AF57BAD34BCB8BAC1B344D9542)
Complete name : L:The.Northman.2022.AMZN.WEB-DLRip.x264.mkv
Format : Matroska
Format version : Version 4
File size : 3.07 GiB
Duration : 2 h 17 min
Overall bit rate : 3 203 kb/s
Encoded date : UTC 2022-05-12 14:48:33
Writing application : mkvmerge v63.0.0 ('Everything') 64-bit
Writing library : libebml v1.4.2 + libmatroska v1.6.4
Cover : Yes
Attachments : cover.jpg / cover 2.jpg
Video
ID : 1
Format : AVC
Format/Info : Advanced Video Codec
Format profile : High@L4.1
Format settings : CABAC / 10 Ref Frames
Format settings, CABAC : Yes
Format settings, Reference : 10 frames
Codec ID : V_MPEG4/ISO/AVC
Duration : 2 h 17 min
Bit rate : 2 433 kb/s
Width : 1 024 pixels
Height : 512 pixels
Display aspect ratio : 2.000
Frame rate mode : Constant
Frame rate : 23.976 (24000/1001) FPS
Color space : YUV
Chroma subsampling : 4:2:0
Bit depth : 8 bits
Scan type : Progressive
Bits/(Pixel*Frame) : 0.194
Stream size : 2.33 GiB (76%)
Title : -=DoMiNo=-
Writing library : x264 core 164 r3094 bfc87b7
Encoding settings : cabac=1 / ref=10 / deblock=1:-2:-2 / analyse=0x3:0x133 / me=umh / subme=10 / psy=1 / psy_rd=1.07:0.20 / mixed_ref=1 / me_range=32 / chroma_me=1 / trellis=2 / 8x8dct=1 / cqm=0 / deadzone=21,11 / fast_pskip=0 / chroma_qp_offset=-3 / threads=17 / lookahead_threads=4 / sliced_threads=0 / nr=0 / decimate=0 / interlaced=0 / bluray_compat=0 / constrained_intra=0 / bframes=12 / b_pyramid=2 / b_adapt=2 / b_bias=0 / direct=3 / weightb=1 / open_gop=0 / weightp=2 / keyint=250 / keyint_min=23 / scenecut=40 / intra_refresh=0 / rc_lookahead=60 / rc=crf / mbtree=0 / crf=19.0 / qcomp=0.70 / qpmin=0 / qpmax=69 / qpstep=4 / vbv_maxrate=50000 / vbv_bufsize=62500 / crf_max=0.0 / nal_hrd=none / filler=0 / ip_ratio=1.35 / pb_ratio=1.25 / aq=2:1.00
Language : English
Default : Yes
Forced : No
Color range : Limited
Color primaries : BT.709
Transfer characteristics : BT.709
Matrix coefficients : BT.709
Audio #1
ID : 2
Format : AC-3
Format/Info : Audio Coding 3
Commercial name : Dolby Digital
Codec ID : A_AC3
Duration : 2 h 17 min
Bit rate mode : Constant
Bit rate : 384 kb/s
Channel(s) : 6 channels
Channel layout : L R C LFE Ls Rs
Sampling rate : 48.0 kHz
Frame rate : 31.250 FPS (1536 SPF)
Compression mode : Lossy
Stream size : 377 MiB (12%)
Title : MVO_NewComers
Language : Russian
Service kind : Complete Main
Default : Yes
Forced : No
Audio #2
ID : 3
Format : AC-3
Format/Info : Audio Coding 3
Commercial name : Dolby Digital
Codec ID : A_AC3
Duration : 2 h 17 min
Bit rate mode : Constant
Bit rate : 384 kb/s
Channel(s) : 6 channels
Channel layout : L R C LFE Ls Rs
Sampling rate : 48.0 kHz
Frame rate : 31.250 FPS (1536 SPF)
Compression mode : Lossy
Stream size : 377 MiB (12%)
Language : English
Service kind : Complete Main
Default : No
Forced : No
Text #1
ID : 4
Format : UTF-8
Codec ID : S_TEXT/UTF8
Codec ID/Info : UTF-8 Plain Text
Duration : 2 h 0 min
Bit rate : 0 b/s
Count of elements : 8
Stream size : 380 Bytes (0%)
Title : forced
Language : Russian
Default : Yes
Forced : No
Text #2
ID : 5
Format : UTF-8
Codec ID : S_TEXT/UTF8
Codec ID/Info : UTF-8 Plain Text
Duration : 1 h 39 min
Bit rate : 1 b/s
Count of elements : 33
Stream size : 1.10 KiB (0%)
Title : forced
Language : English
Default : No
Forced : No
Text #3
ID : 6
Format : UTF-8
Codec ID : S_TEXT/UTF8
Codec ID/Info : UTF-8 Plain Text
Duration : 2 h 16 min
Bit rate : 25 b/s
Count of elements : 1095
Stream size : 25.8 KiB (0%)
Title : full
Language : English
Default : No
Forced : No
Text #4
ID : 7
Format : UTF-8
Codec ID : S_TEXT/UTF8
Codec ID/Info : UTF-8 Plain Text
Duration : 2 h 16 min
Bit rate : 40 b/s
Count of elements : 1700
Stream size : 40.0 KiB (0%)
Title : SDH
Language : English
Default : No
Forced : No
Menu
00:00:00.000 : :Глава 01
00:12:30.000 : :Глава 02
00:25:00.000 : :Глава 03
00:37:30.000 : :Глава 04
00:50:00.000 : :Глава 05
01:02:30.000 : :Глава 06
01:15:00.000 : :Глава 07
01:27:30.000 : :Глава 08
01:40:00.000 : :Глава 09
01:52:30.000 : :Глава 10
02:05:00.000 : :Глава 11

admin

Post 11-May-2022 00:21

[Quote]

Информация о фильме
Название: Тюрьма суперзлодеев
Оригинальное название: Corrective Measures
Год выхода: 2022
Жанр: фантастика, боевик, триллер
Режиссер: Шон Патрик О’Рейли
В ролях: Майкл Рукер, Брюс Уиллис, Томас Кавана, Кевин Зегерс, Дэн Пэйн, Бреннан Мейя, Селия Алома, Хейли Сэйлс, Катрина Мёльман, Мэтт Андерсон
О фильме: Они — худшие из худших. Их девиз: с великой силой приходит великая безответственность. Они суперзлодеи, обладающие нечеловеческими сверхспособностями. И на свете есть лишь одно место, способное их сдержать. Именно здесь, в тюрьме будущего, пересекаются пути преступного гения-телепата, жестокого мстителя, коррумпированного надзирателя и многих других. Кто-то из них затеял опасную игру, и каждому — будь то заключенный или охранник — в ней отведена особая роль.

Выпущено: США / Arcana Productions, Arcana Studio, The Exchange
Продолжительность: 01:42:40
Озвучивание: Дублированное [iTunes]
Файл
Формат: AVI
Качество: WEB-DLRip
Видео: XviD, 1645 Кb/s, 720x304
Аудио: Russian: AC3, 384 Kb/s (6 ch)
Субтитры: Нет

Скриншоты

admin

Post 11-May-2022 00:03

[Quote]

Информация о фильме
Название: Затерянный город
Оригинальное название: The Lost City
Год выхода: 2022
Жанр: комедия, приключения, мелодрама, боевик
Режиссер: Аарон Ни, Адам Ни
В ролях: Сандра Буллок, Ченнинг Татум, Дэниэл Рэдклифф, Да’Вин Джой Рэндольф, Оскар Нуньес, Патти Харрисон, Брэд Питт, Боуэн Янг, Стивен Лэнг, Джоан Прингл
О фильме:
Лоретта Сейдж пишет популярные любовно-приключенческие романы. События в них непременно разворачиваются в экзотических местах, а главный герой — красавчик и мечта героинь Дэш, которого в жизни воплощает модель Алан. Во время промотура нового бестселлера Лоретту похищает эксцентричный миллиардер, уверенный, что она сможет привести его к сокровищам древнего затерянного города из ее последней книги. Алан решает доказать, что может быть героем в реальной жизни, а не только на страницах книг, и отправляется Лоретте на выручку.

Страна: США
Студия: 3dot productions, Exhibit A, Fortis Films, Paramount Pictures
Продолжительность: 01:51:49
Перевод: Любительский (многоголосый, закадровый) | GostFilm
Субтитры: Нет
Файл
Формат: Matroska
Качество: WEB-DLRip-AVC [The.Lost.City.2022.1080p.AMZN.WEB-DL.DDP5.1.H264-CM]
Видео: 1024x428 at 23.976 fps, x264@L4.1, ~1769 kbps
Аудио: AC3, 2 ch, ~192 kbps - | Русский |
► Без Рекламы!

M/I

General
Unique ID : 190806013329764529423834833860086725297 (0x8F8BE6C659D3C983D6990D677FCBFAB1)
Complete name : I:The.Lost.City.2022.AMZN.WEB-DLRip.x264.mkv
Format : Matroska
Format version : Version 4
File size : 1.53 GiB
Duration : 1 h 51 min
Overall bit rate : 1 963 kb/s
Encoded date : UTC 2022-05-10 15:47:56
Writing application : mkvmerge v63.0.0 ('Everything') 64-bit
Writing library : libebml v1.4.2 + libmatroska v1.6.4
Cover : Yes
Attachments : cover.jpg / cover 2.jpg
Video
ID : 1
Format : AVC
Format/Info : Advanced Video Codec
Format profile : High@L4.1
Format settings : CABAC / 12 Ref Frames
Format settings, CABAC : Yes
Format settings, Reference : 12 frames
Codec ID : V_MPEG4/ISO/AVC
Duration : 1 h 51 min
Bit rate : 1 769 kb/s
Width : 1 024 pixels
Height : 428 pixels
Display aspect ratio : 2.40:1
Frame rate mode : Constant
Frame rate : 23.976 (24000/1001) FPS
Color space : YUV
Chroma subsampling : 4:2:0
Bit depth : 8 bits
Scan type : Progressive
Bits/(Pixel*Frame) : 0.168
Stream size : 1.38 GiB (90%)
Title : -=DoMiNo=-
Writing library : x264 core 164 r3094 bfc87b7
Encoding settings : cabac=1 / ref=12 / deblock=1:-2:-2 / analyse=0x3:0x133 / me=umh / subme=10 / psy=1 / psy_rd=1.07:0.20 / mixed_ref=1 / me_range=32 / chroma_me=1 / trellis=2 / 8x8dct=1 / cqm=0 / deadzone=21,11 / fast_pskip=0 / chroma_qp_offset=-3 / threads=17 / lookahead_threads=3 / sliced_threads=0 / nr=0 / decimate=0 / interlaced=0 / bluray_compat=0 / constrained_intra=0 / bframes=10 / b_pyramid=2 / b_adapt=2 / b_bias=0 / direct=3 / weightb=1 / open_gop=0 / weightp=2 / keyint=250 / keyint_min=23 / scenecut=40 / intra_refresh=0 / rc_lookahead=60 / rc=crf / mbtree=0 / crf=18.5 / qcomp=0.65 / qpmin=0 / qpmax=69 / qpstep=4 / vbv_maxrate=50000 / vbv_bufsize=62500 / crf_max=0.0 / nal_hrd=none / filler=0 / ip_ratio=1.35 / pb_ratio=1.25 / aq=2:1.00
Language : English
Default : Yes
Forced : No
Color range : Limited
Color primaries : BT.709
Transfer characteristics : BT.709
Matrix coefficients : BT.709
Audio
ID : 2
Format : AC-3
Format/Info : Audio Coding 3
Commercial name : Dolby Digital
Codec ID : A_AC3
Duration : 1 h 51 min
Bit rate mode : Constant
Bit rate : 192 kb/s
Channel(s) : 2 channels
Channel layout : L R
Sampling rate : 48.0 kHz
Frame rate : 31.250 FPS (1536 SPF)
Compression mode : Lossy
Stream size : 154 MiB (10%)
Title : MVO_GostFilm
Language : Russian
Service kind : Complete Main
Default : Yes
Forced : No

admin

Post 08-May-2022 00:50

[Quote]

Информация о фильме
Название: Соник 2 в кино
Оригинальное название: Sonic the Hedgehog 2
Год выхода: 2022
Жанр: мультфильм, фантастика, фэнтези, боевик, комедия, приключения, семейный
Режиссер: Джефф Фаулер
В ролях: Джеймс Марсден, Джим Керри, Бен Шварц, Тика Самптер, Идрис Эльба, Наташа Ротуэлл, Адам Палли, Шемар Мур, Ли Мадждуб, Коллин О’Шонесси
О фильме:
Поселившись в Грин Хилз, Соник стремится доказать, что у него есть все задатки настоящего героя. И геройское испытание не заставляет себя долго ждать: злодейский доктор Роботник вновь строит козни. На этот раз — с загадочным напарником Наклзом. Вместе они разыскивают бесценный изумруд, в котором заключены силы, способные уничтожать целые цивилизации. Соник объединяется с лисенком Тейлзом, чтобы отправиться в кругосветное путешествие и найти изумруд до того, как он попадет в плохие руки.

Страна: США, Япония
Студия: Paramount Pictures
Продолжительность: 02:02:17
Перевод: Профессиональный (многоголосый, закадровый) | Jaskier
Субтитры: нет
Файл
Качество видео: WEB-DLRip
Формат видео: AVI
Видео: 720x304 (2.35:1), 23.976 fps, XviD build 73 ~1513 kbps avg, 0.288 bit/pixel
Аудио: 48 kHz, AC3 Dolby Digital, 2/0 (L,R) ch, ~192 kbps | Многоголосый закадровый (Jaskier)

Скриншоты

admin

Post 07-May-2022 01:48

[Quote]

Информация о фильме
Название: Закат
Оригинальное название: Sundown
Год выхода: 2021
Жанр: Драма
Режиссер: Мишель Франко
В ролях: Тим Рот, Шарлотта Генсбур, Генри Гудман, Сэмюэл Боттомли, Иазуа Лариос, Моника Дель Кармен, Джеймс Тарпи, Альбертина Коттинг МакМиллан
О фильме:
Казалось бы, что может быть спокойнее жизни в элегантных гостиничных люксах и на размеренных пляжах Акапулько? Однако случай может нарушить тихий порядок состоятельной пары, и нарастающая напряженность начнет раскрывать тайны каждого.

Страна: Франция, Мексика, Швеция
Студия: Common Ground Pictures, Film i Väst, Luxbox, Teorema
Продолжительность: 01:22:34
Перевод: Дублированный | Мосфильм-Мастер
Файл
Качество видео: WEB-DLRip (порошков)
Формат видео: AVI
Видео: 720x304 (2.37:1), 23.976 fps, XviD build 73 ~2130 kbps avg, 0.41 bit/pixel
Аудио: 48 kHz, AC3 Dolby Digital, 3/2 (L,C,R,l,r) + LFE ch, ~384 kbps
Субтитры: Русские (Forced) - отдельно

Скриншоты

admin

Post 06-May-2022 01:43

[Quote]

Информация о фильме
Название: На пределе / Ночная поездка
Оригинальное название: Nightride
Год выпуска: 2021
Жанр: Триллер, Драма
Режиссер: Стивен Финглтон / Stephen Fingleton
В ролях: Мо Данфорд, Жуана Рибейру, Герард Джордан, Киаран Флинн, Джон Треверс, Стивен Ри, Десмонд Иствуд, Мэтт Кауфман
О фильме:
Торговец наркотиками Бадж принимает решение уйти из бизнеса. Но перед этим он собирается провернуть самую большую сделку своей жизни всего за одну ночь. Его план продуман до мелочей, но от одной ошибки всё может рухнуть. Неожиданный роковой сбой влечет за собой другой, и на кону оказывается жизнь самого Баджа…

Выпущено: США, Великобритания, Франция, HAUS Pictures, Logical Pictures, Silk Mass
Продолжительность: 01:37:44
Перевод: Дублированный (iTunes)
Субтитры: Нет
Файл
Качество видео: WEB-DLRip
Формат видео: AVI
Видео: 720x304 (2.37:1), 24.000 fps, XviD build 73 ~1740 kbps avg, 0.33 bit/pixel
Аудио: 48 kHz, AC3 Dolby Digital, 3/2 (L,C,R,l,r) + LFE ch, ~384 kbps

Скриншоты

admin

Post 06-May-2022 01:37

[Quote]

Информация о фильме
Название: Имплант
Оригинальное название: Implanted
Год выхода: 2021
Жанр: Фантастика, триллер
Режиссер: Фабьен Дюфилс
В ролях: Мишель Джиролами, Эдуард Монтут, Кендес МакАдамс, Мартин Эвенс, Бари Химэн, Ширли Хуанг, Иво Велон, Надер Буссандель, Скотт Бротон, Марк Ресник
О фильме:
Сара, молодая девушка, испытывающая жизненные финансовые трудности, соглашается на эксперимент по вживлению в своё тело искусственного интеллекта по имени Лекс. После этой операции компьютерный разум начинает выходить из-под контроля, заставляя Сару совершать страшные преступления. Девушке предстоит настоящая борьба за выживание и противостояние со своей новой, роботизированной личностью.
Страна: США
Студия: Headache Films, Implanted Films, Mad Street Motion Pictures
Продолжительность: 01:36:44
Перевод: Дублированный | iTunes
Файл
Качество: WEB-DLRip
Видео: XviD, 720x304, 1628 Кбит/с, 23.976 fps
Звук: AC3, 384 Кбит/с, 6 ch

Скриншоты


admin

Post 05-May-2022 01:26

[Quote]

Информация о фильме
Название: Грубая сила
Оригинальное название: Brut Force
Год выхода: 2022
Жанр: Криминал, Детектив, Триллер
Режиссер: Ив Симингтон
В ролях: Патрисия Веласкес, Тайлер Пози, Тейт Ханиок, Джулиан Сильва, Чейз Маллинз, Стелио Саванте, Гойя Роблз, Вико Эскорча, Рик Клебер, Лелия Симингтон
О фильме:
Репортёрша Слоан Сойер отправляется в родной городок, чтобы провести расследование притеснения работников местного виноградника. Женщина встревает в запутанную паутину преступлений и коррупции, и с каждым последующим шагом открывает для себя ужасную правду.

Страна: США
Продолжительность: 01:33:27
Перевод: Профессиональный (многоголосый) [TVShows]
Файл
Кодек: XviD
Качество: WEB-DLRip (Brut.Force.2022.1080p.WEBRip.x264-RARBG)
Видео: 720x304 (1.80:1), 23.976 fps, XviD build 73 ~2000 kbps avg, 0.29 bit/pixel
Звук: 48 kHz, AC3 Dolby Digital, 2/0 (L,R) ch, ~192 kbps
Субтитры: нет
Рекламы нет !

Скриншоты

admin

Post 02-May-2022 00:27

[Quote]

Информация о фильме
Название: Бесконечность: Субъект неизвестен
Оригинальное название: Infinitum: Subject Unknown
Год выхода: 2021
Жанр: фантастика, детектив
Режиссер: Мэттью Батлер
В ролях: Тори Харт, Иэн Маккеллен, Конлет Хилл, Венди Мьюир Харт, Крис Харт, Холли Дэйл Спенсер, Бен Ли, Грэхэм Батлер
О фильме: Джейн просыпается утром на чердаке дома, привязанная к стулу. Она не помнит ни обстоятельств, при которых она оказалась здесь, ни того, кто её связал. Пытаясь выбраться из этого дома, девушка обнаруживает, что на улице нет ни души. Каждый раз попытки Джейн выбраться из ловушки приводят к одинаковому результату: она всегда просыпается тем же самым утром, на этом же чердаке, привязанная к стулу. Ей необходимо найти способ разорвать временную петлю прежде, чем она окончательно заблудится в параллельных мирах.

Выпущено: Великобритания / Fizz and Ginger Films
Продолжительность: 01:25:52
Озвучивание: Дублированное [iTunes]
Файл
Формат: AVI
Качество: WEB-DLRip
Видео: XviD, 2042 Кb/s, 720x304
Аудио: Russian: AC3, 384 Kb/s (6 ch)
Субтитры: Нет

Скриншоты

 

Current time is: 20-May 13:34

All times are UTC + 3