Search found 127 matches

Author Message

admin

Post 26-Jul-2021 05:44

[Quote]

«You're in for a shock»
Информация о фильме
Название: Красотка на взводе
Оригинальное название: Jolt
Год выхода: 2021
Жанр: Боевик, комедия
Режиссер: Таня Уэкслер
В ролях: Кейт Бекинсейл, Лаверн Кокс, Стэнли Туччи, Бобби Каннавале, Джай Кортни, Сьюзен Сарандон, Константин Грегори, Ори Феффер, Дэвид Брэдли, Льюис Иэн Брэй
О фильме:
Вышибала Линди плохо умеет управлять собственным гневом и постоянно боится кого-то убить в приступе ярости. В качестве самоконтроля она носит специальный жилет, который бьёт её током и успокаивает, прежде чем она совершит необратимое. Но после смерти возлюбленного Линди вынуждена забыть о контроле и отправиться на поиски убийцы.


Страна: США
Студия: Busted Shark Productions, Campbell Grobman Films, Eclectic Pictures Inc., Jolt Productions, Millennium Films, Nu Boyana Film Studios
Продолжительность: 01:31:06
Перевод: Любительский (двухголосый, закадровый) | Pazl Voice
Файл
Качество: WEB-DLRip
Формат: AVI
Кодек: XviD
Видео: 720x304 (2.35:1), 23,976 fps, XviD ~ 1839 Kbps avg, 0.350 bit/pixel
Аудио: AC3, 48 kHz, 6 ch, ~448.00 kbps avg | русский | DVO
Субтитры: Отсутствуют

Скриншоты

admin

Post 25-Jul-2021 03:36

[Quote]

Информация о фильме
Название: Те, кто желает мне смерти
Оригинальное название: Those Who Wish Me Dead
Год выхода: 2021
Жанр: Боевик, триллер, драма
Режиссер: Тейлор Шеридан
В ролях: Анджелина Джоли, Финн Литтл, Николас Холт, Эйдан Гиллен, Джон Бернтал, Медина Сенгхоур, Джейк Уэбер, Тайлер Перри, Джеймс Джордан, Тори Киттлз
О фильме:
Бывшая руководительница бригады пожарных Ханна уже год не может пережить гибель подчинённого во время лесного пожара, а также трёх случайно оказавшихся на местности мальчишек. Теперь её рабочее место — наблюдательная вышка в лесах Монтаны. А в это время обычный бухгалтер, недавно узнавший компрометирующую важных людей информацию, скрывается от киллеров. Вместе с 12-летним сыном он мчит на машине в те же монтанские леса, где брат его покойной жены работает шерифом.


Страна: Канада, США
Студия: Bron Studios, Creative Wealth Media Finance, Film Rites
Продолжительность: 01:39:42
Перевод: Профессиональный (полное дублирование) | iTunes
Файл
Качество: HDRip | исх. BDRip 1080p
Формат: AVI
Кодек: XviD
Видео: 720x304 (2.35:1), 23.976 fps, XviD ~ 1706 Kbps avg, 0.325 bit/pixel
Аудио: AC3, 48 kHz, 6 ch, ~384.00 kbps avg | русский | iTunes |
Субтитры: Русские (2-x форсированные, полные) отдельно

Скриншоты

admin

Post 25-Jul-2021 03:24

[Quote]

Информация о фильме
Название: Заложники Марса / Поселенцы
Оригинальное название: Settlers
Год выхода: 2021
Жанр: Фантастика
Режиссер: Уайатт Рокфеллер
В ролях: София Бутелла, Джонни Ли Миллер, Нелл Тайгер Фри, Бруклин Принс, Исмаэль Круз, Натали Уолш, Мэттью Ван Лееве
О фильме:
2078 год. Жизнь на Марсе стала реальностью. Ремми родилась на этой планете и никогда не была на Земле. Её семья живёт в изолированной колонии, ограниченной кислородным куполом. Но когда на их дом нападают вооруженные захватчики, Ремми вынуждена столкнуться с тем, от чего её уберегали родители, и узнать, что на самом деле скрывает Марс.


Страна: Великобритания
Студия: Brittle-Star Pictures, Film Constellation, Jericho Motion Pictures
Продолжительность: 01:43:31
Перевод: Профессиональный (полное дублирование) | iTunes
Файл
Качество: WEB-DLRip
Исходник: Settlers.2021.1080p.WEB-DL.DD5.1.H.264-EVO
Формат: AVI
Кодек: XviD
Видео: 720x304 (2.35:1), 23.976 fps, XviD ~ 1625 Kbps avg, 0.310 bit/pixel
Аудио: AC3, 48 kHz, 6 ch, ~384.00 kbps avg | русский | iTunes
Субтитры: Русские (форсированные, полные) отдельно

Скриншоты

admin

Post 25-Jul-2021 03:22

[Quote]

Информация о фильме
Название: Заложники Марса / Поселенцы
Оригинальное название: Settlers
Год выпуска: 2021
Жанр: Фантастика, драма
Режиссер: Уайатт Рокфеллер
Актеры: София Бутелла, Джонни Ли Миллер, Нелл Тайгер Фри, Бруклин Принс, Исмаэль Круз, Натали Уолш, Мэттью Ван Лееве
Описание:
Семья переселенцев с Земли пытается выжить на новой планете. Их дом подвергается постоянным нападкам со стороны чужаков. После очередного рейда, вместо главы семейства, возвращается бывший собственник дома.

Производство: Великобритания, Brittle-Star PicturesFilm, ConstellationJericho, Motion Pictures
Продолжительность: 01:43:31
Перевод: Профессиональный (полное дублирование) | iTunes + Авторский (BadBajo)
Субтитры: Русские (форсированные, полные), Английские (отключаемые)
Файл
Формат: Matroska
Качество: WEB-DLRip-AVC
Видео: 1024x426 at 23.976 fps, x264@L4.1, ~1153 kbps
Аудио 1: AC3, 6 ch, 384 Kbps - Русский DUB | iTunes
Аудио 2: AC3, 6 ch, 384 Kbps - Русский | AVO (BadBajo)
Аудио 3: AC3, 6 ch, 384 Kbps - Английский
Формат субтитров: softsub (SRT)

M/I

x264 [info]: frame I:1170 Avg QP:13.97 size: 50892
x264 [info]: frame P:32391 Avg QP:15.27 size: 12636
x264 [info]: frame B:115364 Avg QP:16.82 size: 3693
General
Format : Matroska
Format version : Version 4
File size : 1.67 GiB
Duration : 1 h 43 min
Overall bit rate : 2 307 kb/s
Movie name : Заложники Марса.(2021).WEB-DLRip-AVC.[-=DoMiNo=-]
Encoded date : UTC 2021-07-24 15:43:02
Writing application : mkvmerge v59.0.0 ('Shining Star') 64-bit
Writing library : libebml v1.4.2 + libmatroska v1.6.4
Cover : Yes
Attachments : Cover.jpg / Cover 2.jpg
Video
ID : 1
Format : AVC
Format/Info : Advanced Video Codec
Format profile : High@L4.1
Format settings : CABAC / 12 Ref Frames
Format settings, CABAC : Yes
Format settings, Reference : 12 frames
Codec ID : V_MPEG4/ISO/AVC
Duration : 1 h 43 min
Bit rate : 1 153 kb/s
Width : 1 024 pixels
Height : 426 pixels
Display aspect ratio : 2.40:1
Frame rate mode : Constant
Frame rate : 23.976 (24000/1001) FPS
Color space : YUV
Chroma subsampling : 4:2:0
Bit depth : 8 bits
Scan type : Progressive
Bits/(Pixel*Frame) : 0.110
Stream size : 853 MiB (50%)
Title : -=DoMiNo=-
Writing library : x264 core 164 r3065+55M 280faca t_mod_New [(8 & 10)-bit@all X86_64]
Encoding settings : cabac=1 / ref=12 / deblock=1:-2:-2 / analyse=0x3:0x133 / me=umh / subme=10 / psy=1 / fade_compensate=0.00 / psy_rd=1.03:0.05 / mixed_ref=1 / me_range=32 / chroma_me=1 / trellis=2 / 8x8dct=1 / cqm=0 / deadzone=21,11 / fast_pskip=0 / chroma_qp_offset=-3 / threads=13 / lookahead_threads=3 / sliced_threads=0 / nr=0 / decimate=1 / interlaced=0 / bluray_compat=0 / constrained_intra=0 / fgo=0 / bframes=10 / b_pyramid=2 / b_adapt=2 / b_bias=0 / direct=1 / weightb=1 / open_gop=0 / weightp=2 / keyint=240 / keyint_min=23 / scenecut=40 / intra_refresh=0 / rc_lookahead=60 / rc=crf / mbtree=0 / crf=18.5000 / qcomp=0.60 / qpmin=0:0:0 / qpmax=69:69:69 / qpstep=4 / vbv_maxrate=50000 / vbv_bufsize=62500 / crf_max=0.0 / nal_hrd=none / filler=0 / ip_ratio=1.30 / pb_ratio=1.20 / aq=3:0.80 / aq-sensitivity=10.00 / aq-factor=1.00:1.00:1.00 / aq2=0 / aq3=0
Language : English
Default : Yes
Forced : No
Color range : Limited
Color primaries : BT.709
Transfer characteristics : BT.709
Matrix coefficients : BT.709
Audio #1
ID : 2
Format : AC-3
Format/Info : Audio Coding 3
Commercial name : Dolby Digital
Codec ID : A_AC3
Duration : 1 h 43 min
Bit rate mode : Constant
Bit rate : 384 kb/s
Channel(s) : 6 channels
Channel layout : L R C LFE Ls Rs
Sampling rate : 48.0 kHz
Frame rate : 31.250 FPS (1536 SPF)
Compression mode : Lossy
Stream size : 284 MiB (17%)
Title : DUB
Language : Russian
Service kind : Complete Main
Default : Yes
Forced : Yes
Audio #2
ID : 3
Format : AC-3
Format/Info : Audio Coding 3
Commercial name : Dolby Digital
Codec ID : A_AC3
Duration : 1 h 43 min
Bit rate mode : Constant
Bit rate : 384 kb/s
Channel(s) : 6 channels
Channel layout : L R C LFE Ls Rs
Sampling rate : 48.0 kHz
Frame rate : 31.250 FPS (1536 SPF)
Compression mode : Lossy
Stream size : 284 MiB (17%)
Title : BadBajo
Language : Russian
Service kind : Complete Main
Default : No
Forced : No
Audio #3
ID : 4
Format : AC-3
Format/Info : Audio Coding 3
Commercial name : Dolby Digital
Codec ID : A_AC3
Duration : 1 h 43 min
Bit rate mode : Constant
Bit rate : 384 kb/s
Channel(s) : 6 channels
Channel layout : L R C LFE Ls Rs
Sampling rate : 48.0 kHz
Frame rate : 31.250 FPS (1536 SPF)
Compression mode : Lossy
Stream size : 284 MiB (17%)
Title : eng
Language : English
Service kind : Complete Main
Default : No
Forced : No
Text #1
ID : 5
Format : UTF-8
Codec ID : S_TEXT/UTF8
Codec ID/Info : UTF-8 Plain Text
Duration : 1 h 38 min
Bit rate : 1 b/s
Count of elements : 31
Stream size : 1.38 KiB (0%)
Title : Forced
Language : Russian
Default : Yes
Forced : Yes
Text #2
ID : 6
Format : UTF-8
Codec ID : S_TEXT/UTF8
Codec ID/Info : UTF-8 Plain Text
Duration : 1 h 38 min
Bit rate : 26 b/s
Count of elements : 669
Stream size : 19.3 KiB (0%)
Title : Full
Language : Russian
Default : No
Forced : No
Text #3
ID : 7
Format : UTF-8
Codec ID : S_TEXT/UTF8
Codec ID/Info : UTF-8 Plain Text
Duration : 1 h 35 min
Bit rate : 17 b/s
Count of elements : 534
Stream size : 12.0 KiB (0%)
Language : English
Default : No
Forced : No
Menu
00:00:00.000 : Scene 1
00:14:56.000 : Scene 2
00:29:41.250 : Scene 3
00:44:45.000 : Scene 4
00:59:36.350 : Scene 5
01:14:53.250 : Scene 6
01:31:34.150 : Scene 7
01:38:50.000 : Scene 8

admin

Post 25-Jul-2021 02:32

[Quote]

Информация о фильме
Название: Лови волну. Стихия с характером
Оригинальное название: Send It!
Год выхода: 2021
Жанр: Боевик, мелодрама, комедия, приключения, спорт
Режиссер: Эндрю Стивенс
В ролях: Кевин Дж. Куинн, Клаудия Ли, Патрик Фабиан, Вероника Розати, Александрия ДеБерри, Дениз Ричардс, Майкл Джей Уайт, Ричард Брэнсон, Ясмин Аль-Бустами, Ян Бин
О фильме:
Техасский спортсмен Билли отправляется на чемпионат мира по кайтсёрфингу. По пути встречает и влюбляется в Скай, которая пытается убежать от своего прошлого.


Страна: США
Студия: Andrew Stevens Entertainment Inc.
Продолжительность: 01:34:11
Перевод: Профессиональный (полное дублирование) | Back Board Cinema
Файл
Качество: WEB-DLRip
Формат: AVI
Кодек: XviD
Видео: 704x400 (16:9), 23.976 fps, XviD ~ 1763 Kbps avg, 0.261 bit/pixel
Аудио: AC3, 48 kHz, 6 ch, ~448.00 kbps avg | русский | DUB
Субтитры: Отсутствуют

admin

Post 24-Jul-2021 05:26

[Quote]

Кроваво-красное небо / Blood Red Sky
«A young mother, travelling on an overnight flight with her son, is forced to embrace the supernatural powers she has been trying to suppress when the plane gets hijacked and embroiled in an international conspiracy»
Год выпуска: 2021
Страна: Германия, США / Rat Pack Filmproduktion GmbH, Sirena Film
Жанр: Ужасы, боевик
Продолжительность: 02:03:06
Перевод: Профессиональный (полное дублирование) [Netflix]
Субтитры: Русские форсированные (стилизованные, на надписи и прочее) - вшитые; Русские (форсированные, полные) - отдельно-Режиссер: Петер Торварт-Роли озвучивают: Грэм МакТавиш, Доминик Пёрселл, Роланд Мюллер, Пери Баумейстер, Александр Шеер, Чиди Аджуфо, Синед Фелпс, Ребекка Дайсон-Смит, Джим Хай, Леони Шарлотта Бриль-Описание:
Террористы, захватившие самолет, следующий ночным трансатлантическим рейсом, не подозревали, что среди пассажиров окажется женщина со странным заболеванием, не поздоровится от которого, в первую очередь, им.
-Рейтинг:
-Качество: WEB-DLRip | исх. Blood.Red.Sky.2021.WEB-DL.1080p.seleZen |
Формат: AVI
Видео кодек: XviD
Аудио кодек: AC3
Видео: 704x352 (2.00:1), 25 fps, XviD build 69 ~1304 kbps avg, 0.21 bit/pixel
Аудио: 48 kHz, AC3 Dolby Digital, 3/2 (L,C,R,l,r) + LFE ch, ~384 kbps
-

Скриншоты


admin

Post 23-Jul-2021 05:29

[Quote]

Информация о фильме
Название: Полночь на злаковом поле
Оригинальное название: Midnight in the Switchgrass
Год выхода: 2021
Жанр: Триллер, детектив, криминал
Режиссер: Рэндолл Эмметт
В ролях: Меган Фокс, Эмиль Хирш, Брюс Уиллис, Лукас Хаас, Кэйтлин Кармайкл, Олив Элиз Аберкромби, Jason Trawick, Лидия Халл, Уэлкер Уайт, Алек Монополи
О фильме:
Пенсакола, 2004 год. Два агента ФБР пытаются накрыть сеть торговцев людьми, когда выясняется, что их дело пересекается с многолетним безрезультатным расследованием серийных убийств молодых женщин. И хотя полицейский начальник слышать не хочет об официальном взаимодействии, ФРБ-ровцы объединяют усилия с местным детективом.


Страна: США
Студия: BondIt, Emmett/Furla Films, Pimienta, River Bay Films, Verdi Productions
Продолжительность: 01:38:44
Перевод: Профессиональный (многоголосый, закадровый) | HDRezka Studio
Файл
Качество: BDRip
Исходник: Midnight.in.the.Switchgrass.2021.1080p.BluRay.REMUX.AVC.DTS-HD.MA.5.1-TRiToN
Формат: AVI
Кодек: XviD
Видео: 720x304 (2.35:1), 23,976 fps, XviD ~ 1660 Kbps avg, 0.316 bit/pixel
Аудио: AC3, 48 kHz, 6 ch, ~448.00 kbps avg | русский | HDRezka Studio | с цензурой
Субтитры: Русские (форсированные) отдельно

Скриншоты

admin

Post 23-Jul-2021 05:18

[Quote]

Информация о фильме
Название: Ограбление по-джентльменски
Оригинальное название: The Misfits
Год выхода: 2021
Жанр: Боевик, триллер, приключения
Режиссер: Ренни Харлин
В ролях: Пирс Броснан, Тим Рот, Ник Кэннон, Рами Джабер, Джейми Чон, Гермиона Корфилд, Пират Нитипаисалкул, Кайс Кандиль, Мартин Коррадо, Роберт Хенни
О фильме:
После дерзкого побега из тюрьмы самый известный вор в мире Ричард Пейс заключает сделку с «Командой изгоев», которые грабят богатых и отдают деньги бедным. Под началом бывалого вора-джентльмена новые Робин Гуды нацеливаются на крупнейшее хранилище золотых слитков в мире, владелец которого — Уорнер Шольц — отмывает деньги международных преступников, а по совместительству является давним врагом Пейса. Грабить они будут красиво, задорно и со вкусом — по-джентльменски.

Страна: США
Студия: FilmGate Productions, Highland Film Group (HFG), K. JAM Media, RNG Entertainment, The Misfits Project
Продолжительность: 01:34:23
Перевод: Профессиональный (полное дублирование) | iTunes
Субтитры: Английские (Full, SDH), форсированные (хардсаб)
Файл
Формат: Matroska
Качество: WEB-DLRip-AVC [The.Misfits.2021.1080p.AMZN.WEB-DL.DDP5.1.H.264-CMRG]
Видео: 1024x426 at 23.976 fps, x264@L4.1, ~1713 kbps, 0.164 bpp
Аудио 1: AC3, 6 ch, ~384 kbps - | Русский | -
Аудио 2: AC3, 6 ch, ~448 kbps - | Английский | -
Формат субтитров: softsub (SRT)

M/I

x264 [info]: frame I:1667 Avg QP:15.57 size: 51616
x264 [info]: frame P:34601 Avg QP:17.39 size: 17692
x264 [info]: frame B:99504 Avg QP:19.79 size: 5172
General
Format : Matroska
Format version : Version 4
File size : 1.68 GiB
Duration : 1 h 34 min
Overall bit rate : 2 548 kb/s
Movie name : Ограбление по-джентльменски.(2021).IT.AMZN.WEB-DLRip-AVC.[-=DoMiNo=-]
Encoded date : UTC 2021-07-22 10:36:52
Writing application : mkvmerge v59.0.0 ('Shining Star') 64-bit
Writing library : libebml v1.4.2 + libmatroska v1.6.4
Cover : Yes
Attachments : Cover.jpg / Cover 2.jpg
Video
ID : 1
Format : AVC
Format/Info : Advanced Video Codec
Format profile : High@L4.1
Format settings : CABAC / 12 Ref Frames
Format settings, CABAC : Yes
Format settings, Reference : 12 frames
Codec ID : V_MPEG4/ISO/AVC
Duration : 1 h 34 min
Bit rate : 1 713 kb/s
Width : 1 024 pixels
Height : 426 pixels
Display aspect ratio : 2.40:1
Frame rate mode : Constant
Frame rate : 23.976 (24000/1001) FPS
Color space : YUV
Chroma subsampling : 4:2:0
Bit depth : 8 bits
Scan type : Progressive
Bits/(Pixel*Frame) : 0.164
Stream size : 1.13 GiB (67%)
Title : -=DoMiNo=-
Writing library : x264 core 164 r3065+55M 280faca t_mod_New [(8 & 10)-bit@all X86_64]
Encoding settings : cabac=1 / ref=12 / deblock=1:-3:-3 / analyse=0x3:0x133 / me=umh / subme=10 / psy=1 / fade_compensate=0.00 / psy_rd=1.03:0.05 / mixed_ref=1 / me_range=32 / chroma_me=1 / trellis=2 / 8x8dct=1 / cqm=0 / deadzone=21,11 / fast_pskip=0 / chroma_qp_offset=-3 / threads=24 / lookahead_threads=3 / sliced_threads=0 / nr=0 / decimate=1 / interlaced=0 / bluray_compat=0 / constrained_intra=0 / fgo=0 / bframes=12 / b_pyramid=2 / b_adapt=2 / b_bias=0 / direct=1 / weightb=1 / open_gop=0 / weightp=2 / keyint=240 / keyint_min=23 / scenecut=40 / intra_refresh=0 / rc_lookahead=60 / rc=crf / mbtree=0 / crf=18.0000 / qcomp=0.65 / qpmin=0:0:0 / qpmax=69:69:69 / qpstep=4 / vbv_maxrate=50000 / vbv_bufsize=62500 / crf_max=0.0 / nal_hrd=none / filler=0 / ip_ratio=1.40 / pb_ratio=1.30 / aq=3:0.80 / aq-sensitivity=10.00 / aq-factor=1.00:1.00:1.00 / aq2=0 / aq3=0
Language : English
Default : Yes
Forced : No
Color range : Limited
Color primaries : BT.709
Transfer characteristics : BT.709
Matrix coefficients : BT.709
Audio #1
ID : 2
Format : AC-3
Format/Info : Audio Coding 3
Commercial name : Dolby Digital
Codec ID : A_AC3
Duration : 1 h 34 min
Bit rate mode : Constant
Bit rate : 384 kb/s
Channel(s) : 6 channels
Channel layout : L R C LFE Ls Rs
Sampling rate : 48.0 kHz
Frame rate : 31.250 FPS (1536 SPF)
Compression mode : Lossy
Stream size : 259 MiB (15%)
Title : DUB | iTunes
Language : Russian
Service kind : Complete Main
Default : Yes
Forced : Yes
Audio #2
ID : 3
Format : AC-3
Format/Info : Audio Coding 3
Commercial name : Dolby Digital
Codec ID : A_AC3
Duration : 1 h 34 min
Bit rate mode : Constant
Bit rate : 448 kb/s
Channel(s) : 6 channels
Channel layout : L R C LFE Ls Rs
Sampling rate : 48.0 kHz
Frame rate : 31.250 FPS (1536 SPF)
Compression mode : Lossy
Stream size : 302 MiB (18%)
Language : English
Service kind : Complete Main
Default : No
Forced : No
Text #1
ID : 4
Format : UTF-8
Codec ID : S_TEXT/UTF8
Codec ID/Info : UTF-8 Plain Text
Duration : 1 h 26 min
Bit rate : 65 b/s
Count of elements : 1103
Stream size : 41.8 KiB (0%)
Language : English
Default : No
Forced : No
Text #2
ID : 5
Format : UTF-8
Codec ID : S_TEXT/UTF8
Codec ID/Info : UTF-8 Plain Text
Duration : 1 h 26 min
Bit rate : 71 b/s
Count of elements : 1254
Stream size : 45.5 KiB (0%)
Title : SDH
Language : English
Default : No
Forced : No

admin

Post 23-Jul-2021 05:15

[Quote]

Информация о фильме
Название: Ограбление по-джентльменски
Оригинальное название: The Misfits
Год выхода: 2021
Жанр: Боевик, триллер, приключения
Режиссер: Ренни Харлин
В ролях: Пирс Броснан, Тим Рот, Ник Кэннон, Рами Джабер, Джейми Чон, Гермиона Корфилд, Пират Нитипаисалкул, Кайс Кандиль, Мартин Коррадо, Роберт Хенни
О фильме:
После дерзкого побега из тюрьмы самый известный вор в мире Ричард Пейс заключает сделку с «Командой изгоев», которые грабят богатых и отдают деньги бедным. Под началом бывалого вора-джентльмена новые Робин Гуды нацеливаются на крупнейшее хранилище золотых слитков в мире, владелец которого — Уорнер Шольц — отмывает деньги международных преступников, а по совместительству является давним врагом Пейса. Грабить они будут красиво, задорно и со вкусом — по-джентльменски.


Страна: США
Студия: FilmGate Productions, Highland Film Group (HFG), K. JAM Media, RNG Entertainment, The Misfits Project
Продолжительность: 01:34:23
Перевод: Профессиональный (полное дублирование) | iTunes
Файл
Качество: WEB-DLRip
Исходник: The.Misfits.2021.1080p.AMZN.WEB-DL.DDP5.1.H.264-CMRG
Формат: AVI
Кодек: XviD
Видео: 720x304 (2.35:1), 23.976 fps, XviD ~ 1822 Kbps avg, 0.347 bit/pixel
Аудио: AC3, 48 kHz, 6 ch, ~384.00 kbps avg | русский | iTunes
Субтитры: Английские (форсированные (хардсаб))

Скриншоты

admin

Post 21-Jul-2021 05:30

[Quote]

«Её голос услышат»
Информация о фильме
Название: Соединённые Штаты против Билли Холидей
Оригинальное название: The United States vs. Billie Holiday
Год выхода: 2021
Жанр: Драма, биография, музыка
Режиссер: Ли Дэниелс
В ролях: Андра Дэй, Лесли Джордан, Мисс Лоуренс, Наташа Лионн, Треванте Роудс, Душан Дукич, Эрик Ларей Харви, Да’Вин Джой Рэндольф, Кумба Болл, Кейт Маклеллан
О фильме:
1940 год. Популярная певица Билли Холидей становится мишенью для правительства США из-за пропаганды равноправия в своих песнях. Чиновники решают бороться с ней при помощи отдела по борьбе с наркотиками. Операцию возглавляет федеральный агент Джимми Флетчер. Сможет ли он устоять перед талантом и красотой девушки?


Страна: США
Студия: Lee Daniels Entertainment, New Slate Ventures, Roth/Kirschenbaum Films
Продолжительность: 02:11:03
Перевод: Профессиональный (многоголосый, закадровый) | iTunes
Файл
Качество: BDRip
Исходник: The.United.States.vs.Billie.Holiday.2021.MULTi.COMPLETE.BLURAY-GMB
Кодек: XviD
Видео: 720x304 (2.35:1), 24 fps, XviD ~ 1202 Kbps avg, 0.229 bit/pixel
Аудио: AC3, 48 kHz, 6 ch, ~384.00 kbps avg | русский | iTunes |
Субтитры: Русские (форсированные (iTunes)) отдельно

Скриншоты

admin

Post 21-Jul-2021 05:01

[Quote]

«The Rapture left them behind. The portal is their last chance»
Информация о фильме
Название: Исход
Оригинальное название: Exodus
Год выхода: 2021
Жанр: Фантастика
Режиссер: Логан Стоун
В ролях: Джими Стэнтон, Джанелл Сноу, Чарльз Гарднер, Кит Джардин, Ханна Клопфер, Джеймс Ллойд Маккинни, Закари Госсетт, Дэн Гонон, Грэйс Барнс, Джиланне Клаус
О фильме:
Недалекое будущее. Мир после катастрофы, где безжалостный тоталитарный режим поглощает безумие хаоса. Однажды в руки надсмотрщика Коннора попадает старая VHS-кассета, на которой он находит доказательство существования портала, ведущего в рай. Коннор, бросив все, покидает свой унылый город и отправляется на поиски счастья. По следу Коннора идет лучшая охотница за дезертирами, у которой есть свои планы на портал. Они будут оставаться партнерами, пока это будет выгодно обоим.


Страна: США
Студия: Cinestone
Продолжительность: 01:15:17
Перевод: Профессиональный (полное дублирование) | Мосфильм-Мастер
Файл
Качество: WEB-DLRip
Формат: AVI
Кодек: XviD
Видео: 720x304 (2.35:1), 24 fps, XviD ~ 2215 Kbps avg, 0.422 bit/pixel
Аудио: AC3, 48 kHz, 6 ch, ~384.00 kbps avg | русский | DUB
Субтитры: Отсутствуют

admin

Post 21-Jul-2021 04:49

[Quote]

«Silence is Not Enough»
Информация о фильме
Название: Тихое место 2
Оригинальное название: A Quiet Place Part II
Год выхода: 2021
Жанр: Ужасы, фантастика, триллер, драма
Режиссер: Джон Красински
В ролях: Эмили Блант, Миллисент Симмондс, Киллиан Мёрфи, Ноа Джуп, Джон Красински, Джимон Хонсу, Окьерете Онаодован, Скут МакНэри, Захари Голингер, Блейк ДеЛонг
О фильме:
474 дня после нападения на Землю охотящихся на звук существ, семья Эбботт продолжает бороться за жизнь в полной тишине. Столкнувшись со смертельной угрозой в собственном доме, они вынуждены отправиться во внешний мир, где находят убежище и старого знакомого семьи. Поймав радиосигнал, Реган вычисляет место предполагаемой колонии выживших и решает во что бы то ни стало её разыскать.


Страна: США
Студия: Buffalo FilmWorks, Paramount Pictures, Platinum Dunes, Sunday Night Productions
Продолжительность: 01:37:01
Перевод: Профессиональный (полное дублирование) | iTunes
Файл
Качество: BDRip
Исходник: A.Quiet.Place.Part.II.2020.BDREMUX.1080p.seleZen
Формат: AVI
Кодек: XviD
Видео: 720x304 (2.35:1), 23.976 fps, XviD ~ 1699 Kbps avg, 0.324 bit/pixel
Аудио: AC3, 48 kHz, 6 ch, ~384.00 kbps avg | русский | iTunes
Субтитры: Русские (форсированные, полные), украинские (форсированные, полные) отдельно

admin

Post 19-Jul-2021 04:56

[Quote]

Информация о фильме
Название: Матч
Оригинальное название: The Match
Год выпуска: 2021
Жанр: Драма, история, спорт
Режиссер: Доминик Седлар, Яков Седлар
В ролях: Франко Неро, Каспар Филлипсон, Арман Ассанте, Маркус Герткен, Виктор Кулханек, Андрей Дойкич, Филип Таллхамн, Филипп Рейнхардт, Милтон Уэлш, Пасько Вукасович, Инва Мула, Марк Видука, Никса Куселж, Андреа Зирио, Роберт Мазер, Адриан Прохич Бердич, Иван Коларич, Никола Недергаард
О фильме:
Весна 1944-го. В качестве подарка на день рождения Гитлера нацисты решают устроить футбольный матч между заключенными концлагеря и элитной немецкой командой. Только вот нацистам невдомек, что заключенные хотят одержать победу любой ценой.

Страна / студия: Хорватия, США, IneomediaNexus ProductionOllendorff Center
Продолжительность: 01:59:36
Перевод: Любительский двухголосый Pazl Voice
Субтитры: English
Файл
Формат: Matroska
Качество: WEBRip-AVC
Видео: 1024x424 at 23.976 fps, x264@L4.1, ~1602 kbps
Аудио 1: AC3, 6 ch, ~448 kbps - | Русский | -
Аудио 2: AC3, 6 ch, ~384 kbps - | Английский | -
Формат субтитров: softsub (SRT)

M/I

x264 [info]: frame I:1599 Avg QP:16.08 size: 47214
x264 [info]: frame P:42422 Avg QP:17.49 size: 16691
x264 [info]: frame B:128032 Avg QP:18.46 size: 5107
General
Format : Matroska
Format version : Version 4
File size : 2.04 GiB
Duration : 1 h 59 min
Overall bit rate : 2 437 kb/s
Movie name : Матч.(2021).WEBRip-AVC.[-=DoMiNo=-]
Encoded date : UTC 2021-07-18 10:20:13
Writing application : mkvmerge v59.0.0 ('Shining Star') 64-bit
Writing library : libebml v1.4.2 + libmatroska v1.6.4
Cover : Yes
Attachments : Cover.jpg / Cover 2.jpg
Video
ID : 1
Format : AVC
Format/Info : Advanced Video Codec
Format profile : High@L4.1
Format settings : CABAC / 12 Ref Frames
Format settings, CABAC : Yes
Format settings, Reference : 12 frames
Codec ID : V_MPEG4/ISO/AVC
Duration : 1 h 59 min
Bit rate : 1 602 kb/s
Width : 1 024 pixels
Height : 424 pixels
Display aspect ratio : 2.40:1
Frame rate mode : Constant
Frame rate : 23.976 (24000/1001) FPS
Color space : YUV
Chroma subsampling : 4:2:0
Bit depth : 8 bits
Scan type : Progressive
Bits/(Pixel*Frame) : 0.154
Stream size : 1.34 GiB (66%)
Title : -=DoMiNo=-
Writing library : x264 core 164 r3065+55M 280faca t_mod_New [(8 & 10)-bit@all X86_64]
Encoding settings : cabac=1 / ref=12 / deblock=1:-3:-2 / analyse=0x3:0x133 / me=umh / subme=10 / psy=1 / fade_compensate=0.00 / psy_rd=1.05:0.05 / mixed_ref=1 / me_range=48 / chroma_me=1 / trellis=2 / 8x8dct=1 / cqm=0 / deadzone=21,11 / fast_pskip=0 / chroma_qp_offset=-3 / threads=24 / lookahead_threads=3 / sliced_threads=0 / nr=0 / decimate=1 / interlaced=0 / bluray_compat=0 / constrained_intra=0 / fgo=0 / bframes=9 / b_pyramid=2 / b_adapt=2 / b_bias=0 / direct=1 / weightb=1 / open_gop=0 / weightp=2 / keyint=240 / keyint_min=23 / scenecut=40 / intra_refresh=0 / rc_lookahead=60 / rc=crf / mbtree=0 / crf=18.5000 / qcomp=0.60 / qpmin=0:0:0 / qpmax=69:69:69 / qpstep=4 / vbv_maxrate=50000 / vbv_bufsize=62500 / crf_max=0.0 / nal_hrd=none / filler=0 / ip_ratio=1.30 / pb_ratio=1.20 / aq=3:0.80 / aq-sensitivity=10.00 / aq-factor=1.00:1.00:1.00 / aq2=0 / aq3=0
Language : English
Default : Yes
Forced : No
Color range : Limited
Color primaries : BT.709
Transfer characteristics : BT.709
Matrix coefficients : BT.709
Audio #1
ID : 2
Format : AC-3
Format/Info : Audio Coding 3
Commercial name : Dolby Digital
Codec ID : A_AC3
Duration : 1 h 59 min
Bit rate mode : Constant
Bit rate : 448 kb/s
Channel(s) : 6 channels
Channel layout : L R C LFE Ls Rs
Sampling rate : 48.0 kHz
Frame rate : 31.250 FPS (1536 SPF)
Compression mode : Lossy
Stream size : 383 MiB (18%)
Title : [DVO] Pazl Voice
Language : Russian
Service kind : Complete Main
Default : Yes
Forced : Yes
Audio #2
ID : 3
Format : AC-3
Format/Info : Audio Coding 3
Commercial name : Dolby Digital
Codec ID : A_AC3
Duration : 1 h 59 min
Bit rate mode : Constant
Bit rate : 384 kb/s
Channel(s) : 6 channels
Channel layout : L R C LFE Ls Rs
Sampling rate : 48.0 kHz
Frame rate : 31.250 FPS (1536 SPF)
Compression mode : Lossy
Stream size : 328 MiB (16%)
Title : English
Language : English
Service kind : Complete Main
Default : No
Forced : No
Text
ID : 4
Format : UTF-8
Codec ID : S_TEXT/UTF8
Codec ID/Info : UTF-8 Plain Text
Duration : 1 h 53 min
Bit rate : 52 b/s
Count of elements : 1518
Stream size : 43.8 KiB (0%)
Language : English
Default : No
Forced : No

admin

Post 19-Jul-2021 04:41

[Quote]

Информация о фильме
Название: Свинья
Оригинальное название: Pig
Год выпуска: 2021
Жанр: Триллер, драма
Выпущено: Великобритания, США, AI-Film, BlockBox Entertainment, Escape Artists
Режиссер: Майкл Сарноски
В ролях: Николас Кейдж, Алекс Вулф, Адам Аркин, Нина Бельфорте, Далин Янг, Гретчен Корбетт, Джулия Брэй, Дариус Пирс, Элайджа Унгвари, Брайан Сазерленд
О фильме:
Охотник за трюфелями живет один в дикой Орегонской пустыне. Когда его любимую свинью похищают неизвестные люди, леснику приходится броситься на её поиски и столкнуться лицом к лицу со своим прошлым.

Продолжительность: 01:33:05
Перевод: Одноголосый,закадровый (BadBajo)
Субтитры: английские
Файл
Формат: Matroska
Качество: WEB-DLRip-AVC
Видео: 1024x428 at 23.976 fps, x264@L4.1, ~1507 kbps
Аудио 1: AC3, 6 ch, ~384 kbps - | Русский | -
Аудио 2: AC3, 6 ch, ~384 kbps - | Английский | -
Формат субтитров: softsub (SRT)

M/I

x264 [info]: frame I:779 Avg QP:14.59 size: 43383
x264 [info]: frame P:25537 Avg QP:15.82 size: 15303
x264 [info]: frame B:105810 Avg QP:16.49 size: 5799
General
Format : Matroska
Format version : Version 4
File size : 1.46 GiB
Duration : 1 h 31 min
Overall bit rate : 2 277 kb/s
Movie name : Свинья.(2021).WEB-DLRip-AVC.[-=DoMiNo=-]
Encoded date : UTC 2021-07-18 08:29:17
Writing application : mkvmerge v59.0.0 ('Shining Star') 64-bit
Writing library : libebml v1.4.2 + libmatroska v1.6.4
Cover : Yes
Attachments : Cover.jpg / Cover 2.jpg
Video
ID : 1
Format : AVC
Format/Info : Advanced Video Codec
Format profile : High@L4.1
Format settings : CABAC / 12 Ref Frames
Format settings, CABAC : Yes
Format settings, Reference : 12 frames
Codec ID : V_MPEG4/ISO/AVC
Duration : 1 h 31 min
Bit rate : 1 507 kb/s
Width : 1 024 pixels
Height : 428 pixels
Display aspect ratio : 2.40:1
Frame rate mode : Constant
Frame rate : 23.976 (24000/1001) FPS
Color space : YUV
Chroma subsampling : 4:2:0
Bit depth : 8 bits
Scan type : Progressive
Bits/(Pixel*Frame) : 0.143
Stream size : 990 MiB (66%)
Title : -=DoMiNo=-
Writing library : x264 core 164 r3065+55M 280faca t_mod_New [(8 & 10)-bit@all X86_64]
Encoding settings : cabac=1 / ref=12 / deblock=1:-3:-2 / analyse=0x3:0x133 / me=umh / subme=10 / psy=1 / fade_compensate=0.00 / psy_rd=1.05:0.05 / mixed_ref=1 / me_range=48 / chroma_me=1 / trellis=2 / 8x8dct=1 / cqm=0 / deadzone=21,11 / fast_pskip=0 / chroma_qp_offset=-3 / threads=24 / lookahead_threads=3 / sliced_threads=0 / nr=0 / decimate=1 / interlaced=0 / bluray_compat=0 / constrained_intra=0 / fgo=0 / bframes=10 / b_pyramid=2 / b_adapt=2 / b_bias=0 / direct=1 / weightb=1 / open_gop=0 / weightp=2 / keyint=240 / keyint_min=23 / scenecut=40 / intra_refresh=0 / rc_lookahead=60 / rc=crf / mbtree=0 / crf=19.0000 / qcomp=0.60 / qpmin=0:0:0 / qpmax=69:69:69 / qpstep=4 / vbv_maxrate=50000 / vbv_bufsize=62500 / crf_max=0.0 / nal_hrd=none / filler=0 / ip_ratio=1.30 / pb_ratio=1.20 / aq=3:0.80 / aq-sensitivity=10.00 / aq-factor=1.00:1.00:1.00 / aq2=0 / aq3=0
Language : English
Default : Yes
Forced : No
Color range : Limited
Color primaries : BT.709
Transfer characteristics : BT.709
Matrix coefficients : BT.709
Audio #1
ID : 2
Format : AC-3
Format/Info : Audio Coding 3
Commercial name : Dolby Digital
Codec ID : A_AC3
Duration : 1 h 31 min
Bit rate mode : Constant
Bit rate : 384 kb/s
Channel(s) : 6 channels
Channel layout : L R C LFE Ls Rs
Sampling rate : 48.0 kHz
Frame rate : 31.250 FPS (1536 SPF)
Compression mode : Lossy
Stream size : 252 MiB (17%)
Title : BadBajo
Language : Russian
Service kind : Complete Main
Default : Yes
Forced : Yes
Audio #2
ID : 3
Format : AC-3
Format/Info : Audio Coding 3
Commercial name : Dolby Digital
Codec ID : A_AC3
Duration : 1 h 31 min
Bit rate mode : Constant
Bit rate : 384 kb/s
Channel(s) : 6 channels
Channel layout : L R C LFE Ls Rs
Sampling rate : 48.0 kHz
Frame rate : 31.250 FPS (1536 SPF)
Compression mode : Lossy
Stream size : 252 MiB (17%)
Title : eng
Language : English
Service kind : Complete Main
Default : No
Forced : No
Text
ID : 4
Format : UTF-8
Codec ID : S_TEXT/UTF8
Codec ID/Info : UTF-8 Plain Text
Duration : 1 h 25 min
Bit rate : 29 b/s
Count of elements : 738
Stream size : 18.5 KiB (0%)
Title : English
Language : English
Default : No
Forced : No

admin

Post 19-Jul-2021 04:03

[Quote]

Информация о фильме
Название: Телохранитель жены киллера
Оригинальное название: Hitman's Wife's Bodyguard
Год выхода: 2021
Жанр: боевик, комедия
Режиссер: Патрик Хьюз
В ролях: Райан Рейнольдс, Сэмюэл Л. Джексон, Сальма Хайек, Морган Фримен, Гэри Олдман, Фрэнк Грилло, Антонио Бандерас, Том Хоппер, Ричард Э. Грант, Кэролайн Гудолл
О фильме:
Жизнь здорово потрепала нервишки Майкла Брайса, так что с карьерой телохранителя он решил завязать. Психотерапевт посоветовал ему отправиться на тихий курорт, вооружившись лишь книжкой и плейлистом расслабляющей музыки. Но и здесь его находит самая безумная в мире парочка: киллер мирового уровня и настоящий магнит неприятностей Дариус Кинкейд и его супруга Соня— буйная дамочка не робкого десятка. Преступный синдикат устроил на них охоту, и Майклу, при всем желании остаться в стороне, придется вернуться к старому ремеслу и снова стать телохранителем. На этот раз — жены киллера!

Страна: Великобритания, США
Продолжительность: 01:39:40
Перевод: Любительский (многоголосый, закадровый) | AlphaProject
Файл
Кодек: XviD
Качество: WEBRip
Видео: MPEG4, XviD, 720x304, 24.000 fps, 1 704 kb/s
Аудио 1: AC3, 48.0 kHz, 2 ch, 192 kb/s | RUS
Аудио 2: AC3, 48.0 kHz, 2 ch, 192 kb/s | ENG
Субтитры: Отсутствуют
Автор релиза: Sound Master
Рекламы нет | Сэмпл

Скриншоты

 

Current time is: 31-Jul 21:04

All times are UTC + 3