Search found 70 matches

Author Message

admin

Post Today 05:50

[Quote]

«The Friendship We All Want. The Vacation We All Need»
Информация о фильме
Название: Барб и Звезда едут в Виста дель Мар
Оригинальное название: Barb and Star Go to Vista Del Mar
Год выхода: 2021
Жанр: Комедия
Режиссер: Джош Гринбаум
В ролях: Энни Мумоло, Кристен Уиг, Рейн Дои, Адриан Макала, Патрик Бристоу, Джейми Дорнан, Джордан Блэк, Рэйчел Дугай, Иэн Гомес, Венди Маклендон-Кови
О фильме:
Подруги Барб и Звезда приехали во флоридский городок Виста дель Мар отдохнуть и позагорать, но вместо этого оказались втянуты в план по уничтожению всего местного населения.


Страна: США
Студия: Gloria Sanchez Productions, Lionsgate, Redrum, Stellie
Продолжительность: 01:46:59
Перевод: Профессиональный (многоголосый, закадровый) | iTunes
Файл
Качество: BDRip
Исходник: Barb.and.Star.Go.to.Vista.Del.Mar.2021.BDREMUX.1080p.seleZen
Формат: AVI
Кодек: XviD
Видео: 720x304 (2.35:1), 23.976 fps, XviD ~ 1508 Kbps avg, 0.287 bit/pixel
Аудио: AC3, 48 kHz, 6 ch, ~384.00 kbps avg | русский | iTunes | tnx seleZen
Субтитры: Русские (форсированные, полные) отдельно

Скриншоты

KSA

Post 10-May-2021 14:29

[Quote]

Препод: История Галатеи / Women
Страна: США, Исландия, Великобритания
Жанр: триллер, драма, криминал
Год выпуска: 2021
Продолжительность: 01:31:55-Перевод: Профессиональный (многоголосый закадровый) | iTunes
Субтитры: нет
Оригинальная аудиодорожка: нет-Режиссер:
Антон Сигурдссон / Anton Sigurdsson-В ролях: Анна Мари Доббинс, Анна Элизабет, Тара Уоррен, Кайли Дельре, Адам Дорси, Денис Госсетт, Энтони Дель Негро, Хезер Фусари, Синди Хоган, Дариус Девонтэй Грин-Описание: Брэдли живет двойной жизнью: днём он профессор престижного колледжа и примерный семьянин, а ночью — маньяк, похищающий молодых девушек. Он просчитывает каждый свой шаг, выбирая себе жертву, оставляя на кровати платье желтого цвета для каждой из них. Обладая цепким умом, Брэдли изощренно ломает сознание похищенных девушек, пробуждая в них стокгольмский синдром. Хэйли — умная студентка, с сильным, мятежным характером однажды обнаруживает у себя на кровати желтое платье.-
Качество видео: WEB-DLRip
Формат видео: AVI
Видео: 704x352 (2.00:1), 24.000 fps, XviD build 73 ~1874 kbps avg, 0.32 bit/pixel
Аудио: 48 kHz, AC3 Dolby Digital, 3/2 (L,C,R,l,r) + LFE ch, ~384 kbps-Сэмпл-

MediaInfo

Формат                                   : AVI
Формат/Информация                        : Audio Video Interleave
Размер файла                             : 1,46 Гбайт
Продолжительность                        : 1 ч. 31 м.
Общий поток                              : 2 268 Кбит/сек
Название фильма                          : Препод_История Галатеи_2021_WEB-DLRip
Программа кодирования                    : VirtualDubMod 1.5.10.3 | www.virtualdub-fr.org || (build 2550/release)
Авторское право                          : порошков
Видео
Идентификатор                            : 0
Формат                                   : MPEG-4 Visual
Профиль формата                          : Advanced Simple@L5
Настройки формата                        : BVOP1 / Custom Matrix
Параметр BVOP формата                    : 1
Параметр QPel формата                    : Нет
Параметр GMC формата                     : Без точки перехода
Параметр матрицы формата                 : Выборочная
Идентификатор кодека                     : XVID
Идентификатор кодека/Подсказка           : XviD
Продолжительность                        : 1 ч. 31 м.
Битрейт                                  : 1 874 Кбит/сек
Ширина                                   : 704 пикселя
Высота                                   : 352 пикселя
Соотношение сторон                       : 2,000
Частота кадров                           : 24,000 кадра/сек
Цветовое пространство                    : YUV
Субдискретизация насыщенности            : 4:2:0
Битовая глубина                          : 8 бит
Тип развёртки                            : Прогрессивная
Метод сжатия                             : С потерями
Бит/(Пиксели*Кадры)                      : 0.315
Размер потока                            : 1,20 Гбайт (83%)
Библиотека кодирования                   : XviD 73
Аудио
Идентификатор                            : 1
Формат                                   : AC-3
Формат/Информация                        : Audio Coding 3
Коммерческое название                    : Dolby Digital
Идентификатор кодека                     : 2000
Продолжительность                        : 1 ч. 31 м.
Вид битрейта                             : Постоянный
Битрейт                                  : 384 Кбит/сек
Каналы                                   : 6 каналов
Channel layout                           : L R C LFE Ls Rs
Частота                                  : 48,0 КГц
Частота кадров                           : 31,250 кадров/сек (1536 SPF)
Метод сжатия                             : С потерями
Размер потока                            : 252 Мбайт (17%)
Выравнивание                             : Разделение по промежуткам
Продолжительность промежутка             : 42  мс. (1,00 видеокадр)
Время предзагрузки промежутка            : 500  мс.
Service kind                             : Complete Main

Скриншоты


KSA

Post 10-May-2021 14:27

[Quote]

Увиденное и услышанное / Things Heard & Seen
Страна: США
Жанр: ужасы, триллер, драма
Год выпуска: 2021
Продолжительность: 02:01:26-Перевод: Профессиональный (дублированный) | Netflix
Субтитры: русские, английские
Оригинальная аудиодорожка: английский-Режиссер:
Шари Спрингер Берман / Shari Springer Berman, Роберт Пульчини / Robert Pulcini-В ролях:
Ри Сихорн, Аманда Сайфред, Наталия Дайер, Карен Аллен, Джеймс Нортон, Ф. Мюррэй Абрахам, Алекс Нюстадтер, Джек Гор, Коттер Смит, Эмили Дорш-Описание: Героиня фильма — молодая художница, которая вместе со своим мужем переезжает из Манхэттена за город. Привыкая к новой жизни, девушка начнает подозревать, что с их домом что-то не так. Его предыдущие владельцы были убиты, и теперь проклятие может настигнуть самих героев.- -Качество видео: WEB-DLRip
Формат видео: AVI
Видео: 688x384 (1.79:1), 23.976 fps, XviD build 73 ~1792 kbps avg, 0.28 bit/pixel
Аудио 1: 48 kHz, AC3 Dolby Digital, 3/2 (L,C,R,l,r) + LFE ch, ~384 kbps | RUS
Аудио 2: 48 kHz, AC3 Dolby Digital, 3/2 (L,C,R,l,r) + LFE ch, ~384 kbps | ENG-Сэмпл-

MediaInfo

Формат                                   : AVI
Формат/Информация                        : Audio Video Interleave
Профиль формата                          : OpenDML
Размер файла                             : 2,18 Гбайт
Продолжительность                        : 2 ч. 1 м.
Общий поток                              : 2 568 Кбит/сек
Название фильма                          : Увиденное и услышанное_2021_WEB-DLRip
Программа кодирования                    : VirtualDubMod 1.5.10.3 | www.virtualdub-fr.org || (build 2550/release)
Авторское право                          : порошков
Видео
Идентификатор                            : 0
Формат                                   : MPEG-4 Visual
Профиль формата                          : Advanced Simple@L5
Настройки формата                        : BVOP1 / Custom Matrix
Параметр BVOP формата                    : 1
Параметр QPel формата                    : Нет
Параметр GMC формата                     : Без точки перехода
Параметр матрицы формата                 : Выборочная
Идентификатор кодека                     : XVID
Идентификатор кодека/Подсказка           : XviD
Продолжительность                        : 2 ч. 1 м.
Битрейт                                  : 1 782 Кбит/сек
Ширина                                   : 688 пикселей
Высота                                   : 384 пикселя
Соотношение сторон                       : 16:9
Частота кадров                           : 23,976 (24000/1001) кадра/сек
Цветовое пространство                    : YUV
Субдискретизация насыщенности            : 4:2:0
Битовая глубина                          : 8 бит
Тип развёртки                            : Прогрессивная
Метод сжатия                             : С потерями
Бит/(Пиксели*Кадры)                      : 0.281
Размер потока                            : 1,51 Гбайт (69%)
Библиотека кодирования                   : XviD 73
Аудио #1
Идентификатор                            : 1
Формат                                   : AC-3
Формат/Информация                        : Audio Coding 3
Коммерческое название                    : Dolby Digital
Идентификатор кодека                     : 2000
Продолжительность                        : 2 ч. 1 м.
Вид битрейта                             : Постоянный
Битрейт                                  : 384 Кбит/сек
Каналы                                   : 6 каналов
Channel layout                           : L R C LFE Ls Rs
Частота                                  : 48,0 КГц
Частота кадров                           : 31,250 кадров/сек (1536 SPF)
Метод сжатия                             : С потерями
Размер потока                            : 334 Мбайт (15%)
Выравнивание                             : Разделение по промежуткам
Продолжительность промежутка             : 42  мс. (1,00 видеокадр)
Время предзагрузки промежутка            : 500  мс.
Заголовок                                : rus
Service kind                             : Complete Main
Аудио #2
Идентификатор                            : 2
Формат                                   : AC-3
Формат/Информация                        : Audio Coding 3
Коммерческое название                    : Dolby Digital
Идентификатор кодека                     : 2000
Продолжительность                        : 2 ч. 1 м.
Вид битрейта                             : Постоянный
Битрейт                                  : 384 Кбит/сек
Каналы                                   : 6 каналов
Channel layout                           : L R C LFE Ls Rs
Частота                                  : 48,0 КГц
Частота кадров                           : 31,250 кадров/сек (1536 SPF)
Метод сжатия                             : С потерями
Размер потока                            : 334 Мбайт (15%)
Выравнивание                             : Разделение по промежуткам
Продолжительность промежутка             : 42  мс. (1,00 видеокадр)
Время предзагрузки промежутка            : 500  мс.
Заголовок                                : eng
Service kind                             : Complete Main

Скриншоты


admin

Post 09-May-2021 20:13

[Quote]

«What does it feel like?»
Информация о фильме
Название: Поколение Вояджер
Оригинальное название: Voyagers
Год выхода: 2021
Жанр: Фантастика, драма, триллер
Режиссер: Нил Бёргер
В ролях: Тай Шеридан, Финн Уайтхед, Лили-Роуз Депп, Колин Фаррелл, Шанте Адамс, Куинтесса Суинделл, Арчи Мадекве, Айзек Хемпстед-Райт, Вивеик Калра, Мэдисон Ху
О фильме:
Из-за глобального потепления в 2063 году был запущен проект выживания человечества. Из биоматериала специально отобранных доноров в пробирках была выращена группа детей. Они не покидали стен лаборатории — жили там и обучались под неустанным контролем, чтобы не привыкать к солнечному свету и открытым пространствам. Совсем ещё молодыми людьми они отправляются в путешествие к далёкой подходящей для жизни планете, но долетят дотуда в лучшем случае их внуки. Вскоре друзья Зак и Кристофер выясняют, что в витаминном напитке, который вся команда, за исключением сопровождающего их взрослого, принимает каждый день, содержится вещество, делающее их спокойными и послушными.


Страна: США, Чехия, Румыния, Великобритания
Студия: AGC Studios, Fibonacci Films, Freecs Films, Icon Films, Ingenious Media, Not A Bene Productions, Stillking Films, Thunder Road
Продолжительность: 01:47:58
Перевод: Профессиональный (многоголосый, закадровый) | HDRezka Studio
Файл
Качество: WEB-DLRip
Формат: AVI
Кодек: XviD
Видео: 720x304 (2,35:1), 23.976 fps, XviD ~ 1480 Kbps avg, 0.282 bit/pixel
Аудио: AC3, 48 kHz, 6 ch, ~448.00 kbps avg | русский | HDRezka Studio |
Субтитры: Русские (форсированные) отдельно

Скриншоты

admin

Post 09-May-2021 14:07

[Quote]

https://ivtracker.org/viewtopic.php?t=26065

admin

Post 02-May-2021 15:28

[Quote]

Информация о фильме
Название: Ученик экзорциста
Оригинальное название: The Seventh Day
Год выхода: 2021
Жанр: Ужасы
Режиссер: Джастин П. Ланж
В ролях: Гай Пирс, Кит Дэвид, Стивен Лэнг, Робин Бартлетт, Вадир Дербес, Хит Фриман, Крис Галуст, Брэйди Дженнесс, Бен Хикс, Акорье Уайт, Тристан Риггс
О фильме: Молодой священник в первый же день практики в школе экзорцистов сталкивается с очень сложным случаем одержимости. Под руководством бывалого экзорциста- наставника ему придется погрузиться в ад на земле, столкнуться с собственными демонами и разобраться, почему одержимость распространяется как эпидемия, хотя школа готовит всё больше новых экзорцистов.

Выпущено: США / Russell FX
Продолжительность: 01:27:10
Озвучивание: Дублированное | iTunes
Файл
Формат: AVI
Качество: WEB-DLRip
Видео: XviD, 2011 Kb/s, 720x304
Аудио: Russian: 48 kHz, AC3 Dolby Digital, 3/2 (L, C, R, l, r) + LFE ch, ~384 Kbps
Субтитры: Нет

Скриншоты

admin

Post 09-May-2021 14:06

[Quote]

Ученик экзорциста / The Seventh Day
«Эпидемия одержимости захватывает мир»
Год выпуска: 2021
Страна: США / Russell FX
Жанр: Ужасы
Продолжительность: 01:27:38
Перевод: Профессиональный (полное дублирование) [iTunes]
Субтитры: Нет-Режиссер: Джастин П. Ланж-В ролях: Гай Пирс, Кит Дэвид, Стивен Лэнг, Робин Бартлетт, Ханна Калуэлл, Вадир Дербес, Хит Фриман, Мейджор Додж, Крис Галуст, Джеймс Хили мл.-Описание:
Знаменитый экзорцист и молодой священник все глубже погружаются в ад на Земле, где границы добра и зла размыты. Им обоим предстоит сразиться с собственными демонами.
-Рейтинг:
-Качество: BDRip | исх. The.Seventh.Day.2021.BDREMUX.1080p.seleZen |
Формат: AVI
Видео кодек: XviD
Аудио кодек: AC3
Видео: 720x304 (2.37:1), 23.976 fps, XviD build 69 ~1929 kbps avg, 0.37 bit/pixel
Аудио: 48 kHz, AC3 Dolby Digital, 3/2 (L,C,R,l,r) + LFE ch, ~384 kbps
-

Скриншоты


admin

Post 01-May-2021 22:07

[Quote]

Без жалости / Without Remorse
Год выпуска: 2021
Страна: США / Paramount Pictures, Amazon Studios, Skydance Productions, New Republic Pictures, Weed Road Pictures
Жанр: Боевик, приключения, триллер
Продолжительность: 01:49:15
Перевод: Любительский (двухголосый, закадровый) [Pazl Voice]
Субтитры: Русские (полные), английские (форсированные, полные) - отдельно-Режиссер: Стефано Соллима-В ролях: Майкл Б. Джордан, Джоди Тёрнер-Смит, Джейми Белл, Гай Пирс, Лорен Лондон, Джейкоб Скипио, Тодд Ласанс, Джек Кеси, Люси Расселл, Кэм Жиганде-Описание:
Джон Келли не раз отправлялся в смертельно опасные командировки во вьетнамские джунгли, но его главный враг оказался совсем рядом, на улицах родных американских городов. «Морской котик», потерявший и вновь обретший свою любовь, готов защищать ее всеми доступными средствами, пусть даже перед лицом гораздо более могущественного и многочисленного противника — наркомафии. И Келли начинает свою войну без всякой надежды на победу.
-Рейтинг:
-Качество: WEB-DLRip | исх. Без жалости_(2021) WEB-DL_(1080p).mkv |
Формат: AVI
Видео кодек: XviD
Аудио кодек: AC3
Видео: 720x304 (2.37:1), 23.976 fps, XviD build 69 ~1521 kbps avg, 0.29 bit/pixel
Аудио: 48 kHz, AC3 Dolby Digital, 3/2 (L,C,R,l,r) + LFE ch, ~384 kbps
-

Скриншоты


BOSS

Post 28-Apr-2021 08:59

[Quote]

32327
32324
32319
32318
32317
32316Хоть бы шрифт изменяли, а то копипастите все подряд и не красиво.
Надеюсь настанет когда нибуть время, когда будет все красиво и будет всех все устраивать!
Причем тут время? Не думаю что со временем у этой раздачи как вы говорите исправится шрифт!
При всем. Со временем эта раздача поглотиться другой раздачей с лицензионным звуком и скорее всего с другим шрифтом в оформлении темы!
Так по трекеру таких раздач очень много и проще с самого начала все приводить в порядок вы вроде не свалку развиваете а трекер.
Этих раздач и будет много, так как один релизер не в состоянии заменить все раздачи на трекере со статусом Т -временная!
Помогайте обновлять раздачи, и тогда релизов со статусом Т - временная будет меньше.По другому никак не получиться обновлять раздачи!
У вас есть куча раздач со статусом Проверено и те с рагульным шрифтом для слепых.

admin

Post 27-Apr-2021 07:42

[Quote]

32324
32319
32318
32317
32316Хоть бы шрифт изменяли, а то копипастите все подряд и не красиво.
Надеюсь настанет когда нибуть время, когда будет все красиво и будет всех все устраивать!
Причем тут время? Не думаю что со временем у этой раздачи как вы говорите исправится шрифт!
При всем. Со временем эта раздача поглотиться другой раздачей с лицензионным звуком и скорее всего с другим шрифтом в оформлении темы!
Так по трекеру таких раздач очень много и проще с самого начала все приводить в порядок вы вроде не свалку развиваете а трекер.
Этих раздач и будет много, так как один релизер не в состоянии заменить все раздачи на трекере со статусом Т -временная!
Помогайте обновлять раздачи, и тогда релизов со статусом Т - временная будет меньше.По другому никак не получиться обновлять раздачи!

BOSS

Post 26-Apr-2021 16:31

[Quote]

32319
32318
32317
32316Хоть бы шрифт изменяли, а то копипастите все подряд и не красиво.
Надеюсь настанет когда нибуть время, когда будет все красиво и будет всех все устраивать!
Причем тут время? Не думаю что со временем у этой раздачи как вы говорите исправится шрифт!
При всем. Со временем эта раздача поглотиться другой раздачей с лицензионным звуком и скорее всего с другим шрифтом в оформлении темы!
Так по трекеру таких раздач очень много и проще с самого начала все приводить в порядок вы вроде не свалку развиваете а трекер.

admin

Post 26-Apr-2021 05:43

[Quote]

32318
32317
32316Хоть бы шрифт изменяли, а то копипастите все подряд и не красиво.
Надеюсь настанет когда нибуть время, когда будет все красиво и будет всех все устраивать!
Причем тут время? Не думаю что со временем у этой раздачи как вы говорите исправится шрифт!
При всем. Со временем эта раздача поглотиться другой раздачей с лицензионным звуком и скорее всего с другим шрифтом в оформлении темы!

Волк

Post 25-Apr-2021 23:47

[Quote]

32317
32316Хоть бы шрифт изменяли, а то копипастите все подряд и не красиво.
Надеюсь настанет когда нибуть время, когда будет все красиво и будет всех все устраивать!
Причем тут время? Не думаю что со временем у этой раздачи как вы говорите исправится шрифт!

admin

Post 25-Apr-2021 23:15

[Quote]

32316Хоть бы шрифт изменяли, а то копипастите все подряд и не красиво.
Надеюсь настанет когда нибуть время, когда будет все красиво и будет всех все устраивать!

BOSS

Post 25-Apr-2021 21:28

[Quote]

Хоть бы шрифт изменяли, а то копипастите все подряд и не красиво.
 

Current time is: 12-May 17:00

All times are UTC + 3