Search found 83 matches

Author Message

admin

Post 07-Dec-2019 04:30

[Quote]

Информация о фильме
Название: К звёздам
Оригинальное название: Ad Astra
Год выхода: 2019
Жанр: Фантастика, триллер, драма, детектив, приключения
Режиссер: Джеймс Грэй
В ролях: Брэд Питт, Томми Ли Джонс, Рут Негга, Дональд Сазерленд, Кимберли Элиз, Лорен Дин, Донни Кешаварц, Шон Блейкмор, Бобби Ниш, Лиза Гэй Хэмилтон

О фильме: Недалёкое будущее. Несколько лет назад человечество запустило программу поиска внеземной жизни «Проект «Лима»», во главе которой стоял капитан Клиффорд Макбрайд. Последний сигнал экспедиции был зафиксирован в районе Нептуна, и с тех пор о её судьбе ничего не было известно. Сам капитан Макбрайд стал героем и самым известным космонавтом, вдохновившим многих на исследование космоса. Через 16 лет после исчезновения «Проекта «Лима»» на Земле начинают происходить странные вспышки энергии, выводящие из строя электросистемы и сеящие хаос и разрушения. По данным американского космического агентства сигнал идёт с Нептуна, и теперь сыну знаменитого космонавта, майору Рою Макбрайду, поручается ответственная миссия. Он должен добраться до марсианской базы и оттуда попытаться связаться с предположительно живым отцом.
Страна: США, Китай, Бразилия
Студия: New Regency Pictures, Bona Film Group, Keep Your Head
Продолжительность: 02:03:02
Перевод: Дублированный | iTunes
Качество: BDRemux 2160p
Видео: 3840x2160 at 23.976 fps, MPEG-H HEVC HDR Video, 47900 kbps avg
Аудио #01: 48 kHz, AC3, 5.1, 384 Kbps | iTunes | RUS |
Аудио #02: 48 kHz, AC3, 2.0, 160 Kbps | iTunes | UKR |
Аудио #03: 48 kHz, TrueHD, 7.1, 3388 Kbps | Оригинал | ENG |
Аудио #04: 48 kHz, AC3, 5.1, 640 Kbps | Оригинал | ENG |
Субтитры: Русские (Forced, full), украинские (Forced, full), английские

Скриншоты

MI

General
Unique ID : 491946173497464138598867289480050233 (0x5EBED1A8F0C01B345058690FF73639)
Complete name : F:Video111Ad.Astra.2019.BDREMUX.2160p.HDR.seleZen.mkv
Format : Matroska
Format version : Version 4
File size : 45.2 GiB
Duration : 2 h 3 min
Overall bit rate mode : Variable
Overall bit rate : 52.6 Mb/s
Movie name : Ad Astra 2019 4K from селезень
Encoded date : UTC 2019-12-06 09:11:02
Writing application : mkvmerge v40.0.0 ('Old Town Road + Pony') 64-bit
Writing library : libebml v1.3.9 + libmatroska v1.5.2
Video
ID : 1
Format : HEVC
Format/Info : High Efficiency Video Coding
Format profile : Main 10@L5.1@High
HDR format : SMPTE ST 2086, HDR10 compatible
Codec ID : V_MPEGH/ISO/HEVC
Duration : 2 h 3 min
Bit rate : 47.9 Mb/s
Width : 3 840 pixels
Height : 2 160 pixels
Display aspect ratio : 16:9
Frame rate mode : Constant
Frame rate : 23.976 (24000/1001) FPS
Color space : YUV
Chroma subsampling : 4:2:0 (Type 2)
Bit depth : 10 bits
Bits/(Pixel*Frame) : 0.241
Stream size : 41.2 GiB (91%)
Language : English
Default : Yes
Forced : No
Color range : Limited
Color primaries : BT.2020
Transfer characteristics : PQ
Matrix coefficients : BT.2020 non-constant
Mastering display color pri : Display P3
Mastering display luminance : min: 0.0050 cd/m2, max: 1000 cd/m2
Audio #1
ID : 2
Format : AC-3
Format/Info : Audio Coding 3
Commercial name : Dolby Digital
Codec ID : A_AC3
Duration : 2 h 3 min
Bit rate mode : Constant
Bit rate : 384 kb/s
Channel(s) : 6 channels
Channel layout : L R C LFE Ls Rs
Sampling rate : 48.0 kHz
Frame rate : 31.250 FPS (1536 SPF)
Bit depth : 16 bits
Compression mode : Lossy
Stream size : 338 MiB (1%)
Title : iTunes
Language : Russian
Service kind : Complete Main
Default : Yes
Forced : Yes
Audio #2
ID : 3
Format : AC-3
Format/Info : Audio Coding 3
Commercial name : Dolby Digital
Codec ID : A_AC3
Duration : 2 h 3 min
Bit rate mode : Constant
Bit rate : 160 kb/s
Channel(s) : 2 channels
Channel layout : L R
Sampling rate : 48.0 kHz
Frame rate : 31.250 FPS (1536 SPF)
Bit depth : 16 bits
Compression mode : Lossy
Stream size : 141 MiB (0%)
Title : iTunes
Language : Ukrainian
Service kind : Complete Main
Default : No
Forced : No
Audio #3
ID : 4
Format : MLP FBA 16-ch
Format/Info : Meridian Lossless Packing FBA with 16-channel presentation
Commercial name : Dolby TrueHD with Dolby Atmos
Codec ID : A_TRUEHD
Duration : 2 h 3 min
Bit rate mode : Variable
Bit rate : 3 388 kb/s
Maximum bit rate : 6 165 kb/s
Channel(s) : 8 channels
Channel layout : L R C LFE Ls Rs Lb Rb
Sampling rate : 48.0 kHz
Frame rate : 1 200.000 FPS (40 SPF)
Compression mode : Lossless
Stream size : 2.91 GiB (6%)
Title : Original
Language : English
Default : No
Forced : No
Number of dynamic objects : 13
Bed channel count : 1 channel
Bed channel configuration : LFE
Audio #4
ID : 5
Format : AC-3
Format/Info : Audio Coding 3
Commercial name : Dolby Digital
Codec ID : A_AC3
Duration : 2 h 3 min
Bit rate mode : Constant
Bit rate : 640 kb/s
Channel(s) : 6 channels
Channel layout : L R C LFE Ls Rs
Sampling rate : 48.0 kHz
Frame rate : 31.250 FPS (1536 SPF)
Bit depth : 16 bits
Compression mode : Lossy
Stream size : 563 MiB (1%)
Language : English
Service kind : Complete Main
Default : No
Forced : No
Text #1
ID : 6
Format : UTF-8
Codec ID : S_TEXT/UTF8
Codec ID/Info : UTF-8 Plain Text
Duration : 2 h 2 min
Bit rate : 1 b/s
Count of elements : 22
Stream size : 941 Bytes (0%)
Title : Forced
Language : Russian
Default : Yes
Forced : Yes
Text #2
ID : 7
Format : UTF-8
Codec ID : S_TEXT/UTF8
Codec ID/Info : UTF-8 Plain Text
Duration : 2 h 2 min
Bit rate : 68 b/s
Count of elements : 1074
Stream size : 61.6 KiB (0%)
Title : Full
Language : Russian
Default : No
Forced : No
Text #3
ID : 8
Format : UTF-8
Codec ID : S_TEXT/UTF8
Codec ID/Info : UTF-8 Plain Text
Duration : 2 h 2 min
Bit rate : 1 b/s
Count of elements : 27
Stream size : 1.17 KiB (0%)
Title : Forced
Language : Ukrainian
Default : No
Forced : No
Text #4
ID : 9
Format : UTF-8
Codec ID : S_TEXT/UTF8
Codec ID/Info : UTF-8 Plain Text
Duration : 2 h 2 min
Bit rate : 68 b/s
Count of elements : 1082
Stream size : 61.3 KiB (0%)
Title : Full
Language : Ukrainian
Default : No
Forced : No
Text #5
ID : 10
Format : UTF-8
Codec ID : S_TEXT/UTF8
Codec ID/Info : UTF-8 Plain Text
Duration : 1 h 50 min
Bit rate : 50 b/s
Count of elements : 1389
Stream size : 41.1 KiB (0%)
Title : SDH
Language : English
Default : No
Forced : No
Menu
00:00:00.000 : en:Chapter 01
00:04:22.679 : en:Chapter 02
00:08:48.695 : en:Chapter 03
00:16:25.776 : en:Chapter 04
00:22:33.811 : en:Chapter 05
00:30:08.515 : en:Chapter 06
00:35:08.273 : en:Chapter 07
00:40:33.348 : en:Chapter 08
00:44:45.391 : en:Chapter 09
00:48:56.809 : en:Chapter 10
00:53:51.812 : en:Chapter 11
00:56:43.775 : en:Chapter 12
01:01:31.897 : en:Chapter 13
01:07:23.873 : en:Chapter 14
01:12:12.411 : en:Chapter 15
01:16:59.114 : en:Chapter 16
01:21:35.182 : en:Chapter 17
01:24:42.661 : en:Chapter 18
01:31:16.554 : en:Chapter 19
01:36:27.031 : en:Chapter 20
01:40:59.595 : en:Chapter 21
01:46:26.589 : en:Chapter 22
01:50:00.052 : en:Chapter 23
01:53:17.791 : en:Chapter 24

admin

Post 07-Dec-2019 04:29

[Quote]

Информация о фильме
Название: К звёздам
Оригинальное название: Ad Astra
Год выхода: 2019
Жанр: Фантастика, триллер, драма, детектив, приключения
Режиссер: Джеймс Грэй
В ролях: Брэд Питт, Томми Ли Джонс, Рут Негга, Дональд Сазерленд, Кимберли Элиз, Лорен Дин, Донни Кешаварц, Шон Блейкмор, Бобби Ниш, Лиза Гэй Хэмилтон

О фильме: Недалёкое будущее. Несколько лет назад человечество запустило программу поиска внеземной жизни «Проект «Лима»», во главе которой стоял капитан Клиффорд Макбрайд. Последний сигнал экспедиции был зафиксирован в районе Нептуна, и с тех пор о её судьбе ничего не было известно. Сам капитан Макбрайд стал героем и самым известным космонавтом, вдохновившим многих на исследование космоса. Через 16 лет после исчезновения «Проекта «Лима»» на Земле начинают происходить странные вспышки энергии, выводящие из строя электросистемы и сеящие хаос и разрушения. По данным американского космического агентства сигнал идёт с Нептуна, и теперь сыну знаменитого космонавта, майору Рою Макбрайду, поручается ответственная миссия. Он должен добраться до марсианской базы и оттуда попытаться связаться с предположительно живым отцом.
Страна: США, Китай, Бразилия
Студия: New Regency Pictures, Bona Film Group, Keep Your Head
Продолжительность: 02:03:02
Перевод: Дублированный | iTunes
Качество: BDRip 1080p
Видео: MPEG-4 AVC, 1920x800, 10.0 Mbit/s, 23.976 fps
Аудио #01: 48 kHz, AC3, 5.1, 384 Kbps | iTunes | RUS |
Аудио #02: 48 kHz, AC3, 2.0, 160 Kbps | iTunes | UKR |
Аудио #03: 48 kHz, AC3, 5.1, 640 Kbps | Оригинал | ENG |
Субтитры: Русские (Forced, full), украинские (Forced, full), английские

Скриншоты

MI

General
Unique ID : 157956131339941212915251179650872567808 (0x76D53E8C10871088F634A5B234FCE800)
Complete name : F:Video111Ad.Astra.2019.UHD.BDRip.1080p.seleZen.mkv
Format : Matroska
Format version : Version 4
File size : 9.60 GiB
Duration : 2 h 3 min
Overall bit rate : 11.2 Mb/s
Movie name : Ad Astra 2019 from селезень
Encoded date : UTC 2019-12-06 18:28:03
Writing application : mkvmerge v40.0.0 ('Old Town Road + Pony') 64-bit
Writing library : libebml v1.3.9 + libmatroska v1.5.2
Video
ID : 1
Format : AVC
Format/Info : Advanced Video Codec
Format profile : High@L4.1
Format settings : CABAC / 5 Ref Frames
Format settings, CABAC : Yes
Format settings, Reference : 5 frames
Codec ID : V_MPEG4/ISO/AVC
Duration : 2 h 3 min
Bit rate : 10 000 kb/s
Width : 1 920 pixels
Height : 800 pixels
Display aspect ratio : 2.40:1
Frame rate mode : Constant
Frame rate : 23.976 (24000/1001) FPS
Color space : YUV
Chroma subsampling : 4:2:0
Bit depth : 8 bits
Scan type : Progressive
Bits/(Pixel*Frame) : 0.272
Stream size : 8.58 GiB (89%)
Title : Encoded by seleZen
Writing library : x264 core 157 r2935 545de2f
Encoding settings : cabac=1 / ref=5 / deblock=1:-2:-2 / analyse=0x3:0x133 / me=umh / subme=11 / psy=1 / psy_rd=1.00:0.00 / mixed_ref=1 / me_range=32 / chroma_me=1 / trellis=2 / 8x8dct=1 / cqm=0 / deadzone=21,11 / fast_pskip=0 / chroma_qp_offset=-2 / threads=24 / lookahead_threads=4 / sliced_threads=0 / nr=0 / decimate=0 / interlaced=0 / bluray_compat=0 / constrained_intra=0 / bframes=8 / b_pyramid=2 / b_adapt=2 / b_bias=0 / direct=3 / weightb=1 / open_gop=0 / weightp=2 / keyint=240 / keyint_min=24 / scenecut=40 / intra_refresh=0 / rc_lookahead=60 / rc=2pass / mbtree=0 / bitrate=10000 / ratetol=1.0 / qcomp=0.60 / qpmin=0 / qpmax=51 / qpstep=4 / cplxblur=20.0 / qblur=0.5 / vbv_maxrate=50000 / vbv_bufsize=62500 / nal_hrd=none / filler=0 / ip_ratio=1.40 / pb_ratio=1.30 / aq=3:0.80
Language : English
Default : Yes
Forced : No
Color range : Limited
Color primaries : BT.709
Transfer characteristics : BT.709
Matrix coefficients : BT.709
Audio #1
ID : 2
Format : AC-3
Format/Info : Audio Coding 3
Commercial name : Dolby Digital
Codec ID : A_AC3
Duration : 2 h 3 min
Bit rate mode : Constant
Bit rate : 384 kb/s
Channel(s) : 6 channels
Channel layout : L R C LFE Ls Rs
Sampling rate : 48.0 kHz
Frame rate : 31.250 FPS (1536 SPF)
Bit depth : 16 bits
Compression mode : Lossy
Stream size : 338 MiB (3%)
Title : iTunes
Language : Russian
Service kind : Complete Main
Default : Yes
Forced : Yes
Audio #2
ID : 3
Format : AC-3
Format/Info : Audio Coding 3
Commercial name : Dolby Digital
Codec ID : A_AC3
Duration : 2 h 3 min
Bit rate mode : Constant
Bit rate : 160 kb/s
Channel(s) : 2 channels
Channel layout : L R
Sampling rate : 48.0 kHz
Frame rate : 31.250 FPS (1536 SPF)
Bit depth : 16 bits
Compression mode : Lossy
Stream size : 141 MiB (1%)
Title : iTunes
Language : Ukrainian
Service kind : Complete Main
Default : No
Forced : No
Audio #3
ID : 4
Format : AC-3
Format/Info : Audio Coding 3
Commercial name : Dolby Digital
Codec ID : A_AC3
Duration : 2 h 3 min
Bit rate mode : Constant
Bit rate : 640 kb/s
Channel(s) : 6 channels
Channel layout : L R C LFE Ls Rs
Sampling rate : 48.0 kHz
Frame rate : 31.250 FPS (1536 SPF)
Bit depth : 16 bits
Compression mode : Lossy
Stream size : 563 MiB (6%)
Title : Original
Language : English
Service kind : Complete Main
Default : No
Forced : No
Text #1
ID : 5
Format : UTF-8
Codec ID : S_TEXT/UTF8
Codec ID/Info : UTF-8 Plain Text
Duration : 2 h 2 min
Bit rate : 1 b/s
Count of elements : 22
Stream size : 941 Bytes (0%)
Title : Forced
Language : Russian
Default : Yes
Forced : Yes
Text #2
ID : 6
Format : UTF-8
Codec ID : S_TEXT/UTF8
Codec ID/Info : UTF-8 Plain Text
Duration : 2 h 2 min
Bit rate : 68 b/s
Count of elements : 1074
Stream size : 61.6 KiB (0%)
Title : Full
Language : Russian
Default : No
Forced : No
Text #3
ID : 7
Format : UTF-8
Codec ID : S_TEXT/UTF8
Codec ID/Info : UTF-8 Plain Text
Duration : 2 h 2 min
Bit rate : 1 b/s
Count of elements : 27
Stream size : 1.17 KiB (0%)
Title : Forced
Language : Ukrainian
Default : No
Forced : No
Text #4
ID : 8
Format : UTF-8
Codec ID : S_TEXT/UTF8
Codec ID/Info : UTF-8 Plain Text
Duration : 2 h 2 min
Bit rate : 68 b/s
Count of elements : 1082
Stream size : 61.3 KiB (0%)
Title : Full
Language : Ukrainian
Default : No
Forced : No
Text #5
ID : 9
Format : UTF-8
Codec ID : S_TEXT/UTF8
Codec ID/Info : UTF-8 Plain Text
Duration : 1 h 50 min
Bit rate : 50 b/s
Count of elements : 1389
Stream size : 41.1 KiB (0%)
Title : SDH
Language : English
Default : No
Forced : No
Menu
00:00:00.000 : en:Chapter 01
00:04:22.679 : en:Chapter 02
00:08:48.695 : en:Chapter 03
00:16:25.776 : en:Chapter 04
00:22:33.811 : en:Chapter 05
00:30:08.515 : en:Chapter 06
00:35:08.273 : en:Chapter 07
00:40:33.348 : en:Chapter 08
00:44:45.391 : en:Chapter 09
00:48:56.809 : en:Chapter 10
00:53:51.812 : en:Chapter 11
00:56:43.775 : en:Chapter 12
01:01:31.897 : en:Chapter 13
01:07:23.873 : en:Chapter 14
01:12:12.411 : en:Chapter 15
01:16:59.114 : en:Chapter 16
01:21:35.182 : en:Chapter 17
01:24:42.661 : en:Chapter 18
01:31:16.554 : en:Chapter 19
01:36:27.031 : en:Chapter 20
01:40:59.595 : en:Chapter 21
01:46:26.589 : en:Chapter 22
01:50:00.052 : en:Chapter 23
01:53:17.791 : en:Chapter 24

admin

Post 28-Oct-2019 01:32

[Quote]

Информация о фильме
Название: Страшные истории для рассказа в темноте
Оригинальное название: Scary Stories to Tell in the Dark
Год выхода: 2019
Жанр: Ужасы, триллер
Режиссер: Андре Овредал
В ролях: Зои Маргарет Коллетти, Майкл Гарза, Гэбриел Раш, Остин Абрамс, Дин Норрис, Джил Беллоуз, Лоррейн Туссен, Остин Зажур, Натали Гэнзхорн, Кэтлин Поллард

О фильме: Компании подростков предстоит разгадать тайну зловещих смертей, которые наводят ужас на всю округу. Они должны преодолеть страх, чтобы спасти свой город.
Страна: США, Канада, Китай
Студия: 1212 Entertainment, CBS Films
Продолжительность: 01:47:57
Перевод: Дублированный | iTunes
Качество: BDRemux 2160p
Видео: 3840x2160 at 23.976 fps, MPEG-H HEVC HDR Video, 64200 kbps avg
Аудио #01: 48 kHz, AC3, 5.1, 384 Kbps | iTunes | RUS |
Аудио #02: 48 kHz, TrueHD, 5.1, 1714 Kbps | Оригинал | ENG |
Аудио #03: 48 kHz, AC3, 5.1, 640 Kbps | Оригинал | ENG |
Субтитры: Английские

Скриншоты

MI

General
Unique ID : 124858284658606662624014964634249990560 (0x5DEED4B75CB28E9EBF50B009902A11A0)
Complete name : D:Video111Scary.Stories.to.Tell.in.the.Dark.2019.2160p.HDR.seleZen.mkv
Format : Matroska
Format version : Version 4
File size : 50.5 GiB
Duration : 1 h 47 min
Overall bit rate mode : Variable
Overall bit rate : 67.0 Mb/s
Movie name : Scary Stories to Tell in the Dark 4K 2019 from селезень
Encoded date : UTC 2019-10-26 12:27:26
Writing application : mkvmerge v22.0.0 ('At The End Of The World') 64-bit
Writing library : libebml v1.3.5 + libmatroska v1.4.8
Video
ID : 1
Format : HEVC
Format/Info : High Efficiency Video Coding
Format profile : Main 10@L5.1@High
HDR format : SMPTE ST 2086, HDR10 compatible
Codec ID : V_MPEGH/ISO/HEVC
Duration : 1 h 47 min
Bit rate : 64.2 Mb/s
Width : 3 840 pixels
Height : 2 160 pixels
Display aspect ratio : 16:9
Frame rate mode : Constant
Frame rate : 23.976 (24000/1001) FPS
Color space : YUV
Chroma subsampling : 4:2:0 (Type 2)
Bit depth : 10 bits
Bits/(Pixel*Frame) : 0.323
Stream size : 48.4 GiB (96%)
Language : English
Default : Yes
Forced : No
Color range : Limited
Color primaries : BT.2020
Transfer characteristics : PQ
Matrix coefficients : BT.2020 non-constant
Mastering display color pri : Display P3
Mastering display luminance : min: 0.0000 cd/m2, max: 1000 cd/m2
Maximum Content Light Level : 1000 cd/m2
Maximum Frame-Average Light : 235 cd/m2
Audio #1
ID : 2
Format : AC-3
Format/Info : Audio Coding 3
Commercial name : Dolby Digital
Codec ID : A_AC3
Duration : 1 h 47 min
Bit rate mode : Constant
Bit rate : 384 kb/s
Channel(s) : 6 channels
Channel layout : L R C LFE Ls Rs
Sampling rate : 48.0 kHz
Frame rate : 31.250 FPS (1536 SPF)
Bit depth : 16 bits
Compression mode : Lossy
Stream size : 297 MiB (1%)
Title : iTunes
Language : Russian
Service kind : Complete Main
Default : Yes
Forced : Yes
Audio #2
ID : 3
Format : MLP FBA
Format/Info : Meridian Lossless Packing FBA
Commercial name : Dolby TrueHD
Codec ID : A_TRUEHD
Duration : 1 h 47 min
Bit rate mode : Variable
Bit rate : 1 714 kb/s
Maximum bit rate : 3 150 kb/s
Channel(s) : 6 channels
Channel layout : L R C LFE Ls Rs
Sampling rate : 48.0 kHz
Frame rate : 1 200.000 FPS (40 SPF)
Compression mode : Lossless
Stream size : 1.29 GiB (3%)
Title : Original
Language : English
Default : No
Forced : No
Audio #3
ID : 4
Format : AC-3
Format/Info : Audio Coding 3
Commercial name : Dolby Digital
Codec ID : A_AC3
Duration : 1 h 47 min
Bit rate mode : Constant
Bit rate : 640 kb/s
Channel(s) : 6 channels
Channel layout : L R C LFE Ls Rs
Sampling rate : 48.0 kHz
Frame rate : 31.250 FPS (1536 SPF)
Bit depth : 16 bits
Compression mode : Lossy
Stream size : 494 MiB (1%)
Language : English
Service kind : Complete Main
Default : No
Forced : No
Text
ID : 5
Format : UTF-8
Codec ID : S_TEXT/UTF8
Codec ID/Info : UTF-8 Plain Text
Duration : 1 h 39 min
Bit rate : 45 b/s
Count of elements : 1244
Stream size : 32.8 KiB (0%)
Title : Full
Language : English
Default : No
Forced : No
Menu
00:00:00.000 : en:Chapter 01
00:05:44.386 : en:Chapter 02
00:13:23.052 : en:Chapter 03
00:18:52.131 : en:Chapter 04
00:25:34.742 : en:Chapter 05
00:28:31.168 : en:Chapter 06
00:36:17.300 : en:Chapter 07
00:47:06.282 : en:Chapter 08
00:54:17.171 : en:Chapter 09
00:58:36.304 : en:Chapter 10
01:02:36.378 : en:Chapter 11
01:11:04.677 : en:Chapter 12
01:17:59.425 : en:Chapter 13
01:24:33.902 : en:Chapter 14
01:29:53.179 : en:Chapter 15
01:38:30.279 : en:Chapter 16

admin

Post 26-Oct-2019 02:55

[Quote]

Информация о фильме
Название: Форсаж: Хоббс и Шоу
Оригинальное название: Fast & Furious Presents: Hobbs & Shaw
Год выхода: 2019
Жанр: Боевик, приключения
Режиссер: Дэвид Литч
В ролях: Дуэйн Джонсон, Джейсон Стэйтем, Идрис Эльба, Райан Рейнольдс, Ванесса Кирби, Хелен Миррен, Эйса Гонсалес, Эдди Марсан, Элиана Суа, Клифф Кёртис, Лори Пеленис Туисано

О фильме: Люк Хоббс - американский элитный спецагент, он любит удобную спортивную одежду, большие пикапы и здоровое питание. Декард Шоу - британский пижон, бывший сотрудник разведки, предпочитает дорогие костюмы, спортивные авто и длинноногих красоток. Эти двое ненавидят друг друга. Но если кто-то угрожает их семьям, они готовы пойти на все. Даже на работу в команде.
Страна: Великобритания, США
Студия: Universal Pictures
Продолжительность: 02:16:42
Перевод: Дублированный | iTunes
Качество: BDRemux 2160p
Видео: 3840x2160 at 23.976 fps, MPEG-H HEVC HDR Video, 63700 kbps avg
Аудио #01: 48 kHz, AC3, 5.1, 384 Kbps | iTunes | RUS |
Аудио #02: 48 kHz, TrueHD, 7.1, 3141 Kbps | Оригинал | ENG |
Аудио #03: 48 kHz, AC3, 5.1, 448 Kbps | Оригинал | ENG |
Субтитры: Русские (Forced), английские

Скриншоты

MI

General
Unique ID : 139738470459977051200470915528794658473 (0x6920A684D1F2FAE9927C02A0B60556A9)
Complete name : D:Video111Fast.and.Furious.Presents.Hobbs.and.Shaw.2019.BDREMUX.2160p.HDR.seleZen.mkv
Format : Matroska
Format version : Version 4
File size : 64.7 GiB
Duration : 2 h 16 min
Overall bit rate mode : Variable
Overall bit rate : 67.8 Mb/s
Movie name : Fast & Furious Presents: Hobbs & Shaw 2019 4K from селезень
Encoded date : UTC 2019-10-25 10:56:41
Writing application : mkvmerge v22.0.0 ('At The End Of The World') 64-bit
Writing library : libebml v1.3.5 + libmatroska v1.4.8
Video
ID : 1
Format : HEVC
Format/Info : High Efficiency Video Coding
Format profile : Main 10@L5.1@High
HDR format : SMPTE ST 2094 App 4, Version 1, HDR10+ Profile B compatible
Codec ID : V_MPEGH/ISO/HEVC
Duration : 2 h 16 min
Bit rate : 63.7 Mb/s
Width : 3 840 pixels
Height : 2 160 pixels
Display aspect ratio : 16:9
Frame rate mode : Constant
Frame rate : 23.976 (24000/1001) FPS
Color space : YUV
Chroma subsampling : 4:2:0 (Type 2)
Bit depth : 10 bits
Bits/(Pixel*Frame) : 0.320
Stream size : 60.8 GiB (94%)
Language : English
Default : Yes
Forced : No
Color range : Limited
Color primaries : BT.2020
Transfer characteristics : PQ
Matrix coefficients : BT.2020 non-constant
Mastering display color pri : Display P3
Mastering display luminance : min: 0.0050 cd/m2, max: 4000 cd/m2
Maximum Content Light Level : 1000 cd/m2
Maximum Frame-Average Light : 419 cd/m2
Audio #1
ID : 2
Format : AC-3
Format/Info : Audio Coding 3
Commercial name : Dolby Digital
Codec ID : A_AC3
Duration : 2 h 16 min
Bit rate mode : Constant
Bit rate : 384 kb/s
Channel(s) : 6 channels
Channel layout : L R C LFE Ls Rs
Sampling rate : 48.0 kHz
Frame rate : 31.250 FPS (1536 SPF)
Bit depth : 16 bits
Compression mode : Lossy
Stream size : 375 MiB (1%)
Title : iTunes
Language : Russian
Service kind : Complete Main
Default : Yes
Forced : Yes
Audio #2
ID : 3
Format : MLP FBA 16-ch
Format/Info : Meridian Lossless Packing FBA with 16-channel presentation
Commercial name : Dolby TrueHD with Dolby Atmos
Codec ID : A_TRUEHD
Duration : 2 h 16 min
Bit rate mode : Variable
Bit rate : 3 141 kb/s
Maximum bit rate : 5 394 kb/s
Channel(s) : 8 channels
Channel layout : L R C LFE Ls Rs Lb Rb
Sampling rate : 48.0 kHz
Frame rate : 1 200.000 FPS (40 SPF)
Compression mode : Lossless
Stream size : 3.00 GiB (5%)
Title : Original
Language : English
Default : No
Forced : No
Number of dynamic objects : 11
Bed channel count : 1 channel
Bed channel configuration : LFE
Audio #3
ID : 4
Format : AC-3
Format/Info : Audio Coding 3
Commercial name : Dolby Digital
Codec ID : A_AC3
Duration : 2 h 16 min
Bit rate mode : Constant
Bit rate : 448 kb/s
Channel(s) : 6 channels
Channel layout : L R C LFE Ls Rs
Sampling rate : 48.0 kHz
Frame rate : 31.250 FPS (1536 SPF)
Bit depth : 16 bits
Compression mode : Lossy
Stream size : 438 MiB (1%)
Language : English
Service kind : Complete Main
Default : No
Forced : No
Text #1
ID : 5
Format : UTF-8
Codec ID : S_TEXT/UTF8
Codec ID/Info : UTF-8 Plain Text
Duration : 2 h 4 min
Bit rate : 1 b/s
Count of elements : 48
Stream size : 1.42 KiB (0%)
Title : Forced
Language : Russian
Default : Yes
Forced : Yes
Text #2
ID : 6
Format : UTF-8
Codec ID : S_TEXT/UTF8
Codec ID/Info : UTF-8 Plain Text
Duration : 2 h 1 min
Bit rate : 61 b/s
Count of elements : 1947
Stream size : 54.9 KiB (0%)
Title : Full
Language : English
Default : No
Forced : No
Menu
00:00:00.000 : en:Chapter 01
00:04:58.131 : en:Chapter 02
00:13:43.489 : en:Chapter 03
00:19:21.452 : en:Chapter 04
00:26:45.979 : en:Chapter 05
00:35:41.514 : en:Chapter 06
00:40:13.244 : en:Chapter 07
00:46:22.029 : en:Chapter 08
00:51:34.216 : en:Chapter 09
00:57:51.802 : en:Chapter 10
01:01:53.251 : en:Chapter 11
01:08:45.163 : en:Chapter 12
01:14:22.833 : en:Chapter 13
01:19:48.075 : en:Chapter 14
01:24:59.261 : en:Chapter 15
01:32:58.198 : en:Chapter 16
01:38:48.923 : en:Chapter 17
01:46:32.970 : en:Chapter 18
01:53:29.594 : en:Chapter 19
02:01:14.809 : en:Chapter 20

admin

Post 24-Oct-2019 01:47

[Quote]

Информация о фильме
Название: Yesterday
Оригинальное название: Yesterday
Год выхода: 2019
Жанр: Мюзикл, фэнтези, мелодрама, комедия, музыка
Режиссер: Дэнни Бойл
В ролях: Химеш Патель, Лили Джеймс, Софи Ди Мартино, Эллиз Шаппелль, Мира Сайал, Гарри Мишель, Винсент Франклин, Джоэль Фрай, Майкл Киванука, Карма Суд

О фильме: Еще месяц назад Джек был обычным неудачником. Теперь он суперзвезда, миллионы людей слушают его песни, билеты на концерты раскупаются за секунду. В чем секрет? Все просто. Джек - единственный человек в мире, кто помнит о существовании The Beatles.
Страна: Великобритания, Россия, Китай
Студия: Etalon Film, Working Title Films
Продолжительность: 01:56:14
Перевод: Дублированный | Лицензия
Качество: BDRemux 2160p
Видео: 3840x2160 at 23.976 fps, MPEG-H HEVC HDR Video, 60400 kbps avg
Аудио #01: 48 kHz, AC3, 5.1, 384 Kbps | Лицензия | RUS |
Аудио #02: 48 kHz, TrueHD, 7.1, 3272 Kbps | Оригинал | ENG |
Аудио #03: 48 kHz, AC3, 5.1, 448 Kbps | Оригинал | ENG |
Субтитры: Русские (Forced, full), английские

Скриншоты

MI

General
Unique ID : 289926019702626460332574340506717094080 (0xDA1DB8659887B9DCD9ADF3E59A2D80C0)
Complete name : D:Video111Yesterday.2019.BDREMUX.2160p.HDR.seleZen.mkv
Format : Matroska
Format version : Version 4
File size : 52.4 GiB
Duration : 1 h 56 min
Overall bit rate mode : Variable
Overall bit rate : 64.5 Mb/s
Movie name : Yesterday 2019 4K from селезень
Encoded date : UTC 2019-10-22 23:59:37
Writing application : mkvmerge v22.0.0 ('At The End Of The World') 64-bit
Writing library : libebml v1.3.5 + libmatroska v1.4.8
Video
ID : 1
Format : HEVC
Format/Info : High Efficiency Video Coding
Format profile : Main 10@L5.1@High
HDR format : SMPTE ST 2094 App 4, Version 1, HDR10+ Profile B compatible
Codec ID : V_MPEGH/ISO/HEVC
Duration : 1 h 56 min
Bit rate : 60.4 Mb/s
Width : 3 840 pixels
Height : 2 160 pixels
Display aspect ratio : 16:9
Frame rate mode : Constant
Frame rate : 23.976 (24000/1001) FPS
Color space : YUV
Chroma subsampling : 4:2:0 (Type 2)
Bit depth : 10 bits
Bits/(Pixel*Frame) : 0.304
Stream size : 49.0 GiB (94%)
Language : English
Default : Yes
Forced : No
Color range : Limited
Color primaries : BT.2020
Transfer characteristics : PQ
Matrix coefficients : BT.2020 non-constant
Mastering display color pri : Display P3
Mastering display luminance : min: 0.0050 cd/m2, max: 1000 cd/m2
Maximum Content Light Level : 999 cd/m2
Maximum Frame-Average Light : 125 cd/m2
Audio #1
ID : 2
Format : AC-3
Format/Info : Audio Coding 3
Commercial name : Dolby Digital
Codec ID : A_AC3
Duration : 1 h 56 min
Bit rate mode : Constant
Bit rate : 384 kb/s
Channel(s) : 6 channels
Channel layout : L R C LFE Ls Rs
Sampling rate : 48.0 kHz
Frame rate : 31.250 FPS (1536 SPF)
Bit depth : 16 bits
Compression mode : Lossy
Stream size : 319 MiB (1%)
Title : Dub [License]
Language : Russian
Service kind : Complete Main
Default : Yes
Forced : Yes
Audio #2
ID : 3
Format : MLP FBA 16-ch
Format/Info : Meridian Lossless Packing FBA with 16-channel presentation
Commercial name : Dolby TrueHD with Dolby Atmos
Codec ID : A_TRUEHD
Duration : 1 h 56 min
Bit rate mode : Variable
Bit rate : 3 272 kb/s
Maximum bit rate : 5 664 kb/s
Channel(s) : 8 channels
Channel layout : L R C LFE Ls Rs Lb Rb
Sampling rate : 48.0 kHz
Frame rate : 1 200.000 FPS (40 SPF)
Compression mode : Lossless
Stream size : 2.66 GiB (5%)
Title : Original
Language : English
Default : No
Forced : No
Number of dynamic objects : 11
Bed channel count : 1 channel
Bed channel configuration : LFE
Audio #3
ID : 4
Format : AC-3
Format/Info : Audio Coding 3
Commercial name : Dolby Digital
Codec ID : A_AC3
Duration : 1 h 56 min
Bit rate mode : Constant
Bit rate : 448 kb/s
Channel(s) : 6 channels
Channel layout : L R C LFE Ls Rs
Sampling rate : 48.0 kHz
Frame rate : 31.250 FPS (1536 SPF)
Bit depth : 16 bits
Compression mode : Lossy
Stream size : 372 MiB (1%)
Language : English
Service kind : Complete Main
Default : No
Forced : No
Text #1
ID : 5
Format : UTF-8
Codec ID : S_TEXT/UTF8
Codec ID/Info : UTF-8 Plain Text
Duration : 1 h 47 min
Bit rate : 13 b/s
Count of elements : 204
Stream size : 10.3 KiB (0%)
Title : Forced
Language : Russian
Default : Yes
Forced : Yes
Text #2
ID : 6
Format : UTF-8
Codec ID : S_TEXT/UTF8
Codec ID/Info : UTF-8 Plain Text
Duration : 1 h 51 min
Bit rate : 107 b/s
Count of elements : 2093
Stream size : 87.4 KiB (0%)
Title : Full
Language : Russian
Default : No
Forced : No
Text #3
ID : 7
Format : UTF-8
Codec ID : S_TEXT/UTF8
Codec ID/Info : UTF-8 Plain Text
Duration : 1 h 55 min
Bit rate : 79 b/s
Count of elements : 2244
Stream size : 67.1 KiB (0%)
Title : Full
Language : English
Default : No
Forced : No
Text #4
ID : 8
Format : UTF-8
Codec ID : S_TEXT/UTF8
Codec ID/Info : UTF-8 Plain Text
Duration : 1 h 55 min
Bit rate : 86 b/s
Count of elements : 2439
Stream size : 73.0 KiB (0%)
Title : SDH
Language : English
Default : No
Forced : No
Menu
00:00:00.000 : en:Chapter 01
00:06:16.668 : en:Chapter 02
00:11:19.679 : en:Chapter 03
00:16:13.097 : en:Chapter 04
00:21:28.287 : en:Chapter 05
00:27:04.540 : en:Chapter 06
00:33:31.885 : en:Chapter 07
00:38:55.083 : en:Chapter 08
00:45:53.250 : en:Chapter 09
00:48:17.061 : en:Chapter 10
00:56:24.339 : en:Chapter 11
01:03:47.490 : en:Chapter 12
01:09:16.486 : en:Chapter 13
01:14:17.078 : en:Chapter 14
01:19:04.615 : en:Chapter 15
01:24:10.587 : en:Chapter 16
01:31:51.923 : en:Chapter 17
01:36:00.588 : en:Chapter 18
01:40:03.247 : en:Chapter 19
01:46:51.947 : en:Chapter 20

admin

Post 21-Oct-2019 01:17

[Quote]

Информация о фильме
Название: Казино Рояль
Оригинальное название: Casino Royale
Год выхода: 2006
Жанр: Боевик, триллер, приключения, экранизация
Режиссер: Мартин Кэмпбелл
В ролях: Дэниэл Крэйг, Ева Грин, Мадс Миккельсен, Джуди Денч, Джеффри Райт, Джанкарло Джаннини, Катерина Мурино, Симон Абкарян, Исаак Де Банколе, Еспер Кристенсен, Ивана Миличевич, Тобайас Мензис, Клаудио Сантамария, Себастьен Фука, Малкольм Синклер, Рихард Заммель, Людгер Пистор, Джозеф Миллсон, Дауд Шах, Клеменс Шик, Эммануель Авена, Том Чэдбон, Эд, Урбано Барберини, Цай Чинь, Чарли Леви

О фильме: Фильм по роману Яна Флеминга - ”Казино ”Рояль” - своеобразное возвращение к истокам Бондианы. Он снят по первой книге Яна Флеминга - о Джеймсе Бонде, хотя сюжет и претерпел в киноварианте ряд непринципиальных изменений. Именно в этом фильме начинающий секретный агент, брутальный и серьёзный парень из британской разведки, становится непревзойдённым суперагентом 007. Именно здесь ему предстоит не только разделаться в нелёгкой борьбе, как с оружием в руках, так и за карточным столом (по долгу службы!), с подпольным банкиром Ле Шиффром, отмывающим деньги сразу нескольких могучих террористических организаций, но и запомнить раз и навсегда на будущее: если роман перерастает в истинную любовь, то боль, которую она способна причинить, тоже будет абсолютно настоящей... Дебют Дэниела Крэйга в роли агента 007, вопреки первоначальным сомнениям многих, оказавшийся вполне успешным.
Страна: Великобритания, Чехия, США, Германия, Багамы
Студия: Columbia Pictures
Продолжительность: 02:24:33
Перевод: Дублированный | Лицензия
Качество: BDRemux 2160p
Видео: 3840x2160 at 23.976 fps, MPEG-H HEVC HDR Video, 41900 kbps avg
Аудио #01: 48 kHz, DTS, 5.1, 768 Kbps | Лицензия | RUS |
Аудио #02: 48 kHz, DTS-HD MA, 5.1, 3887 Kbps | Оригинал | ENG |
Субтитры: Русские (Forced, full), английские

Скриншоты

MI

General
Unique ID : 79287293156375794136265851998824963950 (0x3BA62D5DA13A6891EE824E96E12A1F6E)
Complete name : F:VideoCasino.Royale.2006.Lic.BDREMUX.2160p.HDR.seleZen.mkv
Format : Matroska
Format version : Version 4
File size : 47.0 GiB
Duration : 2 h 24 min
Overall bit rate mode : Variable
Overall bit rate : 46.5 Mb/s
Encoded date : UTC 2019-10-20 02:10:47
Writing application : mkvmerge v22.0.0 ('At The End Of The World') 64-bit
Writing library : libebml v1.3.5 + libmatroska v1.4.8
Video
ID : 1
Format : HEVC
Format/Info : High Efficiency Video Coding
Format profile : Main 10@L5.1@High
HDR format : SMPTE ST 2086, HDR10 compatible
Codec ID : V_MPEGH/ISO/HEVC
Duration : 2 h 24 min
Bit rate : 41.9 Mb/s
Width : 3 840 pixels
Height : 2 160 pixels
Display aspect ratio : 16:9
Frame rate mode : Constant
Frame rate : 23.976 (24000/1001) FPS
Color space : YUV
Chroma subsampling : 4:2:0 (Type 2)
Bit depth : 10 bits
Bits/(Pixel*Frame) : 0.211
Stream size : 42.3 GiB (90%)
Language : English
Default : Yes
Forced : No
Color range : Limited
Color primaries : BT.2020
Transfer characteristics : PQ
Matrix coefficients : BT.2020 non-constant
Mastering display color pri : Display P3
Mastering display luminance : min: 0.0001 cd/m2, max: 1000 cd/m2
Audio #1
ID : 2
Format : DTS
Format/Info : Digital Theater Systems
Codec ID : A_DTS
Duration : 2 h 24 min
Bit rate mode : Constant
Bit rate : 768 kb/s
Channel(s) : 6 channels
Channel layout : C L R Ls Rs LFE
Sampling rate : 48.0 kHz
Frame rate : 93.750 FPS (512 SPF)
Bit depth : 24 bits
Compression mode : Lossy
Stream size : 794 MiB (2%)
Title : Dub [License]
Language : Russian
Default : Yes
Forced : Yes
Audio #2
ID : 3
Format : DTS XLL
Format/Info : Digital Theater Systems
Commercial name : DTS-HD Master Audio
Codec ID : A_DTS
Duration : 2 h 24 min
Bit rate mode : Variable
Bit rate : 3 887 kb/s
Channel(s) : 6 channels
Channel layout : C L R Ls Rs LFE
Sampling rate : 48.0 kHz
Frame rate : 93.750 FPS (512 SPF)
Bit depth : 24 bits
Compression mode : Lossless
Stream size : 3.92 GiB (8%)
Title : Original
Language : English
Default : No
Forced : No
Text #1
ID : 4
Format : UTF-8
Codec ID : S_TEXT/UTF8
Codec ID/Info : UTF-8 Plain Text
Duration : 2 h 12 min
Bit rate : 1 b/s
Count of elements : 26
Stream size : 1.22 KiB (0%)
Title : Forced
Language : Russian
Default : Yes
Forced : Yes
Text #2
ID : 5
Format : UTF-8
Codec ID : S_TEXT/UTF8
Codec ID/Info : UTF-8 Plain Text
Duration : 2 h 23 min
Bit rate : 47 b/s
Count of elements : 1070
Stream size : 50.5 KiB (0%)
Title : Full
Language : Russian
Default : No
Forced : No
Text #3
ID : 6
Format : UTF-8
Codec ID : S_TEXT/UTF8
Codec ID/Info : UTF-8 Plain Text
Duration : 2 h 19 min
Bit rate : 32 b/s
Count of elements : 1042
Stream size : 33.2 KiB (0%)
Title : Full
Language : English
Default : No
Forced : No
Menu
00:00:00.000 : en:00:00:00.000
00:09:37.952 : en:00:09:37.952
00:19:31.170 : en:00:19:31.170
00:25:35.993 : en:00:25:35.993
00:35:18.908 : en:00:35:18.908
00:39:59.522 : en:00:39:59.522
00:45:22.428 : en:00:45:22.428
00:57:51.051 : en:00:57:51.051
01:07:22.288 : en:01:07:22.288
01:17:12.044 : en:01:17:12.044
01:30:06.067 : en:01:30:06.067
01:38:41.165 : en:01:38:41.165
01:43:29.620 : en:01:43:29.620
01:54:03.045 : en:01:54:03.045
02:05:45.371 : en:02:05:45.371
02:13:19.700 : en:02:13:19.700

admin

Post 08-Oct-2019 01:28

[Quote]

Информация о фильме
Название: Хеллбой
Оригинальное название: Hellboy
Год выхода: 2019
Жанр: Фэнтези, боевик, приключения
Режиссер: Нил Маршалл
В ролях: Дэвид Харбор, Иэн МакШейн, Милла Йовович, Саша Лэйн, Дэниэл Дэ Ким, Алистэр Петри, Софи Оконедо, Томас Хейден Чёрч, Марк Стэнли, Брин Глисон, Надя Керанова, Мария Тепавичарова, Ана Тобакова, Пенелопа Митчелл, Терри Рендал, Стивен Грэм, Марио де ла Роса, Ванесса Эйчхольц

О фильме:
Близится час битвы Хеллбоя с Кровавой королевой, жаждущей отомстить всему человечеству за века в заточении. Оказавшись в эпицентре столкновения миров людей и монстров, Хеллбою придется пройти через ад, чтобы предотвратить надвигающийся апокалипсис.

Страна: США
Студия: Summit Entertainment, Millennium Films, Campbell Grobman Films
Продолжительность: 02:01:02
Перевод(ы):
#1: Дублированный | Лицензия

#2: Профессиональный многоголосый | СВ Студия
Качество: BDRemux 2160p
Видео: 3840x2160 at 23.976 fps, MPEG-H HEVC HDR Video, 66100 kbps avg
Звук:
Аудио #01: 48 kHz, DTS-HD MA, 5.1, 4562 Kbps | Лицензия | RUS |
Аудио #02: 48 kHz, AC3, 5.1, 640 Kbps | Лицензия | RUS |
Аудио #03: 48 kHz, AC3, 2.0, 192 Kbps | СВ Студия | RUS |
Аудио #04: 48 kHz, TrueHD, 7.1, 5255 Kbps | Оригинал | ENG |
Аудио #05: 48 kHz, AC3, 5.1, 448 Kbps | Оригинал | ENG |
Субтитры: Русские (Forced, 2 x full), английские

Скриншоты

MI

General
Unique ID : 32181798359104792199636794410927537544 (0x1835FD295CFE52A9CE83F12CB0063D88)
Complete name : D:Video111Hellboy.2019.Lic.BDREMUX.2160p.HDR.seleZen.mkv
Format : Matroska
Format version : Version 4
File size : 65.3 GiB
Duration : 2 h 1 min
Overall bit rate mode : Variable
Overall bit rate : 77.3 Mb/s
Movie name : Hellboy 2019 4K from селезень
Encoded date : UTC 2019-10-05 07:12:20
Writing application : mkvmerge v22.0.0 ('At The End Of The World') 64-bit
Writing library : libebml v1.3.5 + libmatroska v1.4.8
Video
ID : 1
Format : HEVC
Format/Info : High Efficiency Video Coding
Format profile : Main 10@L5.1@High
HDR format : SMPTE ST 2086, HDR10 compatible
Codec ID : V_MPEGH/ISO/HEVC
Duration : 2 h 1 min
Bit rate : 66.1 Mb/s
Width : 3 840 pixels
Height : 2 160 pixels
Display aspect ratio : 16:9
Frame rate mode : Constant
Frame rate : 23.976 (24000/1001) FPS
Color space : YUV
Chroma subsampling : 4:2:0 (Type 2)
Bit depth : 10 bits
Bits/(Pixel*Frame) : 0.332
Stream size : 55.9 GiB (86%)
Language : English
Default : Yes
Forced : No
Color range : Limited
Color primaries : BT.2020
Transfer characteristics : PQ
Matrix coefficients : BT.2020 non-constant
Mastering display color pri : Display P3
Mastering display luminance : min: 0.0001 cd/m2, max: 4000 cd/m2
Maximum Content Light Level : 3947 cd/m2
Maximum Frame-Average Light : 542 cd/m2
Audio #1
ID : 2
Format : DTS XLL
Format/Info : Digital Theater Systems
Commercial name : DTS-HD Master Audio
Codec ID : A_DTS
Duration : 2 h 1 min
Bit rate mode : Variable
Bit rate : 4 562 kb/s
Channel(s) : 6 channels
Channel layout : C L R Ls Rs LFE
Sampling rate : 48.0 kHz
Frame rate : 93.750 FPS (512 SPF)
Bit depth : 24 bits
Compression mode : Lossless
Stream size : 3.86 GiB (6%)
Title : Dub [License]
Language : Russian
Default : Yes
Forced : Yes
Audio #2
ID : 3
Format : AC-3
Format/Info : Audio Coding 3
Commercial name : Dolby Digital
Codec ID : A_AC3
Duration : 2 h 1 min
Bit rate mode : Constant
Bit rate : 640 kb/s
Channel(s) : 6 channels
Channel layout : L R C LFE Ls Rs
Sampling rate : 48.0 kHz
Frame rate : 31.250 FPS (1536 SPF)
Bit depth : 16 bits
Compression mode : Lossy
Stream size : 554 MiB (1%)
Title : Dub [License]
Language : Russian
Service kind : Complete Main
Default : No
Forced : No
Audio #3
ID : 4
Format : AC-3
Format/Info : Audio Coding 3
Commercial name : Dolby Digital
Codec ID : A_AC3
Duration : 2 h 0 min
Bit rate mode : Constant
Bit rate : 192 kb/s
Channel(s) : 2 channels
Channel layout : L R
Sampling rate : 48.0 kHz
Frame rate : 31.250 FPS (1536 SPF)
Bit depth : 16 bits
Compression mode : Lossy
Stream size : 166 MiB (0%)
Title : MVO [СВ Студия]
Language : Russian
Service kind : Complete Main
Default : No
Forced : No
Audio #4
ID : 5
Format : MLP FBA 16-ch
Format/Info : Meridian Lossless Packing FBA with 16-channel presentation
Commercial name : Dolby TrueHD with Dolby Atmos
Codec ID : A_TRUEHD
Duration : 2 h 1 min
Bit rate mode : Variable
Bit rate : 5 255 kb/s
Maximum bit rate : 9 408 kb/s
Channel(s) : 8 channels
Channel layout : L R C LFE Ls Rs Lb Rb
Sampling rate : 48.0 kHz
Frame rate : 1 200.000 FPS (40 SPF)
Compression mode : Lossless
Stream size : 4.44 GiB (7%)
Title : Original
Language : English
Default : No
Forced : No
Number of dynamic objects : 15
Bed channel count : 1 channel
Bed channel configuration : LFE
Audio #5
ID : 6
Format : AC-3
Format/Info : Audio Coding 3
Commercial name : Dolby Digital
Codec ID : A_AC3
Duration : 2 h 1 min
Bit rate mode : Constant
Bit rate : 448 kb/s
Channel(s) : 6 channels
Channel layout : L R C LFE Ls Rs
Sampling rate : 48.0 kHz
Frame rate : 31.250 FPS (1536 SPF)
Bit depth : 16 bits
Compression mode : Lossy
Stream size : 388 MiB (1%)
Language : English
Service kind : Complete Main
Default : No
Forced : No
Text #1
ID : 7
Format : UTF-8
Codec ID : S_TEXT/UTF8
Codec ID/Info : UTF-8 Plain Text
Duration : 1 h 48 min
Bit rate : 1 b/s
Count of elements : 21
Stream size : 1.01 KiB (0%)
Title : Forced
Language : Russian
Default : Yes
Forced : Yes
Text #2
ID : 8
Format : UTF-8
Codec ID : S_TEXT/UTF8
Codec ID/Info : UTF-8 Plain Text
Duration : 2 h 0 min
Bit rate : 85 b/s
Count of elements : 1543
Stream size : 75.7 KiB (0%)
Title : Full [Enigma] (cens.)
Language : Russian
Default : No
Forced : No
Text #3
ID : 9
Format : UTF-8
Codec ID : S_TEXT/UTF8
Codec ID/Info : UTF-8 Plain Text
Duration : 2 h 0 min
Bit rate : 84 b/s
Count of elements : 1547
Stream size : 74.4 KiB (0%)
Title : Full [FOCS] (no cens.)
Language : Russian
Default : No
Forced : No
Text #4
ID : 10
Format : UTF-8
Codec ID : S_TEXT/UTF8
Codec ID/Info : UTF-8 Plain Text
Duration : 2 h 0 min
Bit rate : 53 b/s
Count of elements : 1528
Stream size : 46.7 KiB (0%)
Title : Full
Language : English
Default : No
Forced : No
Text #5
ID : 11
Format : UTF-8
Codec ID : S_TEXT/UTF8
Codec ID/Info : UTF-8 Plain Text
Duration : 2 h 0 min
Bit rate : 59 b/s
Count of elements : 1899
Stream size : 52.9 KiB (0%)
Title : SDH
Language : English
Default : No
Forced : No
Menu
00:00:00.000 : en:Chapter 01
00:08:54.284 : en:Chapter 02
00:14:41.714 : en:Chapter 03
00:22:34.853 : en:Chapter 04
00:30:12.602 : en:Chapter 05
00:35:48.730 : en:Chapter 06
00:43:50.461 : en:Chapter 07
00:53:17.611 : en:Chapter 08
01:01:09.791 : en:Chapter 09
01:09:24.786 : en:Chapter 10
01:17:32.606 : en:Chapter 11
01:26:07.579 : en:Chapter 12
01:28:37.896 : en:Chapter 13
01:37:58.456 : en:Chapter 14
01:45:49.969 : en:Chapter 15
01:51:06.660 : en:Chapter 16

admin

Post 06-Oct-2019 01:49

[Quote]

Информация о фильме
Название: Хеллбой
Оригинальное название: Hellboy
Год выхода: 2019
Жанр: Фэнтези, Боевик, Приключения
Режиссер: Нил Маршалл
В ролях: Дэвид Харбор, Милла Йовович, Иэн Макшейн, Саша Лейн, Дэниел Дэ Ким, Томас Хейден Чёрч, Пенелопа Митчелл, Софи Оконедо, Брин Глисон, Алистер Петри, Лайла Морс, Стивен Грэм
О фильме:
Близится час битвы Хеллбоя с Кровавой королевой, жаждущей отомстить всему человечеству за века в заточении. Оказавшись в эпицентре столкновения миров людей и монстров, Хеллбою придется пройти через ад, чтобы предотвратить надвигающийся апокалипсис.

Страна: США, Великобритания, Болгария
Продолжительность: 02:01:02
Перевод:
#1 Профессиональный (дублированный) | Лицензия
#2 Профессиональный (многоголосый, закадровый) | СВ Студия
Файл
Кодек: H.265
Качество: BDRip-HEVC 1080p
Видео: HEVC, 1920x800 (2.40:1), 23.976 fps, 6814 kb/s, 10 bit
Аудио 1: AC-3, 48.0 kHz, 6 ch, 640 kb/s | RUS (DUB / Лицензия)
Аудио 2: AC-3, 48.0 kHz, 2 ch, 192 kb/s | RUS (MVO / СВ Студия)
Аудио 3: AC-3, 48.0 kHz, 2 ch, 192 kb/s | UKR (DUB / AAASound)
Аудио 4: AC-3, 48.0 kHz, 6 ch, 448 kb/s | ENG (Оригинал)
Субтитры: русские (форс., полные), украинские (форс.), английские (полные, SDH)

MI

General
Unique ID : 239654365396409554160539954141520910612 (0xB44BC07A07492C9094959C410E1AD914)
Complete name : F:Hellboy.(2019).BDRip.1080p.H.265.mkv
Format : Matroska
Format version : Version 4
File size : 7.01 GiB
Duration : 2 h 1 min
Overall bit rate : 8 290 kb/s
Encoded date : UTC 2019-10-05 14:06:22
Writing application : mkvmerge v8.3.0 ('Over the Horizon') 64bit
Writing library : libebml v1.3.1 + libmatroska v1.4.2
Video
ID : 1
Format : HEVC
Format/Info : High Efficiency Video Coding
Format profile : Main 10@L4.1@High
Codec ID : V_MPEGH/ISO/HEVC
Duration : 2 h 1 min
Bit rate : 6 814 kb/s
Width : 1 920 pixels
Height : 800 pixels
Display aspect ratio : 2.40:1
Frame rate mode : Constant
Frame rate : 23.976 (24000/1001) FPS
Color space : YUV
Chroma subsampling : 4:2:0
Bit depth : 10 bits
Bits/(Pixel*Frame) : 0.185
Stream size : 5.76 GiB (82%)
Writing library : x265 3.1+7-147fb92c5ed5:[Windows][clang 8.0.0][64 bit] 10bit
Encoding settings : cpuid=1111039 / frame-threads=13 / wpp / no-pmode / no-pme / no-psnr / no-ssim / log-level=3 / input-csp=1 / input-res=1920x800 / interlace=0 / total-frames=0 / level-idc=41 / high-tier=1 / uhd-bd=0 / ref=5 / allow-non-conformance / no-repeat-headers / annexb / no-aud / no-hrd / info / hash=0 / no-temporal-layers / open-gop / min-keyint=23 / keyint=240 / gop-lookahead=0 / bframes=8 / b-adapt=2 / b-pyramid / bframe-bias=0 / rc-lookahead=60 / lookahead-slices=4 / scenecut=40 / radl=0 / no-splice / no-intra-refresh / ctu=64 / min-cu-size=8 / rect / amp / max-tu-size=32 / tu-inter-depth=4 / tu-intra-depth=4 / limit-tu=0 / rdoq-level=2 / dynamic-rd=0.00 / no-ssim-rd / signhide / no-tskip / nr-intra=0 / nr-inter=0 / no-constrained-intra / no-strong-intra-smoothing / max-merge=5 / limit-refs=2 / limit-modes / me=3 / subme=7 / merange=57 / temporal-mvp / no-hme / weightp / weightb / no-analyze-src-pics / deblock=-3:-3 / no-sao / no-sao-non-deblock / rd=6 / early-skip / rskip / no-fast-intra / no-tskip-fast / no-cu-lossless / b-intra / no-splitrd-skip / rdpenalty=0 / psy-rd=2.00 / psy-rdoq=1.00 / no-rd-refine / no-lossless / cbqpoffs=0 / crqpoffs=0 / rc=crf / crf=18.5 / qcomp=0.60 / qpstep=4 / stats-write=0 / stats-read=0 / vbv-maxrate=50000 / vbv-bufsize=50000 / vbv-init=0.9 / crf-max=30.0 / crf-min=0.0 / ipratio=1.40 / pbratio=1.30 / aq-mode=2 / aq-strength=1.00 / no-cutree / zone-count=0 / no-strict-cbr / qg-size=32 / no-rc-grain / qpmax=69 / qpmin=0 / no-const-vbv / sar=1 / overscan=0 / videoformat=5 / range=0 / colorprim=1 / transfer=1 / colormatrix=1 / chromaloc=0 / display-window=0cll=0,0 / min-luma=0 / max-luma=1023 / log2-max-poc-lsb=8 / vui-timing-info / vui-hrd-info / slices=1 / no-opt-qp-pps / no-opt-ref-list-length-pps / no-multi-pass-opt-rps / scenecut-bias=0.05 / no-opt-cu-delta-qp / aq-motion / no-hdr / no-hdr-opt / no-dhdr10-opt / no-idr-recovery-sei / analysis-reuse-level=5 / scale-factor=0 / refine-intra=0 / refine-inter=0 / refine-mv=0 / refine-ctu-distortion=0 / no-limit-sao / ctu-info=0 / no-lowpass-dct / refine-analysis-type=101713937 / copy-pic=1 / max-ausize-factor=1.0 / no-dynamic-refine / no-single-sei / no-hevc-aq / no-svt / no-field / qp-adaptation-range=1.00
Language : English
Default : Yes
Forced : No
Color range : Limited
Color primaries : BT.709
Transfer characteristics : BT.709
Matrix coefficients : BT.709
Audio #1
ID : 2
Format : AC-3
Format/Info : Audio Coding 3
Commercial name : Dolby Digital
Codec ID : A_AC3
Duration : 2 h 1 min
Bit rate mode : Constant
Bit rate : 640 kb/s
Channel(s) : 6 channels
Channel layout : L R C LFE Ls Rs
Sampling rate : 48.0 kHz
Frame rate : 31.250 FPS (1536 SPF)
Bit depth : 16 bits
Compression mode : Lossy
Stream size : 554 MiB (8%)
Title : DUB [License]
Language : Russian
Default : Yes
Forced : No
Audio #2
ID : 3
Format : AC-3
Format/Info : Audio Coding 3
Commercial name : Dolby Digital
Codec ID : A_AC3
Duration : 2 h 0 min
Bit rate mode : Constant
Bit rate : 192 kb/s
Channel(s) : 2 channels
Channel layout : L R
Sampling rate : 48.0 kHz
Frame rate : 31.250 FPS (1536 SPF)
Bit depth : 16 bits
Compression mode : Lossy
Stream size : 166 MiB (2%)
Title : MVO [СВ Студия]
Language : Russian
Default : No
Forced : No
Audio #3
ID : 4
Format : AC-3
Format/Info : Audio Coding 3
Commercial name : Dolby Digital
Codec ID : A_AC3
Duration : 2 h 1 min
Bit rate mode : Constant
Bit rate : 192 kb/s
Channel(s) : 2 channels
Channel layout : L R
Sampling rate : 48.0 kHz
Frame rate : 31.250 FPS (1536 SPF)
Bit depth : 16 bits
Compression mode : Lossy
Stream size : 166 MiB (2%)
Title : DUB [AAASound]
Language : Ukrainian
Default : No
Forced : No
Audio #4
ID : 5
Format : AC-3
Format/Info : Audio Coding 3
Commercial name : Dolby Digital
Codec ID : A_AC3
Duration : 2 h 1 min
Bit rate mode : Constant
Bit rate : 448 kb/s
Channel(s) : 6 channels
Channel layout : L R C LFE Ls Rs
Sampling rate : 48.0 kHz
Frame rate : 31.250 FPS (1536 SPF)
Bit depth : 16 bits
Compression mode : Lossy
Stream size : 388 MiB (5%)
Title : Original
Language : English
Default : No
Forced : No
Text #1
ID : 6
Format : UTF-8
Codec ID : S_TEXT/UTF8
Codec ID/Info : UTF-8 Plain Text
Duration : 1 h 48 min
Bit rate : 1 b/s
Count of elements : 21
Stream size : 1.01 KiB (0%)
Title : Forced
Language : Russian
Default : Yes
Forced : Yes
Text #2
ID : 7
Format : UTF-8
Codec ID : S_TEXT/UTF8
Codec ID/Info : UTF-8 Plain Text
Duration : 2 h 0 min
Bit rate : 85 b/s
Count of elements : 1543
Stream size : 75.7 KiB (0%)
Title : Full (cens.)
Language : Russian
Default : No
Forced : No
Text #3
ID : 8
Format : UTF-8
Codec ID : S_TEXT/UTF8
Codec ID/Info : UTF-8 Plain Text
Duration : 2 h 0 min
Bit rate : 84 b/s
Count of elements : 1547
Stream size : 74.4 KiB (0%)
Title : Full (no cens.)
Language : Russian
Default : No
Forced : No
Text #4
ID : 9
Format : UTF-8
Codec ID : S_TEXT/UTF8
Codec ID/Info : UTF-8 Plain Text
Duration : 1 h 48 min
Bit rate : 1 b/s
Count of elements : 21
Stream size : 1.06 KiB (0%)
Title : Forced
Language : Ukrainian
Default : No
Forced : No
Text #5
ID : 10
Format : UTF-8
Codec ID : S_TEXT/UTF8
Codec ID/Info : UTF-8 Plain Text
Duration : 2 h 0 min
Bit rate : 53 b/s
Count of elements : 1528
Stream size : 46.7 KiB (0%)
Title : Full
Language : English
Default : No
Forced : No
Text #6
ID : 11
Format : UTF-8
Codec ID : S_TEXT/UTF8
Codec ID/Info : UTF-8 Plain Text
Duration : 2 h 0 min
Bit rate : 59 b/s
Count of elements : 1899
Stream size : 52.9 KiB (0%)
Title : SDH
Language : English
Default : No
Forced : No
Menu
00:00:00.000 : en:Chapter 01
00:08:54.284 : en:Chapter 02
00:14:41.714 : en:Chapter 03
00:22:34.853 : en:Chapter 04
00:30:12.602 : en:Chapter 05
00:35:48.730 : en:Chapter 06
00:43:50.461 : en:Chapter 07
00:53:17.611 : en:Chapter 08
01:01:09.791 : en:Chapter 09
01:09:24.786 : en:Chapter 10
01:17:32.606 : en:Chapter 11
01:26:07.579 : en:Chapter 12
01:28:37.896 : en:Chapter 13
01:37:58.456 : en:Chapter 14
01:45:49.969 : en:Chapter 15
01:51:06.660 : en:Chapter 16

Скриншоты

admin

Post 04-Oct-2019 18:10

[Quote]

Информация о фильме
Название: Снегоуборщик
Оригинальное название: Cold Pursuit
Год выхода: 2019
Жанр: Боевик, триллер, драма
Режиссер: Ханс Петтер Муланд
В ролях: Лиам Нисон, Лора Дерн, Эмми Россум, Том Бейтман, Уильям Форсайт, Джулия Джонс, Дэвид О`Хара, Доменик Ломбардоззи, Элисия Ротару, Эмили Мэддисон, Майкл Нисон, Майкл Эклунд, Брэдли Страйкер, Уэсли МакИннес

О фильме: Мистер Коксман — примерный семьянин и уважаемый гражданин, размеренная жизнь которого заканчивается, когда наркоторговцы убивают его сына. В поисках справедливости он с ледяным хладнокровием начинает изощренно убирать бандитов одного за другим.
Страна: Великобритания, Норвегия, Канада, США, Франция
Студия: Mas Films, Paradox Films, StudioCanal
Продолжительность: 01:59:00
Перевод: Дублированный | Лицензия
Качество: BDRemux 2160p
Видео: 3840x2160 at 23.976 fps, MPEG-H HEVC HDR Video, 62000 kbps avg
Звук:
Аудио #01: 48 kHz, DTS-HD MA, 5.1, 3381 Kbps | iTunes | RUS |
Аудио #02: 48 kHz, TrueHD, 7.1, 3955 Kbps | Оригинал | ENG |
Аудио #03: 48 kHz, AC3, 5.1, 640 Kbps | Оригинал | ENG |
Субтитры: Русские (Forced, full), английские

Скриншоты

MI

General
Unique ID : 233178252929355726138177083056271886777 (0xAF6C7F7AF0754A138C513BBEB97B89B9)
Complete name : E:RelizesCold.Pursuit.2019.Lic.BDREMUX.2160p.HDR.seleZen.mkv
Format : Matroska
Format version : Version 4
File size : 58.2 GiB
Duration : 1 h 59 min
Overall bit rate mode : Variable
Overall bit rate : 70.0 Mb/s
Movie name : Cold Pursuit 2019 from селезень
Encoded date : UTC 2019-10-02 14:18:50
Writing application : mkvmerge v22.0.0 ('At The End Of The World') 64-bit
Writing library : libebml v1.3.5 + libmatroska v1.4.8
Video
ID : 1
Format : HEVC
Format/Info : High Efficiency Video Coding
Format profile : Main 10@L5.1@High
HDR format : SMPTE ST 2086, HDR10 compatible
Codec ID : V_MPEGH/ISO/HEVC
Duration : 1 h 59 min
Bit rate : 62.0 Mb/s
Width : 3 840 pixels
Height : 2 160 pixels
Display aspect ratio : 16:9
Frame rate mode : Constant
Frame rate : 23.976 (24000/1001) FPS
Color space : YUV
Chroma subsampling : 4:2:0 (Type 2)
Bit depth : 10 bits
Bits/(Pixel*Frame) : 0.312
Stream size : 51.5 GiB (89%)
Language : English
Default : Yes
Forced : No
Color range : Limited
Color primaries : BT.2020
Transfer characteristics : PQ
Matrix coefficients : BT.2020 non-constant
Mastering display color pri : Display P3
Mastering display luminance : min: 0.0001 cd/m2, max: 1000 cd/m2
Maximum Content Light Level : 1000 cd/m2
Maximum Frame-Average Light : 288 cd/m2
Audio #1
ID : 2
Format : DTS XLL
Format/Info : Digital Theater Systems
Commercial name : DTS-HD Master Audio
Codec ID : A_DTS
Duration : 1 h 58 min
Bit rate mode : Variable
Bit rate : 3 381 kb/s
Channel(s) : 6 channels
Channel layout : C L R Ls Rs LFE
Sampling rate : 48.0 kHz
Frame rate : 93.750 FPS (512 SPF)
Bit depth : 24 bits
Compression mode : Lossless
Stream size : 2.81 GiB (5%)
Title : Dub [License]
Language : Russian
Default : Yes
Forced : Yes
Audio #2
ID : 3
Format : MLP FBA 16-ch
Format/Info : Meridian Lossless Packing FBA with 16-channel presentation
Commercial name : Dolby TrueHD with Dolby Atmos
Codec ID : A_TRUEHD
Duration : 1 h 59 min
Bit rate mode : Variable
Bit rate : 3 955 kb/s
Maximum bit rate : 6 264 kb/s
Channel(s) : 8 channels
Channel layout : L R C LFE Ls Rs Lb Rb
Sampling rate : 48.0 kHz
Frame rate : 1 200.000 FPS (40 SPF)
Compression mode : Lossless
Stream size : 3.29 GiB (6%)
Title : Original
Language : English
Default : No
Forced : No
Number of dynamic objects : 15
Bed channel count : 1 channel
Bed channel configuration : LFE
Audio #3
ID : 4
Format : AC-3
Format/Info : Audio Coding 3
Commercial name : Dolby Digital
Codec ID : A_AC3
Duration : 1 h 59 min
Bit rate mode : Constant
Bit rate : 640 kb/s
Channel(s) : 6 channels
Channel layout : L R C LFE Ls Rs
Sampling rate : 48.0 kHz
Frame rate : 31.250 FPS (1536 SPF)
Bit depth : 16 bits
Compression mode : Lossy
Stream size : 545 MiB (1%)
Language : English
Service kind : Complete Main
Default : No
Forced : No
Text #1
ID : 5
Format : UTF-8
Codec ID : S_TEXT/UTF8
Codec ID/Info : UTF-8 Plain Text
Duration : 1 h 48 min
Bit rate : 1 b/s
Count of elements : 19
Stream size : 1 009 Bytes (0%)
Title : Forced
Language : Russian
Default : Yes
Forced : Yes
Text #2
ID : 6
Format : UTF-8
Codec ID : S_TEXT/UTF8
Codec ID/Info : UTF-8 Plain Text
Duration : 1 h 49 min
Bit rate : 62 b/s
Count of elements : 979
Stream size : 50.3 KiB (0%)
Title : Full
Language : Russian
Default : No
Forced : No
Text #3
ID : 7
Format : UTF-8
Codec ID : S_TEXT/UTF8
Codec ID/Info : UTF-8 Plain Text
Duration : 1 h 47 min
Bit rate : 40 b/s
Count of elements : 968
Stream size : 31.9 KiB (0%)
Language : English
Default : No
Forced : No
Menu
00:00:00.000 : en:Chapter 01
00:07:26.946 : en:Chapter 02
00:13:19.257 : en:Chapter 03
00:21:35.211 : en:Chapter 04
00:29:35.649 : en:Chapter 05
00:38:18.880 : en:Chapter 06
00:45:11.876 : en:Chapter 07
00:53:08.310 : en:Chapter 08
01:01:23.513 : en:Chapter 09
01:05:46.359 : en:Chapter 10
01:14:04.857 : en:Chapter 11
01:22:21.186 : en:Chapter 12
01:31:40.954 : en:Chapter 13
01:38:46.879 : en:Chapter 14
01:45:20.939 : en:Chapter 15
01:47:43.540 : en:Chapter 16

admin

Post 17-Sep-2019 13:33

[Quote]

Информация о фильме
Название: Человек-паук: Вдали от дома
Оригинальное название: Spider-Man: Far from Home
Год выхода: 2019
Жанр: Фантастика, боевик, приключения
Режиссер: Джон Уоттс
В ролях: Том Холланд (II), Зендая Колеман, Энгаури Райс, Джон Фавро, Джейк Джилленхол, Сэмюэл Л. Джексон, Коби Смолдерс, Мариса Томей, Мартин Старр, Нуман Аджар, Джейкоб Баталон, Тони Револори

О фильме: Питер Паркер вместе с друзьями отправляется на летние каникулы в Европу. Однако отдохнуть приятелям вряд ли удастся - Питеру придется согласиться помочь Нику Фьюри раскрыть тайну существ, вызывающих стихийные бедствия и разрушения по всему континенту.
Страна: США
Студия: Columbia Pictures, Marvel Studios, Pascal Pictures
Продолжительность: 02:09:23
Перевод: Профессиональный многоголосый | HDRezka Studio
Качество: WEB-DL 2160p
Видео: 3840x2160 at 23.976 fps, MPEG-H HEVC HDR Video, 24400 kbps avg
Аудио #01: 48 kHz, AC3, 2.0, 192 Kbps | HDRezka Studio | RUS |
Аудио #02: 48 kHz, E-AC3+Atmos, 5.1, 448 Kbps | Оригинал | ENG |
Субтитры: Английские

Скриншоты

MI

General
Unique ID : 9233958955647792927854698405893347664 (0x6F26553874641CECA30C66CBA799950)
Complete name : D:Video111Spider-Man.Far.from.Home.2019.WEB-DL.2160p.HDR.seleZen.mkv
Format : Matroska
Format version : Version 4
File size : 22.6 GiB
Duration : 2 h 9 min
Overall bit rate : 25.0 Mb/s
Movie name : Spider-Man Far from Home 2019 from селезень
Encoded date : UTC 2019-09-17 08:53:17
Writing application : mkvmerge v22.0.0 ('At The End Of The World') 64-bit
Writing library : libebml v1.3.5 + libmatroska v1.4.8
Video
ID : 1
Format : HEVC
Format/Info : High Efficiency Video Coding
Format profile : Main 10@L5@High
HDR format : SMPTE ST 2086, HDR10 compatible
Codec ID : V_MPEGH/ISO/HEVC
Duration : 2 h 9 min
Bit rate : 24.4 Mb/s
Width : 3 840 pixels
Height : 1 608 pixels
Original height : 2 160 pixels
Display aspect ratio : 16:9
Frame rate mode : Constant
Frame rate : 23.976 (24000/1001) FPS
Color space : YUV
Chroma subsampling : 4:2:0 (Type 2)
Bit depth : 10 bits
Bits/(Pixel*Frame) : 0.165
Stream size : 22.0 GiB (97%)
Language : English
Default : Yes
Forced : No
Color range : Limited
Color primaries : BT.2020
Transfer characteristics : PQ
Matrix coefficients : BT.2020 non-constant
Mastering display color pri : Display P3
Mastering display luminance : min: 0.0001 cd/m2, max: 1000 cd/m2
Maximum Content Light Level : 10000 cd/m2
Maximum Frame-Average Light : 595 cd/m2
Audio #1
ID : 2
Format : AC-3
Format/Info : Audio Coding 3
Commercial name : Dolby Digital
Codec ID : A_AC3
Duration : 2 h 9 min
Bit rate mode : Constant
Bit rate : 192 kb/s
Channel(s) : 2 channels
Channel layout : L R
Sampling rate : 48.0 kHz
Frame rate : 31.250 FPS (1536 SPF)
Bit depth : 16 bits
Compression mode : Lossy
Stream size : 178 MiB (1%)
Title : MVO [HDRezka Studio]
Language : Russian
Service kind : Complete Main
Default : Yes
Forced : Yes
Audio #2
ID : 3
Format : E-AC-3 JOC
Format/Info : Enhanced AC-3 with Joint Object Coding
Commercial name : Dolby Digital Plus with Dolby Atmos
Codec ID : A_EAC3
Duration : 2 h 9 min
Bit rate mode : Constant
Bit rate : 448 kb/s
Channel(s) : 6 channels
Channel layout : L R C LFE Ls Rs
Sampling rate : 48.0 kHz
Frame rate : 31.250 FPS (1536 SPF)
Compression mode : Lossy
Stream size : 415 MiB (2%)
Title : Original
Language : English
Service kind : Complete Main
Default : No
Forced : No
Complexity index : 16
Number of dynamic objects : 15
Bed channel count : 1 channel
Bed channel configuration : LFE
Text #1
ID : 4
Format : UTF-8
Codec ID : S_TEXT/UTF8
Codec ID/Info : UTF-8 Plain Text
Duration : 2 h 7 min
Bit rate : 62 b/s
Count of elements : 1749
Stream size : 58.2 KiB (0%)
Title : Full
Language : English
Default : No
Forced : No
Text #2
ID : 5
Format : UTF-8
Codec ID : S_TEXT/UTF8
Codec ID/Info : UTF-8 Plain Text
Duration : 2 h 8 min
Bit rate : 68 b/s
Count of elements : 1929
Stream size : 64.0 KiB (0%)
Title : SDH
Language : English
Default : No
Forced : No
Menu
00:00:00.000 : en:Studio Logo
00:00:33.000 : en:A mysterious cyclone
00:01:47.000 : en:Title Sequence
00:02:24.000 : en:Moving on after The Blip
00:04:11.000 : en:Peter has a plan to woo MJ
00:05:53.000 : en:A benefit for the homeless
00:08:37.000 : en:Big shoes to fill
00:09:34.000 : en:Peter needs a vacation
00:14:51.000 : en:Arriving in Venice
00:18:20.000 : en:Peter finds the perfect gift for MJ
00:19:33.000 : en:A surprise attack on Venice
00:25:18.000 : en:An unexpected visitor
00:30:35.000 : en:The myths of Elementals
00:34:23.000 : en:A hijacked summer vacation
00:39:26.000 : en:A powerful gift from Tony
00:41:56.000 : en:Danger in Prague
00:49:49.000 : en:Fighting the fire Elemental
00:57:09.000 : en:The truth about Quentin Beck
01:04:50.000 : en:Taking advantage of their last night in the city
01:10:30.000 : en:Mysterio puts his plan into action
01:13:42.000 : en:Peter heads to Berlin to warn Fury
01:17:50.000 : en:The power of illusions
01:22:48.000 : en:Peter wakes up in the Netherlands
01:25:39.000 : en:Happy offers Peter some advice
01:29:24.000 : en:Everything converges in London
01:35:08.000 : en:Fighting the illusion from the inside
01:43:34.000 : en:The power of the Peter-tingle
01:49:01.000 : en:Nothing goes according to plan
01:52:16.000 : en:Arriving back home
01:55:33.000 : en:End Credits
01:57:41.000 : en:Title Sequence
01:57:45.000 : en:BONUS: End Credit Scene 1
01:59:23.000 : en:End Credits
02:07:17.000 : en:BONUS: End Credit Scene 2
02:08:56.000 : en:Acknowledgement

admin

Post 08-Sep-2019 08:07

[Quote]

Информация о фильме
Название: Тайная жизнь домашних животных 2
Оригинальное название: The Secret Life of Pets 2
Год выхода: 2019
Жанр: Мультфильм, комедия, приключения, семейный
Режиссер: Крис Рено, Джонатан дель Валь
В ролях: Пэттон Освальт, Кевин Харт, Харрисон Форд, Эрик Стоунстрит, Дженни Слейт, Тиффани Хэддиш, Лэйк Белл, Дэна Карви, Бобби Мойнахан, Хэннибал Бёресс
О фильме:
Сюжет комедийного мультика расскажет о новых приключениях всем полюбившимся пушистых персонажей. Их тайная жизнь продолжает идти полным ходом - они весело проводят время играя с друзьями, общаются, проказничают и ходят в гости. Эта пестрая компания никогда не даст себе заскучать, постоянно придумывая себе очередные забавы. Однако на сей раз их беззаботное времяпрепровождение омрачается тревожной новостью. Главный герой - любознательный пес по кличке Макс обнаружил странное поведение у домашних животных, посещающих ветеринарную клинику доктора Френсиса. Тамошние звери начинают вести себя неадекватно и пугающе, проявляя необъяснимую агрессию после приема лекарств, предписанных коварным врачом.

Страна: США, Франция, Япония
Студия: Illumination Entertainment, Universal Pictures
Продолжительность: 01:26:03
Перевод: Дублированный | iTunes
Профессиональный многоголосый | (HDRezka Studio)
Файл
Кодек: H.265
Качество: UHD BDRip-HEVC 2160p
Видео: 3840x2076 at 23.976 fps, MPEG-H HEVC SDR Video, 23300 kbps avg
Звук:
Аудио: AC3, 6 ch, 384 Kbps - Русский_Дублированное [iTunes- Лицензия]
Аудио: AC3, 2 ch, 192 Kbps - Русский_Многоголосый профессиональный (HDRezka Studio)
Аудио: TrueHD Atmos, 8 ch, 3318 Kbps - Английский
Аудио: AC3, 6 ch, 640 Kbps - Английский
Субтитры: Русские, английские
Семпл

MediaInfo

Общее
Уникальный идентификатор : 189115384766648368686915234977284874252 (0x8E464C59E44DB760B13296A3270BE00C)
Полное имя : D:\Передел\The.Secret.Life.of.Pets.2.2019.2160p.x265.10bit.SDR.Master5.mkv
Формат : Matroska
Версия формата : Version 4
Размер файла : 16,8 Гбайт
Продолжительность : 1 ч. 26 м.
Режим общего битрейта : Переменный
Общий поток : 27,9 Мбит/сек
Название фильма : The.Secret.Life.of.Pets.2.2019.2160p.x265.10bit.SDR.Master5
Дата кодирования : UTC 2019-09-06 12:40:06
Программа кодирования : mkvmerge v7.9.0 ('Birds') 64bit
Библиотека кодирования : libebml v1.3.1 + libmatroska v1.4.2
Обложка : Yes
Attachments : cover_land.jpg / small_cover.jpg / small_cover_land.jpg / cover.jpg
Видео
Идентификатор : 1
Формат : HEVC
Формат/Информация : High Efficiency Video Coding
Профиль формата : Main 10@L5.1@High
Идентификатор кодека : V_MPEGH/ISO/HEVC
Продолжительность : 1 ч. 26 м.
Битрейт : 23,3 Мбит/сек
Ширина : 3840 пикселей
Высота : 2076 пикселей
Соотношение сторон : 1,85:1
Режим частоты кадров : Постоянный
Частота кадров : 23,976 (24000/1001) кадра/сек
Цветовое пространство : YUV
Субдискретизация насыщенности : 4:2:0
Битовая глубина : 10 бит
Бит/(Пиксели*Кадры) : 0.122
Размер потока : 14,0 Гбайт (83%)
Заголовок : The.Secret.Life.of.Pets.2.2019.2160p.x265.10bit.SDR.Master5
Библиотека кодирования : x265 3.0+1-ed72af837053:[Windows][GCC 8.2.0][64 bit] 10bit
Настройки программы : cpuid=1111039 / frame-threads=16 / numa-pools=44,44 / wpp / no-pmode / no-pme / no-psnr / no-ssim / log-level=2 / input-csp=1 / input-res=3840x2076 / interlace=0 / total-frames=123817 / level-idc=51 / high-tier=1 / uhd-bd=0 / ref=3 / no-allow-non-conformance / repeat-headers / annexb / aud / hrd / info / hash=0 / no-temporal-layers / no-open-gop / min-keyint=1 / keyint=24 / gop-lookahead=0 / bframes=6 / b-adapt=2 / b-pyramid / bframe-bias=0 / rc-lookahead=25 / lookahead-slices=4 / scenecut=40 / radl=0 / no-splice / no-intra-refresh / ctu=64 / min-cu-size=8 / no-rect / no-amp / max-tu-size=32 / tu-inter-depth=1 / tu-intra-depth=1 / limit-tu=0 / rdoq-level=0 / dynamic-rd=0.00 / no-ssim-rd / signhide / no-tskip / nr-intra=0 / nr-inter=0 / no-constrained-intra / strong-intra-smoothing / max-merge=2 / limit-refs=3 / no-limit-modes / me=1 / subme=2 / merange=57 / temporal-mvp / weightp / no-weightb / no-analyze-src-pics / deblock=1:1 / no-sao / no-sao-non-deblock / rd=3 / no-early-skip / rskip / no-fast-intra / no-tskip-fast / no-cu-lossless / no-b-intra / no-splitrd-skip / rdpenalty=0 / psy-rd=0.40 / psy-rdoq=0.00 / no-rd-refine / no-lossless / cbqpoffs=0 / crqpoffs=0 / rc=crf / crf=12.0 / qcomp=0.60 / qpstep=4 / stats-write=0 / stats-read=0 / vbv-maxrate=160000 / vbv-bufsize=160000 / vbv-init=0.9 / crf-max=0.0 / crf-min=0.0 / ipratio=1.40 / pbratio=1.30 / aq-mode=1 / aq-strength=0.40 / cutree / zone-count=0 / no-strict-cbr / qg-size=32 / no-rc-grain / qpmax=69 / qpmin=0 / no-const-vbv / sar=1 / overscan=0 / videoformat=5 / range=0 / colorprim=2 / transfer=2 / colormatrix=2 / chromaloc=0 / display-window=0 / max-cll=0,0 / min-luma=0 / max-luma=1023 / log2-max-poc-lsb=8 / vui-timing-info / vui-hrd-info / slices=1 / opt-qp-pps / opt-ref-list-length-pps / no-multi-pass-opt-rps / scenecut-bias=0.05 / no-opt-cu-delta-qp / no-aq-motion / no-hdr / no-hdr-opt / no-dhdr10-opt / no-idr-recovery-sei / analysis-reuse-level=5 / scale-factor=0 / refine-intra=0 / refine-inter=0 / refine-mv=0 / refine-ctu-distortion=0 / no-limit-sao / ctu-info=0 / no-lowpass-dct / refine-analysis-type=0 / copy-pic=1 / max-ausize-factor=1.0 / no-dynamic-refine / no-single-sei / no-hevc-aq / qp-adaptation-range=1.00
Default : Да
Forced : Нет
Аудио #1
Идентификатор : 2
Формат : AC-3
Формат/Информация : Audio Coding 3
Коммерческое название : Dolby Digital
Идентификатор кодека : A_AC3
Продолжительность : 1 ч. 26 м.
Вид битрейта : Постоянный
Битрейт : 384 Кбит/сек
Каналы : 6 каналов
Channel layout : L R C LFE Ls Rs
Частота : 48,0 КГц
Частота кадров : 31,250 кадров/сек (1536 SPF)
Битовая глубина : 16 бит
Метод сжатия : С потерями
Размер потока : 236 Мбайт (1%)
Заголовок : iTunes
Язык : Russian
ServiceKind/String : Complete Main
Default : Да
Forced : Да
Аудио #2
Идентификатор : 3
Формат : AC-3
Формат/Информация : Audio Coding 3
Коммерческое название : Dolby Digital
Идентификатор кодека : A_AC3
Продолжительность : 1 ч. 26 м.
Вид битрейта : Постоянный
Битрейт : 192 Кбит/сек
Каналы : 2 канала
Channel layout : L R
Частота : 48,0 КГц
Частота кадров : 31,250 кадров/сек (1536 SPF)
Битовая глубина : 16 бит
Метод сжатия : С потерями
Размер потока : 118 Мбайт (1%)
Заголовок : MVO HDRezka Studio
Язык : Russian
ServiceKind/String : Complete Main
Default : Нет
Forced : Нет
Аудио #3
Идентификатор : 4
Формат : MLP FBA 16-ch
Формат/Информация : Meridian Lossless Packing FBA with 16-channel presentation
Коммерческое название : Dolby TrueHD with Dolby Atmos
Идентификатор кодека : A_TRUEHD
Продолжительность : 1 ч. 26 м.
Вид битрейта : Переменный
Битрейт : 3318 Кбит/сек
Максимальный битрейт : 4644 Кбит/сек
Каналы : 8 каналов
Channel layout : L R C LFE Ls Rs Lb Rb
Частота : 48,0 КГц
Частота кадров : 1200,000 кадров/сек (40 SPF)
Метод сжатия : Без потерь
Размер потока : 1,99 Гбайт (12%)
Язык : English
Default : Нет
Forced : Нет
Number of dynamic objects : 11
Bed channel count : 1 канал
Bed channel configuration : LFE
Аудио #4
Идентификатор : 5
Формат : AC-3
Формат/Информация : Audio Coding 3
Коммерческое название : Dolby Digital
Идентификатор кодека : A_AC3
Продолжительность : 1 ч. 26 м.
Вид битрейта : Постоянный
Битрейт : 640 Кбит/сек
Каналы : 6 каналов
Channel layout : L R C LFE Ls Rs
Частота : 48,0 КГц
Частота кадров : 31,250 кадров/сек (1536 SPF)
Битовая глубина : 16 бит
Метод сжатия : С потерями
Размер потока : 394 Мбайт (2%)
Заголовок : Original
Язык : English
ServiceKind/String : Complete Main
Default : Нет
Forced : Нет
Текст #1
Идентификатор : 6
Формат : UTF-8
Идентификатор кодека : S_TEXT/UTF8
Идентификатор кодека/Информация : UTF-8 Plain Text
Продолжительность : 1 ч. 25 м.
Битрейт : 74 бит/сек
ElementCount : 1157
Размер потока : 46,9 Кбайт (0%)
Заголовок : Full
Язык : Russian
Default : Нет
Forced : Нет
Текст #2
Идентификатор : 7
Формат : UTF-8
Идентификатор кодека : S_TEXT/UTF8
Идентификатор кодека/Информация : UTF-8 Plain Text
Продолжительность : 1 ч. 25 м.
Битрейт : 47 бит/сек
ElementCount : 1229
Размер потока : 29,9 Кбайт (0%)
Заголовок : English-SRT
Язык : English
Default : Нет
Forced : Нет
Текст #3
Идентификатор : 8
Формат : UTF-8
Идентификатор кодека : S_TEXT/UTF8
Идентификатор кодека/Информация : UTF-8 Plain Text
Продолжительность : 1 ч. 25 м.
Битрейт : 77 бит/сек
ElementCount : 1924
Размер потока : 48,5 Кбайт (0%)
Заголовок : English-SDH-SRT
Язык : English
Default : Нет
Forced : Нет
Текст #4
Идентификатор : 9
Формат : PGS
Режим смешивания : zlib
Идентификатор кодека : S_HDMV/PGS
Идентификатор кодека/Информация : Picture based subtitle format used on BDs/HD-DVDs
Продолжительность : 1 ч. 25 м.
Битрейт : 15,7 Кбит/сек
ElementCount : 3286
Размер потока : 9,58 Мбайт (0%)
Заголовок : English-PGS
Язык : English
Default : Нет
Forced : Нет
Текст #5
Идентификатор : 10
Формат : UTF-8
Идентификатор кодека : S_TEXT/UTF8
Идентификатор кодека/Информация : UTF-8 Plain Text
Продолжительность : 1 ч. 25 м.
Битрейт : 53 бит/сек
ElementCount : 1324
Размер потока : 33,3 Кбайт (0%)
Заголовок : Full
Язык : English
Default : Нет
Forced : Нет
Меню
00:00:00.000 : en:1
00:05:35.543 : en:2
00:10:08.816 : en:3
00:13:27.306 : en:4
00:16:40.791 : en:5
00:19:57.946 : en:6
00:24:11.073 : en:7
00:28:16.735 : en:8
00:30:55.267 : en:9
00:35:16.110 : en:10
00:39:56.974 : en:11
00:45:48.325 : en:12
00:49:52.819 : en:13
00:56:55.991 : en:14
00:58:36.215 : en:15
01:02:49.927 : en:16
01:07:17.611 : en:17
01:12:49.818 : en:18
01:15:22.803 : en:19
01:18:11.011 : en:20

Скриншоты

admin

Post 08-Sep-2019 07:48

[Quote]

Информация о фильме
Название: Люди Икс: Тёмный Феникс
Оригинальное название: Dark Phoenix
Год выхода: 2019
Жанр: Фантастика, боевик, приключения
Режиссер: Саймон Кинберг
В ролях: Джеймс МакЭвой, Майкл Фассбендер, Дженнифер Лоуренс, Николас Холт, Софи Тёрнер, Тай Шеридан, Александра Шипп, Эван Питерс, Коди Смит-МакФи, Джессика Честейн

О фильме: История Джин Грей, которая разворачивается в тот момент, когда героиня превращается в культового Тёмного Феникса. Во время опасной для жизни спасательной миссии в космосе девушка оказывается поражена таинственной космической силой, которая превращает её в одного из самых могущественных мутантов. В борьбе с этой всё более изменчивой мощью и со своими собственными демонами Джин выходит из-под контроля: раскалывает семью Людей Икс и угрожает уничтожить всю нашу планету.
Страна: США
Студия: Twentieth Century Fox, Bad Hat Harry Productions, Donners' Company
Продолжительность: 01:53:56
Перевод: Дублированный | Лицензия
Качество: BDRemux 2160p
Видео: 3840x2160 at 23.976 fps, MPEG-H HEVC HDR Video, 49700 kbps avg
Звук:
Аудио #01: 48 kHz, DTS, 5.1, 768 Kbps | Дублированный | RUS |
Аудио #02: 48 kHz, AC3, 5.1, 448 Kbps | Дублированный | RUS |
Аудио #03: 48 kHz, TrueHD, 7.1, 4775 Kbps | Оригинал | ENG |
Аудио #04: 48 kHz, AC3, 5.1, 640 Kbps | Оригинал | ENG |
Субтитры: Русские (2 x Forced, 2 x full), английские

Скриншоты

MI

General
Unique ID : 143881136092801801840626171755761698028 (0x6C3E7FB432C5555935D4A6B3E24F04EC)
Complete name : D:Video111Dark.Phoenix.2019.BDREMUX.2160p.HDR.seleZen.mkv
Format : Matroska
Format version : Version 4
File size : 44.9 GiB
Duration : 1 h 53 min
Overall bit rate mode : Variable
Overall bit rate : 56.4 Mb/s
Movie name : Dark Phoenix 2019 4K from селезень
Encoded date : UTC 2019-09-07 19:45:50
Writing application : mkvmerge v22.0.0 ('At The End Of The World') 64-bit
Writing library : libebml v1.3.5 + libmatroska v1.4.8
Video
ID : 1
Format : HEVC
Format/Info : High Efficiency Video Coding
Format profile : Main 10@L5.1@High
HDR format : SMPTE ST 2094 App 4, Version 1, HDR10+ Profile A compatible
Codec ID : V_MPEGH/ISO/HEVC
Duration : 1 h 53 min
Bit rate : 49.7 Mb/s
Width : 3 840 pixels
Height : 2 160 pixels
Display aspect ratio : 16:9
Frame rate mode : Constant
Frame rate : 23.976 (24000/1001) FPS
Color space : YUV
Chroma subsampling : 4:2:0 (Type 2)
Bit depth : 10 bits
Bits/(Pixel*Frame) : 0.250
Stream size : 39.6 GiB (88%)
Writing library : ATEME Titan File 3.9.0 (4.9.0.0)
Language : English
Default : Yes
Forced : No
Color range : Limited
Color primaries : BT.2020
Transfer characteristics : PQ
Matrix coefficients : BT.2020 non-constant
Mastering display color pri : Display P3
Mastering display luminance : min: 0.0050 cd/m2, max: 1000 cd/m2
Audio #1
ID : 2
Format : DTS
Format/Info : Digital Theater Systems
Codec ID : A_DTS
Duration : 1 h 53 min
Bit rate mode : Constant
Bit rate : 768 kb/s
Channel(s) : 6 channels
Channel layout : C L R Ls Rs LFE
Sampling rate : 48.0 kHz
Frame rate : 93.750 FPS (512 SPF)
Bit depth : 24 bits
Compression mode : Lossy
Stream size : 626 MiB (1%)
Title : Dub [License]
Language : Russian
Default : Yes
Forced : Yes
Audio #2
ID : 3
Format : AC-3
Format/Info : Audio Coding 3
Commercial name : Dolby Digital
Codec ID : A_AC3
Duration : 1 h 53 min
Bit rate mode : Constant
Bit rate : 448 kb/s
Channel(s) : 6 channels
Channel layout : L R C LFE Ls Rs
Sampling rate : 48.0 kHz
Frame rate : 31.250 FPS (1536 SPF)
Bit depth : 16 bits
Compression mode : Lossy
Stream size : 365 MiB (1%)
Title : Dub [License]
Language : Russian
Service kind : Complete Main
Default : No
Forced : No
Audio #3
ID : 4
Format : MLP FBA 16-ch
Format/Info : Meridian Lossless Packing FBA with 16-channel presentation
Commercial name : Dolby TrueHD with Dolby Atmos
Codec ID : A_TRUEHD
Duration : 1 h 53 min
Bit rate mode : Variable
Bit rate : 4 775 kb/s
Maximum bit rate : 7 464 kb/s
Channel(s) : 8 channels
Channel layout : L R C LFE Ls Rs Lb Rb
Sampling rate : 48.0 kHz
Frame rate : 1 200.000 FPS (40 SPF)
Compression mode : Lossless
Stream size : 3.80 GiB (8%)
Title : Original
Language : English
Default : No
Forced : No
Number of dynamic objects : 13
Bed channel count : 1 channel
Bed channel configuration : LFE
Audio #4
ID : 5
Format : AC-3
Format/Info : Audio Coding 3
Commercial name : Dolby Digital
Codec ID : A_AC3
Duration : 1 h 53 min
Bit rate mode : Constant
Bit rate : 640 kb/s
Channel(s) : 6 channels
Channel layout : L R C LFE Ls Rs
Sampling rate : 48.0 kHz
Frame rate : 31.250 FPS (1536 SPF)
Bit depth : 16 bits
Compression mode : Lossy
Stream size : 522 MiB (1%)
Language : English
Service kind : Complete Main
Default : No
Forced : No
Text #1
ID : 6
Format : UTF-8
Codec ID : S_TEXT/UTF8
Codec ID/Info : UTF-8 Plain Text
Duration : 1 h 34 min
Bit rate : 0 b/s
Count of elements : 9
Stream size : 371 Bytes (0%)
Title : Forced [License]
Language : Russian
Default : Yes
Forced : Yes
Text #2
ID : 7
Format : UTF-8
Codec ID : S_TEXT/UTF8
Codec ID/Info : UTF-8 Plain Text
Duration : 1 h 52 min
Bit rate : 55 b/s
Count of elements : 1094
Stream size : 46.0 KiB (0%)
Title : Full [License]
Language : Russian
Default : No
Forced : No
Text #3
ID : 8
Format : UTF-8
Codec ID : S_TEXT/UTF8
Codec ID/Info : UTF-8 Plain Text
Duration : 1 h 52 min
Bit rate : 1 b/s
Count of elements : 18
Stream size : 1.03 KiB (0%)
Title : Forced [Enigma]
Language : Russian
Default : No
Forced : No
Text #4
ID : 9
Format : UTF-8
Codec ID : S_TEXT/UTF8
Codec ID/Info : UTF-8 Plain Text
Duration : 1 h 52 min
Bit rate : 63 b/s
Count of elements : 1137
Stream size : 52.9 KiB (0%)
Title : Full [Enigma]
Language : Russian
Default : No
Forced : No
Text #5
ID : 10
Format : UTF-8
Codec ID : S_TEXT/UTF8
Codec ID/Info : UTF-8 Plain Text
Duration : 1 h 52 min
Bit rate : 38 b/s
Count of elements : 1135
Stream size : 31.5 KiB (0%)
Title : Full
Language : English
Default : No
Forced : No
Text #6
ID : 11
Format : UTF-8
Codec ID : S_TEXT/UTF8
Codec ID/Info : UTF-8 Plain Text
Duration : 1 h 53 min
Bit rate : 43 b/s
Count of elements : 1414
Stream size : 36.4 KiB (0%)
Title : SDH
Language : English
Default : No
Forced : No
Menu
00:00:00.000 : en:Chapter 01
00:03:28.541 : en:Chapter 02
00:07:33.995 : en:Chapter 03
00:11:41.867 : en:Chapter 04
00:15:43.776 : en:Chapter 05
00:18:37.074 : en:Chapter 06
00:25:24.147 : en:Chapter 07
00:31:40.023 : en:Chapter 08
00:34:18.973 : en:Chapter 09
00:40:07.113 : en:Chapter 10
00:44:35.756 : en:Chapter 11
00:49:07.319 : en:Chapter 12
00:55:37.834 : en:Chapter 13
00:58:57.075 : en:Chapter 14
01:02:55.521 : en:Chapter 15
01:10:39.777 : en:Chapter 16
01:13:42.084 : en:Chapter 17
01:19:32.893 : en:Chapter 18
01:22:35.367 : en:Chapter 19
01:25:48.351 : en:Chapter 20
01:30:37.849 : en:Chapter 21
01:32:47.603 : en:Chapter 22
01:37:59.290 : en:Chapter 23
01:45:00.711 : en:Chapter 24

admin

Post 25-Aug-2019 01:00

[Quote]

Информация о фильме
Название: Джон Уик 3
Оригинальное название: John Wick: Chapter 3 - Parabellum
Год выхода: 2019
Жанр: Боевик, триллер, криминал
Режиссер: Чад Стахелски
В ролях: Киану Ривз, Холли Берри, Иэн МакШейн, Лоуренс Фишборн, Марк Дакаскос, Азия Кейт Диллон, Лэнс Реддик, Тобиаш Сигал, Анжелика Хьюстон, Саид Тагмауи
О фильме:
В центре сюжета находится Джон Уик — опытный наемный киллер, который убил члена международной гильдии ассасинов, тем самым нарушив профессиональный кодекс, за что был приговорен к смерти. Несмотря на то, что Джона должны были казнить немедленно, ему удалось получить час отсрочки, перед тем, как наемник был признан отступником, отрезанным от гильдии и бывших коллег. И теперь за его голову назначено вознаграждение в 14 миллионов долларов, а десятки самых опасных убийц не остановятся ни перед чем, ведя кровавую охоту на легендарного киллера...

Страна: США
Студия: Summit Entertainment, 87Eleven, Lionsgate
Продолжительность: 02:11:45
Перевод: Профессиональный (многоголосый, закадровый) | HDRezka Studio
Дублированный | Украинский - DUB (Line)
Файл
Кодек: H.265
Качество: WEB-DL-HEVC 2160p
Видео: 3840x2160 at 23.976 fps, MPEG-H HEVC HDR Video, 13300 kbps avg
Звук:
Аудио #1: AC3, 2 ch, 192 Kbps | Русский - MVO (HDRezka Studio)
Аудио #3: AC3, 2 ch, 192 Kbps | Украинский - DUB (Line)
Аудио #4: E-AC3 + Atmos 5.1, 6 ch, 448 Kbps | Английский
Субтитры:
Английские
Реклама: отсутствует
Семпл
Инфо-файл

Скриншоты

admin

Post 17-Aug-2019 01:10

[Quote]

Информация о фильме
Название: Джон Уик 3
Оригинальное название: John Wick: Chapter 3 - Parabellum
Год выхода: 2019
Жанр: боевик, триллер, криминал
Режиссер: Чад Стахелски
В ролях: Киану Ривз, Холли Берри, Иэн МакШейн, Лоуренс Фишборн, Марк Дакаскос, Азия Диллон, Лэнс Реддик, Тобиаш Сигал, Анжелика Хьюстон, Саид Тагмауи
О фильме:
Суперкиллер Джон Уик после нарушения кодекса тайной гильдии ассасинов получает статус изгоя — экскомьюникадо. За его голову назначена цена в 14 миллионов долларов, и армия самых жестоких профессиональных убийц со всего мира открывает на него кровавую охоту

Страна: США
Продолжительность: 02:11:05
Перевод: Профессиональный (многоголосый закадровый) [HDRezka Studio]
Файл
Кодек: H.265
Качество: BDRip-HEVC 1080p
Видео: HEVC, 1920x800 (2,40:1), 23.976 fps, 6966 Кбит/сек
Аудио 1: AC-3, 48,0 КГц, 2 ch, 192 Кбит/сек | RUS
Аудио 2: DTS, 48,0 КГц, 6 ch, 1509 Кбит/сек | ENG
Субтитры: Английские (форс, полные)
Сэмпл

MI

Общее
Уникальный идентификатор : 175810573830111661085666360655593835163 (0x8443E286B46B0F8A9378AC70FF4B8A9B)
Полное имя : John Wick Chapter 3 Parabellum.2019.BDRip.1080p.HEVC.Theseus.mkv
Формат : Matroska
Версия формата : Version 4
Размер файла : 7,94 Гбайт
Продолжительность : 2 ч. 11 м.
Общий поток : 8670 Кбит/сек
Название фильма : John Wick Chapter 3 Parabellum from Theseus
Дата кодирования : UTC 2019-08-15 09:35:51
Программа кодирования : mkvmerge v8.3.0 ('Over the Horizon') 64bit
Библиотека кодирования : libebml v1.3.1 + libmatroska v1.4.2
Видео
Идентификатор : 1
Формат : HEVC
Формат/Информация : High Efficiency Video Coding
Профиль формата : Main 10@L4.1@High
Идентификатор кодека : V_MPEGH/ISO/HEVC
Продолжительность : 2 ч. 11 м.
Битрейт : 6966 Кбит/сек
Ширина : 1920 пикселей
Высота : 800 пикселей
Соотношение сторон : 2,40:1
Режим частоты кадров : Постоянный
Частота кадров : 23,976 (24000/1001) кадра/сек
Цветовое пространство : YUV
Субдискретизация насыщенности : 4:2:0
Битовая глубина : 10 бит
Бит/(Пиксели*Кадры) : 0.189
Размер потока : 6,38 Гбайт (80%)
Язык : English
Default : Да
Forced : Нет
Цветовой диапазон : Limited
Основные цвета : BT.709
Характеристики трансфера : BT.709
Коэффициенты матрицы : BT.709
Аудио #1
Идентификатор : 2
Формат : AC-3
Формат/Информация : Audio Coding 3
Коммерческое название : Dolby Digital
Идентификатор кодека : A_AC3
Продолжительность : 2 ч. 11 м.
Вид битрейта : Постоянный
Битрейт : 192 Кбит/сек
Каналы : 2 канала
Channel layout : L R
Частота : 48,0 КГц
Частота кадров : 31,250 кадров/сек (1536 SPF)
Битовая глубина : 16 бит
Метод сжатия : С потерями
Размер потока : 180 Мбайт (2%)
Заголовок : HDRezka Studio
Язык : Russian
Default : Да
Forced : Нет
Аудио #2
Идентификатор : 3
Формат : DTS
Формат/Информация : Digital Theater Systems
Идентификатор кодека : A_DTS
Продолжительность : 2 ч. 11 м.
Вид битрейта : Постоянный
Битрейт : 1509 Кбит/сек
Каналы : 6 каналов
Channel layout : C L R Ls Rs LFE
Частота : 48,0 КГц
Частота кадров : 93,750 кадра/сек (512 SPF)
Битовая глубина : 24 бит
Метод сжатия : С потерями
Размер потока : 1,38 Гбайт (17%)
Язык : English
Default : Нет
Forced : Нет
Текст #1
Идентификатор : 4
Формат : UTF-8
Идентификатор кодека : S_TEXT/UTF8
Идентификатор кодека/Информация : UTF-8 Plain Text
Продолжительность : 1 ч. 34 м.
Битрейт : 0 бит/сек
ElementCount : 33
Размер потока : 667 байт (0%)
Заголовок : Forced
Язык : English
Default : Нет
Forced : Нет
Текст #2
Идентификатор : 5
Формат : UTF-8
Идентификатор кодека : S_TEXT/UTF8
Идентификатор кодека/Информация : UTF-8 Plain Text
Продолжительность : 1 ч. 59 м.
Битрейт : 24 бит/сек
ElementCount : 764
Размер потока : 21,3 Кбайт (0%)
Заголовок : Full
Язык : English
Default : Нет
Forced : Нет

Скриншоты

admin

Post 24-Jul-2019 05:11

[Quote]

Информация о фильме
Название: Покемон. Детектив Пикачу
Оригинальное название: Pokémon Detective Pikachu
Год выхода: 2019
Жанр: Фантастика, фэнтези, детектив, приключения, семейный
Режиссер: Роб Леттерман
В ролях: Райан Рейнольдс, Джастис Смит, Кэтрин Ньютон, Билл Найи, Кэн Ватанабэ, Крис Гир, Сьюки Уотерхаус, Джозетт Саймон, Алехандро Де Меса, Рита Ора

О фильме: История начинается с таинственного исчезновения частного детектива экстра- класса Гарри Гудмана, расследовать которое предстоит его 21-летнему сыну Тиму. Помощь в расследовании ему окажет бывший партнер отца, детектив Пикачу - уморительный, остроумный и обаятельный сыщик, который является загадкой даже для себя самого. Обнаружив, что они каким-то фантастическим образом способны общаться друг с другом, Тим и Пикачу объединяют усилия в захватывающем расследовании этой запутанной истории. В погоне за уликами по неоновым улицам Райм Сити - современного разросшегося мегаполиса, где люди и покемоны живут бок о бок в гиперреалистичном мире игрового экшна, - они встречают самых разнообразных покемонов и раскрывают ужасный заговор, который способен разрушить это мирное сосуществование и стать угрозой для всей вселенной покемонов.
Страна: США, Япония
Студия: Legendary Entertainment, The Pokemon Company, Toho Company
Продолжительность: 01:44:29
Перевод: Дублированный | Лицензия
Качество: Blu-Ray 2160p
Видео: 3840x2160 at 23.976 fps, MPEG-H HEVC HDR Video, 63724 kbps avg
Звук:
Аудио: Русский, французский, китайский, корейский, испанский, болгарский, чешский, хинди, венгерский, португальский, румынский, словацкий, тайский, турецкий (AC3, 6 ch, 448 Кбит/с), английский (TrueHD, 8 ch, 3874 Кбит/с), (AC3, 6 ch, 448 Кбит/с)
Субтитры: Русские, английские, испанские, французские, китайские, корейские, болгарские, хорватские, чешские, венгерские, португальские, румынские, словенские, тайские, турецкие, словенские

Скриншоты

BDInfo

Disc Title: Pokémon Detective Pikachu
Disc Label: Pokemon.Detective.Pikachu.2019.COMPLETE.UHD.BLURAY-AAAUHD
Disc Size: 63,788,798,078 bytes
Protection: AACS2
Extras: Ultra HD, BD-Java
BDInfo: 0.7.5.5
PLAYLIST REPORT:
Name: 00800.MPLS
Length: 1:44:28.428 (h:m:s.ms)
Size: 62,902,076,352 bytes
Total Bitrate: 80.28 Mbps
VIDEO:
Codec Bitrate Deion
----- ------- -----------
MPEG-H HEVC Video 63723 kbps 2160p / 23.976 fps / 16:9 / Main 10 @ Level 5.1 @ High / 10 bits / HDR10 / BT.2020
AUDIO:
Codec Language Bitrate Deion
----- -------- ------- -----------
Dolby TrueHD/Atmos Audio English 3874 kbps 7.1 / 48 kHz / 3234 kbps / 24-bit (AC3 Embedded: 5.1-EX / 48 kHz / 640 kbps / DN -27dB)
Dolby Digital Audio English 448 kbps 5.1 / 48 kHz / 448 kbps / DN -27dB
Dolby Digital Audio English 448 kbps 5.1 / 48 kHz / 448 kbps / DN -27dB
Dolby Digital Audio English 448 kbps 5.1 / 48 kHz / 448 kbps / DN -27dB
Dolby Digital Audio French 448 kbps 5.1 / 48 kHz / 448 kbps / DN -27dB
Dolby Digital Audio Chinese 448 kbps 5.1 / 48 kHz / 448 kbps / DN -27dB
Dolby Digital Audio Korean 448 kbps 5.1 / 48 kHz / 448 kbps / DN -27dB
Dolby Digital Audio Spanish 448 kbps 5.1 / 48 kHz / 448 kbps / DN -27dB
Dolby Digital Audio Bulgarian 448 kbps 5.1 / 48 kHz / 448 kbps / DN -27dB
Dolby Digital Audio Czech 448 kbps 5.1 / 48 kHz / 448 kbps / DN -27dB
Dolby Digital Audio Hindi 448 kbps 5.1 / 48 kHz / 448 kbps / DN -27dB
Dolby Digital Audio Hungarian 448 kbps 5.1 / 48 kHz / 448 kbps / DN -27dB
Dolby Digital Audio Portuguese 448 kbps 5.1 / 48 kHz / 448 kbps / DN -27dB
Dolby Digital Audio Romanian 448 kbps 5.1 / 48 kHz / 448 kbps / DN -27dB
Dolby Digital Audio Russian 448 kbps 5.1 / 48 kHz / 448 kbps / DN -27dB
Dolby Digital Audio Slovak 448 kbps 5.1 / 48 kHz / 448 kbps / DN -27dB
Dolby Digital Audio Thai 448 kbps 5.1 / 48 kHz / 448 kbps / DN -27dB
Dolby Digital Audio Turkish 448 kbps 5.1 / 48 kHz / 448 kbps / DN -27dB
SUBTITLES:
Codec Language Bitrate Deion
----- -------- ------- -----------
Presentation Graphics English 35.557 kbps
Presentation Graphics French 24.671 kbps
Presentation Graphics Chinese 25.854 kbps
Presentation Graphics Chinese 26.196 kbps
Presentation Graphics Korean 17.813 kbps
Presentation Graphics Spanish 29.469 kbps
Presentation Graphics Bulgarian 26.522 kbps
Presentation Graphics Croatian 27.350 kbps
Presentation Graphics Czech 27.618 kbps
Presentation Graphics Hungarian 25.866 kbps
Presentation Graphics Portuguese 31.527 kbps
Presentation Graphics Romanian 27.875 kbps
Presentation Graphics Russian 27.509 kbps
Presentation Graphics Slovenian 25.103 kbps
Presentation Graphics Thai 28.066 kbps
Presentation Graphics Turkish 30.248 kbps
Presentation Graphics French 0.122 kbps
Presentation Graphics Chinese 0.619 kbps
Presentation Graphics Korean 0.208 kbps
Presentation Graphics Spanish 0.255 kbps
Presentation Graphics Bulgarian 0.578 kbps
Presentation Graphics Czech 0.110 kbps
Presentation Graphics Hindi 0.235 kbps
Presentation Graphics Hungarian 0.181 kbps
Presentation Graphics Portuguese 0.376 kbps
Presentation Graphics Romanian 0.604 kbps
Presentation Graphics Russian 0.281 kbps
Presentation Graphics Slovak 0.216 kbps
Presentation Graphics Thai 0.266 kbps
Presentation Graphics Turkish 0.530 kbps
 

Current time is: 14-Dec 13:11

All times are UTC + 3