Search found 86 matches

Author Message

admin

Post 29-Mar-2020 08:16

[Quote]

Информация о фильме
Название: Бладшот
Оригинальное название: Bloodshot
Год выхода: 2020
Жанр: Фантастика, боевик, драма
Режиссер: Дэйв Уилсон
В ролях: Вин Дизель, Сэм Хьюэн, Эйса Гонсалес, Гай Пирс, Талула Райли, Тоби Кеббелл, Ламорн Моррис, Йоуханнес Хёйкьюр Йоуханнессон, Сиддхартх Дхананджай, Тайрел Мейер, Алекс Эн-лос

О фильме: Корпорация RST возвращает к жизни недавно убитого солдата Рэя Гаррисона. Армия нанороботов в его крови превратила Рэя в бессмертного Бладшота, наделенного сверхчеловеческой силой и способностью мгновенно самоисцеляться. Контролируя тело Рэя, компания влияет на его разум и воспоминания. Но герой пойдет на все, чтобы выяснить правду.
Страна: США, Китай
Студия: Sony Pictures Entertainment (SPE), Bona Film Group, Columbia Pictures
Продолжительность: 01:49:20
Перевод: Дублированный | iTunes
Качество: WEB-DL 2160p
Видео: 3840x2160 at 23.976 fps, MPEG-H HEVC HDR Video, 21600 kbps avg
Аудио #01: 48 kHz, AC3, 5.1, 384 Kbps | iTunes | RUS |
Аудио #02: 48 kHz, E-AC3, 5.1, 640 Kbps | Оригинал | ENG |
Субтитры: Русские (Forced, full), украинские (Full), английские

Скриншоты

MI

General
Unique ID : 317710866365971724467349397917162068012 (0xEF04E31A3D7D9BD58E437402DCA0D82C)
Complete name : E:Video111Bloodshot.2020.WEB-DL.2160p.HDR.seleZen.mkv
Format : Matroska
Format version : Version 4
File size : 17.3 GiB
Duration : 1 h 49 min
Overall bit rate : 22.6 Mb/s
Movie name : Bloodshot 2020 from селезень
Encoded date : UTC 2020-03-28 18:43:15
Writing application : mkvmerge v40.0.0 ('Old Town Road + Pony') 64-bit
Writing library : libebml v1.3.9 + libmatroska v1.5.2
Video
ID : 1
Format : HEVC
Format/Info : High Efficiency Video Coding
Format profile : Main 10@L5@High
HDR format : SMPTE ST 2086, HDR10 compatible
Codec ID : V_MPEGH/ISO/HEVC
Duration : 1 h 49 min
Bit rate : 21.6 Mb/s
Width : 3 840 pixels
Height : 2 160 pixels
Display aspect ratio : 16:9
Frame rate mode : Constant
Frame rate : 23.976 (24000/1001) FPS
Color space : YUV
Chroma subsampling : 4:2:0
Bit depth : 10 bits
Bits/(Pixel*Frame) : 0.109
Stream size : 16.5 GiB (95%)
Language : English
Default : Yes
Forced : No
Color range : Limited
Color primaries : BT.2020
Transfer characteristics : PQ
Matrix coefficients : BT.2020 non-constant
Mastering display color pri : Display P3
Mastering display luminance : min: 0.0050 cd/m2, max: 4000 cd/m2
Maximum Content Light Level : 4004 cd/m2
Maximum Frame-Average Light : 602 cd/m2
Audio #1
ID : 2
Format : AC-3
Format/Info : Audio Coding 3
Commercial name : Dolby Digital
Codec ID : A_AC3
Duration : 1 h 49 min
Bit rate mode : Constant
Bit rate : 384 kb/s
Channel(s) : 6 channels
Channel layout : L R C LFE Ls Rs
Sampling rate : 48.0 kHz
Frame rate : 31.250 FPS (1536 SPF)
Compression mode : Lossy
Stream size : 300 MiB (2%)
Title : iTunes
Language : Russian
Service kind : Complete Main
Default : Yes
Forced : Yes
Audio #2
ID : 3
Format : E-AC-3
Format/Info : Enhanced AC-3
Commercial name : Dolby Digital Plus
Codec ID : A_EAC3
Duration : 1 h 49 min
Bit rate mode : Constant
Bit rate : 640 kb/s
Channel(s) : 6 channels
Channel layout : L R C LFE Ls Rs
Sampling rate : 48.0 kHz
Frame rate : 31.250 FPS (1536 SPF)
Compression mode : Lossy
Stream size : 500 MiB (3%)
Title : Original
Language : English
Service kind : Complete Main
Default : No
Forced : No
Text #1
ID : 4
Format : UTF-8
Codec ID : S_TEXT/UTF8
Codec ID/Info : UTF-8 Plain Text
Duration : 1 h 47 min
Bit rate : 0 b/s
Count of elements : 10
Stream size : 400 Bytes (0%)
Title : Forced
Language : Russian
Default : Yes
Forced : Yes
Text #2
ID : 5
Format : UTF-8
Codec ID : S_TEXT/UTF8
Codec ID/Info : UTF-8 Plain Text
Duration : 1 h 48 min
Bit rate : 72 b/s
Count of elements : 1072
Stream size : 57.8 KiB (0%)
Title : Full
Language : Russian
Default : No
Forced : No
Text #3
ID : 6
Format : UTF-8
Codec ID : S_TEXT/UTF8
Codec ID/Info : UTF-8 Plain Text
Duration : 1 h 48 min
Bit rate : 66 b/s
Count of elements : 1071
Stream size : 52.6 KiB (0%)
Title : Full
Language : Ukrainian
Default : No
Forced : No
Text #4
ID : 7
Format : UTF-8
Codec ID : S_TEXT/UTF8
Codec ID/Info : UTF-8 Plain Text
Duration : 1 h 41 min
Bit rate : 46 b/s
Count of elements : 1150
Stream size : 34.9 KiB (0%)
Title : Full
Language : English
Default : No
Forced : No
Text #5
ID : 8
Format : UTF-8
Codec ID : S_TEXT/UTF8
Codec ID/Info : UTF-8 Plain Text
Duration : 1 h 47 min
Bit rate : 51 b/s
Count of elements : 1493
Stream size : 40.6 KiB (0%)
Title : SDH
Language : English
Default : No
Forced : No
Menu
00:00:00.000 : en:Studio Logo
00:01:02.000 : en:Scene 2
00:04:10.000 : en:Scene 3
00:05:09.000 : en:Scene 4
00:07:01.000 : en:Scene 5
00:08:51.000 : en:Scene 6
00:13:04.000 : en:Scene 7
00:17:31.000 : en:Scene 8
00:20:39.000 : en:Scene 9
00:22:46.000 : en:Scene 10
00:25:07.000 : en:Scene 11
00:27:57.000 : en:Scene 12
00:29:27.000 : en:Scene 13
00:32:12.000 : en:Scene 14
00:32:43.000 : en:Scene 15
00:38:27.000 : en:Scene 16
00:41:42.000 : en:Scene 17
00:43:21.000 : en:Scene 18
00:50:55.000 : en:Scene 19
00:52:44.000 : en:Scene 20
00:54:16.000 : en:Scene 21
00:56:21.000 : en:Scene 22
01:02:31.000 : en:Scene 23
01:08:10.000 : en:Scene 24
01:09:01.000 : en:Scene 25
01:09:51.000 : en:Scene 26
01:12:44.000 : en:Scene 27
01:17:38.000 : en:Scene 28
01:19:16.000 : en:Scene 29
01:22:21.000 : en:Scene 30
01:27:32.000 : en:Scene 31
01:28:15.000 : en:Scene 32
01:31:09.000 : en:Scene 33
01:35:20.000 : en:Scene 34
01:38:33.000 : en:Scene 35
01:42:38.000 : en:End Credits

admin

Post 17-Mar-2020 18:05

[Quote]

Информация о фильме
Название: Звёздные войны: Скайуокер. Восход
Оригинальное название: Star Wars: Episode IX - The Rise of Skywalker
Год выхода: 2019
Жанр: фантастика, фэнтези, боевик, приключения
Режиссер: Джей Джей Абрамс
В ролях: Дэйзи Ридли, Адам Драйвер, Кэрри Фишер, Марк Хэмилл, Джон Бойега, Оскар Айзек, Энтони Дэниелс, Наоми Аки, Донал Глисон, Ричард Э. Грант, Лупита Нионго, Кери Рассел, Йонас Суотамо, Келли Мари Трэн, Иен Макдермид, Билли Ди Уильямс
О фильме:
Фильм завершает невероятную историю семьи Скайуокеров, длящуюся уже более сорока лет, и обещает дать ответы на все загадки из предыдущих серий. Зрителя ожидают старые и новые герои, уникальные миры, увлекательные путешествия на край Галактики и грандиозный финал фантастической саги.

Страна: США
Продолжительность: 02:21:52
Перевод: Профессиональный дублированный (онлайн кинотеатр)
Файл
Кодек: H.265
Качество: WEB-DL 2160p
Видео: MPEG-H HEVC HDR, 3840x1600 (2.40:1), 23.976 fps, 24.5 Mb/s
Аудио 1: AC3, 48.0 kHz, 2 ch, 192 kb/s | RUS
Аудио 2: E-AC3, 48.0 kHz, 6 ch, 576 kb/s | ENG
Субтитры: Русские, английские
Сэмпл

MI

General
Unique ID : 184575798728689370179088851071614259132 (0x8ADC017AAC0D9EB7BC7E391990A70FBC)
Complete name : Star.Wars.Episode.IX-The.Rise.of.Skywalker.(2019).WEB-DL.2160p.HDR.mkv
Format : Matroska
Format version : Version 4
File size : 25.0 GiB
Duration : 2 h 21 min
Overall bit rate : 25.2 Mb/s
Encoded date : UTC 2020-03-15 10:14:47
Writing application : mkvmerge v8.3.0 ('Over the Horizon') 64bit
Writing library : libebml v1.3.1 + libmatroska v1.4.2
Video
ID : 1
Format : HEVC
Format/Info : High Efficiency Video Coding
Commercial name : HDR10
Format profile : Main 10@L5@Main
Codec ID : V_MPEGH/ISO/HEVC
Duration : 2 h 21 min
Bit rate : 24.5 Mb/s
Width : 3 840 pixels
Height : 1 600 pixels
Display aspect ratio : 2.40:1
Frame rate mode : Constant
Frame rate : 23.976 (24000/1001) FPS
Standard : NTSC
Color space : YUV
Chroma subsampling : 4:2:0 (Type 2)
Bit depth : 10 bits
Bits/(Pixel*Frame) : 0.166
Stream size : 24.2 GiB (97%)
Default : Yes
Forced : No
Color range : Limited
Color primaries : BT.2020
Transfer characteristics : PQ
Matrix coefficients : BT.2020 non-constant
Mastering display color primaries : Display P3
Mastering display luminance : min: 0.0001 cd/m2, max: 1000 cd/m2
Maximum Content Light Level : 717 cd/m2
Maximum Frame-Average Light Level : 642 cd/m2
Audio #1
ID : 2
Format : AC-3
Format/Info : Audio Coding 3
Commercial name : Dolby Digital
Codec ID : A_AC3
Duration : 2 h 21 min
Bit rate mode : Constant
Bit rate : 192 kb/s
Channel(s) : 2 channels
Channel layout : L R
Sampling rate : 48.0 kHz
Frame rate : 31.250 FPS (1536 SPF)
Bit depth : 16 bits
Compression mode : Lossy
Stream size : 195 MiB (1%)
Language : Russian
Default : Yes
Forced : No
Audio #2
ID : 3
Format : E-AC-3 JOC
Format/Info : Enhanced AC-3 with Joint Object Coding
Commercial name : Dolby Digital Plus with Dolby Atmos
Codec ID : A_EAC3
Duration : 2 h 21 min
Bit rate mode : Constant
Bit rate : 576 kb/s
Channel(s) : 6 channels
Channel layout : L R C LFE Ls Rs
Sampling rate : 48.0 kHz
Frame rate : 31.250 FPS (1536 SPF)
Compression mode : Lossy
Stream size : 584 MiB (2%)
Language : English
Default : No
Forced : No
Complexity index : 16
Number of dynamic objects : 15
Bed channel count : 1 channel
Bed channel configuration : LFE
Text #1
ID : 4
Format : UTF-8
Codec ID : S_TEXT/UTF8
Codec ID/Info : UTF-8 Plain Text
Duration : 2 h 17 min
Bit rate : 59 b/s
Count of elements : 1433
Stream size : 59.8 KiB (0%)
Title : Full
Language : Russian
Default : No
Forced : No
Text #2
ID : 5
Format : UTF-8
Codec ID : S_TEXT/UTF8
Codec ID/Info : UTF-8 Plain Text
Duration : 2 h 11 min
Bit rate : 76 b/s
Count of elements : 1763
Stream size : 73.8 KiB (0%)
Title : SDH
Language : Russian
Default : No
Forced : No
Text #3
ID : 6
Format : UTF-8
Codec ID : S_TEXT/UTF8
Codec ID/Info : UTF-8 Plain Text
Duration : 2 h 11 min
Bit rate : 48 b/s
Count of elements : 1895
Stream size : 47.1 KiB (0%)
Language : English
Default : No
Forced : No
Text #4
ID : 7
Format : UTF-8
Codec ID : S_TEXT/UTF8
Codec ID/Info : UTF-8 Plain Text
Duration : 2 h 11 min
Bit rate : 48 b/s
Count of elements : 1895
Stream size : 47.1 KiB (0%)
Title : SDH
Language : English
Default : No
Forced : No
Меню
00:00:00.000 : en:Studio Logo
00:00:08.000 : en:Prologue
00:01:44.000 : en:Kylo's search across the galaxy
00:06:42.000 : en:Retrieving a secret message
00:10:03.000 : en:Rey continues her training
00:13:40.000 : en:Time for a new mission
00:19:24.000 : en:Kylo prepares his officers
00:21:23.000 : en:The desert of Pasana
00:25:10.000 : en:Meeting an old ally
00:27:14.000 : en:Racing through the desert
00:30:41.000 : en:Optimism
00:31:04.000 : en:Exploring old Sith tunnels
00:35:48.000 : en:Tragedy in the desert
00:41:37.000 : en:A new plan
00:45:28.000 : en:A trip to Kjimi
00:50:37.000 : en:The location of the last Sith Wayfinder
00:55:42.000 : en:Rescuing Chewie
00:58:48.000 : en:The truth about Rey's parents
01:02:18.000 : en:A spy in the First Order
01:06:22.000 : en:The search for Exegol continues
01:13:30.000 : en:The last Sith Wayfinder
01:17:55.000 : en:Leia's final mission
01:24:30.000 : en:Kylo Ren vs. Ben Solo
01:27:01.000 : en:The Final Order Begins
01:30:22.000 : en:Some things are stronger than blood
01:35:00.000 : en:A last stand for the galaxy
01:38:47.000 : en:The battle begins
01:43:02.000 : en:Palpatine welcomes Rey
01:45:27.000 : en:Attacking the navigation tower
01:47:01.000 : en:The last hope
01:53:27.000 : en:Stronger together
01:55:30.000 : en:The Force will be with you, always
02:00:13.000 : en:A rescue mission
02:01:37.000 : en:The true meaning of sacrifice
02:06:35.000 : en:Celebration
02:09:42.000 : en:A final resting place
02:12:25.000 : en:End Credits
02:21:52.000 : en:Documentary: The Skywalker Legacy

Скриншоты

admin

Post 29-Dec-2019 11:35

[Quote]

Информация о фильме
Название: Джокер
Оригинальное название: Joker
Год выхода: 2019
Жанр: Триллер, драма, криминал
Режиссер: Тодд Филлипс
В ролях: Хоакин Феникс, Роберт Де Ниро, Зази Битц, Джоли Чань, Марк Мэрон, Фрэнсис Конрой, Мэри Кейт Малат, Ши Уигхэм, Брайан Коллен, Бретт Каллен, Билл Кэмп, Гленн Флешлер, Ли Гилл, Джош Пэйс

О фильме: Готэм, начало 1980-х годов. Комик Артур Флек живет с больной матерью, которая с детства учит его «ходить с улыбкой». Пытаясь нести в мир хорошее и дарить людям радость, Артур сталкивается с человеческой жестокостью и постепенно приходит к выводу, что этот мир получит от него не добрую улыбку, а ухмылку злодея Джокера.
Страна: Канада, США
Студия: Warner Bros., Village Roadshow Pictures, DC Entertainment, DC Comics, 22 & Indiana Pictures
Продолжительность: 02:01:49
Перевод(ы):
#1: Дублированный | Лицензия

#2: Профессиональный многоголосый | HDRezka Studio
#3: Авторский | М. Чадов
Качество: BDRemux 2160p
Видео: 3840x2160 at 23.976 fps, MPEG-H HEVC HDR, Dolby Vision Video, 50190 kbps avg
Аудио #01: 48 kHz, AC3, 5.1, 448 Kbps | Дублированный | RUS |
Аудио #02: 48 kHz, AC3, 2.0, 192 Kbps | HDRezka Studio | RUS |
Аудио #03: 48 kHz, AC3, 5.1, 640 Kbps | Авторский | RUS |
Аудио #04: 48 kHz, DTS-HD MA, 7.1, 5179 Kbps | Авторский | RUS |
Аудио #05: 48 kHz, AC3, 2.0, 160 Kbps | Дублированный | UKR |
Аудио #06: 48 kHz, TrueHD, 7.1, 3819 Kbps | Оригинал | ENG |
Аудио #07: 48 kHz, AC3, 5.1, 640 Kbps | Оригинал | ENG |
Субтитры: Русские (Forced, full [Enigma]), (forced, full [iTunes]), английские

Скриншоты

BDinfo

Disc Title: Joker.2019.Lic.BDREMUX.2160p.DV.HDR.seleZen
Disc Size: 60,162,954,069 bytes
Protection: AACS2
Extras: Ultra HD, BD-Java
BDInfo: 0.7.4.0
Notes:
BDINFO HOME:
Cinema Squid (old)
http://www.cinemasquid.com/blu-ray/tools/bdinfo
UniqProject GitHub (new)
https://github.com/UniqProject/BDInfo
INCLUDES FORUMS REPORT FOR:
AVS Forum Blu-ray Audio and Video Specifications Thread
http://www.avsforum.com/avs-vb/showthread.php?t=1155731
********************
PLAYLIST: 00000.MPLS
********************
Total   Video
Title                                                           Codec   Length  Movie Size      Disc Size       Bitrate Bitrate Main Audio Track                          Secondary Audio Track
-----                                                           ------  ------- --------------  --------------  ------- ------- ------------------                        ---------------------
00000.MPLS                                                      HEVC    2:01:49 60,162,251,520  60,162,954,069  65.85   50.19   DD AC3 5.1 448Kbps                        DD AC3 5.1 640Kbps
DISC INFO:
Disc Title:     Joker.2019.Lic.BDREMUX.2160p.DV.HDR.seleZen
Disc Size:      60,162,954,069 bytes
Protection:     AACS2
Extras:         Ultra HD, BD-Java
BDInfo:         0.7.4.0
PLAYLIST REPORT:
Name:                   00000.MPLS
Length:                 2:01:49.093 (h:m:s.ms)
Size:                   60,162,251,520 bytes
Total Bitrate:          65.85 Mbps
(*) Indicates included stream hidden by this playlist.
VIDEO:
Codec                   Bitrate             Deion
-----                   -------             -----------
MPEG-H HEVC Video       50190 kbps          2160p / 23.976 fps / 16:9 / Main 10 @ Level 5.1 @ High / 4:2:0 / 10 bits / HDR10 / BT.2020
* MPEG-H HEVC Video     64 kbps             1080p / 23.976 fps / 16:9 / Main 10 @ Level 5.1 @ High / 4:2:0 / 10 bits / Dolby Vision / BT.2020
AUDIO:
Codec                           Language        Bitrate         Deion
-----                           --------        -------         -----------
Dolby Digital Audio             Russian         448 kbps        5.1 / 48 kHz /   448 kbps / DN -4dB
Dolby Digital Audio             Russian         192 kbps        2.0 / 48 kHz /   192 kbps / DN -3dB
Dolby Digital Audio             Russian         640 kbps        5.1 / 48 kHz /   640 kbps
DTS-HD Master Audio             Russian         5179 kbps       7.1 / 48 kHz /  5179 kbps / 24-bit (DTS Core: 5.1 / 48 kHz /  1509 kbps / 24-bit)
Dolby Digital Audio             Ukrainian       160 kbps        2.0 / 48 kHz /   160 kbps / DN -3dB
Dolby TrueHD/Atmos Audio        English         4459 kbps       7.1 / 48 kHz /  3819 kbps / 24-bit (AC3 Embedded: 5.1-EX / 48 kHz /   640 kbps / DN -4dB)
SUBTITLES:
Codec                           Language        Bitrate         Deion
-----                           --------        -------         -----------
Presentation Graphics           Russian         3.358 kbps
Presentation Graphics           Russian         41.928 kbps
Presentation Graphics           Russian         4.728 kbps
Presentation Graphics           Russian         42.983 kbps
Presentation Graphics           English         40.192 kbps
Presentation Graphics           English         53.759 kbps
FILES:
Name            Time In         Length          Size            Total Bitrate
----            -------         ------          ----            -------------
00000.M2TS      0:00:00.000     2:01:49.093     60,162,251,520  65,848
CHAPTERS:
Number          Time In         Length          Avg Video Rate  Max 1-Sec Rate  Max 1-Sec Time  Max 5-Sec Rate  Max 5-Sec Time  Max 10Sec Rate  Max 10Sec Time  Avg Frame Size  Max Frame Size  Max Frame Time
------          -------         ------          --------------  --------------  --------------  --------------  --------------  --------------  --------------  --------------  --------------  --------------
1               0:00:00.000     0:10:28.794     53,067 kbps     98,806 kbps     00:10:19.577    87,464 kbps     00:06:27.887    84,556 kbps     00:03:46.893    0 bytes         1,159,195 bytes 00:10:19.618
2               0:10:28.794     0:10:32.506     49,886 kbps     92,477 kbps     00:15:09.658    86,111 kbps     00:15:05.571    83,517 kbps     00:15:05.237    0 bytes         775,216 bytes   00:15:10.326
3               0:21:01.301     0:07:43.671     49,902 kbps     94,652 kbps     00:26:38.305    87,089 kbps     00:26:59.868    84,024 kbps     00:27:30.315    0 bytes         863,026 bytes   00:26:38.346
4               0:28:44.973     0:09:29.527     49,890 kbps     106,511 kbps    00:30:54.644    86,702 kbps     00:30:22.237    84,319 kbps     00:30:22.070    0 bytes         977,461 bytes   00:33:26.212
5               0:38:14.500     0:08:07.069     57,657 kbps     117,873 kbps    00:43:39.283    88,939 kbps     00:43:35.279    86,176 kbps     00:40:24.880    0 bytes         1,792,836 bytes 00:43:40.159
6               0:46:21.570     0:09:57.722     54,504 kbps     105,935 kbps    00:48:30.032    87,002 kbps     00:51:12.861    84,901 kbps     00:48:22.649    0 bytes         1,326,361 bytes 00:48:30.699
7               0:56:19.292     0:08:21.876     49,912 kbps     98,383 kbps     00:58:21.706    84,933 kbps     01:02:04.512    83,611 kbps     01:02:04.470    0 bytes         883,076 bytes   00:58:21.789
8               1:04:41.168     0:11:00.576     49,917 kbps     95,173 kbps     01:14:27.212    86,080 kbps     01:13:59.560    84,048 kbps     01:13:59.560    0 bytes         963,844 bytes   01:15:40.410
9               1:15:41.745     0:10:34.300     49,804 kbps     99,856 kbps     01:18:00.759    86,633 kbps     01:16:28.584    76,220 kbps     01:18:32.582    0 bytes         952,720 bytes   01:26:10.165
10              1:26:16.045     0:10:46.562     49,920 kbps     99,933 kbps     01:30:52.780    85,312 kbps     01:35:33.644    83,908 kbps     01:30:20.540    0 bytes         894,142 bytes   01:36:28.115
11              1:37:02.608     0:08:47.777     49,859 kbps     99,252 kbps     01:42:13.293    85,142 kbps     01:45:04.715    82,056 kbps     01:45:00.419    0 bytes         976,723 bytes   01:44:35.227
12              1:45:50.385     0:09:54.260     49,652 kbps     95,799 kbps     01:50:33.501    87,680 kbps     01:49:00.742    83,650 kbps     01:52:41.212    0 bytes         824,263 bytes   01:50:33.543
13              1:55:44.646     0:06:04.447     32,933 kbps     113,096 kbps    02:01:33.035    72,692 kbps     02:01:30.074    58,742 kbps     02:01:30.074    0 bytes         1,580,922 bytes 02:01:33.744
STREAM DIAGNOSTICS:
File            PID             Type            Codec           Language                Seconds                 Bitrate                 Bytes           Packets
----            ---             ----            -----           --------                --------------          --------------          -------------   -----
00000.M2TS      4113 (0x1011)   0x24            HEVC                                    7309.010                50,191                  45,855,977,009  249,322,173
00000.M2TS      4117 (0x1015)   0x24            HEVC                                    7309.010                64                      58,739,235      383,314
00000.M2TS      4352 (0x1100)   0x81            AC3             rus (Russian)           7309.010                448                     409,308,928     2,284,090
00000.M2TS      4353 (0x1101)   0x81            AC3             rus (Russian)           7309.010                192                     175,418,112     1,142,045
00000.M2TS      4354 (0x1102)   0x81            AC3             rus (Russian)           7309.010                640                     584,727,040     3,426,135
00000.M2TS      4355 (0x1103)   0x86            DTS-HD MA       rus (Russian)           7309.010                5,179                   4,732,075,624   26,856,890
00000.M2TS      4356 (0x1104)   0x81            AC3             ukr (Ukrainian)         7309.010                160                     146,181,760     913,636
00000.M2TS      4357 (0x1105)   0x83            TrueHD          eng (English)           7309.010                4,459                   4,074,267,452   27,803,823
00000.M2TS      4768 (0x12A0)   0x90            PGS             rus (Russian)           7309.010                3                       3,067,794       17,209
00000.M2TS      4769 (0x12A1)   0x90            PGS             rus (Russian)           7309.010                42                      38,307,515      216,306
00000.M2TS      4770 (0x12A2)   0x90            PGS             rus (Russian)           7309.010                5                       4,320,088       24,197
00000.M2TS      4771 (0x12A3)   0x90            PGS             rus (Russian)           7309.010                43                      39,271,587      222,056
00000.M2TS      4772 (0x12A4)   0x90            PGS             eng (English)           7309.010                40                      36,721,484      209,056
00000.M2TS      4773 (0x12A5)   0x90            PGS             eng (English)           7309.010                54                      49,116,586      279,548
QUICK SUMMARY:
Disc Title: Joker.2019.Lic.BDREMUX.2160p.DV.HDR.seleZen
Disc Size: 60,162,954,069 bytes
Protection: AACS2
Playlist: 00000.MPLS
Size: 60,162,251,520 bytes
Length: 2:01:49.093
Total Bitrate: 65.85 Mbps
Video: MPEG-H HEVC Video / 50190 kbps / 2160p / 23.976 fps / 16:9 / Main 10 @ Level 5.1 @ High / 4:2:0 / 10 bits / HDR10 / BT.2020
* Video: MPEG-H HEVC Video / 64 kbps / 1080p / 23.976 fps / 16:9 / Main 10 @ Level 5.1 @ High / 4:2:0 / 10 bits / Dolby Vision / BT.2020
Audio: Russian / Dolby Digital Audio / 5.1 / 48 kHz / 448 kbps / DN -4dB
Audio: Russian / Dolby Digital Audio / 2.0 / 48 kHz / 192 kbps / DN -3dB
Audio: Russian / Dolby Digital Audio / 5.1 / 48 kHz / 640 kbps
Audio: Russian / DTS-HD Master Audio / 7.1 / 48 kHz / 5179 kbps / 24-bit (DTS Core: 5.1 / 48 kHz / 1509 kbps / 24-bit)
Audio: Ukrainian / Dolby Digital Audio / 2.0 / 48 kHz / 160 kbps / DN -3dB
Audio: English / Dolby TrueHD/Atmos Audio / 7.1 / 48 kHz / 3819 kbps / 24-bit (AC3 Embedded: 5.1-EX / 48 kHz / 640 kbps / DN -4dB)
Subtitle: Russian / 3.358 kbps
Subtitle: Russian / 41.928 kbps
Subtitle: Russian / 4.728 kbps
Subtitle: Russian / 42.983 kbps
Subtitle: English / 40.192 kbps
Subtitle: English / 53.759 kbps

admin

Post 07-Dec-2019 04:30

[Quote]

Информация о фильме
Название: К звёздам
Оригинальное название: Ad Astra
Год выхода: 2019
Жанр: Фантастика, триллер, драма, детектив, приключения
Режиссер: Джеймс Грэй
В ролях: Брэд Питт, Томми Ли Джонс, Рут Негга, Дональд Сазерленд, Кимберли Элиз, Лорен Дин, Донни Кешаварц, Шон Блейкмор, Бобби Ниш, Лиза Гэй Хэмилтон

О фильме: Недалёкое будущее. Несколько лет назад человечество запустило программу поиска внеземной жизни «Проект «Лима»», во главе которой стоял капитан Клиффорд Макбрайд. Последний сигнал экспедиции был зафиксирован в районе Нептуна, и с тех пор о её судьбе ничего не было известно. Сам капитан Макбрайд стал героем и самым известным космонавтом, вдохновившим многих на исследование космоса. Через 16 лет после исчезновения «Проекта «Лима»» на Земле начинают происходить странные вспышки энергии, выводящие из строя электросистемы и сеящие хаос и разрушения. По данным американского космического агентства сигнал идёт с Нептуна, и теперь сыну знаменитого космонавта, майору Рою Макбрайду, поручается ответственная миссия. Он должен добраться до марсианской базы и оттуда попытаться связаться с предположительно живым отцом.
Страна: США, Китай, Бразилия
Студия: New Regency Pictures, Bona Film Group, Keep Your Head
Продолжительность: 02:03:02
Перевод: Дублированный | iTunes
Качество: BDRemux 2160p
Видео: 3840x2160 at 23.976 fps, MPEG-H HEVC HDR Video, 47900 kbps avg
Аудио #01: 48 kHz, AC3, 5.1, 384 Kbps | iTunes | RUS |
Аудио #02: 48 kHz, AC3, 2.0, 160 Kbps | iTunes | UKR |
Аудио #03: 48 kHz, TrueHD, 7.1, 3388 Kbps | Оригинал | ENG |
Аудио #04: 48 kHz, AC3, 5.1, 640 Kbps | Оригинал | ENG |
Субтитры: Русские (Forced, full), украинские (Forced, full), английские

Скриншоты

MI

General
Unique ID : 491946173497464138598867289480050233 (0x5EBED1A8F0C01B345058690FF73639)
Complete name : F:Video111Ad.Astra.2019.BDREMUX.2160p.HDR.seleZen.mkv
Format : Matroska
Format version : Version 4
File size : 45.2 GiB
Duration : 2 h 3 min
Overall bit rate mode : Variable
Overall bit rate : 52.6 Mb/s
Movie name : Ad Astra 2019 4K from селезень
Encoded date : UTC 2019-12-06 09:11:02
Writing application : mkvmerge v40.0.0 ('Old Town Road + Pony') 64-bit
Writing library : libebml v1.3.9 + libmatroska v1.5.2
Video
ID : 1
Format : HEVC
Format/Info : High Efficiency Video Coding
Format profile : Main 10@L5.1@High
HDR format : SMPTE ST 2086, HDR10 compatible
Codec ID : V_MPEGH/ISO/HEVC
Duration : 2 h 3 min
Bit rate : 47.9 Mb/s
Width : 3 840 pixels
Height : 2 160 pixels
Display aspect ratio : 16:9
Frame rate mode : Constant
Frame rate : 23.976 (24000/1001) FPS
Color space : YUV
Chroma subsampling : 4:2:0 (Type 2)
Bit depth : 10 bits
Bits/(Pixel*Frame) : 0.241
Stream size : 41.2 GiB (91%)
Language : English
Default : Yes
Forced : No
Color range : Limited
Color primaries : BT.2020
Transfer characteristics : PQ
Matrix coefficients : BT.2020 non-constant
Mastering display color pri : Display P3
Mastering display luminance : min: 0.0050 cd/m2, max: 1000 cd/m2
Audio #1
ID : 2
Format : AC-3
Format/Info : Audio Coding 3
Commercial name : Dolby Digital
Codec ID : A_AC3
Duration : 2 h 3 min
Bit rate mode : Constant
Bit rate : 384 kb/s
Channel(s) : 6 channels
Channel layout : L R C LFE Ls Rs
Sampling rate : 48.0 kHz
Frame rate : 31.250 FPS (1536 SPF)
Bit depth : 16 bits
Compression mode : Lossy
Stream size : 338 MiB (1%)
Title : iTunes
Language : Russian
Service kind : Complete Main
Default : Yes
Forced : Yes
Audio #2
ID : 3
Format : AC-3
Format/Info : Audio Coding 3
Commercial name : Dolby Digital
Codec ID : A_AC3
Duration : 2 h 3 min
Bit rate mode : Constant
Bit rate : 160 kb/s
Channel(s) : 2 channels
Channel layout : L R
Sampling rate : 48.0 kHz
Frame rate : 31.250 FPS (1536 SPF)
Bit depth : 16 bits
Compression mode : Lossy
Stream size : 141 MiB (0%)
Title : iTunes
Language : Ukrainian
Service kind : Complete Main
Default : No
Forced : No
Audio #3
ID : 4
Format : MLP FBA 16-ch
Format/Info : Meridian Lossless Packing FBA with 16-channel presentation
Commercial name : Dolby TrueHD with Dolby Atmos
Codec ID : A_TRUEHD
Duration : 2 h 3 min
Bit rate mode : Variable
Bit rate : 3 388 kb/s
Maximum bit rate : 6 165 kb/s
Channel(s) : 8 channels
Channel layout : L R C LFE Ls Rs Lb Rb
Sampling rate : 48.0 kHz
Frame rate : 1 200.000 FPS (40 SPF)
Compression mode : Lossless
Stream size : 2.91 GiB (6%)
Title : Original
Language : English
Default : No
Forced : No
Number of dynamic objects : 13
Bed channel count : 1 channel
Bed channel configuration : LFE
Audio #4
ID : 5
Format : AC-3
Format/Info : Audio Coding 3
Commercial name : Dolby Digital
Codec ID : A_AC3
Duration : 2 h 3 min
Bit rate mode : Constant
Bit rate : 640 kb/s
Channel(s) : 6 channels
Channel layout : L R C LFE Ls Rs
Sampling rate : 48.0 kHz
Frame rate : 31.250 FPS (1536 SPF)
Bit depth : 16 bits
Compression mode : Lossy
Stream size : 563 MiB (1%)
Language : English
Service kind : Complete Main
Default : No
Forced : No
Text #1
ID : 6
Format : UTF-8
Codec ID : S_TEXT/UTF8
Codec ID/Info : UTF-8 Plain Text
Duration : 2 h 2 min
Bit rate : 1 b/s
Count of elements : 22
Stream size : 941 Bytes (0%)
Title : Forced
Language : Russian
Default : Yes
Forced : Yes
Text #2
ID : 7
Format : UTF-8
Codec ID : S_TEXT/UTF8
Codec ID/Info : UTF-8 Plain Text
Duration : 2 h 2 min
Bit rate : 68 b/s
Count of elements : 1074
Stream size : 61.6 KiB (0%)
Title : Full
Language : Russian
Default : No
Forced : No
Text #3
ID : 8
Format : UTF-8
Codec ID : S_TEXT/UTF8
Codec ID/Info : UTF-8 Plain Text
Duration : 2 h 2 min
Bit rate : 1 b/s
Count of elements : 27
Stream size : 1.17 KiB (0%)
Title : Forced
Language : Ukrainian
Default : No
Forced : No
Text #4
ID : 9
Format : UTF-8
Codec ID : S_TEXT/UTF8
Codec ID/Info : UTF-8 Plain Text
Duration : 2 h 2 min
Bit rate : 68 b/s
Count of elements : 1082
Stream size : 61.3 KiB (0%)
Title : Full
Language : Ukrainian
Default : No
Forced : No
Text #5
ID : 10
Format : UTF-8
Codec ID : S_TEXT/UTF8
Codec ID/Info : UTF-8 Plain Text
Duration : 1 h 50 min
Bit rate : 50 b/s
Count of elements : 1389
Stream size : 41.1 KiB (0%)
Title : SDH
Language : English
Default : No
Forced : No
Menu
00:00:00.000 : en:Chapter 01
00:04:22.679 : en:Chapter 02
00:08:48.695 : en:Chapter 03
00:16:25.776 : en:Chapter 04
00:22:33.811 : en:Chapter 05
00:30:08.515 : en:Chapter 06
00:35:08.273 : en:Chapter 07
00:40:33.348 : en:Chapter 08
00:44:45.391 : en:Chapter 09
00:48:56.809 : en:Chapter 10
00:53:51.812 : en:Chapter 11
00:56:43.775 : en:Chapter 12
01:01:31.897 : en:Chapter 13
01:07:23.873 : en:Chapter 14
01:12:12.411 : en:Chapter 15
01:16:59.114 : en:Chapter 16
01:21:35.182 : en:Chapter 17
01:24:42.661 : en:Chapter 18
01:31:16.554 : en:Chapter 19
01:36:27.031 : en:Chapter 20
01:40:59.595 : en:Chapter 21
01:46:26.589 : en:Chapter 22
01:50:00.052 : en:Chapter 23
01:53:17.791 : en:Chapter 24

admin

Post 07-Dec-2019 04:29

[Quote]

Информация о фильме
Название: К звёздам
Оригинальное название: Ad Astra
Год выхода: 2019
Жанр: Фантастика, триллер, драма, детектив, приключения
Режиссер: Джеймс Грэй
В ролях: Брэд Питт, Томми Ли Джонс, Рут Негга, Дональд Сазерленд, Кимберли Элиз, Лорен Дин, Донни Кешаварц, Шон Блейкмор, Бобби Ниш, Лиза Гэй Хэмилтон

О фильме: Недалёкое будущее. Несколько лет назад человечество запустило программу поиска внеземной жизни «Проект «Лима»», во главе которой стоял капитан Клиффорд Макбрайд. Последний сигнал экспедиции был зафиксирован в районе Нептуна, и с тех пор о её судьбе ничего не было известно. Сам капитан Макбрайд стал героем и самым известным космонавтом, вдохновившим многих на исследование космоса. Через 16 лет после исчезновения «Проекта «Лима»» на Земле начинают происходить странные вспышки энергии, выводящие из строя электросистемы и сеящие хаос и разрушения. По данным американского космического агентства сигнал идёт с Нептуна, и теперь сыну знаменитого космонавта, майору Рою Макбрайду, поручается ответственная миссия. Он должен добраться до марсианской базы и оттуда попытаться связаться с предположительно живым отцом.
Страна: США, Китай, Бразилия
Студия: New Regency Pictures, Bona Film Group, Keep Your Head
Продолжительность: 02:03:02
Перевод: Дублированный | iTunes
Качество: BDRip 1080p
Видео: MPEG-4 AVC, 1920x800, 10.0 Mbit/s, 23.976 fps
Аудио #01: 48 kHz, AC3, 5.1, 384 Kbps | iTunes | RUS |
Аудио #02: 48 kHz, AC3, 2.0, 160 Kbps | iTunes | UKR |
Аудио #03: 48 kHz, AC3, 5.1, 640 Kbps | Оригинал | ENG |
Субтитры: Русские (Forced, full), украинские (Forced, full), английские

Скриншоты

MI

General
Unique ID : 157956131339941212915251179650872567808 (0x76D53E8C10871088F634A5B234FCE800)
Complete name : F:Video111Ad.Astra.2019.UHD.BDRip.1080p.seleZen.mkv
Format : Matroska
Format version : Version 4
File size : 9.60 GiB
Duration : 2 h 3 min
Overall bit rate : 11.2 Mb/s
Movie name : Ad Astra 2019 from селезень
Encoded date : UTC 2019-12-06 18:28:03
Writing application : mkvmerge v40.0.0 ('Old Town Road + Pony') 64-bit
Writing library : libebml v1.3.9 + libmatroska v1.5.2
Video
ID : 1
Format : AVC
Format/Info : Advanced Video Codec
Format profile : High@L4.1
Format settings : CABAC / 5 Ref Frames
Format settings, CABAC : Yes
Format settings, Reference : 5 frames
Codec ID : V_MPEG4/ISO/AVC
Duration : 2 h 3 min
Bit rate : 10 000 kb/s
Width : 1 920 pixels
Height : 800 pixels
Display aspect ratio : 2.40:1
Frame rate mode : Constant
Frame rate : 23.976 (24000/1001) FPS
Color space : YUV
Chroma subsampling : 4:2:0
Bit depth : 8 bits
Scan type : Progressive
Bits/(Pixel*Frame) : 0.272
Stream size : 8.58 GiB (89%)
Title : Encoded by seleZen
Writing library : x264 core 157 r2935 545de2f
Encoding settings : cabac=1 / ref=5 / deblock=1:-2:-2 / analyse=0x3:0x133 / me=umh / subme=11 / psy=1 / psy_rd=1.00:0.00 / mixed_ref=1 / me_range=32 / chroma_me=1 / trellis=2 / 8x8dct=1 / cqm=0 / deadzone=21,11 / fast_pskip=0 / chroma_qp_offset=-2 / threads=24 / lookahead_threads=4 / sliced_threads=0 / nr=0 / decimate=0 / interlaced=0 / bluray_compat=0 / constrained_intra=0 / bframes=8 / b_pyramid=2 / b_adapt=2 / b_bias=0 / direct=3 / weightb=1 / open_gop=0 / weightp=2 / keyint=240 / keyint_min=24 / scenecut=40 / intra_refresh=0 / rc_lookahead=60 / rc=2pass / mbtree=0 / bitrate=10000 / ratetol=1.0 / qcomp=0.60 / qpmin=0 / qpmax=51 / qpstep=4 / cplxblur=20.0 / qblur=0.5 / vbv_maxrate=50000 / vbv_bufsize=62500 / nal_hrd=none / filler=0 / ip_ratio=1.40 / pb_ratio=1.30 / aq=3:0.80
Language : English
Default : Yes
Forced : No
Color range : Limited
Color primaries : BT.709
Transfer characteristics : BT.709
Matrix coefficients : BT.709
Audio #1
ID : 2
Format : AC-3
Format/Info : Audio Coding 3
Commercial name : Dolby Digital
Codec ID : A_AC3
Duration : 2 h 3 min
Bit rate mode : Constant
Bit rate : 384 kb/s
Channel(s) : 6 channels
Channel layout : L R C LFE Ls Rs
Sampling rate : 48.0 kHz
Frame rate : 31.250 FPS (1536 SPF)
Bit depth : 16 bits
Compression mode : Lossy
Stream size : 338 MiB (3%)
Title : iTunes
Language : Russian
Service kind : Complete Main
Default : Yes
Forced : Yes
Audio #2
ID : 3
Format : AC-3
Format/Info : Audio Coding 3
Commercial name : Dolby Digital
Codec ID : A_AC3
Duration : 2 h 3 min
Bit rate mode : Constant
Bit rate : 160 kb/s
Channel(s) : 2 channels
Channel layout : L R
Sampling rate : 48.0 kHz
Frame rate : 31.250 FPS (1536 SPF)
Bit depth : 16 bits
Compression mode : Lossy
Stream size : 141 MiB (1%)
Title : iTunes
Language : Ukrainian
Service kind : Complete Main
Default : No
Forced : No
Audio #3
ID : 4
Format : AC-3
Format/Info : Audio Coding 3
Commercial name : Dolby Digital
Codec ID : A_AC3
Duration : 2 h 3 min
Bit rate mode : Constant
Bit rate : 640 kb/s
Channel(s) : 6 channels
Channel layout : L R C LFE Ls Rs
Sampling rate : 48.0 kHz
Frame rate : 31.250 FPS (1536 SPF)
Bit depth : 16 bits
Compression mode : Lossy
Stream size : 563 MiB (6%)
Title : Original
Language : English
Service kind : Complete Main
Default : No
Forced : No
Text #1
ID : 5
Format : UTF-8
Codec ID : S_TEXT/UTF8
Codec ID/Info : UTF-8 Plain Text
Duration : 2 h 2 min
Bit rate : 1 b/s
Count of elements : 22
Stream size : 941 Bytes (0%)
Title : Forced
Language : Russian
Default : Yes
Forced : Yes
Text #2
ID : 6
Format : UTF-8
Codec ID : S_TEXT/UTF8
Codec ID/Info : UTF-8 Plain Text
Duration : 2 h 2 min
Bit rate : 68 b/s
Count of elements : 1074
Stream size : 61.6 KiB (0%)
Title : Full
Language : Russian
Default : No
Forced : No
Text #3
ID : 7
Format : UTF-8
Codec ID : S_TEXT/UTF8
Codec ID/Info : UTF-8 Plain Text
Duration : 2 h 2 min
Bit rate : 1 b/s
Count of elements : 27
Stream size : 1.17 KiB (0%)
Title : Forced
Language : Ukrainian
Default : No
Forced : No
Text #4
ID : 8
Format : UTF-8
Codec ID : S_TEXT/UTF8
Codec ID/Info : UTF-8 Plain Text
Duration : 2 h 2 min
Bit rate : 68 b/s
Count of elements : 1082
Stream size : 61.3 KiB (0%)
Title : Full
Language : Ukrainian
Default : No
Forced : No
Text #5
ID : 9
Format : UTF-8
Codec ID : S_TEXT/UTF8
Codec ID/Info : UTF-8 Plain Text
Duration : 1 h 50 min
Bit rate : 50 b/s
Count of elements : 1389
Stream size : 41.1 KiB (0%)
Title : SDH
Language : English
Default : No
Forced : No
Menu
00:00:00.000 : en:Chapter 01
00:04:22.679 : en:Chapter 02
00:08:48.695 : en:Chapter 03
00:16:25.776 : en:Chapter 04
00:22:33.811 : en:Chapter 05
00:30:08.515 : en:Chapter 06
00:35:08.273 : en:Chapter 07
00:40:33.348 : en:Chapter 08
00:44:45.391 : en:Chapter 09
00:48:56.809 : en:Chapter 10
00:53:51.812 : en:Chapter 11
00:56:43.775 : en:Chapter 12
01:01:31.897 : en:Chapter 13
01:07:23.873 : en:Chapter 14
01:12:12.411 : en:Chapter 15
01:16:59.114 : en:Chapter 16
01:21:35.182 : en:Chapter 17
01:24:42.661 : en:Chapter 18
01:31:16.554 : en:Chapter 19
01:36:27.031 : en:Chapter 20
01:40:59.595 : en:Chapter 21
01:46:26.589 : en:Chapter 22
01:50:00.052 : en:Chapter 23
01:53:17.791 : en:Chapter 24

admin

Post 28-Oct-2019 01:32

[Quote]

Информация о фильме
Название: Страшные истории для рассказа в темноте
Оригинальное название: Scary Stories to Tell in the Dark
Год выхода: 2019
Жанр: Ужасы, триллер
Режиссер: Андре Овредал
В ролях: Зои Маргарет Коллетти, Майкл Гарза, Гэбриел Раш, Остин Абрамс, Дин Норрис, Джил Беллоуз, Лоррейн Туссен, Остин Зажур, Натали Гэнзхорн, Кэтлин Поллард

О фильме: Компании подростков предстоит разгадать тайну зловещих смертей, которые наводят ужас на всю округу. Они должны преодолеть страх, чтобы спасти свой город.
Страна: США, Канада, Китай
Студия: 1212 Entertainment, CBS Films
Продолжительность: 01:47:57
Перевод: Дублированный | iTunes
Качество: BDRemux 2160p
Видео: 3840x2160 at 23.976 fps, MPEG-H HEVC HDR Video, 64200 kbps avg
Аудио #01: 48 kHz, AC3, 5.1, 384 Kbps | iTunes | RUS |
Аудио #02: 48 kHz, TrueHD, 5.1, 1714 Kbps | Оригинал | ENG |
Аудио #03: 48 kHz, AC3, 5.1, 640 Kbps | Оригинал | ENG |
Субтитры: Английские

Скриншоты

MI

General
Unique ID : 124858284658606662624014964634249990560 (0x5DEED4B75CB28E9EBF50B009902A11A0)
Complete name : D:Video111Scary.Stories.to.Tell.in.the.Dark.2019.2160p.HDR.seleZen.mkv
Format : Matroska
Format version : Version 4
File size : 50.5 GiB
Duration : 1 h 47 min
Overall bit rate mode : Variable
Overall bit rate : 67.0 Mb/s
Movie name : Scary Stories to Tell in the Dark 4K 2019 from селезень
Encoded date : UTC 2019-10-26 12:27:26
Writing application : mkvmerge v22.0.0 ('At The End Of The World') 64-bit
Writing library : libebml v1.3.5 + libmatroska v1.4.8
Video
ID : 1
Format : HEVC
Format/Info : High Efficiency Video Coding
Format profile : Main 10@L5.1@High
HDR format : SMPTE ST 2086, HDR10 compatible
Codec ID : V_MPEGH/ISO/HEVC
Duration : 1 h 47 min
Bit rate : 64.2 Mb/s
Width : 3 840 pixels
Height : 2 160 pixels
Display aspect ratio : 16:9
Frame rate mode : Constant
Frame rate : 23.976 (24000/1001) FPS
Color space : YUV
Chroma subsampling : 4:2:0 (Type 2)
Bit depth : 10 bits
Bits/(Pixel*Frame) : 0.323
Stream size : 48.4 GiB (96%)
Language : English
Default : Yes
Forced : No
Color range : Limited
Color primaries : BT.2020
Transfer characteristics : PQ
Matrix coefficients : BT.2020 non-constant
Mastering display color pri : Display P3
Mastering display luminance : min: 0.0000 cd/m2, max: 1000 cd/m2
Maximum Content Light Level : 1000 cd/m2
Maximum Frame-Average Light : 235 cd/m2
Audio #1
ID : 2
Format : AC-3
Format/Info : Audio Coding 3
Commercial name : Dolby Digital
Codec ID : A_AC3
Duration : 1 h 47 min
Bit rate mode : Constant
Bit rate : 384 kb/s
Channel(s) : 6 channels
Channel layout : L R C LFE Ls Rs
Sampling rate : 48.0 kHz
Frame rate : 31.250 FPS (1536 SPF)
Bit depth : 16 bits
Compression mode : Lossy
Stream size : 297 MiB (1%)
Title : iTunes
Language : Russian
Service kind : Complete Main
Default : Yes
Forced : Yes
Audio #2
ID : 3
Format : MLP FBA
Format/Info : Meridian Lossless Packing FBA
Commercial name : Dolby TrueHD
Codec ID : A_TRUEHD
Duration : 1 h 47 min
Bit rate mode : Variable
Bit rate : 1 714 kb/s
Maximum bit rate : 3 150 kb/s
Channel(s) : 6 channels
Channel layout : L R C LFE Ls Rs
Sampling rate : 48.0 kHz
Frame rate : 1 200.000 FPS (40 SPF)
Compression mode : Lossless
Stream size : 1.29 GiB (3%)
Title : Original
Language : English
Default : No
Forced : No
Audio #3
ID : 4
Format : AC-3
Format/Info : Audio Coding 3
Commercial name : Dolby Digital
Codec ID : A_AC3
Duration : 1 h 47 min
Bit rate mode : Constant
Bit rate : 640 kb/s
Channel(s) : 6 channels
Channel layout : L R C LFE Ls Rs
Sampling rate : 48.0 kHz
Frame rate : 31.250 FPS (1536 SPF)
Bit depth : 16 bits
Compression mode : Lossy
Stream size : 494 MiB (1%)
Language : English
Service kind : Complete Main
Default : No
Forced : No
Text
ID : 5
Format : UTF-8
Codec ID : S_TEXT/UTF8
Codec ID/Info : UTF-8 Plain Text
Duration : 1 h 39 min
Bit rate : 45 b/s
Count of elements : 1244
Stream size : 32.8 KiB (0%)
Title : Full
Language : English
Default : No
Forced : No
Menu
00:00:00.000 : en:Chapter 01
00:05:44.386 : en:Chapter 02
00:13:23.052 : en:Chapter 03
00:18:52.131 : en:Chapter 04
00:25:34.742 : en:Chapter 05
00:28:31.168 : en:Chapter 06
00:36:17.300 : en:Chapter 07
00:47:06.282 : en:Chapter 08
00:54:17.171 : en:Chapter 09
00:58:36.304 : en:Chapter 10
01:02:36.378 : en:Chapter 11
01:11:04.677 : en:Chapter 12
01:17:59.425 : en:Chapter 13
01:24:33.902 : en:Chapter 14
01:29:53.179 : en:Chapter 15
01:38:30.279 : en:Chapter 16

admin

Post 26-Oct-2019 02:55

[Quote]

Информация о фильме
Название: Форсаж: Хоббс и Шоу
Оригинальное название: Fast & Furious Presents: Hobbs & Shaw
Год выхода: 2019
Жанр: Боевик, приключения
Режиссер: Дэвид Литч
В ролях: Дуэйн Джонсон, Джейсон Стэйтем, Идрис Эльба, Райан Рейнольдс, Ванесса Кирби, Хелен Миррен, Эйса Гонсалес, Эдди Марсан, Элиана Суа, Клифф Кёртис, Лори Пеленис Туисано

О фильме: Люк Хоббс - американский элитный спецагент, он любит удобную спортивную одежду, большие пикапы и здоровое питание. Декард Шоу - британский пижон, бывший сотрудник разведки, предпочитает дорогие костюмы, спортивные авто и длинноногих красоток. Эти двое ненавидят друг друга. Но если кто-то угрожает их семьям, они готовы пойти на все. Даже на работу в команде.
Страна: Великобритания, США
Студия: Universal Pictures
Продолжительность: 02:16:42
Перевод: Дублированный | iTunes
Качество: BDRemux 2160p
Видео: 3840x2160 at 23.976 fps, MPEG-H HEVC HDR Video, 63700 kbps avg
Аудио #01: 48 kHz, AC3, 5.1, 384 Kbps | iTunes | RUS |
Аудио #02: 48 kHz, TrueHD, 7.1, 3141 Kbps | Оригинал | ENG |
Аудио #03: 48 kHz, AC3, 5.1, 448 Kbps | Оригинал | ENG |
Субтитры: Русские (Forced), английские

Скриншоты

MI

General
Unique ID : 139738470459977051200470915528794658473 (0x6920A684D1F2FAE9927C02A0B60556A9)
Complete name : D:Video111Fast.and.Furious.Presents.Hobbs.and.Shaw.2019.BDREMUX.2160p.HDR.seleZen.mkv
Format : Matroska
Format version : Version 4
File size : 64.7 GiB
Duration : 2 h 16 min
Overall bit rate mode : Variable
Overall bit rate : 67.8 Mb/s
Movie name : Fast & Furious Presents: Hobbs & Shaw 2019 4K from селезень
Encoded date : UTC 2019-10-25 10:56:41
Writing application : mkvmerge v22.0.0 ('At The End Of The World') 64-bit
Writing library : libebml v1.3.5 + libmatroska v1.4.8
Video
ID : 1
Format : HEVC
Format/Info : High Efficiency Video Coding
Format profile : Main 10@L5.1@High
HDR format : SMPTE ST 2094 App 4, Version 1, HDR10+ Profile B compatible
Codec ID : V_MPEGH/ISO/HEVC
Duration : 2 h 16 min
Bit rate : 63.7 Mb/s
Width : 3 840 pixels
Height : 2 160 pixels
Display aspect ratio : 16:9
Frame rate mode : Constant
Frame rate : 23.976 (24000/1001) FPS
Color space : YUV
Chroma subsampling : 4:2:0 (Type 2)
Bit depth : 10 bits
Bits/(Pixel*Frame) : 0.320
Stream size : 60.8 GiB (94%)
Language : English
Default : Yes
Forced : No
Color range : Limited
Color primaries : BT.2020
Transfer characteristics : PQ
Matrix coefficients : BT.2020 non-constant
Mastering display color pri : Display P3
Mastering display luminance : min: 0.0050 cd/m2, max: 4000 cd/m2
Maximum Content Light Level : 1000 cd/m2
Maximum Frame-Average Light : 419 cd/m2
Audio #1
ID : 2
Format : AC-3
Format/Info : Audio Coding 3
Commercial name : Dolby Digital
Codec ID : A_AC3
Duration : 2 h 16 min
Bit rate mode : Constant
Bit rate : 384 kb/s
Channel(s) : 6 channels
Channel layout : L R C LFE Ls Rs
Sampling rate : 48.0 kHz
Frame rate : 31.250 FPS (1536 SPF)
Bit depth : 16 bits
Compression mode : Lossy
Stream size : 375 MiB (1%)
Title : iTunes
Language : Russian
Service kind : Complete Main
Default : Yes
Forced : Yes
Audio #2
ID : 3
Format : MLP FBA 16-ch
Format/Info : Meridian Lossless Packing FBA with 16-channel presentation
Commercial name : Dolby TrueHD with Dolby Atmos
Codec ID : A_TRUEHD
Duration : 2 h 16 min
Bit rate mode : Variable
Bit rate : 3 141 kb/s
Maximum bit rate : 5 394 kb/s
Channel(s) : 8 channels
Channel layout : L R C LFE Ls Rs Lb Rb
Sampling rate : 48.0 kHz
Frame rate : 1 200.000 FPS (40 SPF)
Compression mode : Lossless
Stream size : 3.00 GiB (5%)
Title : Original
Language : English
Default : No
Forced : No
Number of dynamic objects : 11
Bed channel count : 1 channel
Bed channel configuration : LFE
Audio #3
ID : 4
Format : AC-3
Format/Info : Audio Coding 3
Commercial name : Dolby Digital
Codec ID : A_AC3
Duration : 2 h 16 min
Bit rate mode : Constant
Bit rate : 448 kb/s
Channel(s) : 6 channels
Channel layout : L R C LFE Ls Rs
Sampling rate : 48.0 kHz
Frame rate : 31.250 FPS (1536 SPF)
Bit depth : 16 bits
Compression mode : Lossy
Stream size : 438 MiB (1%)
Language : English
Service kind : Complete Main
Default : No
Forced : No
Text #1
ID : 5
Format : UTF-8
Codec ID : S_TEXT/UTF8
Codec ID/Info : UTF-8 Plain Text
Duration : 2 h 4 min
Bit rate : 1 b/s
Count of elements : 48
Stream size : 1.42 KiB (0%)
Title : Forced
Language : Russian
Default : Yes
Forced : Yes
Text #2
ID : 6
Format : UTF-8
Codec ID : S_TEXT/UTF8
Codec ID/Info : UTF-8 Plain Text
Duration : 2 h 1 min
Bit rate : 61 b/s
Count of elements : 1947
Stream size : 54.9 KiB (0%)
Title : Full
Language : English
Default : No
Forced : No
Menu
00:00:00.000 : en:Chapter 01
00:04:58.131 : en:Chapter 02
00:13:43.489 : en:Chapter 03
00:19:21.452 : en:Chapter 04
00:26:45.979 : en:Chapter 05
00:35:41.514 : en:Chapter 06
00:40:13.244 : en:Chapter 07
00:46:22.029 : en:Chapter 08
00:51:34.216 : en:Chapter 09
00:57:51.802 : en:Chapter 10
01:01:53.251 : en:Chapter 11
01:08:45.163 : en:Chapter 12
01:14:22.833 : en:Chapter 13
01:19:48.075 : en:Chapter 14
01:24:59.261 : en:Chapter 15
01:32:58.198 : en:Chapter 16
01:38:48.923 : en:Chapter 17
01:46:32.970 : en:Chapter 18
01:53:29.594 : en:Chapter 19
02:01:14.809 : en:Chapter 20

admin

Post 24-Oct-2019 01:47

[Quote]

Информация о фильме
Название: Yesterday
Оригинальное название: Yesterday
Год выхода: 2019
Жанр: Мюзикл, фэнтези, мелодрама, комедия, музыка
Режиссер: Дэнни Бойл
В ролях: Химеш Патель, Лили Джеймс, Софи Ди Мартино, Эллиз Шаппелль, Мира Сайал, Гарри Мишель, Винсент Франклин, Джоэль Фрай, Майкл Киванука, Карма Суд

О фильме: Еще месяц назад Джек был обычным неудачником. Теперь он суперзвезда, миллионы людей слушают его песни, билеты на концерты раскупаются за секунду. В чем секрет? Все просто. Джек - единственный человек в мире, кто помнит о существовании The Beatles.
Страна: Великобритания, Россия, Китай
Студия: Etalon Film, СПАМ!!! Title Films
Продолжительность: 01:56:14
Перевод: Дублированный | Лицензия
Качество: BDRemux 2160p
Видео: 3840x2160 at 23.976 fps, MPEG-H HEVC HDR Video, 60400 kbps avg
Аудио #01: 48 kHz, AC3, 5.1, 384 Kbps | Лицензия | RUS |
Аудио #02: 48 kHz, TrueHD, 7.1, 3272 Kbps | Оригинал | ENG |
Аудио #03: 48 kHz, AC3, 5.1, 448 Kbps | Оригинал | ENG |
Субтитры: Русские (Forced, full), английские

Скриншоты

MI

General
Unique ID : 289926019702626460332574340506717094080 (0xDA1DB8659887B9DCD9ADF3E59A2D80C0)
Complete name : D:Video111Yesterday.2019.BDREMUX.2160p.HDR.seleZen.mkv
Format : Matroska
Format version : Version 4
File size : 52.4 GiB
Duration : 1 h 56 min
Overall bit rate mode : Variable
Overall bit rate : 64.5 Mb/s
Movie name : Yesterday 2019 4K from селезень
Encoded date : UTC 2019-10-22 23:59:37
Writing application : mkvmerge v22.0.0 ('At The End Of The World') 64-bit
Writing library : libebml v1.3.5 + libmatroska v1.4.8
Video
ID : 1
Format : HEVC
Format/Info : High Efficiency Video Coding
Format profile : Main 10@L5.1@High
HDR format : SMPTE ST 2094 App 4, Version 1, HDR10+ Profile B compatible
Codec ID : V_MPEGH/ISO/HEVC
Duration : 1 h 56 min
Bit rate : 60.4 Mb/s
Width : 3 840 pixels
Height : 2 160 pixels
Display aspect ratio : 16:9
Frame rate mode : Constant
Frame rate : 23.976 (24000/1001) FPS
Color space : YUV
Chroma subsampling : 4:2:0 (Type 2)
Bit depth : 10 bits
Bits/(Pixel*Frame) : 0.304
Stream size : 49.0 GiB (94%)
Language : English
Default : Yes
Forced : No
Color range : Limited
Color primaries : BT.2020
Transfer characteristics : PQ
Matrix coefficients : BT.2020 non-constant
Mastering display color pri : Display P3
Mastering display luminance : min: 0.0050 cd/m2, max: 1000 cd/m2
Maximum Content Light Level : 999 cd/m2
Maximum Frame-Average Light : 125 cd/m2
Audio #1
ID : 2
Format : AC-3
Format/Info : Audio Coding 3
Commercial name : Dolby Digital
Codec ID : A_AC3
Duration : 1 h 56 min
Bit rate mode : Constant
Bit rate : 384 kb/s
Channel(s) : 6 channels
Channel layout : L R C LFE Ls Rs
Sampling rate : 48.0 kHz
Frame rate : 31.250 FPS (1536 SPF)
Bit depth : 16 bits
Compression mode : Lossy
Stream size : 319 MiB (1%)
Title : Dub [License]
Language : Russian
Service kind : Complete Main
Default : Yes
Forced : Yes
Audio #2
ID : 3
Format : MLP FBA 16-ch
Format/Info : Meridian Lossless Packing FBA with 16-channel presentation
Commercial name : Dolby TrueHD with Dolby Atmos
Codec ID : A_TRUEHD
Duration : 1 h 56 min
Bit rate mode : Variable
Bit rate : 3 272 kb/s
Maximum bit rate : 5 664 kb/s
Channel(s) : 8 channels
Channel layout : L R C LFE Ls Rs Lb Rb
Sampling rate : 48.0 kHz
Frame rate : 1 200.000 FPS (40 SPF)
Compression mode : Lossless
Stream size : 2.66 GiB (5%)
Title : Original
Language : English
Default : No
Forced : No
Number of dynamic objects : 11
Bed channel count : 1 channel
Bed channel configuration : LFE
Audio #3
ID : 4
Format : AC-3
Format/Info : Audio Coding 3
Commercial name : Dolby Digital
Codec ID : A_AC3
Duration : 1 h 56 min
Bit rate mode : Constant
Bit rate : 448 kb/s
Channel(s) : 6 channels
Channel layout : L R C LFE Ls Rs
Sampling rate : 48.0 kHz
Frame rate : 31.250 FPS (1536 SPF)
Bit depth : 16 bits
Compression mode : Lossy
Stream size : 372 MiB (1%)
Language : English
Service kind : Complete Main
Default : No
Forced : No
Text #1
ID : 5
Format : UTF-8
Codec ID : S_TEXT/UTF8
Codec ID/Info : UTF-8 Plain Text
Duration : 1 h 47 min
Bit rate : 13 b/s
Count of elements : 204
Stream size : 10.3 KiB (0%)
Title : Forced
Language : Russian
Default : Yes
Forced : Yes
Text #2
ID : 6
Format : UTF-8
Codec ID : S_TEXT/UTF8
Codec ID/Info : UTF-8 Plain Text
Duration : 1 h 51 min
Bit rate : 107 b/s
Count of elements : 2093
Stream size : 87.4 KiB (0%)
Title : Full
Language : Russian
Default : No
Forced : No
Text #3
ID : 7
Format : UTF-8
Codec ID : S_TEXT/UTF8
Codec ID/Info : UTF-8 Plain Text
Duration : 1 h 55 min
Bit rate : 79 b/s
Count of elements : 2244
Stream size : 67.1 KiB (0%)
Title : Full
Language : English
Default : No
Forced : No
Text #4
ID : 8
Format : UTF-8
Codec ID : S_TEXT/UTF8
Codec ID/Info : UTF-8 Plain Text
Duration : 1 h 55 min
Bit rate : 86 b/s
Count of elements : 2439
Stream size : 73.0 KiB (0%)
Title : SDH
Language : English
Default : No
Forced : No
Menu
00:00:00.000 : en:Chapter 01
00:06:16.668 : en:Chapter 02
00:11:19.679 : en:Chapter 03
00:16:13.097 : en:Chapter 04
00:21:28.287 : en:Chapter 05
00:27:04.540 : en:Chapter 06
00:33:31.885 : en:Chapter 07
00:38:55.083 : en:Chapter 08
00:45:53.250 : en:Chapter 09
00:48:17.061 : en:Chapter 10
00:56:24.339 : en:Chapter 11
01:03:47.490 : en:Chapter 12
01:09:16.486 : en:Chapter 13
01:14:17.078 : en:Chapter 14
01:19:04.615 : en:Chapter 15
01:24:10.587 : en:Chapter 16
01:31:51.923 : en:Chapter 17
01:36:00.588 : en:Chapter 18
01:40:03.247 : en:Chapter 19
01:46:51.947 : en:Chapter 20

admin

Post 21-Oct-2019 01:17

[Quote]

Информация о фильме
Название: Казино Рояль
Оригинальное название: Casino Royale
Год выхода: 2006
Жанр: Боевик, триллер, приключения, экранизация
Режиссер: Мартин Кэмпбелл
В ролях: Дэниэл Крэйг, Ева Грин, Мадс Миккельсен, Джуди Денч, Джеффри Райт, Джанкарло Джаннини, Катерина Мурино, Симон Абкарян, Исаак Де Банколе, Еспер Кристенсен, Ивана Миличевич, Тобайас Мензис, Клаудио Сантамария, Себастьен Фука, Малкольм Синклер, Рихард Заммель, Людгер Пистор, Джозеф Миллсон, Дауд Шах, Клеменс Шик, Эммануель Авена, Том Чэдбон, Эд, Урбано Барберини, Цай Чинь, Чарли Леви

О фильме: Фильм по роману Яна Флеминга - ”Казино ”Рояль” - своеобразное возвращение к истокам Бондианы. Он снят по первой книге Яна Флеминга - о Джеймсе Бонде, хотя сюжет и претерпел в киноварианте ряд непринципиальных изменений. Именно в этом фильме начинающий секретный агент, брутальный и серьёзный парень из британской разведки, становится непревзойдённым суперагентом 007. Именно здесь ему предстоит не только разделаться в нелёгкой борьбе, как с оружием в руках, так и за карточным столом (по долгу службы!), с подпольным банкиром Ле Шиффром, отмывающим деньги сразу нескольких могучих террористических организаций, но и запомнить раз и навсегда на будущее: если роман перерастает в истинную любовь, то боль, которую она способна причинить, тоже будет абсолютно настоящей... Дебют Дэниела Крэйга в роли агента 007, вопреки первоначальным сомнениям многих, оказавшийся вполне успешным.
Страна: Великобритания, Чехия, США, Германия, Багамы
Студия: Columbia Pictures
Продолжительность: 02:24:33
Перевод: Дублированный | Лицензия
Качество: BDRemux 2160p
Видео: 3840x2160 at 23.976 fps, MPEG-H HEVC HDR Video, 41900 kbps avg
Аудио #01: 48 kHz, DTS, 5.1, 768 Kbps | Лицензия | RUS |
Аудио #02: 48 kHz, DTS-HD MA, 5.1, 3887 Kbps | Оригинал | ENG |
Субтитры: Русские (Forced, full), английские

Скриншоты

MI

General
Unique ID : 79287293156375794136265851998824963950 (0x3BA62D5DA13A6891EE824E96E12A1F6E)
Complete name : F:VideoCasino.Royale.2006.Lic.BDREMUX.2160p.HDR.seleZen.mkv
Format : Matroska
Format version : Version 4
File size : 47.0 GiB
Duration : 2 h 24 min
Overall bit rate mode : Variable
Overall bit rate : 46.5 Mb/s
Encoded date : UTC 2019-10-20 02:10:47
Writing application : mkvmerge v22.0.0 ('At The End Of The World') 64-bit
Writing library : libebml v1.3.5 + libmatroska v1.4.8
Video
ID : 1
Format : HEVC
Format/Info : High Efficiency Video Coding
Format profile : Main 10@L5.1@High
HDR format : SMPTE ST 2086, HDR10 compatible
Codec ID : V_MPEGH/ISO/HEVC
Duration : 2 h 24 min
Bit rate : 41.9 Mb/s
Width : 3 840 pixels
Height : 2 160 pixels
Display aspect ratio : 16:9
Frame rate mode : Constant
Frame rate : 23.976 (24000/1001) FPS
Color space : YUV
Chroma subsampling : 4:2:0 (Type 2)
Bit depth : 10 bits
Bits/(Pixel*Frame) : 0.211
Stream size : 42.3 GiB (90%)
Language : English
Default : Yes
Forced : No
Color range : Limited
Color primaries : BT.2020
Transfer characteristics : PQ
Matrix coefficients : BT.2020 non-constant
Mastering display color pri : Display P3
Mastering display luminance : min: 0.0001 cd/m2, max: 1000 cd/m2
Audio #1
ID : 2
Format : DTS
Format/Info : Digital Theater Systems
Codec ID : A_DTS
Duration : 2 h 24 min
Bit rate mode : Constant
Bit rate : 768 kb/s
Channel(s) : 6 channels
Channel layout : C L R Ls Rs LFE
Sampling rate : 48.0 kHz
Frame rate : 93.750 FPS (512 SPF)
Bit depth : 24 bits
Compression mode : Lossy
Stream size : 794 MiB (2%)
Title : Dub [License]
Language : Russian
Default : Yes
Forced : Yes
Audio #2
ID : 3
Format : DTS XLL
Format/Info : Digital Theater Systems
Commercial name : DTS-HD Master Audio
Codec ID : A_DTS
Duration : 2 h 24 min
Bit rate mode : Variable
Bit rate : 3 887 kb/s
Channel(s) : 6 channels
Channel layout : C L R Ls Rs LFE
Sampling rate : 48.0 kHz
Frame rate : 93.750 FPS (512 SPF)
Bit depth : 24 bits
Compression mode : Lossless
Stream size : 3.92 GiB (8%)
Title : Original
Language : English
Default : No
Forced : No
Text #1
ID : 4
Format : UTF-8
Codec ID : S_TEXT/UTF8
Codec ID/Info : UTF-8 Plain Text
Duration : 2 h 12 min
Bit rate : 1 b/s
Count of elements : 26
Stream size : 1.22 KiB (0%)
Title : Forced
Language : Russian
Default : Yes
Forced : Yes
Text #2
ID : 5
Format : UTF-8
Codec ID : S_TEXT/UTF8
Codec ID/Info : UTF-8 Plain Text
Duration : 2 h 23 min
Bit rate : 47 b/s
Count of elements : 1070
Stream size : 50.5 KiB (0%)
Title : Full
Language : Russian
Default : No
Forced : No
Text #3
ID : 6
Format : UTF-8
Codec ID : S_TEXT/UTF8
Codec ID/Info : UTF-8 Plain Text
Duration : 2 h 19 min
Bit rate : 32 b/s
Count of elements : 1042
Stream size : 33.2 KiB (0%)
Title : Full
Language : English
Default : No
Forced : No
Menu
00:00:00.000 : en:00:00:00.000
00:09:37.952 : en:00:09:37.952
00:19:31.170 : en:00:19:31.170
00:25:35.993 : en:00:25:35.993
00:35:18.908 : en:00:35:18.908
00:39:59.522 : en:00:39:59.522
00:45:22.428 : en:00:45:22.428
00:57:51.051 : en:00:57:51.051
01:07:22.288 : en:01:07:22.288
01:17:12.044 : en:01:17:12.044
01:30:06.067 : en:01:30:06.067
01:38:41.165 : en:01:38:41.165
01:43:29.620 : en:01:43:29.620
01:54:03.045 : en:01:54:03.045
02:05:45.371 : en:02:05:45.371
02:13:19.700 : en:02:13:19.700

admin

Post 08-Oct-2019 01:28

[Quote]

Информация о фильме
Название: Хеллбой
Оригинальное название: Hellboy
Год выхода: 2019
Жанр: Фэнтези, боевик, приключения
Режиссер: Нил Маршалл
В ролях: Дэвид Харбор, Иэн МакШейн, Милла Йовович, Саша Лэйн, Дэниэл Дэ Ким, Алистэр Петри, Софи Оконедо, Томас Хейден Чёрч, Марк Стэнли, Брин Глисон, Надя Керанова, Мария Тепавичарова, Ана Тобакова, Пенелопа Митчелл, Терри Рендал, Стивен Грэм, Марио де ла Роса, Ванесса Эйчхольц

О фильме:
Близится час битвы Хеллбоя с Кровавой королевой, жаждущей отомстить всему человечеству за века в заточении. Оказавшись в эпицентре столкновения миров людей и монстров, Хеллбою придется пройти через ад, чтобы предотвратить надвигающийся апокалипсис.

Страна: США
Студия: Summit Entertainment, Millennium Films, Campbell Grobman Films
Продолжительность: 02:01:02
Перевод(ы):
#1: Дублированный | Лицензия

#2: Профессиональный многоголосый | СВ Студия
Качество: BDRemux 2160p
Видео: 3840x2160 at 23.976 fps, MPEG-H HEVC HDR Video, 66100 kbps avg
Звук:
Аудио #01: 48 kHz, DTS-HD MA, 5.1, 4562 Kbps | Лицензия | RUS |
Аудио #02: 48 kHz, AC3, 5.1, 640 Kbps | Лицензия | RUS |
Аудио #03: 48 kHz, AC3, 2.0, 192 Kbps | СВ Студия | RUS |
Аудио #04: 48 kHz, TrueHD, 7.1, 5255 Kbps | Оригинал | ENG |
Аудио #05: 48 kHz, AC3, 5.1, 448 Kbps | Оригинал | ENG |
Субтитры: Русские (Forced, 2 x full), английские

Скриншоты

MI

General
Unique ID : 32181798359104792199636794410927537544 (0x1835FD295CFE52A9CE83F12CB0063D88)
Complete name : D:Video111Hellboy.2019.Lic.BDREMUX.2160p.HDR.seleZen.mkv
Format : Matroska
Format version : Version 4
File size : 65.3 GiB
Duration : 2 h 1 min
Overall bit rate mode : Variable
Overall bit rate : 77.3 Mb/s
Movie name : Hellboy 2019 4K from селезень
Encoded date : UTC 2019-10-05 07:12:20
Writing application : mkvmerge v22.0.0 ('At The End Of The World') 64-bit
Writing library : libebml v1.3.5 + libmatroska v1.4.8
Video
ID : 1
Format : HEVC
Format/Info : High Efficiency Video Coding
Format profile : Main 10@L5.1@High
HDR format : SMPTE ST 2086, HDR10 compatible
Codec ID : V_MPEGH/ISO/HEVC
Duration : 2 h 1 min
Bit rate : 66.1 Mb/s
Width : 3 840 pixels
Height : 2 160 pixels
Display aspect ratio : 16:9
Frame rate mode : Constant
Frame rate : 23.976 (24000/1001) FPS
Color space : YUV
Chroma subsampling : 4:2:0 (Type 2)
Bit depth : 10 bits
Bits/(Pixel*Frame) : 0.332
Stream size : 55.9 GiB (86%)
Language : English
Default : Yes
Forced : No
Color range : Limited
Color primaries : BT.2020
Transfer characteristics : PQ
Matrix coefficients : BT.2020 non-constant
Mastering display color pri : Display P3
Mastering display luminance : min: 0.0001 cd/m2, max: 4000 cd/m2
Maximum Content Light Level : 3947 cd/m2
Maximum Frame-Average Light : 542 cd/m2
Audio #1
ID : 2
Format : DTS XLL
Format/Info : Digital Theater Systems
Commercial name : DTS-HD Master Audio
Codec ID : A_DTS
Duration : 2 h 1 min
Bit rate mode : Variable
Bit rate : 4 562 kb/s
Channel(s) : 6 channels
Channel layout : C L R Ls Rs LFE
Sampling rate : 48.0 kHz
Frame rate : 93.750 FPS (512 SPF)
Bit depth : 24 bits
Compression mode : Lossless
Stream size : 3.86 GiB (6%)
Title : Dub [License]
Language : Russian
Default : Yes
Forced : Yes
Audio #2
ID : 3
Format : AC-3
Format/Info : Audio Coding 3
Commercial name : Dolby Digital
Codec ID : A_AC3
Duration : 2 h 1 min
Bit rate mode : Constant
Bit rate : 640 kb/s
Channel(s) : 6 channels
Channel layout : L R C LFE Ls Rs
Sampling rate : 48.0 kHz
Frame rate : 31.250 FPS (1536 SPF)
Bit depth : 16 bits
Compression mode : Lossy
Stream size : 554 MiB (1%)
Title : Dub [License]
Language : Russian
Service kind : Complete Main
Default : No
Forced : No
Audio #3
ID : 4
Format : AC-3
Format/Info : Audio Coding 3
Commercial name : Dolby Digital
Codec ID : A_AC3
Duration : 2 h 0 min
Bit rate mode : Constant
Bit rate : 192 kb/s
Channel(s) : 2 channels
Channel layout : L R
Sampling rate : 48.0 kHz
Frame rate : 31.250 FPS (1536 SPF)
Bit depth : 16 bits
Compression mode : Lossy
Stream size : 166 MiB (0%)
Title : MVO [СВ Студия]
Language : Russian
Service kind : Complete Main
Default : No
Forced : No
Audio #4
ID : 5
Format : MLP FBA 16-ch
Format/Info : Meridian Lossless Packing FBA with 16-channel presentation
Commercial name : Dolby TrueHD with Dolby Atmos
Codec ID : A_TRUEHD
Duration : 2 h 1 min
Bit rate mode : Variable
Bit rate : 5 255 kb/s
Maximum bit rate : 9 408 kb/s
Channel(s) : 8 channels
Channel layout : L R C LFE Ls Rs Lb Rb
Sampling rate : 48.0 kHz
Frame rate : 1 200.000 FPS (40 SPF)
Compression mode : Lossless
Stream size : 4.44 GiB (7%)
Title : Original
Language : English
Default : No
Forced : No
Number of dynamic objects : 15
Bed channel count : 1 channel
Bed channel configuration : LFE
Audio #5
ID : 6
Format : AC-3
Format/Info : Audio Coding 3
Commercial name : Dolby Digital
Codec ID : A_AC3
Duration : 2 h 1 min
Bit rate mode : Constant
Bit rate : 448 kb/s
Channel(s) : 6 channels
Channel layout : L R C LFE Ls Rs
Sampling rate : 48.0 kHz
Frame rate : 31.250 FPS (1536 SPF)
Bit depth : 16 bits
Compression mode : Lossy
Stream size : 388 MiB (1%)
Language : English
Service kind : Complete Main
Default : No
Forced : No
Text #1
ID : 7
Format : UTF-8
Codec ID : S_TEXT/UTF8
Codec ID/Info : UTF-8 Plain Text
Duration : 1 h 48 min
Bit rate : 1 b/s
Count of elements : 21
Stream size : 1.01 KiB (0%)
Title : Forced
Language : Russian
Default : Yes
Forced : Yes
Text #2
ID : 8
Format : UTF-8
Codec ID : S_TEXT/UTF8
Codec ID/Info : UTF-8 Plain Text
Duration : 2 h 0 min
Bit rate : 85 b/s
Count of elements : 1543
Stream size : 75.7 KiB (0%)
Title : Full [Enigma] (cens.)
Language : Russian
Default : No
Forced : No
Text #3
ID : 9
Format : UTF-8
Codec ID : S_TEXT/UTF8
Codec ID/Info : UTF-8 Plain Text
Duration : 2 h 0 min
Bit rate : 84 b/s
Count of elements : 1547
Stream size : 74.4 KiB (0%)
Title : Full [FOCS] (no cens.)
Language : Russian
Default : No
Forced : No
Text #4
ID : 10
Format : UTF-8
Codec ID : S_TEXT/UTF8
Codec ID/Info : UTF-8 Plain Text
Duration : 2 h 0 min
Bit rate : 53 b/s
Count of elements : 1528
Stream size : 46.7 KiB (0%)
Title : Full
Language : English
Default : No
Forced : No
Text #5
ID : 11
Format : UTF-8
Codec ID : S_TEXT/UTF8
Codec ID/Info : UTF-8 Plain Text
Duration : 2 h 0 min
Bit rate : 59 b/s
Count of elements : 1899
Stream size : 52.9 KiB (0%)
Title : SDH
Language : English
Default : No
Forced : No
Menu
00:00:00.000 : en:Chapter 01
00:08:54.284 : en:Chapter 02
00:14:41.714 : en:Chapter 03
00:22:34.853 : en:Chapter 04
00:30:12.602 : en:Chapter 05
00:35:48.730 : en:Chapter 06
00:43:50.461 : en:Chapter 07
00:53:17.611 : en:Chapter 08
01:01:09.791 : en:Chapter 09
01:09:24.786 : en:Chapter 10
01:17:32.606 : en:Chapter 11
01:26:07.579 : en:Chapter 12
01:28:37.896 : en:Chapter 13
01:37:58.456 : en:Chapter 14
01:45:49.969 : en:Chapter 15
01:51:06.660 : en:Chapter 16

admin

Post 06-Oct-2019 01:49

[Quote]

Информация о фильме
Название: Хеллбой
Оригинальное название: Hellboy
Год выхода: 2019
Жанр: Фэнтези, Боевик, Приключения
Режиссер: Нил Маршалл
В ролях: Дэвид Харбор, Милла Йовович, Иэн Макшейн, Саша Лейн, Дэниел Дэ Ким, Томас Хейден Чёрч, Пенелопа Митчелл, Софи Оконедо, Брин Глисон, Алистер Петри, Лайла Морс, Стивен Грэм
О фильме:
Близится час битвы Хеллбоя с Кровавой королевой, жаждущей отомстить всему человечеству за века в заточении. Оказавшись в эпицентре столкновения миров людей и монстров, Хеллбою придется пройти через ад, чтобы предотвратить надвигающийся апокалипсис.

Страна: США, Великобритания, Болгария
Продолжительность: 02:01:02
Перевод:
#1 Профессиональный (дублированный) | Лицензия
#2 Профессиональный (многоголосый, закадровый) | СВ Студия
Файл
Кодек: H.265
Качество: BDRip-HEVC 1080p
Видео: HEVC, 1920x800 (2.40:1), 23.976 fps, 6814 kb/s, 10 bit
Аудио 1: AC-3, 48.0 kHz, 6 ch, 640 kb/s | RUS (DUB / Лицензия)
Аудио 2: AC-3, 48.0 kHz, 2 ch, 192 kb/s | RUS (MVO / СВ Студия)
Аудио 3: AC-3, 48.0 kHz, 2 ch, 192 kb/s | UKR (DUB / AAASound)
Аудио 4: AC-3, 48.0 kHz, 6 ch, 448 kb/s | ENG (Оригинал)
Субтитры: русские (форс., полные), украинские (форс.), английские (полные, SDH)

MI

General
Unique ID : 239654365396409554160539954141520910612 (0xB44BC07A07492C9094959C410E1AD914)
Complete name : F:Hellboy.(2019).BDRip.1080p.H.265.mkv
Format : Matroska
Format version : Version 4
File size : 7.01 GiB
Duration : 2 h 1 min
Overall bit rate : 8 290 kb/s
Encoded date : UTC 2019-10-05 14:06:22
Writing application : mkvmerge v8.3.0 ('Over the Horizon') 64bit
Writing library : libebml v1.3.1 + libmatroska v1.4.2
Video
ID : 1
Format : HEVC
Format/Info : High Efficiency Video Coding
Format profile : Main 10@L4.1@High
Codec ID : V_MPEGH/ISO/HEVC
Duration : 2 h 1 min
Bit rate : 6 814 kb/s
Width : 1 920 pixels
Height : 800 pixels
Display aspect ratio : 2.40:1
Frame rate mode : Constant
Frame rate : 23.976 (24000/1001) FPS
Color space : YUV
Chroma subsampling : 4:2:0
Bit depth : 10 bits
Bits/(Pixel*Frame) : 0.185
Stream size : 5.76 GiB (82%)
Writing library : x265 3.1+7-147fb92c5ed5:[Windows][clang 8.0.0][64 bit] 10bit
Encoding settings : cpuid=1111039 / frame-threads=13 / wpp / no-pmode / no-pme / no-psnr / no-ssim / log-level=3 / input-csp=1 / input-res=1920x800 / interlace=0 / total-frames=0 / level-idc=41 / high-tier=1 / uhd-bd=0 / ref=5 / allow-non-conformance / no-repeat-headers / annexb / no-aud / no-hrd / info / hash=0 / no-temporal-layers / open-gop / min-keyint=23 / keyint=240 / gop-lookahead=0 / bframes=8 / b-adapt=2 / b-pyramid / bframe-bias=0 / rc-lookahead=60 / lookahead-slices=4 / scenecut=40 / radl=0 / no-splice / no-intra-refresh / ctu=64 / min-cu-size=8 / rect / amp / max-tu-size=32 / tu-inter-depth=4 / tu-intra-depth=4 / limit-tu=0 / rdoq-level=2 / dynamic-rd=0.00 / no-ssim-rd / signhide / no-tskip / nr-intra=0 / nr-inter=0 / no-constrained-intra / no-strong-intra-smoothing / max-merge=5 / limit-refs=2 / limit-modes / me=3 / subme=7 / merange=57 / temporal-mvp / no-hme / weightp / weightb / no-analyze-src-pics / deblock=-3:-3 / no-sao / no-sao-non-deblock / rd=6 / early-skip / rskip / no-fast-intra / no-tskip-fast / no-cu-lossless / b-intra / no-splitrd-skip / rdpenalty=0 / psy-rd=2.00 / psy-rdoq=1.00 / no-rd-refine / no-lossless / cbqpoffs=0 / crqpoffs=0 / rc=crf / crf=18.5 / qcomp=0.60 / qpstep=4 / stats-write=0 / stats-read=0 / vbv-maxrate=50000 / vbv-bufsize=50000 / vbv-init=0.9 / crf-max=30.0 / crf-min=0.0 / ipratio=1.40 / pbratio=1.30 / aq-mode=2 / aq-strength=1.00 / no-cutree / zone-count=0 / no-strict-cbr / qg-size=32 / no-rc-grain / qpmax=69 / qpmin=0 / no-const-vbv / sar=1 / overscan=0 / videoformat=5 / range=0 / colorprim=1 / transfer=1 / colormatrix=1 / chromaloc=0 / display-window=0cll=0,0 / min-luma=0 / max-luma=1023 / log2-max-poc-lsb=8 / vui-timing-info / vui-hrd-info / slices=1 / no-opt-qp-pps / no-opt-ref-list-length-pps / no-multi-pass-opt-rps / scenecut-bias=0.05 / no-opt-cu-delta-qp / aq-motion / no-hdr / no-hdr-opt / no-dhdr10-opt / no-idr-recovery-sei / analysis-reuse-level=5 / scale-factor=0 / refine-intra=0 / refine-inter=0 / refine-mv=0 / refine-ctu-distortion=0 / no-limit-sao / ctu-info=0 / no-lowpass-dct / refine-analysis-type=101713937 / copy-pic=1 / max-ausize-factor=1.0 / no-dynamic-refine / no-single-sei / no-hevc-aq / no-svt / no-field / qp-adaptation-range=1.00
Language : English
Default : Yes
Forced : No
Color range : Limited
Color primaries : BT.709
Transfer characteristics : BT.709
Matrix coefficients : BT.709
Audio #1
ID : 2
Format : AC-3
Format/Info : Audio Coding 3
Commercial name : Dolby Digital
Codec ID : A_AC3
Duration : 2 h 1 min
Bit rate mode : Constant
Bit rate : 640 kb/s
Channel(s) : 6 channels
Channel layout : L R C LFE Ls Rs
Sampling rate : 48.0 kHz
Frame rate : 31.250 FPS (1536 SPF)
Bit depth : 16 bits
Compression mode : Lossy
Stream size : 554 MiB (8%)
Title : DUB [License]
Language : Russian
Default : Yes
Forced : No
Audio #2
ID : 3
Format : AC-3
Format/Info : Audio Coding 3
Commercial name : Dolby Digital
Codec ID : A_AC3
Duration : 2 h 0 min
Bit rate mode : Constant
Bit rate : 192 kb/s
Channel(s) : 2 channels
Channel layout : L R
Sampling rate : 48.0 kHz
Frame rate : 31.250 FPS (1536 SPF)
Bit depth : 16 bits
Compression mode : Lossy
Stream size : 166 MiB (2%)
Title : MVO [СВ Студия]
Language : Russian
Default : No
Forced : No
Audio #3
ID : 4
Format : AC-3
Format/Info : Audio Coding 3
Commercial name : Dolby Digital
Codec ID : A_AC3
Duration : 2 h 1 min
Bit rate mode : Constant
Bit rate : 192 kb/s
Channel(s) : 2 channels
Channel layout : L R
Sampling rate : 48.0 kHz
Frame rate : 31.250 FPS (1536 SPF)
Bit depth : 16 bits
Compression mode : Lossy
Stream size : 166 MiB (2%)
Title : DUB [AAASound]
Language : Ukrainian
Default : No
Forced : No
Audio #4
ID : 5
Format : AC-3
Format/Info : Audio Coding 3
Commercial name : Dolby Digital
Codec ID : A_AC3
Duration : 2 h 1 min
Bit rate mode : Constant
Bit rate : 448 kb/s
Channel(s) : 6 channels
Channel layout : L R C LFE Ls Rs
Sampling rate : 48.0 kHz
Frame rate : 31.250 FPS (1536 SPF)
Bit depth : 16 bits
Compression mode : Lossy
Stream size : 388 MiB (5%)
Title : Original
Language : English
Default : No
Forced : No
Text #1
ID : 6
Format : UTF-8
Codec ID : S_TEXT/UTF8
Codec ID/Info : UTF-8 Plain Text
Duration : 1 h 48 min
Bit rate : 1 b/s
Count of elements : 21
Stream size : 1.01 KiB (0%)
Title : Forced
Language : Russian
Default : Yes
Forced : Yes
Text #2
ID : 7
Format : UTF-8
Codec ID : S_TEXT/UTF8
Codec ID/Info : UTF-8 Plain Text
Duration : 2 h 0 min
Bit rate : 85 b/s
Count of elements : 1543
Stream size : 75.7 KiB (0%)
Title : Full (cens.)
Language : Russian
Default : No
Forced : No
Text #3
ID : 8
Format : UTF-8
Codec ID : S_TEXT/UTF8
Codec ID/Info : UTF-8 Plain Text
Duration : 2 h 0 min
Bit rate : 84 b/s
Count of elements : 1547
Stream size : 74.4 KiB (0%)
Title : Full (no cens.)
Language : Russian
Default : No
Forced : No
Text #4
ID : 9
Format : UTF-8
Codec ID : S_TEXT/UTF8
Codec ID/Info : UTF-8 Plain Text
Duration : 1 h 48 min
Bit rate : 1 b/s
Count of elements : 21
Stream size : 1.06 KiB (0%)
Title : Forced
Language : Ukrainian
Default : No
Forced : No
Text #5
ID : 10
Format : UTF-8
Codec ID : S_TEXT/UTF8
Codec ID/Info : UTF-8 Plain Text
Duration : 2 h 0 min
Bit rate : 53 b/s
Count of elements : 1528
Stream size : 46.7 KiB (0%)
Title : Full
Language : English
Default : No
Forced : No
Text #6
ID : 11
Format : UTF-8
Codec ID : S_TEXT/UTF8
Codec ID/Info : UTF-8 Plain Text
Duration : 2 h 0 min
Bit rate : 59 b/s
Count of elements : 1899
Stream size : 52.9 KiB (0%)
Title : SDH
Language : English
Default : No
Forced : No
Menu
00:00:00.000 : en:Chapter 01
00:08:54.284 : en:Chapter 02
00:14:41.714 : en:Chapter 03
00:22:34.853 : en:Chapter 04
00:30:12.602 : en:Chapter 05
00:35:48.730 : en:Chapter 06
00:43:50.461 : en:Chapter 07
00:53:17.611 : en:Chapter 08
01:01:09.791 : en:Chapter 09
01:09:24.786 : en:Chapter 10
01:17:32.606 : en:Chapter 11
01:26:07.579 : en:Chapter 12
01:28:37.896 : en:Chapter 13
01:37:58.456 : en:Chapter 14
01:45:49.969 : en:Chapter 15
01:51:06.660 : en:Chapter 16

Скриншоты

admin

Post 04-Oct-2019 18:10

[Quote]

Информация о фильме
Название: Снегоуборщик
Оригинальное название: Cold Pursuit
Год выхода: 2019
Жанр: Боевик, триллер, драма
Режиссер: Ханс Петтер Муланд
В ролях: Лиам Нисон, Лора Дерн, Эмми Россум, Том Бейтман, Уильям Форсайт, Джулия Джонс, Дэвид О`Хара, Доменик Ломбардоззи, Элисия Ротару, Эмили Мэддисон, Майкл Нисон, Майкл Эклунд, Брэдли Страйкер, Уэсли МакИннес

О фильме: Мистер Коксман — примерный семьянин и уважаемый гражданин, размеренная жизнь которого заканчивается, когда наркоторговцы убивают его сына. В поисках справедливости он с ледяным хладнокровием начинает изощренно убирать бандитов одного за другим.
Страна: Великобритания, Норвегия, Канада, США, Франция
Студия: Mas Films, Paradox Films, StudioCanal
Продолжительность: 01:59:00
Перевод: Дублированный | Лицензия
Качество: BDRemux 2160p
Видео: 3840x2160 at 23.976 fps, MPEG-H HEVC HDR Video, 62000 kbps avg
Звук:
Аудио #01: 48 kHz, DTS-HD MA, 5.1, 3381 Kbps | iTunes | RUS |
Аудио #02: 48 kHz, TrueHD, 7.1, 3955 Kbps | Оригинал | ENG |
Аудио #03: 48 kHz, AC3, 5.1, 640 Kbps | Оригинал | ENG |
Субтитры: Русские (Forced, full), английские

Скриншоты

MI

General
Unique ID : 233178252929355726138177083056271886777 (0xAF6C7F7AF0754A138C513BBEB97B89B9)
Complete name : E:RelizesCold.Pursuit.2019.Lic.BDREMUX.2160p.HDR.seleZen.mkv
Format : Matroska
Format version : Version 4
File size : 58.2 GiB
Duration : 1 h 59 min
Overall bit rate mode : Variable
Overall bit rate : 70.0 Mb/s
Movie name : Cold Pursuit 2019 from селезень
Encoded date : UTC 2019-10-02 14:18:50
Writing application : mkvmerge v22.0.0 ('At The End Of The World') 64-bit
Writing library : libebml v1.3.5 + libmatroska v1.4.8
Video
ID : 1
Format : HEVC
Format/Info : High Efficiency Video Coding
Format profile : Main 10@L5.1@High
HDR format : SMPTE ST 2086, HDR10 compatible
Codec ID : V_MPEGH/ISO/HEVC
Duration : 1 h 59 min
Bit rate : 62.0 Mb/s
Width : 3 840 pixels
Height : 2 160 pixels
Display aspect ratio : 16:9
Frame rate mode : Constant
Frame rate : 23.976 (24000/1001) FPS
Color space : YUV
Chroma subsampling : 4:2:0 (Type 2)
Bit depth : 10 bits
Bits/(Pixel*Frame) : 0.312
Stream size : 51.5 GiB (89%)
Language : English
Default : Yes
Forced : No
Color range : Limited
Color primaries : BT.2020
Transfer characteristics : PQ
Matrix coefficients : BT.2020 non-constant
Mastering display color pri : Display P3
Mastering display luminance : min: 0.0001 cd/m2, max: 1000 cd/m2
Maximum Content Light Level : 1000 cd/m2
Maximum Frame-Average Light : 288 cd/m2
Audio #1
ID : 2
Format : DTS XLL
Format/Info : Digital Theater Systems
Commercial name : DTS-HD Master Audio
Codec ID : A_DTS
Duration : 1 h 58 min
Bit rate mode : Variable
Bit rate : 3 381 kb/s
Channel(s) : 6 channels
Channel layout : C L R Ls Rs LFE
Sampling rate : 48.0 kHz
Frame rate : 93.750 FPS (512 SPF)
Bit depth : 24 bits
Compression mode : Lossless
Stream size : 2.81 GiB (5%)
Title : Dub [License]
Language : Russian
Default : Yes
Forced : Yes
Audio #2
ID : 3
Format : MLP FBA 16-ch
Format/Info : Meridian Lossless Packing FBA with 16-channel presentation
Commercial name : Dolby TrueHD with Dolby Atmos
Codec ID : A_TRUEHD
Duration : 1 h 59 min
Bit rate mode : Variable
Bit rate : 3 955 kb/s
Maximum bit rate : 6 264 kb/s
Channel(s) : 8 channels
Channel layout : L R C LFE Ls Rs Lb Rb
Sampling rate : 48.0 kHz
Frame rate : 1 200.000 FPS (40 SPF)
Compression mode : Lossless
Stream size : 3.29 GiB (6%)
Title : Original
Language : English
Default : No
Forced : No
Number of dynamic objects : 15
Bed channel count : 1 channel
Bed channel configuration : LFE
Audio #3
ID : 4
Format : AC-3
Format/Info : Audio Coding 3
Commercial name : Dolby Digital
Codec ID : A_AC3
Duration : 1 h 59 min
Bit rate mode : Constant
Bit rate : 640 kb/s
Channel(s) : 6 channels
Channel layout : L R C LFE Ls Rs
Sampling rate : 48.0 kHz
Frame rate : 31.250 FPS (1536 SPF)
Bit depth : 16 bits
Compression mode : Lossy
Stream size : 545 MiB (1%)
Language : English
Service kind : Complete Main
Default : No
Forced : No
Text #1
ID : 5
Format : UTF-8
Codec ID : S_TEXT/UTF8
Codec ID/Info : UTF-8 Plain Text
Duration : 1 h 48 min
Bit rate : 1 b/s
Count of elements : 19
Stream size : 1 009 Bytes (0%)
Title : Forced
Language : Russian
Default : Yes
Forced : Yes
Text #2
ID : 6
Format : UTF-8
Codec ID : S_TEXT/UTF8
Codec ID/Info : UTF-8 Plain Text
Duration : 1 h 49 min
Bit rate : 62 b/s
Count of elements : 979
Stream size : 50.3 KiB (0%)
Title : Full
Language : Russian
Default : No
Forced : No
Text #3
ID : 7
Format : UTF-8
Codec ID : S_TEXT/UTF8
Codec ID/Info : UTF-8 Plain Text
Duration : 1 h 47 min
Bit rate : 40 b/s
Count of elements : 968
Stream size : 31.9 KiB (0%)
Language : English
Default : No
Forced : No
Menu
00:00:00.000 : en:Chapter 01
00:07:26.946 : en:Chapter 02
00:13:19.257 : en:Chapter 03
00:21:35.211 : en:Chapter 04
00:29:35.649 : en:Chapter 05
00:38:18.880 : en:Chapter 06
00:45:11.876 : en:Chapter 07
00:53:08.310 : en:Chapter 08
01:01:23.513 : en:Chapter 09
01:05:46.359 : en:Chapter 10
01:14:04.857 : en:Chapter 11
01:22:21.186 : en:Chapter 12
01:31:40.954 : en:Chapter 13
01:38:46.879 : en:Chapter 14
01:45:20.939 : en:Chapter 15
01:47:43.540 : en:Chapter 16

admin

Post 17-Sep-2019 13:33

[Quote]

Информация о фильме
Название: Человек-паук: Вдали от дома
Оригинальное название: Spider-Man: Far from Home
Год выхода: 2019
Жанр: Фантастика, боевик, приключения
Режиссер: Джон Уоттс
В ролях: Том Холланд (II), Зендая Колеман, Энгаури Райс, Джон Фавро, Джейк Джилленхол, Сэмюэл Л. Джексон, Коби Смолдерс, Мариса Томей, Мартин Старр, Нуман Аджар, Джейкоб Баталон, Тони Револори

О фильме: Питер Паркер вместе с друзьями отправляется на летние каникулы в Европу. Однако отдохнуть приятелям вряд ли удастся - Питеру придется согласиться помочь Нику Фьюри раскрыть тайну существ, вызывающих стихийные бедствия и разрушения по всему континенту.
Страна: США
Студия: Columbia Pictures, Marvel Studios, Pascal Pictures
Продолжительность: 02:09:23
Перевод: Профессиональный многоголосый | HDRezka Studio
Качество: WEB-DL 2160p
Видео: 3840x2160 at 23.976 fps, MPEG-H HEVC HDR Video, 24400 kbps avg
Аудио #01: 48 kHz, AC3, 2.0, 192 Kbps | HDRezka Studio | RUS |
Аудио #02: 48 kHz, E-AC3+Atmos, 5.1, 448 Kbps | Оригинал | ENG |
Субтитры: Английские

Скриншоты

MI

General
Unique ID : 9233958955647792927854698405893347664 (0x6F26553874641CECA30C66CBA799950)
Complete name : D:Video111Spider-Man.Far.from.Home.2019.WEB-DL.2160p.HDR.seleZen.mkv
Format : Matroska
Format version : Version 4
File size : 22.6 GiB
Duration : 2 h 9 min
Overall bit rate : 25.0 Mb/s
Movie name : Spider-Man Far from Home 2019 from селезень
Encoded date : UTC 2019-09-17 08:53:17
Writing application : mkvmerge v22.0.0 ('At The End Of The World') 64-bit
Writing library : libebml v1.3.5 + libmatroska v1.4.8
Video
ID : 1
Format : HEVC
Format/Info : High Efficiency Video Coding
Format profile : Main 10@L5@High
HDR format : SMPTE ST 2086, HDR10 compatible
Codec ID : V_MPEGH/ISO/HEVC
Duration : 2 h 9 min
Bit rate : 24.4 Mb/s
Width : 3 840 pixels
Height : 1 608 pixels
Original height : 2 160 pixels
Display aspect ratio : 16:9
Frame rate mode : Constant
Frame rate : 23.976 (24000/1001) FPS
Color space : YUV
Chroma subsampling : 4:2:0 (Type 2)
Bit depth : 10 bits
Bits/(Pixel*Frame) : 0.165
Stream size : 22.0 GiB (97%)
Language : English
Default : Yes
Forced : No
Color range : Limited
Color primaries : BT.2020
Transfer characteristics : PQ
Matrix coefficients : BT.2020 non-constant
Mastering display color pri : Display P3
Mastering display luminance : min: 0.0001 cd/m2, max: 1000 cd/m2
Maximum Content Light Level : 10000 cd/m2
Maximum Frame-Average Light : 595 cd/m2
Audio #1
ID : 2
Format : AC-3
Format/Info : Audio Coding 3
Commercial name : Dolby Digital
Codec ID : A_AC3
Duration : 2 h 9 min
Bit rate mode : Constant
Bit rate : 192 kb/s
Channel(s) : 2 channels
Channel layout : L R
Sampling rate : 48.0 kHz
Frame rate : 31.250 FPS (1536 SPF)
Bit depth : 16 bits
Compression mode : Lossy
Stream size : 178 MiB (1%)
Title : MVO [HDRezka Studio]
Language : Russian
Service kind : Complete Main
Default : Yes
Forced : Yes
Audio #2
ID : 3
Format : E-AC-3 JOC
Format/Info : Enhanced AC-3 with Joint Object Coding
Commercial name : Dolby Digital Plus with Dolby Atmos
Codec ID : A_EAC3
Duration : 2 h 9 min
Bit rate mode : Constant
Bit rate : 448 kb/s
Channel(s) : 6 channels
Channel layout : L R C LFE Ls Rs
Sampling rate : 48.0 kHz
Frame rate : 31.250 FPS (1536 SPF)
Compression mode : Lossy
Stream size : 415 MiB (2%)
Title : Original
Language : English
Service kind : Complete Main
Default : No
Forced : No
Complexity index : 16
Number of dynamic objects : 15
Bed channel count : 1 channel
Bed channel configuration : LFE
Text #1
ID : 4
Format : UTF-8
Codec ID : S_TEXT/UTF8
Codec ID/Info : UTF-8 Plain Text
Duration : 2 h 7 min
Bit rate : 62 b/s
Count of elements : 1749
Stream size : 58.2 KiB (0%)
Title : Full
Language : English
Default : No
Forced : No
Text #2
ID : 5
Format : UTF-8
Codec ID : S_TEXT/UTF8
Codec ID/Info : UTF-8 Plain Text
Duration : 2 h 8 min
Bit rate : 68 b/s
Count of elements : 1929
Stream size : 64.0 KiB (0%)
Title : SDH
Language : English
Default : No
Forced : No
Menu
00:00:00.000 : en:Studio Logo
00:00:33.000 : en:A mysterious cyclone
00:01:47.000 : en:Title Sequence
00:02:24.000 : en:Moving on after The Blip
00:04:11.000 : en:Peter has a plan to woo MJ
00:05:53.000 : en:A benefit for the homeless
00:08:37.000 : en:Big shoes to fill
00:09:34.000 : en:Peter needs a vacation
00:14:51.000 : en:Arriving in Venice
00:18:20.000 : en:Peter finds the perfect gift for MJ
00:19:33.000 : en:A surprise attack on Venice
00:25:18.000 : en:An unexpected visitor
00:30:35.000 : en:The myths of Elementals
00:34:23.000 : en:A hijacked summer vacation
00:39:26.000 : en:A powerful gift from Tony
00:41:56.000 : en:Danger in Prague
00:49:49.000 : en:Fighting the fire Elemental
00:57:09.000 : en:The truth about Quentin Beck
01:04:50.000 : en:Taking advantage of their last night in the city
01:10:30.000 : en:Mysterio puts his plan into action
01:13:42.000 : en:Peter heads to Berlin to warn Fury
01:17:50.000 : en:The power of illusions
01:22:48.000 : en:Peter wakes up in the Netherlands
01:25:39.000 : en:Happy offers Peter some advice
01:29:24.000 : en:Everything converges in London
01:35:08.000 : en:Fighting the illusion from the inside
01:43:34.000 : en:The power of the Peter-tingle
01:49:01.000 : en:Nothing goes according to plan
01:52:16.000 : en:Arriving back home
01:55:33.000 : en:End Credits
01:57:41.000 : en:Title Sequence
01:57:45.000 : en:BONUS: End Credit Scene 1
01:59:23.000 : en:End Credits
02:07:17.000 : en:BONUS: End Credit Scene 2
02:08:56.000 : en:Acknowledgement

admin

Post 08-Sep-2019 08:07

[Quote]

Информация о фильме
Название: Тайная жизнь домашних животных 2
Оригинальное название: The Secret Life of Pets 2
Год выхода: 2019
Жанр: Мультфильм, комедия, приключения, семейный
Режиссер: Крис Рено, Джонатан дель Валь
В ролях: Пэттон Освальт, Кевин Харт, Харрисон Форд, Эрик Стоунстрит, Дженни Слейт, Тиффани Хэддиш, Лэйк Белл, Дэна Карви, Бобби Мойнахан, Хэннибал Бёресс
О фильме:
Сюжет комедийного мультика расскажет о новых приключениях всем полюбившимся пушистых персонажей. Их тайная жизнь продолжает идти полным ходом - они весело проводят время играя с друзьями, общаются, проказничают и ходят в гости. Эта пестрая компания никогда не даст себе заскучать, постоянно придумывая себе очередные забавы. Однако на сей раз их беззаботное времяпрепровождение омрачается тревожной новостью. Главный герой - любознательный пес по кличке Макс обнаружил странное поведение у домашних животных, посещающих ветеринарную клинику доктора Френсиса. Тамошние звери начинают вести себя неадекватно и пугающе, проявляя необъяснимую агрессию после приема лекарств, предписанных коварным врачом.

Страна: США, Франция, Япония
Студия: Illumination Entertainment, Universal Pictures
Продолжительность: 01:26:03
Перевод: Дублированный | iTunes
Профессиональный многоголосый | (HDRezka Studio)
Файл
Кодек: H.265
Качество: UHD BDRip-HEVC 2160p
Видео: 3840x2076 at 23.976 fps, MPEG-H HEVC SDR Video, 23300 kbps avg
Звук:
Аудио: AC3, 6 ch, 384 Kbps - Русский_Дублированное [iTunes- Лицензия]
Аудио: AC3, 2 ch, 192 Kbps - Русский_Многоголосый профессиональный (HDRezka Studio)
Аудио: TrueHD Atmos, 8 ch, 3318 Kbps - Английский
Аудио: AC3, 6 ch, 640 Kbps - Английский
Субтитры: Русские, английские
Семпл

MediaInfo

Общее
Уникальный идентификатор : 189115384766648368686915234977284874252 (0x8E464C59E44DB760B13296A3270BE00C)
Полное имя : D:\Передел\The.Secret.Life.of.Pets.2.2019.2160p.x265.10bit.SDR.Master5.mkv
Формат : Matroska
Версия формата : Version 4
Размер файла : 16,8 Гбайт
Продолжительность : 1 ч. 26 м.
Режим общего битрейта : Переменный
Общий поток : 27,9 Мбит/сек
Название фильма : The.Secret.Life.of.Pets.2.2019.2160p.x265.10bit.SDR.Master5
Дата кодирования : UTC 2019-09-06 12:40:06
Программа кодирования : mkvmerge v7.9.0 ('Birds') 64bit
Библиотека кодирования : libebml v1.3.1 + libmatroska v1.4.2
Обложка : Yes
Attachments : cover_land.jpg / small_cover.jpg / small_cover_land.jpg / cover.jpg
Видео
Идентификатор : 1
Формат : HEVC
Формат/Информация : High Efficiency Video Coding
Профиль формата : Main 10@L5.1@High
Идентификатор кодека : V_MPEGH/ISO/HEVC
Продолжительность : 1 ч. 26 м.
Битрейт : 23,3 Мбит/сек
Ширина : 3840 пикселей
Высота : 2076 пикселей
Соотношение сторон : 1,85:1
Режим частоты кадров : Постоянный
Частота кадров : 23,976 (24000/1001) кадра/сек
Цветовое пространство : YUV
Субдискретизация насыщенности : 4:2:0
Битовая глубина : 10 бит
Бит/(Пиксели*Кадры) : 0.122
Размер потока : 14,0 Гбайт (83%)
Заголовок : The.Secret.Life.of.Pets.2.2019.2160p.x265.10bit.SDR.Master5
Библиотека кодирования : x265 3.0+1-ed72af837053:[Windows][GCC 8.2.0][64 bit] 10bit
Настройки программы : cpuid=1111039 / frame-threads=16 / numa-pools=44,44 / wpp / no-pmode / no-pme / no-psnr / no-ssim / log-level=2 / input-csp=1 / input-res=3840x2076 / interlace=0 / total-frames=123817 / level-idc=51 / high-tier=1 / uhd-bd=0 / ref=3 / no-allow-non-conformance / repeat-headers / annexb / aud / hrd / info / hash=0 / no-temporal-layers / no-open-gop / min-keyint=1 / keyint=24 / gop-lookahead=0 / bframes=6 / b-adapt=2 / b-pyramid / bframe-bias=0 / rc-lookahead=25 / lookahead-slices=4 / scenecut=40 / radl=0 / no-splice / no-intra-refresh / ctu=64 / min-cu-size=8 / no-rect / no-amp / max-tu-size=32 / tu-inter-depth=1 / tu-intra-depth=1 / limit-tu=0 / rdoq-level=0 / dynamic-rd=0.00 / no-ssim-rd / signhide / no-tskip / nr-intra=0 / nr-inter=0 / no-constrained-intra / strong-intra-smoothing / max-merge=2 / limit-refs=3 / no-limit-modes / me=1 / subme=2 / merange=57 / temporal-mvp / weightp / no-weightb / no-analyze-src-pics / deblock=1:1 / no-sao / no-sao-non-deblock / rd=3 / no-early-skip / rskip / no-fast-intra / no-tskip-fast / no-cu-lossless / no-b-intra / no-splitrd-skip / rdpenalty=0 / psy-rd=0.40 / psy-rdoq=0.00 / no-rd-refine / no-lossless / cbqpoffs=0 / crqpoffs=0 / rc=crf / crf=12.0 / qcomp=0.60 / qpstep=4 / stats-write=0 / stats-read=0 / vbv-maxrate=160000 / vbv-bufsize=160000 / vbv-init=0.9 / crf-max=0.0 / crf-min=0.0 / ipratio=1.40 / pbratio=1.30 / aq-mode=1 / aq-strength=0.40 / cutree / zone-count=0 / no-strict-cbr / qg-size=32 / no-rc-grain / qpmax=69 / qpmin=0 / no-const-vbv / sar=1 / overscan=0 / videoformat=5 / range=0 / colorprim=2 / transfer=2 / colormatrix=2 / chromaloc=0 / display-window=0 / max-cll=0,0 / min-luma=0 / max-luma=1023 / log2-max-poc-lsb=8 / vui-timing-info / vui-hrd-info / slices=1 / opt-qp-pps / opt-ref-list-length-pps / no-multi-pass-opt-rps / scenecut-bias=0.05 / no-opt-cu-delta-qp / no-aq-motion / no-hdr / no-hdr-opt / no-dhdr10-opt / no-idr-recovery-sei / analysis-reuse-level=5 / scale-factor=0 / refine-intra=0 / refine-inter=0 / refine-mv=0 / refine-ctu-distortion=0 / no-limit-sao / ctu-info=0 / no-lowpass-dct / refine-analysis-type=0 / copy-pic=1 / max-ausize-factor=1.0 / no-dynamic-refine / no-single-sei / no-hevc-aq / qp-adaptation-range=1.00
Default : Да
Forced : Нет
Аудио #1
Идентификатор : 2
Формат : AC-3
Формат/Информация : Audio Coding 3
Коммерческое название : Dolby Digital
Идентификатор кодека : A_AC3
Продолжительность : 1 ч. 26 м.
Вид битрейта : Постоянный
Битрейт : 384 Кбит/сек
Каналы : 6 каналов
Channel layout : L R C LFE Ls Rs
Частота : 48,0 КГц
Частота кадров : 31,250 кадров/сек (1536 SPF)
Битовая глубина : 16 бит
Метод сжатия : С потерями
Размер потока : 236 Мбайт (1%)
Заголовок : iTunes
Язык : Russian
ServiceKind/String : Complete Main
Default : Да
Forced : Да
Аудио #2
Идентификатор : 3
Формат : AC-3
Формат/Информация : Audio Coding 3
Коммерческое название : Dolby Digital
Идентификатор кодека : A_AC3
Продолжительность : 1 ч. 26 м.
Вид битрейта : Постоянный
Битрейт : 192 Кбит/сек
Каналы : 2 канала
Channel layout : L R
Частота : 48,0 КГц
Частота кадров : 31,250 кадров/сек (1536 SPF)
Битовая глубина : 16 бит
Метод сжатия : С потерями
Размер потока : 118 Мбайт (1%)
Заголовок : MVO HDRezka Studio
Язык : Russian
ServiceKind/String : Complete Main
Default : Нет
Forced : Нет
Аудио #3
Идентификатор : 4
Формат : MLP FBA 16-ch
Формат/Информация : Meridian Lossless Packing FBA with 16-channel presentation
Коммерческое название : Dolby TrueHD with Dolby Atmos
Идентификатор кодека : A_TRUEHD
Продолжительность : 1 ч. 26 м.
Вид битрейта : Переменный
Битрейт : 3318 Кбит/сек
Максимальный битрейт : 4644 Кбит/сек
Каналы : 8 каналов
Channel layout : L R C LFE Ls Rs Lb Rb
Частота : 48,0 КГц
Частота кадров : 1200,000 кадров/сек (40 SPF)
Метод сжатия : Без потерь
Размер потока : 1,99 Гбайт (12%)
Язык : English
Default : Нет
Forced : Нет
Number of dynamic objects : 11
Bed channel count : 1 канал
Bed channel configuration : LFE
Аудио #4
Идентификатор : 5
Формат : AC-3
Формат/Информация : Audio Coding 3
Коммерческое название : Dolby Digital
Идентификатор кодека : A_AC3
Продолжительность : 1 ч. 26 м.
Вид битрейта : Постоянный
Битрейт : 640 Кбит/сек
Каналы : 6 каналов
Channel layout : L R C LFE Ls Rs
Частота : 48,0 КГц
Частота кадров : 31,250 кадров/сек (1536 SPF)
Битовая глубина : 16 бит
Метод сжатия : С потерями
Размер потока : 394 Мбайт (2%)
Заголовок : Original
Язык : English
ServiceKind/String : Complete Main
Default : Нет
Forced : Нет
Текст #1
Идентификатор : 6
Формат : UTF-8
Идентификатор кодека : S_TEXT/UTF8
Идентификатор кодека/Информация : UTF-8 Plain Text
Продолжительность : 1 ч. 25 м.
Битрейт : 74 бит/сек
ElementCount : 1157
Размер потока : 46,9 Кбайт (0%)
Заголовок : Full
Язык : Russian
Default : Нет
Forced : Нет
Текст #2
Идентификатор : 7
Формат : UTF-8
Идентификатор кодека : S_TEXT/UTF8
Идентификатор кодека/Информация : UTF-8 Plain Text
Продолжительность : 1 ч. 25 м.
Битрейт : 47 бит/сек
ElementCount : 1229
Размер потока : 29,9 Кбайт (0%)
Заголовок : English-SRT
Язык : English
Default : Нет
Forced : Нет
Текст #3
Идентификатор : 8
Формат : UTF-8
Идентификатор кодека : S_TEXT/UTF8
Идентификатор кодека/Информация : UTF-8 Plain Text
Продолжительность : 1 ч. 25 м.
Битрейт : 77 бит/сек
ElementCount : 1924
Размер потока : 48,5 Кбайт (0%)
Заголовок : English-SDH-SRT
Язык : English
Default : Нет
Forced : Нет
Текст #4
Идентификатор : 9
Формат : PGS
Режим смешивания : zlib
Идентификатор кодека : S_HDMV/PGS
Идентификатор кодека/Информация : Picture based subtitle format used on BDs/HD-DVDs
Продолжительность : 1 ч. 25 м.
Битрейт : 15,7 Кбит/сек
ElementCount : 3286
Размер потока : 9,58 Мбайт (0%)
Заголовок : English-PGS
Язык : English
Default : Нет
Forced : Нет
Текст #5
Идентификатор : 10
Формат : UTF-8
Идентификатор кодека : S_TEXT/UTF8
Идентификатор кодека/Информация : UTF-8 Plain Text
Продолжительность : 1 ч. 25 м.
Битрейт : 53 бит/сек
ElementCount : 1324
Размер потока : 33,3 Кбайт (0%)
Заголовок : Full
Язык : English
Default : Нет
Forced : Нет
Меню
00:00:00.000 : en:1
00:05:35.543 : en:2
00:10:08.816 : en:3
00:13:27.306 : en:4
00:16:40.791 : en:5
00:19:57.946 : en:6
00:24:11.073 : en:7
00:28:16.735 : en:8
00:30:55.267 : en:9
00:35:16.110 : en:10
00:39:56.974 : en:11
00:45:48.325 : en:12
00:49:52.819 : en:13
00:56:55.991 : en:14
00:58:36.215 : en:15
01:02:49.927 : en:16
01:07:17.611 : en:17
01:12:49.818 : en:18
01:15:22.803 : en:19
01:18:11.011 : en:20

Скриншоты

admin

Post 08-Sep-2019 07:48

[Quote]

Информация о фильме
Название: Люди Икс: Тёмный Феникс
Оригинальное название: Dark Phoenix
Год выхода: 2019
Жанр: Фантастика, боевик, приключения
Режиссер: Саймон Кинберг
В ролях: Джеймс МакЭвой, Майкл Фассбендер, Дженнифер Лоуренс, Николас Холт, Софи Тёрнер, Тай Шеридан, Александра Шипп, Эван Питерс, Коди Смит-МакФи, Джессика Честейн

О фильме: История Джин Грей, которая разворачивается в тот момент, когда героиня превращается в культового Тёмного Феникса. Во время опасной для жизни спасательной миссии в космосе девушка оказывается поражена таинственной космической силой, которая превращает её в одного из самых могущественных мутантов. В борьбе с этой всё более изменчивой мощью и со своими собственными демонами Джин выходит из-под контроля: раскалывает семью Людей Икс и угрожает уничтожить всю нашу планету.
Страна: США
Студия: Twentieth Century Fox, Bad Hat Harry Productions, Donners' Company
Продолжительность: 01:53:56
Перевод: Дублированный | Лицензия
Качество: BDRemux 2160p
Видео: 3840x2160 at 23.976 fps, MPEG-H HEVC HDR Video, 49700 kbps avg
Звук:
Аудио #01: 48 kHz, DTS, 5.1, 768 Kbps | Дублированный | RUS |
Аудио #02: 48 kHz, AC3, 5.1, 448 Kbps | Дублированный | RUS |
Аудио #03: 48 kHz, TrueHD, 7.1, 4775 Kbps | Оригинал | ENG |
Аудио #04: 48 kHz, AC3, 5.1, 640 Kbps | Оригинал | ENG |
Субтитры: Русские (2 x Forced, 2 x full), английские

Скриншоты

MI

General
Unique ID : 143881136092801801840626171755761698028 (0x6C3E7FB432C5555935D4A6B3E24F04EC)
Complete name : D:Video111Dark.Phoenix.2019.BDREMUX.2160p.HDR.seleZen.mkv
Format : Matroska
Format version : Version 4
File size : 44.9 GiB
Duration : 1 h 53 min
Overall bit rate mode : Variable
Overall bit rate : 56.4 Mb/s
Movie name : Dark Phoenix 2019 4K from селезень
Encoded date : UTC 2019-09-07 19:45:50
Writing application : mkvmerge v22.0.0 ('At The End Of The World') 64-bit
Writing library : libebml v1.3.5 + libmatroska v1.4.8
Video
ID : 1
Format : HEVC
Format/Info : High Efficiency Video Coding
Format profile : Main 10@L5.1@High
HDR format : SMPTE ST 2094 App 4, Version 1, HDR10+ Profile A compatible
Codec ID : V_MPEGH/ISO/HEVC
Duration : 1 h 53 min
Bit rate : 49.7 Mb/s
Width : 3 840 pixels
Height : 2 160 pixels
Display aspect ratio : 16:9
Frame rate mode : Constant
Frame rate : 23.976 (24000/1001) FPS
Color space : YUV
Chroma subsampling : 4:2:0 (Type 2)
Bit depth : 10 bits
Bits/(Pixel*Frame) : 0.250
Stream size : 39.6 GiB (88%)
Writing library : ATEME Titan File 3.9.0 (4.9.0.0)
Language : English
Default : Yes
Forced : No
Color range : Limited
Color primaries : BT.2020
Transfer characteristics : PQ
Matrix coefficients : BT.2020 non-constant
Mastering display color pri : Display P3
Mastering display luminance : min: 0.0050 cd/m2, max: 1000 cd/m2
Audio #1
ID : 2
Format : DTS
Format/Info : Digital Theater Systems
Codec ID : A_DTS
Duration : 1 h 53 min
Bit rate mode : Constant
Bit rate : 768 kb/s
Channel(s) : 6 channels
Channel layout : C L R Ls Rs LFE
Sampling rate : 48.0 kHz
Frame rate : 93.750 FPS (512 SPF)
Bit depth : 24 bits
Compression mode : Lossy
Stream size : 626 MiB (1%)
Title : Dub [License]
Language : Russian
Default : Yes
Forced : Yes
Audio #2
ID : 3
Format : AC-3
Format/Info : Audio Coding 3
Commercial name : Dolby Digital
Codec ID : A_AC3
Duration : 1 h 53 min
Bit rate mode : Constant
Bit rate : 448 kb/s
Channel(s) : 6 channels
Channel layout : L R C LFE Ls Rs
Sampling rate : 48.0 kHz
Frame rate : 31.250 FPS (1536 SPF)
Bit depth : 16 bits
Compression mode : Lossy
Stream size : 365 MiB (1%)
Title : Dub [License]
Language : Russian
Service kind : Complete Main
Default : No
Forced : No
Audio #3
ID : 4
Format : MLP FBA 16-ch
Format/Info : Meridian Lossless Packing FBA with 16-channel presentation
Commercial name : Dolby TrueHD with Dolby Atmos
Codec ID : A_TRUEHD
Duration : 1 h 53 min
Bit rate mode : Variable
Bit rate : 4 775 kb/s
Maximum bit rate : 7 464 kb/s
Channel(s) : 8 channels
Channel layout : L R C LFE Ls Rs Lb Rb
Sampling rate : 48.0 kHz
Frame rate : 1 200.000 FPS (40 SPF)
Compression mode : Lossless
Stream size : 3.80 GiB (8%)
Title : Original
Language : English
Default : No
Forced : No
Number of dynamic objects : 13
Bed channel count : 1 channel
Bed channel configuration : LFE
Audio #4
ID : 5
Format : AC-3
Format/Info : Audio Coding 3
Commercial name : Dolby Digital
Codec ID : A_AC3
Duration : 1 h 53 min
Bit rate mode : Constant
Bit rate : 640 kb/s
Channel(s) : 6 channels
Channel layout : L R C LFE Ls Rs
Sampling rate : 48.0 kHz
Frame rate : 31.250 FPS (1536 SPF)
Bit depth : 16 bits
Compression mode : Lossy
Stream size : 522 MiB (1%)
Language : English
Service kind : Complete Main
Default : No
Forced : No
Text #1
ID : 6
Format : UTF-8
Codec ID : S_TEXT/UTF8
Codec ID/Info : UTF-8 Plain Text
Duration : 1 h 34 min
Bit rate : 0 b/s
Count of elements : 9
Stream size : 371 Bytes (0%)
Title : Forced [License]
Language : Russian
Default : Yes
Forced : Yes
Text #2
ID : 7
Format : UTF-8
Codec ID : S_TEXT/UTF8
Codec ID/Info : UTF-8 Plain Text
Duration : 1 h 52 min
Bit rate : 55 b/s
Count of elements : 1094
Stream size : 46.0 KiB (0%)
Title : Full [License]
Language : Russian
Default : No
Forced : No
Text #3
ID : 8
Format : UTF-8
Codec ID : S_TEXT/UTF8
Codec ID/Info : UTF-8 Plain Text
Duration : 1 h 52 min
Bit rate : 1 b/s
Count of elements : 18
Stream size : 1.03 KiB (0%)
Title : Forced [Enigma]
Language : Russian
Default : No
Forced : No
Text #4
ID : 9
Format : UTF-8
Codec ID : S_TEXT/UTF8
Codec ID/Info : UTF-8 Plain Text
Duration : 1 h 52 min
Bit rate : 63 b/s
Count of elements : 1137
Stream size : 52.9 KiB (0%)
Title : Full [Enigma]
Language : Russian
Default : No
Forced : No
Text #5
ID : 10
Format : UTF-8
Codec ID : S_TEXT/UTF8
Codec ID/Info : UTF-8 Plain Text
Duration : 1 h 52 min
Bit rate : 38 b/s
Count of elements : 1135
Stream size : 31.5 KiB (0%)
Title : Full
Language : English
Default : No
Forced : No
Text #6
ID : 11
Format : UTF-8
Codec ID : S_TEXT/UTF8
Codec ID/Info : UTF-8 Plain Text
Duration : 1 h 53 min
Bit rate : 43 b/s
Count of elements : 1414
Stream size : 36.4 KiB (0%)
Title : SDH
Language : English
Default : No
Forced : No
Menu
00:00:00.000 : en:Chapter 01
00:03:28.541 : en:Chapter 02
00:07:33.995 : en:Chapter 03
00:11:41.867 : en:Chapter 04
00:15:43.776 : en:Chapter 05
00:18:37.074 : en:Chapter 06
00:25:24.147 : en:Chapter 07
00:31:40.023 : en:Chapter 08
00:34:18.973 : en:Chapter 09
00:40:07.113 : en:Chapter 10
00:44:35.756 : en:Chapter 11
00:49:07.319 : en:Chapter 12
00:55:37.834 : en:Chapter 13
00:58:57.075 : en:Chapter 14
01:02:55.521 : en:Chapter 15
01:10:39.777 : en:Chapter 16
01:13:42.084 : en:Chapter 17
01:19:32.893 : en:Chapter 18
01:22:35.367 : en:Chapter 19
01:25:48.351 : en:Chapter 20
01:30:37.849 : en:Chapter 21
01:32:47.603 : en:Chapter 22
01:37:59.290 : en:Chapter 23
01:45:00.711 : en:Chapter 24
 

Current time is: 08-Apr 07:25

All times are UTC + 3