Search found 147 matches

Author Message

admin

Post 13-May-2022 20:57

[Quote]

Информация о фильме
Название: Варяг
Оригинальное название: The Northman
Год выхода: 2022
Жанр: Фэнтези, боевик, триллер, драма, приключения, история
Режиссер: Роберт Эггерс
В ролях: Александр Скарсгард, Николь Кидман, Клас Банг, Итэн Хоук, Аня Тейлор-Джой, Густав Линд, Эллиотт Роуз, Уиллем Дефо, Фил Мартин, Эльдар Скар и другие.
О фильме:
Фильм основан на саге о Амлете из древнескандинавской хроники, записанной Саксоном Грамматиком. Сюжет рассказывает о том, как викинг Фьолнир убивает своего брата, конунга Хорвендила, и берёт в жёны его супругу Гудрун. Амлет, сын Хорвендила, скрывается и клянётся отомстить убийце отца. Когда Амлет становится старше, он объединяется со славянской ведьмой Ольгой, похищенной викингами, и стремится вернуться домой, чтобы убить Фьолнира.

Страна: США
Студия: Focus Features, Perfect World (Beijing) Pictures Co., Regency Television, Square Peg, Universal Pictures
Продолжительность: 02:17:00
Перевод: Профессиональный многоголосый (NewComers)
Файл
Качество: WEB-DL-HEVC 2160p | 4K | HDR | P | NewComers
Видео: HEVC/H.265, 3840x2160, ~24,3 Мbps, 23,976 fps
Звук:
Аудио 1: AC3, 6 ch, 384 Kbps - Русский
Аудио 2: E-AC3, 6 ch, 768 Kbps - Английский
Субтитры: Русские (Forced, Full), английские (Forced, Full, SDH)

Mediainfo

Общее
Уникальный идентификатор : 113653150372720254377005971180383468176 (0x5580CCF159101B0970D13A4F9AA97A90)
Полное имя : The Northman.2022.HDR.WEB-DL.2160p.W.mkv
Формат : Matroska
Версия формата : Version 4
Размер файла : 24,4 Гбайт
Продолжительность : 2 ч. 17 м.
Общий поток : 25,4 Мбит/сек
Название фильма : The Northman.2022.HDR.WEB-DL.2160p.W
Дата кодирования : UTC 2022-05-12 17:13:39
Программа кодирования : mkvmerge v23.0.0 ('The Bride Said No') 64-bit
Библиотека кодирования : libebml v1.3.6 + libmatroska v1.4.9
Видео
Идентификатор : 1
Формат : HEVC
Формат/Информация : High Efficiency Video Coding
Профиль формата : Main 10@L5@High
HDR format : SMPTE ST 2086, HDR10 compatible
Идентификатор кодека : V_MPEGH/ISO/HEVC
Продолжительность : 2 ч. 17 м.
Битрейт : 24,3 Мбит/сек
Ширина : 3 840 пикселей
Высота : 2 160 пикселей
Соотношение сторон : 16:9
Режим частоты кадров : Постоянный
Частота кадров : 23,976 (24000/1001) кадра/сек
Цветовое пространство : YUV
Субдискретизация насыщенности : 4:2:0 (Type 2)
Битовая глубина : 10 бит
Бит/(Пиксели*Кадры) : 0.122
Размер потока : 23,3 Гбайт (95%)
Язык : English
Default : Да
Forced : Нет
Цветовой диапазон : Limited
Основные цвета : BT.2020
Характеристики трансфера : PQ
Коэффициенты матрицы : BT.2020 non-constant
Mastering display color primaries : BT.2020
Mastering display luminance : min: 0.0050 cd/m2, max: 1000 cd/m2
Maximum Content Light Level : 1000 cd/m2
Maximum Frame-Average Light Level : 81 cd/m2
Аудио #1
Идентификатор : 2
Формат : AC-3
Формат/Информация : Audio Coding 3
Коммерческое название : Dolby Digital
Идентификатор кодека : A_AC3
Продолжительность : 2 ч. 17 м.
Вид битрейта : Постоянный
Битрейт : 384 Кбит/сек
Каналы : 6 каналов
Channel layout : L R C LFE Ls Rs
Частота : 48,0 КГц
Частота кадров : 31,250 кадров/сек (1536 SPF)
Метод сжатия : С потерями
Размер потока : 377 Мбайт (2%)
Заголовок : NewComers
Язык : Russian
Service kind : Complete Main
Default : Да
Forced : Нет
Аудио #2
Идентификатор : 3
Формат : E-AC-3 JOC
Формат/Информация : Enhanced AC-3 with Joint Object Coding
Коммерческое название : Dolby Digital Plus with Dolby Atmos
Идентификатор кодека : A_EAC3
Продолжительность : 2 ч. 17 м.
Вид битрейта : Постоянный
Битрейт : 768 Кбит/сек
Каналы : 6 каналов
Channel layout : L R C LFE Ls Rs
Частота : 48,0 КГц
Частота кадров : 31,250 кадров/сек (1536 SPF)
Метод сжатия : С потерями
Размер потока : 753 Мбайт (3%)
Язык : English
Service kind : Complete Main
Default : Нет
Forced : Нет
Complexity index : 16
Number of dynamic objects : 15
Bed channel count : 1 канал
Bed channel configuration : LFE
Текст #1
Идентификатор : 4
Формат : UTF-8
Идентификатор кодека : S_TEXT/UTF8
Идентификатор кодека/Информация : UTF-8 Plain Text
Продолжительность : 2 ч. 0 м.
Битрейт : 0 бит/сек
Count of elements : 8
Размер потока : 214 байт (0%)
Заголовок : Forced
Язык : Russian
Default : Да
Forced : Нет
Текст #2
Идентификатор : 5
Формат : UTF-8
Идентификатор кодека : S_TEXT/UTF8
Идентификатор кодека/Информация : UTF-8 Plain Text
Продолжительность : 2 ч. 8 м.
Битрейт : 49 бит/сек
Count of elements : 981
Размер потока : 46,8 Кбайт (0%)
Заголовок : Full
Язык : Russian
Default : Нет
Forced : Нет
Текст #3
Идентификатор : 6
Формат : UTF-8
Идентификатор кодека : S_TEXT/UTF8
Идентификатор кодека/Информация : UTF-8 Plain Text
Продолжительность : 1 ч. 39 м.
Битрейт : 1 бит/сек
Count of elements : 33
Размер потока : 1,11 Кбайт (0%)
Заголовок : Forced
Язык : English
Default : Нет
Forced : Нет
Текст #4
Идентификатор : 7
Формат : UTF-8
Идентификатор кодека : S_TEXT/UTF8
Идентификатор кодека/Информация : UTF-8 Plain Text
Продолжительность : 2 ч. 16 м.
Битрейт : 26 бит/сек
Count of elements : 1128
Размер потока : 26,7 Кбайт (0%)
Язык : English
Default : Нет
Forced : Нет
Текст #5
Идентификатор : 8
Формат : UTF-8
Идентификатор кодека : S_TEXT/UTF8
Идентификатор кодека/Информация : UTF-8 Plain Text
Продолжительность : 2 ч. 16 м.
Битрейт : 41 бит/сек
Count of elements : 1733
Размер потока : 41,5 Кбайт (0%)
Заголовок : SDH
Язык : English
Default : Нет
Forced : Нет
Меню
00:00:00.000 : en:Chapter 1
00:08:51.000 : en:Chapter 2
00:15:45.000 : en:Chapter 3
00:22:01.000 : en:Chapter 4
00:30:20.000 : en:Chapter 5
00:39:40.000 : en:Chapter 6
00:46:13.000 : en:Chapter 7
00:51:38.000 : en:Chapter 8
00:58:08.000 : en:Chapter 9
01:05:16.000 : en:Chapter 10
01:11:49.000 : en:Chapter 11
01:16:43.000 : en:Chapter 12
01:23:29.000 : en:Chapter 13
01:27:09.000 : en:Chapter 14
01:35:35.000 : en:Chapter 15
01:40:54.000 : en:Chapter 16
01:46:30.000 : en:Chapter 17
01:55:36.000 : en:Chapter 18
02:00:58.000 : en:Chapter 19
02:08:31.000 : en:Chapter 20

Скриншоты

admin

Post 25-Apr-2022 01:44

[Quote]

Информация о фильме
Название: Наёмник
Оригинальное название: The Contractor
Год выхода: 2022
Жанр: Боевик, триллер
Режиссер: Тарик Салех
В ролях: Крис Пайн, Бен Фостер, Гиллиан Джейкобс, Эдди Марсан, Фарес Фарес, Нина Хосс, Дж.Д. Пардо, Кифер Сазерленд, Флориан Мунтяну, Тейт Флетчер

О фильме: Служба в армии с детства была мечтой Джеймса Рида, а зеленый берет - предметом гордости. Но после ранений он остается не у дел: в мирном обществе ему нет места, а состояние здоровья приходится поддерживать медикаментами, не всегда самыми «чистыми». И когда подворачивается возможность снова взяться за старое ремесло, бывший солдат не медлит. Но теперь выбор, на кого направить оружие, лежит полностью на нём.
Страна: США
Студия: 30WEST, Icon Films
Продолжительность: 01:43:38
Перевод: Дублированный | IVI
Качество: WEB-DL 2160p
Видео: 3840x1600 at 23.976 fps, MPEG-H HEVC HDR, ~ 14900 kbps avg
Аудио #01: 48 kHz, AC3, 5.1, 384 Kbps | Дублированный | RUS |
Аудио #02: 48 kHz, E-AC3, 5.1, 640 Kbps | Оригинал | ENG |
Субтитры: Английские

Скриншоты

MI

General
Unique ID : 37643610035258627326613949302488281066 (0x1C51E5449C7887F3ABC313752A21AFEA)
Complete name : D:Video1The.Contractor.2022.WEB-DL.2160p.HDR.seleZen.mkv
Format : Matroska
Format version : Version 4
File size : 11.5 GiB
Duration : 1 h 43 min
Overall bit rate : 15.9 Mb/s
Movie name : The Contractor 2022 from seleZen
Encoded date : UTC 2022-04-22 14:58:06
Writing application : mkvmerge v59.0.0 ('Shining Star') 64-bit
Writing library : libebml v1.4.2 + libmatroska v1.6.4
Video
ID : 1
Format : HEVC
Format/Info : High Efficiency Video Coding
Format profile : Main 10@L5@Main
HDR format : SMPTE ST 2094 App 4, Version 1, HDR10+ Profile B compatible
Codec ID : V_MPEGH/ISO/HEVC
Duration : 1 h 43 min
Bit rate : 14.9 Mb/s
Width : 3 840 pixels
Height : 1 600 pixels
Display aspect ratio : 2.40:1
Frame rate mode : Constant
Frame rate : 23.976 (24000/1001) FPS
Color space : YUV
Chroma subsampling : 4:2:0
Bit depth : 10 bits
Bits/(Pixel*Frame) : 0.101
Stream size : 10.8 GiB (94%)
Language : English
Default : Yes
Forced : No
Color range : Limited
Color primaries : BT.2020
Transfer characteristics : PQ
Matrix coefficients : BT.2020 non-constant
Mastering display color pri : Display P3
Mastering display luminance : min: 0.0001 cd/m2, max: 1000 cd/m2
Maximum Content Light Level : 264 cd/m2
Maximum Frame-Average Light : 114 cd/m2
Audio #1
ID : 2
Format : AC-3
Format/Info : Audio Coding 3
Commercial name : Dolby Digital
Codec ID : A_AC3
Duration : 1 h 43 min
Bit rate mode : Constant
Bit rate : 384 kb/s
Channel(s) : 6 channels
Channel layout : L R C LFE Ls Rs
Sampling rate : 48.0 kHz
Frame rate : 31.250 FPS (1536 SPF)
Compression mode : Lossy
Stream size : 285 MiB (2%)
Title : Dub
Language : Russian
Service kind : Complete Main
Default : Yes
Forced : Yes
Audio #2
ID : 3
Format : E-AC-3
Format/Info : Enhanced AC-3
Commercial name : Dolby Digital Plus
Codec ID : A_EAC3
Duration : 1 h 43 min
Bit rate mode : Constant
Bit rate : 640 kb/s
Channel(s) : 6 channels
Channel layout : L R C LFE Ls Rs
Sampling rate : 48.0 kHz
Frame rate : 31.250 FPS (1536 SPF)
Compression mode : Lossy
Stream size : 474 MiB (4%)
Title : Original
Language : English
Service kind : Complete Main
Default : No
Forced : No
Text #1
ID : 4
Format : UTF-8
Codec ID : S_TEXT/UTF8
Codec ID/Info : UTF-8 Plain Text
Duration : 1 h 36 min
Bit rate : 42 b/s
Count of elements : 1020
Stream size : 30.2 KiB (0%)
Title : Full
Language : English
Default : No
Forced : No
Text #2
ID : 5
Format : UTF-8
Codec ID : S_TEXT/UTF8
Codec ID/Info : UTF-8 Plain Text
Duration : 1 h 36 min
Bit rate : 42 b/s
Count of elements : 1020
Stream size : 30.2 KiB (0%)
Title : SDH
Language : English
Default : No
Forced : No
Menu
00:00:00.000 : Amazon Original
00:00:06.000 : Studio Logo
00:00:33.000 : Scene 3
00:01:28.000 : Scene 4
00:03:33.000 : Scene 5
00:08:39.000 : Scene 6
00:10:41.000 : Scene 7
00:15:12.000 : Scene 8
00:21:12.000 : Scene 9
00:22:47.000 : Scene 10
00:26:26.000 : Scene 11
00:28:26.000 : Scene 12
00:30:25.000 : Scene 13
00:33:31.000 : Scene 14
00:44:02.000 : Scene 15
00:47:44.000 : Scene 16
00:49:44.000 : Scene 17
00:55:08.000 : Scene 18
00:58:06.000 : Scene 19
01:05:49.000 : Scene 20
01:12:15.000 : Scene 21
01:21:02.000 : Scene 22
01:22:36.000 : Scene 23
01:26:48.000 : Scene 24
01:30:58.000 : Scene 25
01:36:42.000 : Scene 26
01:37:43.000 : End Credits

admin

Post 20-Apr-2022 02:02

[Quote]

Информация о фильме
Название: Бэтмен
Оригинальное название: The Batman
Год выхода: 2022
Жанр: Боевик, драма, криминал, детектив
Режиссер: Мэтт Ривз
В ролях: Роберт Паттинсон, Зои Кравиц, Колин Фаррелл, Джеффри Райт, Пол Дано, Джейми Лоусон, Энди Серкис, Джон Туртурро, Питер Сарсгаард, Кон О’Нилл, Макс Карвер, Чарли Карвер, Марк Киллин
О фильме:
Два года борьбы с преступностью под маской Бэтмена приводят Брюса Уэйна в самые темные закоулки Готэм-сити. Когда объявляется загадочный убийца, угрожающий элите города, Бэтмен погружается в недра криминального мира, где на его пути оказывается Женщина-кошка Селина Кайл, Освальд Кобблпот, известный как Пингвин, Кармайн Фальконе и Эдвард Нэштон — он же Загадочник. С помощью своих союзников — Альфреда Пенниворта и лейтенанта Джеймса Гордона — Уэйну предстоит разоблачить злодея и восстановить справедливость среди коррумпированной власти, отравляющей жизнь Готэма.

Страна: США
Студия: Warner Bros.6th & Idaho Productions, DC Comics
Продолжительность: 02:56:12
Перевод: Профессиональный многоголосый [HDRezka Studio]
Файл
Формат: MKV
Кодек: H.265
Качество: WebDL 2160p
Видео: HEVC, HDR10, Dolby Vision Profile 8, 25 Mбит/с, 3840x2160, 23.976 кадр/с
Звук:
Аудио #1 Русский: AC3, 48.0 kHz, 5.1 ch, 448 Kbps [MVO, HDRezka Studio]
Аудио #2 English: EAC3 JOC, 48.0 kHz, 5.1 ch, 768 Kbps [Original]
Субтитры: русские (форс., 2 х полные), английские (полные, SDH)
Примечание: Гибридный релиз получен слиянием UHD Web-DL 2160p HDR + Web-DL 1080p Dolby vision RPU
Дополнительная информация:
Данный вид релизов в MKV сделан в 8-м профиле Dolby Vision для воспроизведении на устройствах с поддержкой DV. Протестировано на тв-боксах: Nvidia Shield 2019, Zidoo Z1000 Pro, Ugoos AM6+, TiVo Stream 4K, также на телевизорах с Android TV: Sony XG/XH и Phillips. На устройствах без поддержки Dolby Vision будет играть обычный HDR10.
Программные плееры для воспроизведения в DV(на поддерживаемых устройствах): Vimu Player 8.8.8(и выше), Kodi 19(специальная сборка с поддержкой DV), ExoPlayer, JustPlayer.

Mediainfo

Общее
Уникальный идентификатор : 255014251401318264571303624574618623344 (0xBFD9F55346763CFB187086733A44DD70)
Полное имя : Slid-NASFilmsThe.Batman.2022.2160p.WEB-DL.DDP5.1.Atmos.DoVi.Hybrid.P8.by.DVT.mkv
Формат : Matroska
Версия формата : Version 4
Размер файла : 32,3 Гбайт
Продолжительность : 2 ч. 56 м.
Общий поток : 26,2 Мбит/сек
Название фильма : The Batman (2022). Release by Dolby Vision Torrents
Дата кодирования : UTC 2022-04-19 07:53:31
Программа кодирования : mkvmerge v67.0.0 ('Under Stars') 64-bit
Библиотека кодирования : libebml v1.4.2 + libmatroska v1.6.4
Видео
Идентификатор : 1
Формат : HEVC
Формат/Информация : High Efficiency Video Coding
Профиль формата : Main 10@L5@High
HDR format : Dolby Vision, Version 1.0, dvhe.08.06, BL+RPU, HDR10 compatible / SMPTE ST 2086, HDR10 compatible
Идентификатор кодека : V_MPEGH/ISO/HEVC
Продолжительность : 2 ч. 56 м.
Битрейт : 25,0 Мбит/сек
Ширина : 3 840 пикселей
Высота : 2 160 пикселей
Соотношение сторон : 16:9
Режим частоты кадров : Постоянный
Частота кадров : 23,976 (24000/1001) кадра/сек
Цветовое пространство : YUV
Субдискретизация насыщенности : 4:2:0 (Type 2)
Битовая глубина : 10 бит
Бит/(Пиксели*Кадры) : 0.126
Размер потока : 30,8 Гбайт (95%)
Заголовок : The Batman (2022). Release by Dolby Vision Torrents
Язык : English
Default : Да
Forced : Нет
Цветовой диапазон : Limited
Основные цвета : BT.2020
Характеристики трансфера : PQ
Коэффициенты матрицы : BT.2020 non-constant
Mastering display color primaries : Display P3
Mastering display luminance : min: 0.0001 cd/m2, max: 1000 cd/m2
Maximum Content Light Level : 413 cd/m2
Maximum Frame-Average Light Level : 65 cd/m2
Аудио #1
Идентификатор : 2
Формат : AC-3
Формат/Информация : Audio Coding 3
Коммерческое название : Dolby Digital
Идентификатор кодека : A_AC3
Продолжительность : 2 ч. 56 м.
Вид битрейта : Постоянный
Битрейт : 448 Кбит/сек
Каналы : 6 каналов
Channel layout : L R C LFE Ls Rs
Частота : 48,0 КГц
Частота кадров : 31,250 кадров/сек (1536 SPF)
Метод сжатия : С потерями
Размер потока : 565 Мбайт (2%)
Заголовок : MVO, HDRezka Studio
Язык : Russian
Service kind : Complete Main
Default : Да
Forced : Нет
Аудио #2
Идентификатор : 3
Формат : E-AC-3 JOC
Формат/Информация : Enhanced AC-3 with Joint Object Coding
Коммерческое название : Dolby Digital Plus with Dolby Atmos
Идентификатор кодека : A_EAC3
Продолжительность : 2 ч. 56 м.
Вид битрейта : Постоянный
Битрейт : 768 Кбит/сек
Каналы : 6 каналов
Channel layout : L R C LFE Ls Rs
Частота : 48,0 КГц
Частота кадров : 31,250 кадров/сек (1536 SPF)
Метод сжатия : С потерями
Размер потока : 968 Мбайт (3%)
Заголовок : Original
Язык : English
Service kind : Complete Main
Default : Нет
Forced : Нет
Complexity index : 16
Number of dynamic objects : 15
Bed channel count : 1 канал
Bed channel configuration : LFE
Текст #1
Идентификатор : 4
Формат : UTF-8
Идентификатор кодека : S_TEXT/UTF8
Идентификатор кодека/Информация : UTF-8 Plain Text
Продолжительность : 2 ч. 34 м.
Битрейт : 3 бит/сек
Count of elements : 109
Размер потока : 4,35 Кбайт (0%)
Заголовок : Forced
Язык : Russian
Default : Да
Forced : Нет
Текст #2
Идентификатор : 5
Формат : UTF-8
Идентификатор кодека : S_TEXT/UTF8
Идентификатор кодека/Информация : UTF-8 Plain Text
Продолжительность : 2 ч. 46 м.
Битрейт : 83 бит/сек
Count of elements : 1898
Размер потока : 101 Кбайт (0%)
Заголовок : Full, Cool Story Blog
Язык : Russian
Default : Нет
Forced : Нет
Текст #3
Идентификатор : 6
Формат : UTF-8
Идентификатор кодека : S_TEXT/UTF8
Идентификатор кодека/Информация : UTF-8 Plain Text
Продолжительность : 2 ч. 46 м.
Битрейт : 76 бит/сек
Count of elements : 1907
Размер потока : 93,7 Кбайт (0%)
Заголовок : Full, FOCS
Язык : Russian
Default : Нет
Forced : Нет
Текст #4
Идентификатор : 7
Формат : UTF-8
Идентификатор кодека : S_TEXT/UTF8
Идентификатор кодека/Информация : UTF-8 Plain Text
Продолжительность : 2 ч. 43 м.
Битрейт : 45 бит/сек
Count of elements : 2040
Размер потока : 54,7 Кбайт (0%)
Заголовок : Full
Язык : English
Default : Нет
Forced : Нет
Текст #5
Идентификатор : 8
Формат : UTF-8
Идентификатор кодека : S_TEXT/UTF8
Идентификатор кодека/Информация : UTF-8 Plain Text
Продолжительность : 2 ч. 55 м.
Битрейт : 53 бит/сек
Count of elements : 2573
Размер потока : 69,3 Кбайт (0%)
Заголовок : SDH
Язык : English
Default : Нет
Forced : Нет

Скриншоты

admin

Post 09-Apr-2022 08:20

[Quote]

Информация о фильме
Название: Код 355
Оригинальное название: The 355
Год выхода: 2022
Жанр: Триллер, боевик
Режиссер: Саймон Кинберг
В ролях: Джессика Честейн, Дайан Крюгер, Пенелопа Крус, Лупита Нионго, Бинбин Фань, Себастьян Стэн, Эдгар Рамирес, Джейсон Вонг, Лео Стаар, Хитен Патель, Рафаэль Аклок, Эви Рэй

О фильме: Когда сверхсекретное оружие попадает не в те руки, агент ЦРУ Мэйс Браун (Джессика Честейн) объединяется с немецким агентом Мари (Дайан Крюгер), бывшей сотрудницей МИ-6 Хадижей (Лупита Нионго) и колумбийским психологом Грасиелой (Пенелопа Крус), чтобы вернуть его. Героиням противостоит загадочная Лин Ми Шень (Бинбин Фань), которая следит за каждым их шагом.
Страна: США, Китай
Студия: CAA Media Finance, FilmNation Entertainment, Freckle Films, Genre Films, Huayi Brothers Media, Perfect World (Beijing) Pictures Co., Universal Pictures
Продолжительность: 02:03:31
Перевод: Дублированный | СинеЛаб СаундМикс
Качество: BDRemux 2160p
Видео: 3840x2160 at 23.976 fps, MPEG-H HEVC HDR, Dolby Vision ~ 44900 kbps avg
Аудио #01: 48 kHz, AC3, 5.1, 384 Kbps | iTunes | RUS |
Аудио #02: 48 kHz, TrueHD, 7.1, 3206 Kbps | Оригинал | ENG |
Аудио #03: 48 kHz, AC3, 5.1, 640 Kbps | Оригинал | ENG |
Субтитры: Русские (Forced), английские

Скриншоты

MI

General
Unique ID : 148554013712818932500823105527950573934 (0x6FC2765BB51470085D5443DA3DF7816E)
Complete name : D:Video1The.355.2022.BDREMUX.2160p.HDR.DVP8.seleZen.mkv
Format : Matroska
Format version : Version 4
File size : 42.6 GiB
Duration : 2 h 3 min
Overall bit rate mode : Variable
Overall bit rate : 49.4 Mb/s
Movie name : The 355 2022 from seleZen
Encoded date : UTC 2022-04-08 11:54:01
Writing application : mkvmerge v59.0.0 ('Shining Star') 64-bit
Writing library : libebml v1.4.2 + libmatroska v1.6.4
Video
ID : 1
ID in the original source m : 4117 (0x1015)
Format : HEVC
Format/Info : High Efficiency Video Coding
Format profile : Main 10@L5.1@High
HDR format : Dolby Vision, Version 1.0, dvhe.08.06, BL+RPU, Blu-ray compatible / SMPTE ST 2086, HDR10 compatible
Codec ID : V_MPEGH/ISO/HEVC
Duration : 2 h 3 min
Bit rate : 44.9 Mb/s
Width : 3 840 pixels
Height : 2 160 pixels
Display aspect ratio : 16:9
Frame rate mode : Constant
Frame rate : 23.976 (24000/1001) FPS
Color space : YUV
Chroma subsampling : 4:2:0 (Type 2)
Bit depth : 10 bits
Bits/(Pixel*Frame) : 0.226
Stream size : 38.7 GiB (91%)
Language : English
Default : No
Forced : No
Color range : Limited
Color primaries : BT.2020
Transfer characteristics : PQ
Matrix coefficients : BT.2020 non-constant
Mastering display color pri : BT.2020
Mastering display luminance : min: 0.0001 cd/m2, max: 1000 cd/m2
Maximum Content Light Level : 868 cd/m2
Maximum Frame-Average Light : 367 cd/m2
Original source medium : Blu-ray
Audio #1
ID : 2
Format : AC-3
Format/Info : Audio Coding 3
Commercial name : Dolby Digital
Codec ID : A_AC3
Duration : 2 h 2 min
Bit rate mode : Constant
Bit rate : 640 kb/s
Channel(s) : 6 channels
Channel layout : L R C LFE Ls Rs
Sampling rate : 48.0 kHz
Frame rate : 31.250 FPS (1536 SPF)
Compression mode : Lossy
Stream size : 563 MiB (1%)
Title : Dub
Language : Russian
Service kind : Complete Main
Default : Yes
Forced : Yes
Audio #2
ID : 3
Format : MLP FBA 16-ch
Format/Info : Meridian Lossless Packing FBA with 16-channel presentation
Commercial name : Dolby TrueHD with Dolby Atmos
Codec ID : A_TRUEHD
Duration : 2 h 3 min
Bit rate mode : Variable
Bit rate : 3 206 kb/s
Maximum bit rate : 5 922 kb/s
Channel(s) : 8 channels
Channel layout : L R C LFE Ls Rs Lb Rb
Sampling rate : 48.0 kHz
Frame rate : 1 200.000 FPS (40 SPF)
Compression mode : Lossless
Stream size : 2.77 GiB (6%)
Title : Original
Language : English
Default : No
Forced : No
Number of dynamic objects : 13
Bed channel count : 1 channel
Bed channel configuration : LFE
Audio #3
ID : 4
Format : AC-3
Format/Info : Audio Coding 3
Commercial name : Dolby Digital
Codec ID : A_AC3
Duration : 2 h 3 min
Bit rate mode : Constant
Bit rate : 640 kb/s
Channel(s) : 6 channels
Channel layout : L R C LFE Ls Rs
Sampling rate : 48.0 kHz
Frame rate : 31.250 FPS (1536 SPF)
Compression mode : Lossy
Stream size : 565 MiB (1%)
Language : English
Service kind : Complete Main
Default : No
Forced : No
Text #1
ID : 5
Format : UTF-8
Codec ID : S_TEXT/UTF8
Codec ID/Info : UTF-8 Plain Text
Duration : 1 h 48 min
Bit rate : 0 b/s
Count of elements : 12
Stream size : 486 Bytes (0%)
Title : Forced
Language : Russian
Default : Yes
Forced : Yes
Text #2
ID : 6
Format : UTF-8
Codec ID : S_TEXT/UTF8
Codec ID/Info : UTF-8 Plain Text
Duration : 2 h 1 min
Bit rate : 48 b/s
Count of elements : 1608
Stream size : 43.2 KiB (0%)
Title : Full
Language : English
Default : No
Forced : No
Text #3
ID : 7
Format : UTF-8
Codec ID : S_TEXT/UTF8
Codec ID/Info : UTF-8 Plain Text
Duration : 2 h 2 min
Bit rate : 56 b/s
Count of elements : 1901
Stream size : 50.4 KiB (0%)
Title : SDH
Language : English
Default : No
Forced : No
Menu
00:00:00.000 : Глава 01
00:11:45.079 : Глава 02
00:20:22.638 : Глава 03
00:31:01.985 : Глава 04
00:40:39.520 : Глава 05
00:53:02.888 : Глава 06
01:02:58.274 : Глава 07
01:13:06.507 : Глава 08
01:22:14.763 : Глава 09
01:31:37.283 : Глава 10
01:38:45.336 : Глава 11
01:48:09.733 : Глава 12

admin

Post 09-Apr-2022 06:23

[Quote]

Информация о фильме
Название: Старые ножи
Оригинальное название: All the Old Knives
Год выхода: 2022
Жанр: Триллер
Режиссер: Янус Мец
В ролях: Крис Пайн, Тандиве Ньютон, Лоренс Фишбёрн, Джонатан Прайс, Кори Джонсон, Джонджо О’Нил, Ахд Камель, Дэвид Доусон, Нассер Мемарзиа, Орли Шука
О фильме:
Силия и Генри — бывшие напарники-агенты и любовники — после долгой разлуки как бы случайно встречаются в калифорнийском Кармеле. За ужином в уютном ресторанчике на берегу Тихого океана они вспоминают романтическое прошлое, не подозревая, что у каждого есть заказ.

Страна: США
Студия: Amazon Studios, Aurum Producciones S.A., Barry Linen Productions, Big Indie Pictures, Chockstone Pictures, Churchill Films, Jackson Pictures, Nick Wechsler Productions, The Mark Gordon Company
Продолжительность: 01:42:30
Перевод: Профессиональный многоголосый закадровый [NewComers]
Файл
Формат: MKV
Кодек: H.265
Качество: WebDL 2160p
Видео: HEVC, HDR, HDR10+, Dolby Vision Profile 5, 14,8 Mбит/с, 3840x1600, 23.976 кадр/с
Звук:
Аудио #1 Русский: AC3, 48.0 kHz, 5.1 ch, 384 Kbps [MVO, NewComers]
Аудио #2 English: EAC3, 48.0 kHz, 5.1 ch, 640 Kbps [Original]
Субтитры: русские (полные), английские (форс., полные, SDH)
Примечание: Гибридный релиз получен слиянием Web-DL 2160p HDR+ + Web-DL 2160p Dolby vision RPU
Дополнительная информация:
Данный вид релизов в MKV сделан в 8-м профиле Dolby Vision для воспроизведении на устройствах с поддержкой DV. Протестировано на тв-боксах: Nvidia Shield 2019, Zidoo Z1000 Pro, Ugoos AM6+, TiVo Stream 4K, также на телевизорах с Android TV: Sony XG/XH и Phillips. На устройствах без поддержки Dolby Vision будет играть обычный HDR10.
Программные плееры для воспроизведения в DV(на поддерживаемых устройствах): Vimu Player 8.8.8(и выше), Kodi 19(специальная сборка с поддержкой DV), ExoPlayer, JustPlayer.

Mediainfo

Общее
Уникальный идентификатор : 200584334906019748864383980724121569007 (0x96E723401D27111325FDF10A15DD06EF)
Полное имя : Slid-NASFilmsAll.the.Old.Knives.2022.AMZN.2160p.WEB-DL.DDP5.1.HDR10Plus.DoVi.Hybrid.P8.by.DVT.mkv
Формат : Matroska
Версия формата : Version 4
Размер файла : 11,3 Гбайт
Продолжительность : 1 ч. 42 м.
Общий поток : 15,8 Мбит/сек
Название фильма : All the Old Knives (2022). Release by Dolby Vision Torrents
Дата кодирования : UTC 2022-04-08 13:47:14
Программа кодирования : mkvmerge v66.0.0 ('Josie') 64-bit
Библиотека кодирования : libebml v1.4.2 + libmatroska v1.6.4
Attachments : Poster.jpg
Видео
Идентификатор : 1
Формат : HEVC
Формат/Информация : High Efficiency Video Coding
Профиль формата : Main 10@L5@Main
HDR format : Dolby Vision, Version 1.0, dvhe.08.06, BL+RPU, HDR10 compatible / SMPTE ST 2094 App 4, Version 1, HDR10+ Profile B compatible
Идентификатор кодека : V_MPEGH/ISO/HEVC
Продолжительность : 1 ч. 42 м.
Битрейт : 14,8 Мбит/сек
Ширина : 3 840 пикселей
Высота : 1 600 пикселей
Соотношение сторон : 2,40:1
Режим частоты кадров : Постоянный
Частота кадров : 23,976 (24000/1001) кадра/сек
Цветовое пространство : YUV
Субдискретизация насыщенности : 4:2:0
Битовая глубина : 10 бит
Бит/(Пиксели*Кадры) : 0.100
Размер потока : 10,6 Гбайт (94%)
Заголовок : All the Old Knives (2022). Release by Dolby Vision Torrents
Язык : English
Default : Да
Forced : Нет
Цветовой диапазон : Limited
Основные цвета : BT.2020
Характеристики трансфера : PQ
Коэффициенты матрицы : BT.2020 non-constant
Mastering display color primaries : Display P3
Mastering display luminance : min: 0.0001 cd/m2, max: 1000 cd/m2
Maximum Content Light Level : 852 cd/m2
Maximum Frame-Average Light Level : 66 cd/m2
Аудио #1
Идентификатор : 2
Формат : AC-3
Формат/Информация : Audio Coding 3
Коммерческое название : Dolby Digital
Идентификатор кодека : A_AC3
Продолжительность : 1 ч. 42 м.
Вид битрейта : Постоянный
Битрейт : 384 Кбит/сек
Каналы : 6 каналов
Channel layout : L R C LFE Ls Rs
Частота : 48,0 КГц
Частота кадров : 31,250 кадров/сек (1536 SPF)
Метод сжатия : С потерями
Размер потока : 282 Мбайт (2%)
Заголовок : MVO, NewComers
Язык : Russian
Service kind : Complete Main
Default : Да
Forced : Нет
Аудио #2
Идентификатор : 3
Формат : E-AC-3
Формат/Информация : Enhanced AC-3
Коммерческое название : Dolby Digital Plus
Идентификатор кодека : A_EAC3
Продолжительность : 1 ч. 42 м.
Вид битрейта : Постоянный
Битрейт : 640 Кбит/сек
Каналы : 6 каналов
Channel layout : L R C LFE Ls Rs
Частота : 48,0 КГц
Частота кадров : 31,250 кадров/сек (1536 SPF)
Метод сжатия : С потерями
Размер потока : 469 Мбайт (4%)
Заголовок : Original
Язык : English
Service kind : Complete Main
Default : Нет
Forced : Нет
Текст #1
Идентификатор : 4
Формат : UTF-8
Идентификатор кодека : S_TEXT/UTF8
Идентификатор кодека/Информация : UTF-8 Plain Text
Продолжительность : 1 ч. 40 м.
Битрейт : 74 бит/сек
Count of elements : 1029
Размер потока : 54,6 Кбайт (0%)
Заголовок : Full
Язык : Russian
Default : Нет
Forced : Нет
Текст #2
Идентификатор : 5
Формат : UTF-8
Идентификатор кодека : S_TEXT/UTF8
Идентификатор кодека/Информация : UTF-8 Plain Text
Продолжительность : 57 м. 8 с.
Битрейт : 2 бит/сек
Count of elements : 41
Размер потока : 1,04 Кбайт (0%)
Заголовок : Forced
Язык : English
Default : Нет
Forced : Нет
Текст #3
Идентификатор : 6
Формат : UTF-8
Идентификатор кодека : S_TEXT/UTF8
Идентификатор кодека/Информация : UTF-8 Plain Text
Продолжительность : 1 ч. 40 м.
Битрейт : 52 бит/сек
Count of elements : 1339
Размер потока : 38,9 Кбайт (0%)
Заголовок : Full
Язык : English
Default : Нет
Forced : Нет
Текст #4
Идентификатор : 7
Формат : UTF-8
Идентификатор кодека : S_TEXT/UTF8
Идентификатор кодека/Информация : UTF-8 Plain Text
Продолжительность : 1 ч. 40 м.
Битрейт : 56 бит/сек
Count of elements : 1427
Размер потока : 41,5 Кбайт (0%)
Заголовок : SDH
Язык : English
Default : Нет
Forced : Нет
Меню
00:00:00.000 : :en:Amazon Studios
00:00:21.000 : :en:Scene 2
00:02:53.000 : :en:Scene 3
00:06:48.000 : :en:Scene 4
00:10:06.000 : :en:Scene 5
00:15:40.000 : :en:Scene 6
00:21:16.000 : :en:Scene 7
00:24:54.000 : :en:Scene 8
00:28:49.000 : :en:Scene 9
00:33:42.000 : :en:Scene 10
00:36:20.000 : :en:Scene 11
00:40:01.000 : :en:Scene 12
00:46:39.000 : :en:Scene 13
00:50:56.000 : :en:Scene 14
00:53:22.000 : :en:Scene 15
01:00:52.000 : :en:Scene 16
01:02:45.000 : :en:Scene 17
01:10:37.000 : :en:Scene 18
01:15:31.000 : :en:Scene 19
01:17:12.000 : :en:Scene 20
01:20:46.000 : :en:Scene 21
01:24:16.000 : :en:Scene 22
01:33:20.000 : :en:Scene 23
01:37:07.000 : :en:End Credits

Скриншоты

admin

Post 07-Apr-2022 08:07

[Quote]

Информация о фильме
Название: Герой
Оригинальное название: A Hero
Год выхода: 2021
Жанр: триллер, драма
Режиссер: Асгар Фархади
В ролях: Амир Джадиди, Мосен Танабанде, Сахар Голдаст, Фереште Садре Орафай, Эхсан Гударзи, Сарина Фархади, Мариам Шахдаэй, Алиреза Джахандиде, Фаррох Нурбахт, Мохаммад Агхебати, Салех Каримеи, Али Ранджбари, Фатеме Таваколи, Амир Амири, Нагаме Гаванлоу
О фильме:
Рахим находится в тюрьме из-за непогашенного долга. Во время двухдневного отпуска он пытается убедить кредитора отозвать часть суммы. Но все идет не так, как планировалось.

Страна: Франция, Иран
Студия: arte France Cinéma, Asghar Farhadi Productions, Centre National de la Cinématographie (CNC), Institut Français, Memento Distribution, Memento Films International, Memento Films Production, Région Ile-de-France
Продолжительность: 02:08:02
Перевод: Любительский двухголосый [Pazl Voice]
Файл
Формат: MKV
Кодек: H.265
Качество: UHD WEB-DL 2160p[HYBRID]
Видео: HEVC HDR, Dolby Vision Profile 8, 14,9 Mбит/с, 3840x1600, 24.000 кадр/с
Звук:
Аудио #1 Русский: AC3, 48.0 kHz, 5.1 ch, 448 Kbps [DVO, Pazl Voice | Tnx.KinoPub]
Аудио #2 Персидский: EAC3, 48.0 kHz, 5.1 ch, 640 Kbps [Original]
Субтитры: русские (полные), английские (полные, SDH), персидский (SDH)
Примечание: Гибридный релиз получен слиянием UHD WEB-DL HDR + Web-DL 2160p Dolby vision RPU
Дополнительная информация:
Данный вид релизов в MKV сделан в 8-м профиле Dolby Vision для воспроизведении на устройствах с поддержкой DV. Протестировано на тв-боксах Nvidia Shield 2019, Zidoo Z1000 Pro, Ugoos AM6+, TiVo Stream 4K. Не точно подтверждено воспроизведение на телевизорах Sony XG/XH и Phillips. На устройствах без поддержки Dolby Vision будет играть обычный HDR10.
Программные плееры для воспроизведения в DV(на поддерживаемых устройствах): Vimu Player 8.8.8(и выше), Kodi 19(специальная сборка с поддержкой DV), ExoPlayer, JustPlayer.

Mediainfo

Общее
Уникальный идентификатор : 242659178348714383892058737250839835951 (0xB68E75317A47F465374548882734352F)
Полное имя : Slid-NASFilmsA.Hero.2021.AMZN.2160p.WEB-DL.DDP5.1.HDR10Plus.DoVi.Hybrid.P8.by.DVT.mkv
Формат : Matroska
Версия формата : Version 4
Размер файла : 14,3 Гбайт
Продолжительность : 2 ч. 8 м.
Общий поток : 16,0 Мбит/сек
Название фильма : A Hero (2021). Release by Dolby Vision Torrents
Дата кодирования : UTC 2022-02-10 07:32:34
Программа кодирования : mkvmerge v65.0.0 ('Too Much') 64-bit
Библиотека кодирования : libebml v1.4.2 + libmatroska v1.6.4
Видео
Идентификатор : 1
Формат : HEVC
Формат/Информация : High Efficiency Video Coding
Профиль формата : Main 10@L5@Main
HDR format : Dolby Vision, Version 1.0, dvhe.08.06, BL+RPU, HDR10 compatible / SMPTE ST 2094 App 4, Version 1, HDR10+ Profile B compatible
Идентификатор кодека : V_MPEGH/ISO/HEVC
Продолжительность : 2 ч. 8 м.
Битрейт : 14,9 Мбит/сек
Ширина : 3 840 пикселей
Высота : 1 600 пикселей
Соотношение сторон : 2,40:1
Режим частоты кадров : Постоянный
Частота кадров : 23,976 (24000/1001) кадра/сек
Цветовое пространство : YUV
Субдискретизация насыщенности : 4:2:0
Битовая глубина : 10 бит
Бит/(Пиксели*Кадры) : 0.101
Размер потока : 13,3 Гбайт (93%)
Заголовок : A Hero (2021). Release by Dolby Vision Torrents
Язык : Persian
Default : Да
Forced : Нет
Цветовой диапазон : Limited
Основные цвета : BT.2020
Характеристики трансфера : PQ
Коэффициенты матрицы : BT.2020 non-constant
Mastering display color primaries : Display P3
Mastering display luminance : min: 0.0001 cd/m2, max: 1000 cd/m2
Maximum Content Light Level : 1093 cd/m2
Maximum Frame-Average Light Level : 173 cd/m2
Аудио #1
Идентификатор : 2
Формат : AC-3
Формат/Информация : Audio Coding 3
Коммерческое название : Dolby Digital
Идентификатор кодека : A_AC3
Продолжительность : 2 ч. 8 м.
Вид битрейта : Постоянный
Битрейт : 448 Кбит/сек
Каналы : 6 каналов
Channel layout : L R C LFE Ls Rs
Частота : 48,0 КГц
Частота кадров : 31,250 кадров/сек (1536 SPF)
Метод сжатия : С потерями
Размер потока : 410 Мбайт (3%)
Заголовок : DVO, Pazl Voice
Язык : Russian
Service kind : Complete Main
Default : Да
Forced : Нет
Аудио #2
Идентификатор : 3
Формат : E-AC-3
Формат/Информация : Enhanced AC-3
Коммерческое название : Dolby Digital Plus
Идентификатор кодека : A_EAC3
Продолжительность : 2 ч. 8 м.
Вид битрейта : Постоянный
Битрейт : 640 Кбит/сек
Каналы : 6 каналов
Channel layout : L R C LFE Ls Rs
Частота : 48,0 КГц
Частота кадров : 31,250 кадров/сек (1536 SPF)
Метод сжатия : С потерями
Размер потока : 586 Мбайт (4%)
Заголовок : Original
Язык : Persian
Service kind : Complete Main
Default : Нет
Forced : Нет
Текст #1
Идентификатор : 4
Формат : UTF-8
Идентификатор кодека : S_TEXT/UTF8
Идентификатор кодека/Информация : UTF-8 Plain Text
Продолжительность : 2 ч. 3 м.
Битрейт : 103 бит/сек
Count of elements : 1621
Размер потока : 94,1 Кбайт (0%)
Заголовок : Full
Язык : Russian
Default : Нет
Forced : Нет
Текст #2
Идентификатор : 5
Формат : UTF-8
Идентификатор кодека : S_TEXT/UTF8
Идентификатор кодека/Информация : UTF-8 Plain Text
Продолжительность : 2 ч. 3 м.
Битрейт : 59 бит/сек
Count of elements : 1621
Размер потока : 53,8 Кбайт (0%)
Заголовок : Full
Язык : English
Default : Нет
Forced : Нет
Текст #3
Идентификатор : 6
Формат : UTF-8
Идентификатор кодека : S_TEXT/UTF8
Идентификатор кодека/Информация : UTF-8 Plain Text
Продолжительность : 2 ч. 6 м.
Битрейт : 59 бит/сек
Count of elements : 2166
Размер потока : 55,3 Кбайт (0%)
Заголовок : SDH
Язык : English
Default : Нет
Forced : Нет
Текст #4
Идентификатор : 7
Формат : UTF-8
Идентификатор кодека : S_TEXT/UTF8
Идентификатор кодека/Информация : UTF-8 Plain Text
Продолжительность : 2 ч. 6 м.
Битрейт : 137 бит/сек
Count of elements : 2104
Размер потока : 128 Кбайт (0%)
Заголовок : SDH
Язык : Persian
Default : Нет
Forced : Нет
Меню
00:00:00.000 : :Amazon Studios
00:00:20.000 : :Studio Logo
00:01:04.000 : :Scene 3
00:04:43.000 : :Title Sequence
00:04:54.000 : :Scene 5
00:06:50.000 : :Scene 6
00:08:21.000 : :Scene 7
00:09:38.000 : :Scene 8
00:11:48.000 : :Scene 9
00:15:13.000 : :Scene 10
00:19:07.000 : :Scene 11
00:20:08.000 : :Scene 12
00:21:52.000 : :Scene 13
00:23:16.000 : :Scene 14
00:25:20.000 : :Scene 15
00:27:05.000 : :Scene 16
00:30:34.000 : :Scene 17
00:31:36.000 : :Scene 18
00:34:48.000 : :Scene 19
00:38:50.000 : :Scene 20
00:40:41.000 : :Scene 21
00:44:16.000 : :Scene 22
00:46:01.000 : :Scene 23
00:47:58.000 : :Scene 24
00:48:16.000 : :Scene 25
00:48:48.000 : :Scene 26
00:53:34.000 : :Scene 27
00:58:16.000 : :Scene 28
01:01:45.000 : :Scene 29
01:03:41.000 : :Scene 30
01:04:49.000 : :Scene 31
01:06:20.000 : :Scene 32
01:07:47.000 : :Scene 33
01:09:03.000 : :Scene 34
01:11:36.000 : :Scene 35
01:14:01.000 : :Scene 36
01:15:28.000 : :Scene 37
01:17:10.000 : :Scene 38
01:25:14.000 : :Scene 39
01:31:30.000 : :Scene 40
01:35:08.000 : :Scene 41
01:37:57.000 : :Scene 42
01:39:52.000 : :Scene 43
01:43:31.000 : :Scene 44
01:44:41.000 : :Scene 45
01:49:46.000 : :Scene 46
01:50:37.000 : :Scene 47
01:53:09.000 : :Scene 48
02:00:39.000 : :Scene 49
02:02:36.000 : :Scene 50
02:05:22.000 : :End Credits

Скриншоты

admin

Post 05-Apr-2022 07:47

[Quote]

Информация о фильме
Название: Лучше Нейт, чем когда-либо
Оригинальное название: Better Nate Than Ever
Год выхода: 2022
Жанр: Мюзикл, драма, комедия, семейный
Режиссер: Тим Федерле
В ролях: Лиза Кудроу, Джошуа Бассетт, Руби Вуд, Норберт Лео Батц, Алекс Вонг, Эллин Мари Марш, Брэндон Эспиноза, Мишель Федерер, Мэнди Гонзалес, Присцилла Лопес
О фильме:
По мотивам одноименного романа Тима Федерле. 13-летний Нэйт Фостер мечтает стать большой звездой бродвейского мюзикла. Тем временем, Нэйт не может получить приличную роль в школьных постановках. Ему поручают роль дерева в припеве вместо главной роли, которую он жаждет. Лучшая подруга Либби планируют смелую поездку в Нью-Йорк без ведома родителей на прослушивание в «Лило и Стич: мюзикл», и Нэйт может таким образом приблизится к осуществлению своей мечты. Но сначала ему предстоит преодолеть ряд препятствий. По счастливой случайности Нэйт встречает свою давно потерянную тетю Хейди. Эта случайная встреча перевернет планы Нейта и Либби с ног на голову.

Страна: США
Студия: Disney+, Walt Disney Pictures, Marc Platt Productions
Продолжительность: 01:31:32
Перевод: Профессиональный многоголосый [Jaskier]
Файл
Формат: MP4
Кодек: H.265
Качество: WebDL 2160p
Видео: HEVC, Dolby Vision Profile 5, 16,4 Mбит/с, 3840x2160, 23.976 кадр/с
Звук:
Аудио #1 Русский: AC3, 48.0 kHz, 5.1 ch, 448 Kbps [MVO, Jaskier | Tnx.KinoPub]
Аудио #2 English: EAC3 JOC, 48.0 kHz, 5.1 ch, 768 Kbps [Original]
Субтитры: английские (SDH)
Дополнительная информация:
Релиз в MP4 в 5-м профиле Dolby Vision для воспроизведении на устройствах с поддержкой DV. Протестировано на тв-боксах Nvidia Shield 2019, Zidoo Z1000 Pro, Amazon FireTV Stick 4k, TiVo Stream 4K и Ugoos AM6+ и многих других, а также на встроенных плеерах телевизоров LG, Sony, Phillips и Panasonic.
На устройствах без поддержки Dolby Vision проигрываться не будет(или будет, но с искаженными цветами), так как в видеоряде отсутствует HDR слой

Mediainfo

Общее
Полное имя : Slid-NASFilmsBetter.Nate.Than.Ever.2022.DSNP.2160p.WEB-DL.DDP5.1.Atmos.DoVi.by.DVT.mp4
Формат : MPEG-4
Профиль формата : Base Media / Version 2
Идентификатор кодека : mp42 (isom/mp42/dby1)
Размер файла : 11,3 Гбайт
Продолжительность : 1 ч. 31 м.
Режим общего битрейта : Переменный
Общий поток : 17,6 Мбит/сек
Название фильма : Better Nate Than Ever (2022). Release by Dolby Vision Torrents
Дата кодирования : UTC 2022-04-04 10:43:11
Дата пометки : UTC 2022-04-04 10:43:11
Программа кодирования : GPAC-1.1.0-DEV-rev1027-g1daa0b5f-master
Видео
Идентификатор : 1
Формат : HEVC
Формат/Информация : High Efficiency Video Coding
Профиль формата : Main 10@L5@High
HDR format : Dolby Vision, Version 1.0, dvhe.05.06, BL+RPU
Идентификатор кодека : dvhe
Идентификатор кодека/Информация : High Efficiency Video Coding with Dolby Vision
Продолжительность : 1 ч. 31 м.
Битрейт : 16,4 Мбит/сек
Ширина : 3 840 пикселей
Высота : 2 160 пикселей
Соотношение сторон : 16:9
Режим частоты кадров : Постоянный
Частота кадров : 24,000 кадра/сек
Цветовое пространство : YUV
Субдискретизация насыщенности : 4:2:0
Битовая глубина : 10 бит
Бит/(Пиксели*Кадры) : 0.082
Размер потока : 10,5 Гбайт (93%)
Заголовок : Better Nate Than Ever (2022). Release by Dolby Vision Torrents
Язык : English
Default : Да
Alternate group : 1
Дата кодирования : UTC 2022-04-01 08:01:34
Дата пометки : UTC 2022-04-04 10:43:44
Цветовой диапазон : Full
Codec configuration box : hvcC+dvcC
Аудио #1
Идентификатор : 2
Формат : AC-3
Формат/Информация : Audio Coding 3
Коммерческое название : Dolby Digital
Идентификатор кодека : ac-3
Продолжительность : 1 ч. 31 м.
Вид битрейта : Постоянный
Битрейт : 448 Кбит/сек
Максимальный битрейт : 473 Кбит/сек
Каналы : 6 каналов
Channel layout : L R C LFE Ls Rs
Частота : 48,0 КГц
Частота кадров : 31,250 кадров/сек (1536 SPF)
Метод сжатия : С потерями
Размер потока : 293 Мбайт (3%)
Заголовок : MVO, Jaskier
Язык : Russian
Service kind : Complete Main
Дата кодирования : UTC 2022-04-04 10:43:35
Дата пометки : UTC 2022-04-04 10:43:44
Аудио #2
Идентификатор : 3
Формат : E-AC-3 JOC
Формат/Информация : Enhanced AC-3 with Joint Object Coding
Коммерческое название : Dolby Digital Plus with Dolby Atmos
Идентификатор кодека : ec-3
Продолжительность : 1 ч. 31 м.
Вид битрейта : Постоянный
Битрейт : 768 Кбит/сек
Максимальный битрейт : 811 Кбит/сек
Каналы : 6 каналов
Channel layout : L R C LFE Ls Rs
Частота : 48,0 КГц
Частота кадров : 31,250 кадров/сек (1536 SPF)
Метод сжатия : С потерями
Размер потока : 503 Мбайт (4%)
Заголовок : Original
Язык : English
Service kind : Complete Main
Default : Нет
Alternate group : 1
Дата пометки : UTC 2022-04-04 10:43:44
Complexity index : Not present / 16
Number of dynamic objects : 15
Bed channel count : 1 канал
Bed channel configuration : LFE
Текст
Идентификатор : 4
Формат : Timed Text
Идентификатор кодека : tx3g
Продолжительность : 1 ч. 28 м.
Вид битрейта : Переменный
Битрейт : 79 бит/сек
Размер потока : 51,1 Кбайт (0%)
Заголовок : SDH
Язык : English
Forced : Нет
Дата кодирования : UTC 2022-04-01 08:04:28
Дата пометки : UTC 2022-04-04 10:43:44

Скриншоты

Невозможно получить скрины с нормальными цветами с PC, так как невозможно захватить кадр слоя DV если в видеоряде отсутствуют метаданные HDR.

admin

Post 03-Apr-2022 05:36

[Quote]

Информация о фильме
Название: Опасная вечеринка
Оригинальное название: A Banquet
Год выхода: 2021
Жанр: ужасы, драма
Режиссер: Рут Пэкстон
В ролях: Сиенна Гиллори, Джессика Александр, Руби Стоукс, Линдси Дункан, Кейн Заджаз, Ричард Кип, Дека Уолмсли, Рина Махони, Уолтер Ван Дайк
О фильме:
После смерти мужа и отца семейство из матери и двух дочерей-подростков сталкивается с новой проблемой. Посетив вечеринку и впав в окрестном лесу в странное оцепенение, старшая дочь Бэтси теперь отказывается принимать пищу. Врачи не находят у девушки никаких отклонений, и она не теряет в весе, но теперь считает, что на неё возложена некая высшая миссия.

Выпущено: Великобритания / Tea Shop Productions, Riverstone Pictures, Reliance Entertainment Productions 8
Продолжительность: 01:37:10
Озвучивание: Дублированное | КиноПоиск HD
Файл
Формат: MKV
Качество: WEB-DL-HEVC 2160p
Видео: 12.1 Mb/s, 3832x1600
Аудио: Russian: AC3, 448 Kb/s (6 ch) / E-AC3, 448 Kb/s (6 ch), English: AC3, 384 Kb/s (6 ch)
Субтитры: Нет
Дополнительно: Нет

Инфо-файл:

Complete name : Opasnaya.vecherinka.2021.WEB-DL.2160p.ELEKTRI4KA.UNIONGANG.mkv
Format : Matroska
Format version : Version 4
File size : 9.32 GiB
Duration : 1 h 37 min
Overall bit rate : 13.7 Mb/s
Movie name : Opasnaya.vecherinka.2021.WEB-DL.1080p.ELEKTRI4KA.UNIONGANG.
Encoded date : UTC 2022-04-01 19:23:25
Writing application : mkvmerge v8.3.0 ('Over the Horizon') 32bit
Writing library : libebml v1.3.1 + libmatroska v1.4.2
Video
ID : 1
Format : HEVC
Format/Info : High Efficiency Video Coding
Format profile : Main 10@L5@High
Codec ID : V_MPEGH/ISO/HEVC
Duration : 1 h 37 min
Bit rate : 12.1 Mb/s
Width : 3 832 pixels
Height : 1 600 pixels
Display aspect ratio : 2.40:1
Frame rate mode : Constant
Frame rate : 24.000 FPS
Color space : YUV
Chroma subsampling : 4:2:0
Bit depth : 10 bits
Bits/(Pixel*Frame) : 0.082
Stream size : 8.19 GiB (88%)
Default : Yes
Forced : No
Color range : Limited
Color primaries : BT.709
Transfer characteristics : BT.709
Matrix coefficients : BT.709
Audio #1
ID : 2
Format : AC-3
Format/Info : Audio Coding 3
Commercial name : Dolby Digital
Codec ID : A_AC3
Duration : 1 h 37 min
Bit rate mode : Constant
Bit rate : 448 kb/s
Channel(s) : 6 channels
Channel layout : L R C LFE Ls Rs
Sampling rate : 48.0 kHz
Frame rate : 31.250 FPS (1536 SPF)
Compression mode : Lossy
Stream size : 311 MiB (3%)
Title : DUB AC3 (KP HD)
Language : Russian
Service kind : Complete Main
Default : Yes
Forced : Yes
Audio #2
ID : 3
Format : E-AC-3
Format/Info : Enhanced AC-3
Commercial name : Dolby Digital Plus
Codec ID : A_EAC3
Duration : 1 h 37 min
Bit rate mode : Constant
Bit rate : 448 kb/s
Channel(s) : 6 channels
Channel layout : L R C LFE Ls Rs
Sampling rate : 48.0 kHz
Frame rate : 31.250 FPS (1536 SPF)
Compression mode : Lossy
Stream size : 311 MiB (3%)
Title : DUB EAC3 (KP HD)
Language : Russian
Service kind : Complete Main
Default : No
Forced : No
Audio #3
ID : 4
Format : AC-3
Format/Info : Audio Coding 3
Commercial name : Dolby Digital
Codec ID : A_AC3
Duration : 1 h 37 min
Bit rate mode : Constant
Bit rate : 384 kb/s
Channel(s) : 6 channels
Channel layout : L R C LFE Ls Rs
Sampling rate : 48.0 kHz
Frame rate : 31.250 FPS (1536 SPF)
Compression mode : Lossy
Stream size : 267 MiB (3%)
Title : Original
Language : English
Service kind : Complete Main
Default : No
Forced : No

Скриншоты

admin

Post 01-Apr-2022 05:08

[Quote]

Информация о фильме
Название: Волк и лев
Оригинальное название: Le loup et le lion
Год выхода: 2021
Жанр: Приключения, семейный
Режиссер: Жиль Де Мэтр
В ролях: Молли Кунц, Грэм Грин, Чарли Каррик, Дерек Джонс, Риз Слэк, Эван Булиунг, Ребекка Кролл, Виктор Корнфут, Дэниэл Брошу, Мелисса Планте

О фильме: Вернувшись в дом своего детства, юная пианистка Альма находит маленьких волчонка и львенка, оставшихся наедине с дикой природой. Альма спасает животных и укрывает их в своем доме. Так героиня обретает новых верных друзей, но однажды их секрет раскрывают. Львенка Мечтателя отправляют в бродячий цирк, а волчонка Моцарта забирают для исследований. Всем троим предстоит проделать сложный путь, чтобы вновь обрести семью.
Страна: Франция, Канада
Студия: Canal+ [fr], Ciné, Galatée Films
Продолжительность: 01:39:54
Перевод: Дублированный | Мосфильм-Мастер
Качество: WEB-DL 2160p
Видео: 3836x1602 at 24.000 fps, MPEG-H HEVC HDR Video ~ 14100 kbps avg
Аудио #01: 48 kHz, AC3, 5.1, 448 Kbps | Дублированный | Мосфильм-Мастер | RUS |
Аудио #02: 48 kHz, E-AC3, 5.1, 448 Kbps | Дублированный | Мосфильм-Мастер | RUS |
Аудио #03: 48 kHz, AC3, 5.1, 384 Kbps | Оригинал | ENG |
Субтитры: Английские

Скриншоты

MI

General
Unique ID : 135190628319540357068589523027917113634 (0x65B4C496EFD2153D0A606B5FA9998922)
Complete name : D:Video1Le.loup.et.le.lion.2021.WEB-DL.2160p.HDR.seleZen.mkv
Format : Matroska
Format version : Version 4
File size : 10.7 GiB
Duration : 1 h 39 min
Overall bit rate : 15.4 Mb/s
Movie name : Le loup et le lion 2021 from seleZen
Encoded date : UTC 2022-03-31 02:05:41
Writing application : mkvmerge v59.0.0 ('Shining Star') 64-bit
Writing library : libebml v1.4.2 + libmatroska v1.6.4
Video
ID : 1
Format : HEVC
Format/Info : High Efficiency Video Coding
Format profile : Main 10@L5@High
HDR format : SMPTE ST 2086, HDR10 compatible
Codec ID : V_MPEGH/ISO/HEVC
Duration : 1 h 39 min
Bit rate : 14.1 Mb/s
Width : 3 836 pixels
Height : 1 602 pixels
Display aspect ratio : 2.40:1
Frame rate mode : Constant
Frame rate : 24.000 FPS
Color space : YUV
Chroma subsampling : 4:2:0 (Type 2)
Bit depth : 10 bits
Bits/(Pixel*Frame) : 0.096
Stream size : 9.85 GiB (92%)
Language : English
Default : Yes
Forced : No
Color range : Limited
Color primaries : BT.2020
Transfer characteristics : PQ
Matrix coefficients : BT.2020 non-constant
Mastering display color pri : Display P3
Mastering display luminance : min: 0.0050 cd/m2, max: 1000 cd/m2
Maximum Content Light Level : 6732 cd/m2
Maximum Frame-Average Light : 111 cd/m2
Audio #1
ID : 2
Format : AC-3
Format/Info : Audio Coding 3
Commercial name : Dolby Digital
Codec ID : A_AC3
Duration : 1 h 39 min
Bit rate mode : Constant
Bit rate : 448 kb/s
Channel(s) : 6 channels
Channel layout : L R C LFE Ls Rs
Sampling rate : 48.0 kHz
Frame rate : 31.250 FPS (1536 SPF)
Compression mode : Lossy
Stream size : 320 MiB (3%)
Title : Dub
Language : Russian
Service kind : Complete Main
Default : Yes
Forced : Yes
Audio #2
ID : 3
Format : E-AC-3
Format/Info : Enhanced AC-3
Commercial name : Dolby Digital Plus
Codec ID : A_EAC3
Duration : 1 h 39 min
Bit rate mode : Constant
Bit rate : 448 kb/s
Channel(s) : 6 channels
Channel layout : L R C LFE Ls Rs
Sampling rate : 48.0 kHz
Frame rate : 31.250 FPS (1536 SPF)
Compression mode : Lossy
Stream size : 320 MiB (3%)
Title : Dub
Language : Russian
Service kind : Complete Main
Default : No
Forced : No
Audio #3
ID : 4
Format : AC-3
Format/Info : Audio Coding 3
Commercial name : Dolby Digital
Codec ID : A_AC3
Duration : 1 h 39 min
Bit rate mode : Constant
Bit rate : 384 kb/s
Channel(s) : 6 channels
Channel layout : L R C LFE Ls Rs
Sampling rate : 48.0 kHz
Frame rate : 31.250 FPS (1536 SPF)
Compression mode : Lossy
Stream size : 274 MiB (2%)
Title : Original
Language : English
Service kind : Complete Main
Default : No
Forced : No
Text
ID : 5
Format : UTF-8
Codec ID : S_TEXT/UTF8
Codec ID/Info : UTF-8 Plain Text
Duration : 1 h 34 min
Bit rate : 30 b/s
Count of elements : 1011
Stream size : 21.2 KiB (0%)
Title : Full
Language : English
Default : No
Forced : No

admin

Post 15-Mar-2022 06:16

[Quote]

Информация о фильме
Название: Человек-паук: Нет пути домой
Оригинальное название: Spider-Man: No Way Home
Год выхода: 2021
Жанр: фантастика, боевик, приключения, фэнтези
Режиссер: Джон Уоттс
В ролях: Том Холланд, Зендея, Бенедикт Камбербэтч, Мариса Томей, Уиллем Дефо, Альфред Молина, Джейми Фокс, Томас Хейден Чёрч, Рис Иванс, Джейкоб Баталон
О фильме:
Жизнь и репутация Питера Паркера оказываются под угрозой, поскольку Мистерио раскрыл всему миру тайну личности Человека-паука. Пытаясь исправить ситуацию, Питер обращается за помощью к Стивену Стрэнджу, но вскоре всё становится намного опаснее.

Страна: США
Студия: Columbia Pictures Corporation, Marvel Studios Inc., Pascal Pictures, Sony Pictures Entertainment (SPE)
Продолжительность: 02:28:09
Перевод: Профессиональный (полное дублирование) | СинеЛаб СаундМикс
Файл
Кодек: H.265
Качество: BDRip 2160p
Видео: MPEG-H HEVC HDR Video, 3840x1608 (2,40:1), 23.976 fps, 11,9 Mb/s, 10 bit
Аудио 1: E-AC3, 48.0 kHz, 6 ch, 384 kb/s | RUS [DUB, СинеЛаб СаундМикс]
Аудио 2: AC3, 48.0 kHz, 6 ch, 384 kb/s | RUS [DUB, СинеЛаб СаундМикс]
Аудио 3: AC3, 48.0 kHz, 2 ch, 192 kb/s | UKR [DUB, Line]
Аудио 4: AC3, 48.0 kHz, 6 ch, 640 kb/s | ENG [Оригинал]
Субтитры: Русские (Forced, 2 x full), украинские (Full), английские
Рекламы нет | Сэмпл

MI

Общее
Уникальный идентификатор : 205216738832976070497197913091442131272 (0x9A634E65CBEBD902A6FE753FA0B2C148)
Полное имя : Spider-Man.No.Way.Home.(2021).BDRip 2160p.HDR.mkv
Формат : Matroska
Версия формата : Version 4 / Version 2
Размер файла : 14,0 Гбайт
Продолжительность : 2 ч. 28 м.
Общий поток : 13,5 Мбит/сек
Дата кодирования : UTC 2022-03-14 18:07:27
Программа кодирования : mkvmerge v8.3.0 ('Over the Horizon') 64bit
Библиотека кодирования : libebml v1.3.1 + libmatroska v1.4.2
Видео
Идентификатор : 1
Формат : HEVC
Формат/Информация : High Efficiency Video Coding
Профиль формата : Main 10@L5.1@High
HDR format : SMPTE ST 2086, HDR10 compatible
Идентификатор кодека : V_MPEGH/ISO/HEVC
Продолжительность : 2 ч. 28 м.
Битрейт : 11,9 Мбит/сек
Ширина : 3 840 пикселей
Высота : 1 608 пикселей
Соотношение сторон : 2,40:1
Режим частоты кадров : Постоянный
Частота кадров : 23,976 (24000/1001) кадра/сек
Цветовое пространство : YUV
Субдискретизация насыщенности : 4:2:0 (Type 2)
Битовая глубина : 10 бит
Бит/(Пиксели*Кадры) : 0.080
Размер потока : 12,3 Гбайт (88%)
Библиотека кодирования : x265 3.0_Au+10-74a8672ea4f7:[Windows][GCC 8.2.1][64 bit] 10bit
Настройки программы : cpuid=1111039 / frame-threads=6 / numa-pools=40 / wpp / no-pmode / no-pme / no-psnr / no-ssim / log-level=2 / input-csp=1 / input-res=3840x1608 / interlace=0 / total-frames=0 / level-idc=51 / high-tier=1 / uhd-bd=0 / ref=3 / no-allow-non-conformance / repeat-headers / annexb / aud / hrd / info / hash=0 / no-temporal-layers / no-open-gop / min-keyint=1 / keyint=24 / gop-lookahead=0 / bframes=4 / b-adapt=2 / b-pyramid / bframe-bias=0 / rc-lookahead=25 / lookahead-slices=4 / scenecut=40 / radl=0 / no-splice / no-intra-refresh / ctu=64 / min-cu-size=8 / no-rect / no-amp / max-tu-size=32 / tu-inter-depth=1 / tu-intra-depth=1 / limit-tu=0 / rdoq-level=0 / dynamic-rd=0.00 / no-ssim-rd / signhide / no-tskip / nr-intra=0 / nr-inter=0 / no-constrained-intra / strong-intra-smoothing / max-merge=2 / limit-refs=3 / no-limit-modes / me=1 / subme=2 / merange=57 / temporal-mvp / weightp / no-weightb / no-analyze-src-pics / deblock=0:0 / no-sao / no-sao-non-deblock / rd=3 / no-early-skip / rskip / no-fast-intra / no-tskip-fast / no-cu-lossless / no-b-intra / no-splitrd-skip / rdpenalty=0 / psy-rd=2.00 / psy-rdoq=0.00 / no-rd-refine / no-lossless / cbqpoffs=0 / crqpoffs=0 / rc=crf / crf=14.0 / qcomp=0.60 / qpstep=4 / stats-write=0 / stats-read=0 / vbv-maxrate=160000 / vbv-bufsize=160000 / vbv-init=0.9 / crf-max=0.0 / crf-min=0.0 / ipratio=1.40 / pbratio=1.30 / aq-mode=1 / aq-strength=1.00 / cutree / zone-count=0 / no-strict-cbr / qg-size=32 / no-rc-grain / qpmax=69 / qpmin=0 / no-const-vbv / sar=1 / overscan=0 / videoformat=5 / range=0 / colorprim=9 / transfer=16 / colormatrix=9 / chromaloc=1 / chromaloc-top=2 / chromaloc-bottom=2 / display-window=0 / master-display=G(8500,39850)B(6550,2300)R(35400,14600)WP(15635,16450)L(10000000,01) / max-cll=9978,867 / min-luma=0 / max-luma=1023 / log2-max-poc-lsb=8 / vui-timing-info / vui-hrd-info / slices=1 / opt-qp-pps / opt-ref-list-length-pps / no-multi-pass-opt-rps / scenecut-bias=0.05 / no-opt-cu-delta-qp / no-aq-motion / hdr / hdr-opt / no-dhdr10-opt / no-idr-recovery-sei / analysis-reuse-level=5 / scale-factor=0 / refine-intra=0 / refine-inter=0 / refine-mv=0 / refine-ctu-distortion=0 / no-limit-sao / ctu-info=0 / no-lowpass-dct / refine-analysis-type=-536404984 / copy-pic=1 / max-ausize-factor=1.0 / no-dynamic-refine / no-single-sei / no-hevc-aq / no-svt / qp-adaptation-range=1.00
Default : Да
Forced : Нет
Цветовой диапазон : Limited
Основные цвета : BT.2020
Характеристики трансфера : PQ
Коэффициенты матрицы : BT.2020 non-constant
Mastering display color primaries : BT.2020
Mastering display luminance : min: 0.0001 cd/m2, max: 1000 cd/m2
Maximum Content Light Level : 9978 cd/m2
Maximum Frame-Average Light Level : 867 cd/m2
Аудио #1
Идентификатор : 2
Формат : E-AC-3
Формат/Информация : Enhanced AC-3
Коммерческое название : Dolby Digital Plus
Идентификатор кодека : A_EAC3
Продолжительность : 2 ч. 28 м.
Вид битрейта : Постоянный
Битрейт : 384 Кбит/сек
Каналы : 6 каналов
Channel layout : L R C LFE Ls Rs
Частота : 48,0 КГц
Частота кадров : 31,250 кадров/сек (1536 SPF)
Метод сжатия : С потерями
Размер потока : 407 Мбайт (3%)
Заголовок : DUB
Язык : Russian
Service kind : Complete Main
Default : Нет
Forced : Нет
Аудио #2
Идентификатор : 3
Формат : AC-3
Формат/Информация : Audio Coding 3
Коммерческое название : Dolby Digital
Идентификатор кодека : A_AC3
Продолжительность : 2 ч. 28 м.
Вид битрейта : Постоянный
Битрейт : 384 Кбит/сек
Каналы : 6 каналов
Channel layout : L R C LFE Ls Rs
Частота : 48,0 КГц
Частота кадров : 31,250 кадров/сек (1536 SPF)
Метод сжатия : С потерями
Размер потока : 407 Мбайт (3%)
Заголовок : DUB
Язык : Russian
Service kind : Complete Main
Default : Нет
Forced : Нет
Аудио #3
Идентификатор : 4
Формат : AC-3
Формат/Информация : Audio Coding 3
Коммерческое название : Dolby Digital
Идентификатор кодека : A_AC3
Продолжительность : 2 ч. 28 м.
Вид битрейта : Постоянный
Битрейт : 192 Кбит/сек
Каналы : 2 канала
Channel layout : L R
Частота : 48,0 КГц
Частота кадров : 31,250 кадров/сек (1536 SPF)
Метод сжатия : С потерями
Размер потока : 203 Мбайт (1%)
Заголовок : DUB (Line)
Язык : Ukrainian
Service kind : Complete Main
Default : Нет
Forced : Нет
Аудио #4
Идентификатор : 5
Формат : AC-3
Формат/Информация : Audio Coding 3
Коммерческое название : Dolby Digital
Идентификатор кодека : A_AC3
Продолжительность : 2 ч. 28 м.
Вид битрейта : Постоянный
Битрейт : 640 Кбит/сек
Каналы : 6 каналов
Channel layout : L R C LFE Ls Rs
Частота : 48,0 КГц
Частота кадров : 31,250 кадров/сек (1536 SPF)
Метод сжатия : С потерями
Размер потока : 678 Мбайт (5%)
Заголовок : Original
Язык : English
Service kind : Complete Main
Default : Нет
Forced : Нет
Текст #1
Идентификатор : 6
Формат : UTF-8
Идентификатор кодека : S_TEXT/UTF8
Идентификатор кодека/Информация : UTF-8 Plain Text
Продолжительность : 2 ч. 16 м.
Битрейт : 0 бит/сек
Count of elements : 9
Размер потока : 532 байт (0%)
Заголовок : Forced
Язык : Russian
Default : Да
Forced : Нет
Текст #2
Идентификатор : 7
Формат : UTF-8
Идентификатор кодека : S_TEXT/UTF8
Идентификатор кодека/Информация : UTF-8 Plain Text
Продолжительность : 2 ч. 28 м.
Битрейт : 83 бит/сек
Count of elements : 1941
Размер потока : 90,1 Кбайт (0%)
Заголовок : Full
Язык : Russian
Default : Нет
Forced : Нет
Текст #3
Идентификатор : 8
Формат : UTF-8
Идентификатор кодека : S_TEXT/UTF8
Идентификатор кодека/Информация : UTF-8 Plain Text
Продолжительность : 2 ч. 28 м.
Битрейт : 97 бит/сек
Count of elements : 2092
Размер потока : 106 Кбайт (0%)
Заголовок : Full [FOCS]
Язык : Russian
Default : Нет
Forced : Нет
Текст #4
Идентификатор : 9
Формат : UTF-8
Идентификатор кодека : S_TEXT/UTF8
Идентификатор кодека/Информация : UTF-8 Plain Text
Продолжительность : 2 ч. 28 м.
Битрейт : 88 бит/сек
Count of elements : 1984
Размер потока : 96,0 Кбайт (0%)
Заголовок : Full
Язык : Ukrainian
Default : Нет
Forced : Нет
Текст #5
Идентификатор : 10
Формат : UTF-8
Идентификатор кодека : S_TEXT/UTF8
Идентификатор кодека/Информация : UTF-8 Plain Text
Продолжительность : 2 ч. 27 м.
Битрейт : 61 бит/сек
Count of elements : 1949
Размер потока : 66,3 Кбайт (0%)
Заголовок : Full
Язык : English
Default : Нет
Forced : Нет
Текст #6
Идентификатор : 11
Формат : UTF-8
Идентификатор кодека : S_TEXT/UTF8
Идентификатор кодека/Информация : UTF-8 Plain Text
Продолжительность : 2 ч. 27 м.
Битрейт : 67 бит/сек
Count of elements : 2134
Размер потока : 73,0 Кбайт (0%)
Заголовок : SDH
Язык : English
Default : Нет
Forced : Нет
Меню
00:00:00.000 : en:Chapter 1
00:05:03.178 : en:Chapter 2
00:11:58.593 : en:Chapter 3
00:18:38.909 : en:Chapter 4
00:27:00.452 : en:Chapter 5
00:37:21.239 : en:Chapter 6
00:48:02.004 : en:Chapter 7
00:59:51.797 : en:Chapter 8
01:04:06.634 : en:Chapter 9
01:09:51.312 : en:Chapter 10
01:18:29.455 : en:Chapter 11
01:28:59.626 : en:Chapter 12
01:33:48.289 : en:Chapter 13
01:46:38.392 : en:Chapter 14
02:05:39.323 : en:Chapter 15
02:13:03.601 : en:Chapter 16

Скриншоты

admin

Post 16-Feb-2022 06:31

[Quote]

Название фильма: Запретные глубины
Оригинальное название фильма: Ming Hai Jin Di
Год выпуска: 2021
Производство: Китай, iQIYI Pictures
Жанр: Боевик, фэнтези, триллер
Режиссер: Лю Юйсин, Цяо Лэ
Актеры: Тим Хуан, Ян Цзинь, Кэй Хуан, Майкл Тун, Меган Хуан, Кевин Чу, Минова Ясуфуми, Чжу Хаоцзэ, Хоу Чжэньпэн, Чжан Цзятун
Описание:
Бянь Хайшэн (Тим Хуан) вырос в деревушке Танка, жители которой промышляют поиском морских сокровищ, но родом он не из этих краев – глава деревни Бянь Хайлун (Майкл Тун) усыновил его, когда Хайшэн был совсем маленьким. О своем прошлом юноша не помнит ничего, но «пиратская» татуировка на руке заставляет других юношей деревни относиться к нему с презрением. Однажды Хайшэн теряется в море и попадает к настоящим пиратам, а оттуда – в загадочную деревню, спрятанную за стеной смертоносного тумана, и именно там он найдет ключ к своему прошлому.
Продолжительность: 01:18:37
Перевод: Любительский одноголосый (Виктор Береговых)
Субтитры: Русские, английские, китайские (hardsab)
Файл
Формат: Matroska
Качество: WEB-DL-HEVC 2160p
Видео: HEVC/H.265, 3840x1608, ~2846 kbps
Аудио 1: AC3, 2 ch, 224 Кbps | Русский (VO, Виктор Береговых)
Аудио 2: AАC, 2 ch, 192 Кbps | Китайский

M/I

General
Unique ID : 316192197285134443913118493937483261303 (0xEDE066EF9635489327C6026FC43E2577)
Complete name : D:SampleThe Forbidden Depths (2021)The Pirate.2021.2160p.WEB-DL.mkv
Format : Matroska
Format version : Version 4
File size : 1.79 GiB
Duration : 1 h 18 min
Overall bit rate : 3 263 kb/s
Movie name : The Pirate.2021.2160p.WEB-DL
Encoded date : UTC 2022-02-15 01:33:33
Writing application : mkvmerge v64.0.0 ('Willows') 64-bit
Writing library : libebml v1.4.2 + libmatroska v1.6.4
Attachments : poster.jpg
Video
ID : 1
Format : HEVC
Format/Info : High Efficiency Video Coding
Format profile : Main@L5@Main
Codec ID : V_MPEGH/ISO/HEVC
Duration : 1 h 18 min
Bit rate : 2 846 kb/s
Width : 3 840 pixels
Height : 1 608 pixels
Display aspect ratio : 2.40:1
Frame rate mode : Constant
Frame rate : 24.000 FPS
Color space : YUV
Chroma subsampling : 4:2:0
Bit depth : 8 bits
Bits/(Pixel*Frame) : 0.019
Stream size : 1.56 GiB (87%)
Title : Запретные глубины / The Forbidden Depths / The Pirate (2021)
Language : Chinese
Default : Yes
Forced : No
Audio #1
ID : 2
Format : AC-3
Format/Info : Audio Coding 3
Commercial name : Dolby Digital
Codec ID : A_AC3
Duration : 1 h 18 min
Bit rate mode : Constant
Bit rate : 224 kb/s
Channel(s) : 2 channels
Channel layout : L R
Sampling rate : 48.0 kHz
Frame rate : 31.250 FPS (1536 SPF)
Compression mode : Lossy
Stream size : 126 MiB (7%)
Title : VO, Виктор Береговых
Language : Russian
Service kind : Complete Main
Default : Yes
Forced : No
Audio #2
ID : 3
Format : AAC LC
Format/Info : Advanced Audio Codec Low Complexity
Codec ID : A_AAC-2
Duration : 1 h 18 min
Bit rate : 192 kb/s
Channel(s) : 2 channels
Channel layout : L R
Sampling rate : 44.1 kHz
Frame rate : 43.066 FPS (1024 SPF)
Compression mode : Lossy
Stream size : 107 MiB (6%)
Title : Mandarin
Language : Chinese
Default : No
Forced : No
Text #1
ID : 4
Format : UTF-8
Codec ID : S_TEXT/UTF8
Codec ID/Info : UTF-8 Plain Text
Duration : 1 h 14 min
Bit rate : 51 b/s
Count of elements : 807
Stream size : 28.5 KiB (0%)
Title : Виктор Береговых
Language : Russian
Default : No
Forced : No
Text #2
ID : 5
Format : UTF-8
Codec ID : S_TEXT/UTF8
Codec ID/Info : UTF-8 Plain Text
Duration : 1 h 18 min
Bit rate : 39 b/s
Count of elements : 946
Stream size : 22.4 KiB (0%)
Title : NastyaColors00
Language : English
Default : No
Forced : No

Дополнительная информация:

Переведено и озвучено: Виктор Береговых
Русские субтитры: Виктор Береговых
Заказ перевода и озвучивания: vitolinform

Скриншоты

admin

Post 14-Feb-2022 06:49

[Quote]

Информация о фильме
Название: Орел и решка. Кино
Год выхода: 2022
Жанр: Комедия, приключения
Режиссер: Вазген Каграманян
В ролях: Александра Бортич, Александр Молочников, Екатерина Варнава, Александр Гудков, Максим Стоянов, Кирилл Каганович, Зара Аршакян, Нана Муштакова, Алим Хоконов, Анвар Азимов, Вадим Цаллати, Грант Каграманян, Андрей Золотарев, Роман Девликамов, Николай Овсянников, Алексей Шраменко
О фильме:
Программа «Орел и решка» находится на грани закрытия. Ведущие, режиссеры, операторы покинули проект, а те, кто остался, находятся не в лучшей форме. Чтобы избежать краха, продюсеру программы придется пойти на отчаянный шаг: устроить съемки программы в одной из самых закрытых стран мира.

Страна: Россия
Студия: ООО «Биг Мама Продакшн»
Продолжительность: 01:30:58
Язык: Русский | КиноПоиск HD
Цифровой релиз: 14 февраля 2022 года (КиноПоиск HD)
Примечание: Без рекламы
Файл
Формат: MKV
Качество: WEB-DL-HEVC 2160p
Видео: MPEG-H HEVC, ~ 11.6 Мбит/с, 3840x1610, 8 бит
Звук: E-AC3, 6 ch, 448 Кбит/с
Субтитры: Русские (полные)
Семпл

Скриншоты

MI

Общее
Уникальный идентификатор : 84552307353637432067458564643947908112 (0x3F9C2E9B7AF1AD6BB08CC309F73D8C10)
Полное имя : D:Orel.i.reshka.Kino.2022.WEB-DL.2160p.ELEKTRI4KA.UNIONGANG.mkv
Формат : Matroska
Версия формата : Version 4
Размер файла : 7,63 Гбайт
Продолжительность : 1 ч. 30 м.
Общий поток : 12,0 Мбит/сек
Название фильма : Orel.i.reshka.Kino.2022.WEB-DL.2160p.ELEKTRI4KA.UNIONGANG
Дата кодирования : UTC 2022-02-13 22:09:29
Программа кодирования : mkvmerge v65.0.0 ('Too Much') 64-bit
Библиотека кодирования : libebml v1.4.2 + libmatroska v1.6.4
Attachments : poster.png
Видео
Идентификатор : 1
Формат : HEVC
Формат/Информация : High Efficiency Video Coding
Профиль формата : Main@L5@Main
Идентификатор кодека : V_MPEGH/ISO/HEVC
Продолжительность : 1 ч. 30 м.
Битрейт : 11,6 Мбит/сек
Ширина : 3 840 пикселей
Высота : 1 610 пикселей
Соотношение сторон : 2,40:1
Режим частоты кадров : Постоянный
Частота кадров : 25,000 кадров/сек
Цветовое пространство : YUV
Субдискретизация насыщенности : 4:2:0
Битовая глубина : 8 бит
Бит/(Пиксели*Кадры) : 0.075
Размер потока : 7,34 Гбайт (96%)
Библиотека кодирования : x265 0.0:[Linux][GCC 7.5.0][64 bit] 8bit+10bit+12bit
Настройки программы : cpuid=1111039 / frame-threads=5 / wpp / no-pmode / no-pme / no-psnr / no-ssim / log-level=2 / input-csp=1 / input-res=3840x1610 / interlace=0 / total-frames=0 / level-idc=0 / high-tier=1 / uhd-bd=0 / ref=2 / no-allow-non-conformance / no-repeat-headers / annexb / no-aud / no-hrd / info / hash=0 / no-temporal-layers / no-open-gop / min-keyint=100 / keyint=100 / gop-lookahead=0 / bframes=4 / b-adapt=2 / b-pyramid / bframe-bias=0 / rc-lookahead=25 / lookahead-slices=4 / scenecut=0 / radl=0 / no-splice / no-intra-refresh / ctu=64 / min-cu-size=8 / rect / no-amp / max-tu-size=32 / tu-inter-depth=1 / tu-intra-depth=1 / limit-tu=0 / rdoq-level=2 / dynamic-rd=0.00 / no-ssim-rd / signhide / no-tskip / nr-intra=0 / nr-inter=0 / no-constrained-intra / strong-intra-smoothing / max-merge=3 / limit-refs=3 / limit-modes / me=3 / subme=3 / merange=57 / temporal-mvp / weightp / no-weightb / no-analyze-src-pics / deblock=0:0 / sao / no-sao-non-deblock / rd=4 / no-early-skip / rskip / no-fast-intra / no-tskip-fast / no-cu-lossless / no-b-intra / no-splitrd-skip / rdpenalty=0 / psy-rd=2.00 / psy-rdoq=0.00 / no-rd-refine / no-lossless / cbqpoffs=0 / crqpoffs=0 / rc=abr / bitrate=11600 / qcomp=0.60 / qpstep=4 / stats-write=0 / stats-read=2 / cplxblur=20.0 / qblur=0.5 / vbv-maxrate=17400 / vbv-bufsize=23200 / vbv-init=0.8 / ipratio=1.40 / pbratio=1.30 / aq-mode=2 / aq-strength=1.00 / cutree / zone-count=0 / no-strict-cbr / qg-size=32 / no-rc-grain / qpmax=69 / qpmin=0 / no-const-vbv / sar=1 / overscan=0 / videoformat=5 / range=0 / colorprim=2 / transfer=2 / colormatrix=2 / chromaloc=0 / display-window=0cll=0,0 / min-luma=0 / max-luma=255 / log2-max-poc-lsb=8 / vui-timing-info / vui-hrd-info / slices=1 / no-opt-qp-pps / no-opt-ref-list-length-pps / no-multi-pass-opt-rps / scenecut-bias=0.05 / no-opt-cu-delta-qp / no-aq-motion / no-hdr / no-hdr-opt / no-dhdr10-opt / no-idr-recovery-sei / analysis-reuse-level=5 / scale-factor=0 / refine-intra=0 / refine-inter=0 / refine-mv=0 / refine-ctu-distortion=0 / no-limit-sao / ctu-info=0 / no-lowpass-dct / refine-analysis-type=0 / copy-pic=1 / max-ausize-factor=1.0 / no-dynamic-refine / no-single-sei / no-hevc-aq / no-svt / no-field / qp-adaptation-range=1.00
Язык : Russian
Default : Да
Forced : Нет
Цветовой диапазон : Limited
Аудио
Идентификатор : 2
Формат : E-AC-3
Формат/Информация : Enhanced AC-3
Коммерческое название : Dolby Digital Plus
Идентификатор кодека : A_EAC3
Продолжительность : 1 ч. 30 м.
Вид битрейта : Постоянный
Битрейт : 448 Кбит/сек
Каналы : 6 каналов
Channel layout : L R C LFE Ls Rs
Частота : 48,0 КГц
Частота кадров : 31,250 кадров/сек (1536 SPF)
Метод сжатия : С потерями
Размер потока : 292 Мбайт (4%)
Заголовок : Original [KinoPoisk HD]
Язык : Russian
Service kind : Complete Main
Default : Да
Forced : Нет
Текст
Идентификатор : 3
Формат : UTF-8
Идентификатор кодека : S_TEXT/UTF8
Идентификатор кодека/Информация : UTF-8 Plain Text
Продолжительность : 1 ч. 28 м.
Битрейт : 107 бит/сек
Count of elements : 1137
Размер потока : 69,2 Кбайт (0%)
Заголовок : Full
Язык : Russian
Default : Нет
Forced : Нет

admin

Post 12-Feb-2022 05:30

[Quote]

Информация о фильме
Название: King’s Man: Начало
Оригинальное название: The King's Man
Год выхода: 2021
Жанр: боевик, триллер, приключения
Режиссер: Мэттью Вон
В ролях: Харрис Дикинсон, Даниэль Брюль, Рэйф Файнс, Аарон Тейлор-Джонсон, Рис Иванс, Джемма Артертон, Мэттью Гуд, Том Холландер, Бранка Катич, Стэнли Туччи
О фильме:
Kingsman — организация супершпионов, действующая на благо человечества вдали от любопытных глаз. И один из первых и самых талантливых оперативников в истории организации — Конрад, молодой и наглый сын герцога Оксфордского. Как и многие его друзья, он мечтал служить на благо Англии, но в итоге оказался втянут в тайный мир шпионов и убийц.

Страна: Великобритания, США
Студия: 20th Century Studios, Marv Films, Marv Studios
Продолжительность: 02:10:37
Перевод: Профессиональный (многоголосый закадровый) | Jaskier
Файл
Кодек: H.265
Качество: WEB-DL 2160p
Видео: HEVC, 3840x1606 (2.40:1), 23.976 fps, 11.9 Mb/s, 10 bit
Аудио 1: AC3, 48.0 kHz, 6 ch, 448 kb/s | RUS
Аудио 2: E-AC3 JOC, 48.0 kHz, 6 ch, 768 kb/s | ENG
Субтитры: Русские (Forced, Full (FOCS)), английские (Full, SDH)

MI

Общее
Уникальный идентификатор : 202909079306223730445207108283393585094 (0x98A6DDFFAA4504608245E4A209CB2FC6)
Полное имя : The.Kings.Man.2021.WEB-DL.2160p.SDR.mkv
Формат : Matroska
Версия формата : Version 4 / Version 2
Размер файла : 12,0 Гбайт
Продолжительность : 2 ч. 10 м.
Общий поток : 13,1 Мбит/сек
Дата кодирования : UTC 2022-02-11 14:28:11
Программа кодирования : mkvmerge v8.3.0 ('Over the Horizon') 64bit
Библиотека кодирования : libebml v1.3.1 + libmatroska v1.4.2
Видео
Идентификатор : 1
Формат : HEVC
Формат/Информация : High Efficiency Video Coding
Профиль формата : Main 10@L5@High
Идентификатор кодека : V_MPEGH/ISO/HEVC
Продолжительность : 2 ч. 10 м.
Битрейт : 11,9 Мбит/сек
Ширина : 3 840 пикселей
Высота : 1 606 пикселей
Соотношение сторон : 2,40:1
Режим частоты кадров : Постоянный
Частота кадров : 23,976 кадра/сек
Цветовое пространство : YUV
Субдискретизация насыщенности : 4:2:0
Битовая глубина : 10 бит
Бит/(Пиксели*Кадры) : 0.080
Размер потока : 10,9 Гбайт (91%)
Default : Да
Forced : Нет
Цветовой диапазон : Limited
Основные цвета : BT.709
Характеристики трансфера : BT.709
Коэффициенты матрицы : BT.709
Аудио #1
Идентификатор : 2
Формат : AC-3
Формат/Информация : Audio Coding 3
Коммерческое название : Dolby Digital
Идентификатор кодека : A_AC3
Продолжительность : 2 ч. 10 м.
Вид битрейта : Постоянный
Битрейт : 448 Кбит/сек
Каналы : 6 каналов
Channel layout : L R C LFE Ls Rs
Частота : 48,0 КГц
Частота кадров : 31,250 кадров/сек (1536 SPF)
Метод сжатия : С потерями
Размер потока : 419 Мбайт (3%)
Заголовок : MVO (Jaskier)
Язык : Russian
Service kind : Complete Main
Default : Да
Forced : Нет
Аудио #2
Идентификатор : 3
Формат : E-AC-3 JOC
Формат/Информация : Enhanced AC-3 with Joint Object Coding
Коммерческое название : Dolby Digital Plus with Dolby Atmos
Идентификатор кодека : A_EAC3
Продолжительность : 2 ч. 10 м.
Вид битрейта : Постоянный
Битрейт : 768 Кбит/сек
Каналы : 6 каналов
Channel layout : L R C LFE Ls Rs
Частота : 48,0 КГц
Частота кадров : 31,250 кадров/сек (1536 SPF)
Метод сжатия : С потерями
Размер потока : 718 Мбайт (6%)
Заголовок : Original
Язык : English
Service kind : Complete Main
Default : Нет
Forced : Нет
Complexity index : 16
Number of dynamic objects : 15
Bed channel count : 1 канал
Bed channel configuration : LFE
Текст #1
Идентификатор : 4
Формат : UTF-8
Идентификатор кодека : S_TEXT/UTF8
Идентификатор кодека/Информация : UTF-8 Plain Text
Продолжительность : 2 ч. 1 м.
Битрейт : 1 бит/сек
Count of elements : 20
Размер потока : 1,06 Кбайт (0%)
Заголовок : Forced (FOCS)
Язык : Russian
Default : Да
Forced : Нет
Текст #2
Идентификатор : 5
Формат : UTF-8
Идентификатор кодека : S_TEXT/UTF8
Идентификатор кодека/Информация : UTF-8 Plain Text
Продолжительность : 2 ч. 3 м.
Битрейт : 81 бит/сек
Count of elements : 1338
Размер потока : 73,9 Кбайт (0%)
Заголовок : Full (FOCS)
Язык : Russian
Default : Нет
Forced : Нет
Текст #3
Идентификатор : 6
Формат : UTF-8
Идентификатор кодека : S_TEXT/UTF8
Идентификатор кодека/Информация : UTF-8 Plain Text
Продолжительность : 2 ч. 3 м.
Битрейт : 47 бит/сек
Count of elements : 1312
Размер потока : 42,9 Кбайт (0%)
Заголовок : Full
Язык : English
Default : Нет
Forced : Нет
Текст #4
Идентификатор : 7
Формат : UTF-8
Идентификатор кодека : S_TEXT/UTF8
Идентификатор кодека/Информация : UTF-8 Plain Text
Продолжительность : 2 ч. 3 м.
Битрейт : 53 бит/сек
Count of elements : 1723
Размер потока : 48,6 Кбайт (0%)
Заголовок : SDH
Язык : English
Default : Нет
Forced : Нет

Скриншоты

admin

Post 08-Feb-2022 06:27

[Quote]

Американский неудачник / American Underdog
Год выхода: 2021
Жанр: Драма, Спорт
Режиссер: Эндрю Эрвин, Джон Эрвин
В ролях:
Закари Ливай, Анна Пэкуин, Hayden Zaller, Сер’Дариус Блэйн, Вирджиния Мэдсен, Деннис Куэйд, Чэнс Келли, Simeon Castille, Брюс МакГилл, Адам Болдуин, Синди Хоган, Николас Харрис, Стивен Честер Принц, Дин Дентон, Кевин Даунс
О фильме:
История самого ценного игрока НФЛ и защитника Зала славы Курта Уорнера, который прошел путь от продавцов товаров в супермаркете до звезды американского футбола.

Страна: США
Студия: City on a Hill Productions, Kingdom Story Company, Lionsgate
Продолжительность: 01:52:07
Перевод: Любительский, двухголосый закадровый [Pazl Voice / KinoPub]
Файл
Формат: MP4
Кодек: H.265
Качество: WebDL 2160p
Видео: HEVC, Dolby Vision Profile 5, 14,5 Mбит/с, 3832x1600, 23.976 кадр/с
Звук:
Аудио #1 Русский: AC3, 48.0 kHz, 5.1 ch, 448 Kbps [DVO, Pazl Voice | Tnx.KinoPub]
Аудио #2 English: EAC3 JOC, 48.0 kHz, 5.1 ch, 768 Kbps [Original]
Субтитры: английские (полные, SDH)
Дополнительная информация:
Релиз в MP4 в 5-м профиле Dolby Vision для воспроизведении на устройствах с поддержкой DV. Протестировано на тв-боксах Nvidia Shield 2019, Zidoo Z1000 Pro, Amazon FireTV Stick 4k, TiVo Stream 4K и Ugoos AM6+ и многих других, а также на встроенных плеерах телевизоров LG, Sony, Phillips и Panasonic.
На устройствах без поддержки Dolby Vision проигрываться не будет(или будет, но с искаженными цветами), так как в видеоряде отсутствует HDR слой

Mediainfo

Общее
Полное имя : Slid-NASFilmsAmerican.Underdog.2021.2160p.WEB-DL.DDP5.1.Atmos.DoVi.by.DVT.mp4
Формат : MPEG-4
Профиль формата : Base Media / Version 2
Идентификатор кодека : mp42 (isom/mp42/dby1)
Размер файла : 12,3 Гбайт
Продолжительность : 1 ч. 52 м.
Режим общего битрейта : Переменный
Общий поток : 15,7 Мбит/сек
Название фильма : American Underdog (2021). Release by Dolby Vision Torrents
Дата кодирования : UTC 2022-02-07 14:59:48
Дата пометки : UTC 2022-02-07 14:59:48
Программа кодирования : GPAC-1.1.0-DEV-rev1027-g1daa0b5f-master
Видео
Идентификатор : 1
Формат : HEVC
Формат/Информация : High Efficiency Video Coding
Профиль формата : Main 10@L5@High
HDR format : Dolby Vision, Version 1.0, dvhe.05.06, BL+RPU
Идентификатор кодека : dvhe
Идентификатор кодека/Информация : High Efficiency Video Coding with Dolby Vision
Продолжительность : 1 ч. 52 м.
Битрейт : 14,5 Мбит/сек
Ширина : 3 832 пикселя
Высота : 1 600 пикселей
Соотношение сторон : 2,40:1
Режим частоты кадров : Постоянный
Частота кадров : 23,976 (23976/1000) кадра/сек
Цветовое пространство : YUV
Субдискретизация насыщенности : 4:2:0
Битовая глубина : 10 бит
Бит/(Пиксели*Кадры) : 0.098
Размер потока : 11,3 Гбайт (92%)
Заголовок : American Underdog (2021). Release by Dolby Vision Torrents
Язык : English
Default : Да
Alternate group : 1
Дата кодирования : UTC 2022-02-04 05:42:39
Дата пометки : UTC 2022-02-07 15:00:35
Codec configuration box : hvcC+dvcC
Аудио #1
Идентификатор : 2
Формат : AC-3
Формат/Информация : Audio Coding 3
Коммерческое название : Dolby Digital
Идентификатор кодека : ac-3
Продолжительность : 1 ч. 52 м.
Вид битрейта : Постоянный
Битрейт : 448 Кбит/сек
Максимальный битрейт : 473 Кбит/сек
Каналы : 6 каналов
Channel layout : L R C LFE Ls Rs
Частота : 48,0 КГц
Частота кадров : 31,250 кадров/сек (1536 SPF)
Метод сжатия : С потерями
Размер потока : 359 Мбайт (3%)
Заголовок : DVO, Pazl Voice
Язык : Russian
Service kind : Complete Main
Дата кодирования : UTC 2022-02-07 15:00:14
Дата пометки : UTC 2022-02-07 15:00:35
Аудио #2
Идентификатор : 3
Формат : E-AC-3 JOC
Формат/Информация : Enhanced AC-3 with Joint Object Coding
Коммерческое название : Dolby Digital Plus with Dolby Atmos
Идентификатор кодека : ec-3
Продолжительность : 1 ч. 52 м.
Вид битрейта : Постоянный
Битрейт : 768 Кбит/сек
Максимальный битрейт : 811 Кбит/сек
Каналы : 6 каналов
Channel layout : L R C LFE Ls Rs
Частота : 48,0 КГц
Частота кадров : 31,250 кадров/сек (1536 SPF)
Метод сжатия : С потерями
Размер потока : 616 Мбайт (5%)
Заголовок : Original
Язык : English
Service kind : Complete Main
Default : Нет
Alternate group : 1
Дата пометки : UTC 2022-02-07 15:00:35
Complexity index : Not present / 16
Number of dynamic objects : 15
Bed channel count : 1 канал
Bed channel configuration : LFE
Текст #1
Идентификатор : 4
Формат : Timed Text
Идентификатор кодека : tx3g
Продолжительность : 1 ч. 51 м.
Вид битрейта : Переменный
Битрейт : 81 бит/сек
Размер потока : 66,2 Кбайт (0%)
Заголовок : Full
Язык : English
Forced : Нет
Дата кодирования : UTC 2022-02-04 05:44:34
Дата пометки : UTC 2022-02-07 15:00:35
Текст #2
Идентификатор : 5
Формат : Timed Text
Идентификатор кодека : tx3g
Продолжительность : 1 ч. 51 м.
Вид битрейта : Переменный
Битрейт : 84 бит/сек
Размер потока : 68,7 Кбайт (0%)
Заголовок : SDH
Язык : English
Forced : Нет
Дата кодирования : UTC 2022-02-04 05:44:34
Дата пометки : UTC 2022-02-07 15:00:35

Скриншоты

Невозможно получить скрины с нормальными цветами с PC, так как невозможно захватить кадр слоя DV если в видеоряде отсутствуют метаданные HDR.

admin

Post 05-Feb-2022 06:21

[Quote]

Узники страны призраков / Prisoners of the Ghostland --Страна: США
Студия: Patriot Pictures, Eleven Arts, Baked Studios
Жанр: фантастика, боевик
Год выпуска: 2021
Продолжительность: 01:42:42--Перевод 1: Профессиональный (дублированный) Кинопоиск HD
Перевод 2: Любительский (двухголосый закадровый) Pazl Voice
Субтитры: русские (forced, full), английские (full, SDH)
Оригинальная аудиодорожка: английский--Режиссер: Сион Соно / Sion SonoВ ролях: Николас Кейдж, София Бутелла, Эд Скрейн, Ник Кассаветис, Билл Моусли, Нариса Судзуки, Грэйс Сантос, Канон Навата, Трэвис Каверхилл, Так Сакагути, Джеффри Роу, Саки Овада, Джей Уэст, Такато Ёнэмото, Юрино--Описание: В мире будущего герой-одиночка отправляется на опасное задание — он должен вернуть домой пропавшую без вести внучку Губернатора. Пути к отступлению нет: на него надет начиненный взрывчаткой костюм. Он еще не знает, что от успеха его миссии зависит судьба человечества.--imdb | kinopoisk--Тип релиза: WEB-DL 2160p [Prisoners.of.the.Ghostland.2021.2160p.WEB-DL.x265.10bit.HDR.DD5.1-NOGRP]
Контейнер: MKV
Видео: MPEG-H HEVC Video / 24,5 Mbps / 3832x1592 / 23,976 fps / 2,40:1 / Main 10@L5@Main / 4:2:0 / 10 bits / 1000nits / HDR10 / BT.2020
Аудио 1: Russian E-AC3 / 5.1 / 48 kHz / 448 kbps |Dub, Кинопоиск HD|
Аудио 2: Russian AC3 / 5.1 / 48 kHz / 448 kbps |DVO, Pazl Voice|
Аудио 3: English AC3 / 5.1 / 48 kHz / 384 kbps |original|
Формат субтитров: softsub [SRT]

MediaInfo

Код:
Формат : Matroska
Версия формата : Version 4
Размер файла : 18,5 Гбайт
Продолжительность : 1 ч. 42 м.
Общий поток : 25,7 Мбит/сек
Дата кодирования : UTC 2021-09-18 18:22:28
Программа кодирования : mkvmerge v61.0.0 ('So') 64-bit
Библиотека кодирования : libebml v1.4.2 + libmatroska v1.6.4
Attachments : poster.jpgВидео
Идентификатор : 1
Формат : HEVC
Формат/Информация : High Efficiency Video Coding
Профиль формата : Main 10@L5@High
HDR format : SMPTE ST 2086, HDR10 compatible
Идентификатор кодека : V_MPEGH/ISO/HEVC
Продолжительность : 1 ч. 42 м.
Битрейт : 24,5 Мбит/сек
Ширина : 3 832 пикселя
Высота : 1 592 пикселя
Соотношение сторон : 2,40:1
Режим частоты кадров : Постоянный
Частота кадров : 23,976 кадра/сек
Цветовое пространство : YUV
Субдискретизация насыщенности : 4:2:0 (Type 2)
Битовая глубина : 10 бит
Бит/(Пиксели*Кадры) : 0.167
Размер потока : 17,5 Гбайт (95%)
Язык : English
Default : Да
Forced : Нет
Цветовой диапазон : Limited
Основные цвета : BT.2020
Характеристики трансфера : PQ
Коэффициенты матрицы : BT.2020 non-constant
Mastering display color primaries : Display P3
Mastering display luminance : min: 0.0001 cd/m2, max: 1000 cd/m2
Maximum Content Light Level : 1017 cd/m2
Maximum Frame-Average Light Level : 398 cd/m2Аудио #1
Идентификатор : 2
Формат : E-AC-3
Формат/Информация : Enhanced AC-3
Коммерческое название : Dolby Digital Plus
Идентификатор кодека : A_EAC3
Продолжительность : 1 ч. 42 м.
Вид битрейта : Постоянный
Битрейт : 448 Кбит/сек
Каналы : 6 каналов
Channel layout : L R C LFE Ls Rs
Частота : 48,0 КГц
Частота кадров : 31,250 кадров/сек (1536 SPF)
Метод сжатия : С потерями
Размер потока : 328 Мбайт (2%)
Заголовок : Dub, КиноПоиск HD
Язык : Russian
Service kind : Complete Main
Default : Да
Forced : НетАудио #2
Идентификатор : 3
Формат : AC-3
Формат/Информация : Audio Coding 3
Коммерческое название : Dolby Digital
Идентификатор кодека : A_AC3
Продолжительность : 1 ч. 42 м.
Вид битрейта : Постоянный
Битрейт : 448 Кбит/сек
Каналы : 6 каналов
Channel layout : L R C LFE Ls Rs
Частота : 48,0 КГц
Частота кадров : 31,250 кадров/сек (1536 SPF)
Метод сжатия : С потерями
Размер потока : 329 Мбайт (2%)
Заголовок : DVO, Pazl Voice
Язык : Russian
Service kind : Complete Main
Default : Нет
Forced : НетАудио #3
Идентификатор : 4
Формат : AC-3
Формат/Информация : Audio Coding 3
Коммерческое название : Dolby Digital
Идентификатор кодека : A_AC3
Продолжительность : 1 ч. 42 м.
Вид битрейта : Постоянный
Битрейт : 384 Кбит/сек
Каналы : 6 каналов
Channel layout : L R C LFE Ls Rs
Частота : 48,0 КГц
Частота кадров : 31,250 кадров/сек (1536 SPF)
Метод сжатия : С потерями
Размер потока : 282 Мбайт (1%)
Язык : English
Service kind : Complete Main
Default : Нет
Forced : НетТекст #1
Идентификатор : 5
Формат : UTF-8
Идентификатор кодека : S_TEXT/UTF8
Идентификатор кодека/Информация : UTF-8 Plain Text
Продолжительность : 7 м. 25 с.
Битрейт : 20 бит/сек
Count of elements : 22
Размер потока : 1,09 Кбайт (0%)
Заголовок : forced
Язык : Russian
Default : Да
Forced : НетТекст #2
Идентификатор : 6
Формат : UTF-8
Идентификатор кодека : S_TEXT/UTF8
Идентификатор кодека/Информация : UTF-8 Plain Text
Продолжительность : 1 ч. 35 м.
Битрейт : 45 бит/сек
Count of elements : 830
Размер потока : 31,6 Кбайт (0%)
Заголовок : full
Язык : Russian
Default : Нет
Forced : НетТекст #3
Идентификатор : 7
Формат : UTF-8
Идентификатор кодека : S_TEXT/UTF8
Идентификатор кодека/Информация : UTF-8 Plain Text
Продолжительность : 1 ч. 35 м.
Битрейт : 22 бит/сек
Count of elements : 715
Размер потока : 16,0 Кбайт (0%)
Заголовок : full
Язык : English
Default : Нет
Forced : НетТекст #4
Идентификатор : 8
Формат : UTF-8
Идентификатор кодека : S_TEXT/UTF8
Идентификатор кодека/Информация : UTF-8 Plain Text
Продолжительность : 1 ч. 42 м.
Битрейт : 30 бит/сек
Count of elements : 1062
Размер потока : 22,9 Кбайт (0%)
Заголовок : SDH
Язык : English
Default : Нет
Forced : Нет

Скриншоты


 

Current time is: 17-May 13:02

All times are UTC + 3