Search found 113 matches

Author Message

admin

Post 23-Aug-2021 00:38

[Quote]

Информация о фильме
Название: Легенда о Зелёном Рыцаре
Оригинальное название: The Green Knight
Год выпуска: 2021
Выпущено: Ирландия, Канада, США, Великобритания, Sailor Bear, BRON Studios, A24
Жанр: Фэнтези, приключения
Продолжительность: 02:09:45
Перевод: Профессиональный многоголосый (Jaskier)
Режиссер: Дэвид Лоури
В ролях: Анаис Риццо, Джо Андерсон, Дев Патель, Алисия Викандер, Ноэль Браун, Сарита Чоудхури, Нита Мишра, Тара МакДонах, Афина Фриззелл, Шон Харрис, Кейт Дики, Крис Макхаллем, Ралф Айнесон, Брендан Конрой, Доннча Краули, Барри Кеоган
О фильме: Во времена легенд и магии, когда честь была превыше всего, сэр Гавейн принимает вызов таинственного Зеленого Рыцаря. Теперь наследник Короля Артура, рыцарь Круглого стола, должен покинуть Камелот и отправиться в опасное странствие через проклятые земли.

Качество: WEB-DL 2160p
Видео: MPEG-H HEVC, HDR10, 14,1 Mбит/с, 3836x2072
Аудио 1: AC3, 6 ch, 448 |Tnx.KinoPub
Аудио 2: E-AC3 JOC, 6 ch, 768 Кбит/с
Субтитры: Русские (full (от FOCS)), английские

Скриншоты

Инфо

Общее
Уникальный идентификатор : 16278685954273117748430069148162085793 (0xC3F292F00CE0161BBD40002ED5E53A1)
Полное имя : E:TorrentsThe.Green.Knight.2021.2160p.WEB-DL.4K.HDR.JNS82.mkv
Формат : Matroska
Версия формата : Version 4
Размер файла : 13,9 Гбайт
Продолжительность : 2 ч. 9 м.
Общий поток : 15,3 Мбит/сек
Название фильма : The.Green.Knight.2021.2160p.WEB-DL.4K.HDR.JNS82
Дата кодирования : UTC 2021-08-21 14:29:43
Программа кодирования : mkvmerge v59.0.0 ('Shining Star') 64-bit
Библиотека кодирования : libebml v1.4.2 + libmatroska v1.6.4
Видео
Идентификатор : 1
Формат : HEVC
Формат/Информация : High Efficiency Video Coding
Профиль формата : Main 10@L5@High
HDR format : SMPTE ST 2086, HDR10 compatible
Идентификатор кодека : V_MPEGH/ISO/HEVC
Продолжительность : 2 ч. 9 м.
Битрейт : 14,1 Мбит/сек
Ширина : 3 836 пикселей
Высота : 2 072 пикселя
Соотношение сторон : 1,85:1
Режим частоты кадров : Постоянный
Частота кадров : 23,976 кадра/сек
Цветовое пространство : YUV
Субдискретизация насыщенности : 4:2:0 (Type 2)
Битовая глубина : 10 бит
Бит/(Пиксели*Кадры) : 0.074
Размер потока : 12,8 Гбайт (92%)
Default : Да
Forced : Нет
Цветовой диапазон : Limited
Основные цвета : BT.2020
Характеристики трансфера : PQ
Коэффициенты матрицы : BT.2020 non-constant
Mastering display color primaries : BT.2020
Mastering display luminance : min: 0.0050 cd/m2, max: 1000 cd/m2
Maximum Content Light Level : 2694 cd/m2
Maximum Frame-Average Light Level : 582 cd/m2
Аудио #1
Идентификатор : 2
Формат : AC-3
Формат/Информация : Audio Coding 3
Коммерческое название : Dolby Digital
Идентификатор кодека : A_AC3
Продолжительность : 2 ч. 4 м.
Вид битрейта : Постоянный
Битрейт : 448 Кбит/сек
Каналы : 6 каналов
Channel layout : L R C LFE Ls Rs
Частота : 48,0 КГц
Частота кадров : 31,250 кадров/сек (1536 SPF)
Метод сжатия : С потерями
Размер потока : 398 Мбайт (3%)
Заголовок : [MVO] Jaskier | KinoPub
Язык : Russian
Service kind : Complete Main
Default : Да
Forced : Нет
Аудио #2
Идентификатор : 3
Формат : E-AC-3 JOC
Формат/Информация : Enhanced AC-3 with Joint Object Coding
Коммерческое название : Dolby Digital Plus with Dolby Atmos
Идентификатор кодека : A_EAC3
Продолжительность : 2 ч. 9 м.
Вид битрейта : Постоянный
Битрейт : 768 Кбит/сек
Каналы : 6 каналов
Channel layout : L R C LFE Ls Rs
Частота : 48,0 КГц
Частота кадров : 31,250 кадров/сек (1536 SPF)
Метод сжатия : С потерями
Размер потока : 713 Мбайт (5%)
Заголовок : English
Язык : English
Service kind : Complete Main
Default : Нет
Forced : Нет
Complexity index : 16
Number of dynamic objects : 15
Bed channel count : 1 канал
Bed channel configuration : LFE
Текст #1
Идентификатор : 4
Формат : UTF-8
Идентификатор кодека : S_TEXT/UTF8
Идентификатор кодека/Информация : UTF-8 Plain Text
Продолжительность : 2 ч. 4 м.
Битрейт : 35 бит/сек
Count of elements : 788
Размер потока : 32,5 Кбайт (0%)
Заголовок : [Full] от FOCS
Язык : Russian
Default : Нет
Forced : Нет
Текст #2
Идентификатор : 5
Формат : UTF-8
Идентификатор кодека : S_TEXT/UTF8
Идентификатор кодека/Информация : UTF-8 Plain Text
Продолжительность : 2 ч. 5 м.
Битрейт : 21 бит/сек
Count of elements : 829
Размер потока : 19,9 Кбайт (0%)
Язык : English
Default : Нет
Forced : Нет

admin

Post 21-Aug-2021 01:44

[Quote]

Малышка / Sweet Girl
Страна: США
Год выпуска: 2021
Жанр: боевик, триллер, драма, криминал
Продолжительность: 01:50:07
Перевод: Профессиональный (дублированный) | SDI Media по заказу Netflix
Режиссёр: Брайан Мендоза
В ролях: Джейсон Момоа, Изабела Мерсед, Адриа Архона, Эми Бреннеман, Майкл Рэймонд-Джеймс, Джастин Барта, Мануэль Гарсиа-Рульфо, Брайан Хьюи, Нельсон Франклин, Реджи Ли, Лекс Скотт Дэвис, Доминик Фумуса, Раза Джеффри, Сайра Эван, Дейл Павински, Дэвид А. МакДоналд, Джейк Эллин, Кэти М. О'Брайан, Милена Ривьеро, Уилл Блэгроув, Молли Миллер
Описание: Отец остался один с дочкой после убийства жены неизвестными. Не в силах ждать, пока полиция расследует дело, он клянется сам найти и покарать преступников.

Качество: WEB-DL-HEVC 1080p | SDR
Контейнер: MKV
Видео: HEVC 10 bit, 1920x1080 (16:9), 24 fps, ~5604 kbps
Аудио №1: AC3, 48 kHz, 6 ch, 384 kbps
Аудио №2: E-AC3, 48 kHz, 6 ch, 640 kbps
Аудио №3: E-AC3, 48 kHz, 6 ch, 640 kbps
Аудио №4: E-AC3 JOC, 48 kHz, 6 ch, 768 kbps
Субтитры: Русские (Forced, Full), английские, румынские, украинские (Forced, Full)
Реклама: Отсутствует

MediaInfo

General
Unique ID : 112535289070028372381928143467456734934 (0x54A9822014DA1BF3322EC375DAAFA6D6)
Complete name : Sweet.Girl.2021.1080p.NF.WEB-DL.DD5.1.HEVC-EniaHD.mkv
Format : Matroska
Format version : Version 4
File size : 6.19 GiB
Duration : 1 h 50 min
Overall bit rate : 8 039 kb/s
Movie name : Sweet Girl (2021) - EniaHD
Writing application : mkvmerge v57.0.0 ('Till The End') 64-bit
Writing library : libebml v1.4.2 + libmatroska v1.6.4
Video
ID : 1
Format : HEVC
Format/Info : High Efficiency Video Coding
Format profile : Main 10@L4@Main
Codec ID : V_MPEGH/ISO/HEVC
Duration : 1 h 50 min
Bit rate : 5 604 kb/s
Width : 1 920 pixels
Height : 1 080 pixels
Display aspect ratio : 16:9
Frame rate mode : Constant
Frame rate : 24.000 FPS
Color space : YUV
Chroma subsampling : 4:2:0
Bit depth : 10 bits
Bits/(Pixel*Frame) : 0.113
Stream size : 4.31 GiB (70%)
Default : Yes
Forced : No
Color range : Limited
Color primaries : BT.709
Transfer characteristics : BT.709
Matrix coefficients : BT.709
Audio #1
ID : 2
Format : AC-3
Format/Info : Audio Coding 3
Commercial name : Dolby Digital
Codec ID : A_AC3
Duration : 1 h 50 min
Bit rate mode : Constant
Bit rate : 384 kb/s
Channel(s) : 6 channels
Channel layout : L R C LFE Ls Rs
Sampling rate : 48.0 kHz
Frame rate : 31.250 FPS (1536 SPF)
Compression mode : Lossy
Stream size : 303 MiB (5%)
Title : AC3
Language : Russian
Service kind : Complete Main
Default : Yes
Forced : No
Audio #2
ID : 3
Format : E-AC-3
Format/Info : Enhanced AC-3
Commercial name : Dolby Digital Plus
Codec ID : A_EAC3
Duration : 1 h 50 min
Bit rate mode : Constant
Bit rate : 640 kb/s
Channel(s) : 6 channels
Channel layout : L R C LFE Ls Rs
Sampling rate : 48.0 kHz
Frame rate : 31.250 FPS (1536 SPF)
Compression mode : Lossy
Stream size : 504 MiB (8%)
Title : E-AC3
Language : Russian
Service kind : Complete Main
Default : No
Forced : No
Audio #3
ID : 4
Format : E-AC-3
Format/Info : Enhanced AC-3
Commercial name : Dolby Digital Plus
Codec ID : A_EAC3
Duration : 1 h 50 min
Bit rate mode : Constant
Bit rate : 640 kb/s
Channel(s) : 6 channels
Channel layout : L R C LFE Ls Rs
Sampling rate : 48.0 kHz
Frame rate : 31.250 FPS (1536 SPF)
Compression mode : Lossy
Stream size : 504 MiB (8%)
Language : Ukrainian
Service kind : Complete Main
Default : No
Forced : No
Audio #4
ID : 5
Format : E-AC-3 JOC
Format/Info : Enhanced AC-3 with Joint Object Coding
Commercial name : Dolby Digital Plus with Dolby Atmos
Codec ID : A_EAC3
Duration : 1 h 50 min
Bit rate mode : Constant
Bit rate : 768 kb/s
Channel(s) : 6 channels
Channel layout : L R C LFE Ls Rs
Sampling rate : 48.0 kHz
Frame rate : 31.250 FPS (1536 SPF)
Compression mode : Lossy
Stream size : 605 MiB (10%)
Language : English
Service kind : Complete Main
Default : No
Forced : No
Complexity index : 16
Number of dynamic objects : 15
Bed channel count : 1 channel
Bed channel configuration : LFE
Text #1
ID : 6
Format : UTF-8
Codec ID : S_TEXT/UTF8
Codec ID/Info : UTF-8 Plain Text
Duration : 1 h 47 min
Bit rate : 1 b/s
Count of elements : 37
Stream size : 1.43 KiB (0%)
Title : Forced
Language : Russian
Default : Yes
Forced : No
Text #2
ID : 7
Format : UTF-8
Codec ID : S_TEXT/UTF8
Codec ID/Info : UTF-8 Plain Text
Duration : 1 h 47 min
Bit rate : 59 b/s
Count of elements : 906
Stream size : 47.3 KiB (0%)
Language : Russian
Default : No
Forced : No
Text #3
ID : 8
Format : UTF-8
Codec ID : S_TEXT/UTF8
Codec ID/Info : UTF-8 Plain Text
Duration : 1 h 45 min
Bit rate : 57 b/s
Count of elements : 1442
Stream size : 44.7 KiB (0%)
Title : SDH
Language : English
Default : No
Forced : No
Text #4
ID : 9
Format : UTF-8
Codec ID : S_TEXT/UTF8
Codec ID/Info : UTF-8 Plain Text
Duration : 1 h 42 min
Bit rate : 34 b/s
Count of elements : 836
Stream size : 26.0 KiB (0%)
Language : Romanian
Default : No
Forced : No
Text #5
ID : 10
Format : UTF-8
Codec ID : S_TEXT/UTF8
Codec ID/Info : UTF-8 Plain Text
Duration : 1 h 47 min
Bit rate : 55 b/s
Count of elements : 912
Stream size : 44.0 KiB (0%)
Language : Ukrainian
Default : No
Forced : No
Text #6
ID : 11
Format : UTF-8
Codec ID : S_TEXT/UTF8
Codec ID/Info : UTF-8 Plain Text
Duration : 1 h 47 min
Bit rate : 1 b/s
Count of elements : 37
Stream size : 1.43 KiB (0%)
Title : Forced
Language : Ukrainian
Default : No
Forced : No

Скриншоты

admin

Post 21-Aug-2021 01:26

[Quote]

«Fast Family Forever»
Информация о фильме
Название: Форсаж 9
Оригинальное название: F9
Год выпуска: 2021
Выпущено: США, One Race Films, Roth/Kirschenbaum Films, Perfect Storm Entertainment
Жанр: Боевик, триллер, криминал, приключения
Продолжительность: 02:22:51
Перевод: Любительский двухголосый (Pazl Voice)
Режиссер: Джастин Лин
В ролях: Вин Дизель, Джон Сина, Тайриз Гибсон, Лудакрис, Джордана Брюстер, Натали Эммануэль, Мишель Родригес, Хелен Миррен, Шарлиз Терон, Майкл Рукер
О фильме: Доминик Торетто ведет спокойную жизнь вместе с Летти и своим сыном Брайаном, однако, они знают, что новая опасность всегда где-то рядом. В этот раз Доминику придется встретиться с призраками прошлого, если он хочет спасти самых близких. Команда снова собирается вместе, чтобы предотвратить дерзкий план по захвату мира, который придумал самый опасный преступник и безбашенный водитель из всех, с кем они сталкивались ранее. Ситуация усложняется тем, что этот человек — брат Доминика Джейкоб, которого много лет назад изгнали из семьи

Качество: WEB-DL 2160p
Видео: MPEG-H HEVC, HDR10, 14,3 Mбит/с, 3840x1600
Аудио 1: AC3, 6 ch, 448 Кбит/с | Tnx.KinoPub
Аудио 2: E-AC3 JOC, 6 ch, 768 Кбит/с
Субтитры: Английские.

Скриншоты

Инфо

Общее
Уникальный идентификатор : 217218789302831996484441285645673518200 (0xA36AD12C2AC7A04CCA0661B619695478)
Полное имя : E:TorrentsFast.and.Furious.F9.The.Fast.Saga.2021.2160p.4K.HDR..mkv
Формат : Matroska
Версия формата : Version 4
Размер файла : 15,5 Гбайт
Продолжительность : 2 ч. 22 м.
Общий поток : 15,6 Мбит/сек
Название фильма : Fast.and.Furious.F9.The.Fast.Saga.2021.2160p.4K.HDR.
Дата кодирования : UTC 2021-07-31 07:18:24
Программа кодирования : mkvmerge v59.0.0 ('Shining Star') 64-bit
Библиотека кодирования : libebml v1.4.2 + libmatroska v1.6.4
Видео
Идентификатор : 1
Формат : HEVC
Формат/Информация : High Efficiency Video Coding
Профиль формата : Main 10@L5@High
HDR format : SMPTE ST 2086, HDR10 compatible
Идентификатор кодека : V_MPEGH/ISO/HEVC
Продолжительность : 2 ч. 22 м.
Битрейт : 14,3 Мбит/сек
Ширина : 3 836 пикселей
Высота : 1 600 пикселей
Соотношение сторон : 2,40:1
Соотношение сторон в оригинале : 2,40:1
Режим частоты кадров : Постоянный
Частота кадров : 23,976 кадра/сек
Цветовое пространство : YUV
Субдискретизация насыщенности : 4:2:0 (Type 2)
Битовая глубина : 10 бит
Бит/(Пиксели*Кадры) : 0.097
Размер потока : 14,3 Гбайт (92%)
Default : Да
Forced : Нет
Цветовой диапазон : Limited
Основные цвета : BT.2020
Характеристики трансфера : PQ
Коэффициенты матрицы : BT.2020 non-constant
Mastering display color primaries : Display P3
Mastering display luminance : min: 0.0050 cd/m2, max: 4000 cd/m2
Maximum Content Light Level : 1002 cd/m2
Maximum Frame-Average Light Level : 701 cd/m2
Аудио #1
Идентификатор : 2
Формат : AC-3
Формат/Информация : Audio Coding 3
Коммерческое название : Dolby Digital
Идентификатор кодека : A_AC3
Продолжительность : 2 ч. 22 м.
Вид битрейта : Постоянный
Битрейт : 448 Кбит/сек
Каналы : 6 каналов
Channel layout : L R C LFE Ls Rs
Частота : 48,0 КГц
Частота кадров : 31,250 кадров/сек (1536 SPF)
Метод сжатия : С потерями
Размер потока : 458 Мбайт (3%)
Заголовок : [DVO] Pazl Voice | KinoPub
Язык : Russian
Service kind : Complete Main
Default : Да
Forced : Нет
Аудио #2
Идентификатор : 3
Формат : E-AC-3 JOC
Формат/Информация : Enhanced AC-3 with Joint Object Coding
Коммерческое название : Dolby Digital Plus with Dolby Atmos
Идентификатор кодека : A_EAC3
Продолжительность : 2 ч. 22 м.
Вид битрейта : Постоянный
Битрейт : 768 Кбит/сек
Каналы : 6 каналов
Channel layout : L R C LFE Ls Rs
Частота : 48,0 КГц
Частота кадров : 31,250 кадров/сек (1536 SPF)
Метод сжатия : С потерями
Размер потока : 785 Мбайт (5%)
Заголовок : English
Язык : English
Service kind : Complete Main
Default : Нет
Forced : Нет
Complexity index : 16
Number of dynamic objects : 15
Bed channel count : 1 канал
Bed channel configuration : LFE
Текст
Идентификатор : 4
Формат : UTF-8
Идентификатор кодека : S_TEXT/UTF8
Идентификатор кодека/Информация : UTF-8 Plain Text
Продолжительность : 2 ч. 16 м.
Битрейт : 41 бит/сек
Count of elements : 1559
Размер потока : 42,0 Кбайт (0%)
Язык : English
Default : Нет
Forced : Нет

admin

Post 20-Aug-2021 01:34

[Quote]

Информация о фильме
Название: Красотка на взводе
Оригинальное название: Jolt
Год выхода: 2021
Жанр: Боевик, комедия
Режиссер: Таня Уэкслер
В ролях: Кейт Бекинсейл, Стэнли Туччи, Бобби Каннавале, Джай Кортни, Лаверн Кокс, Дэвид Брэдли, Кристиан Брассингтон, Ори Феффер, Константин Грегори, Том Ксандер, Димитар Ильков

О фильме: Героиня комедийного боевика «Красотка на взводе» Линди работает вышибалой и испытывает серьезные проблемы с контролем гнева. Справиться с ними ей помогает специальный жилет, который бьет хозяйку током, если она перевозбуждена и готова вот-вот задушить очередного клиента. После убийства единственного мужчины, которого она когда-либо любила, Линди становится главной подозреваемой в его смерти, и девушке приходится самой начать поиски настоящего преступника.
Страна: США
Студия: Busted Shark Productions, Campbell Grobman Films, Eclectic Pictures Inc., Jolt Production, Millennium Films, Nu Boyana Film Studios
Продолжительность: 01:31:05
Перевод: Дублированный | iTunes
Качество: WEB-DL 2160p
Видео: 3840x1600 at 23.976 fps, MPEG-H HEVC HDR Video, ~ 14400 kbps avg
Аудио #01: 48 kHz, AC3, 5.1, 384 Kbps | iTunes | RUS |
Аудио #02: 48 kHz, E-AC3, 5.1, 640 Kbps | Оригинал | ENG |
Субтитры: Русские (Full), английские

Скриншоты

MI

General
Unique ID : 156365565378744779356945334256120852402 (0x75A2E997337E9A7A7F0618FC42076FB2)
Complete name : F:VideoJolt.2021.AMZN.WEB-DL.2160p.HDR.seleZen.mkv
Format : Matroska
Format version : Version 4
File size : 9.79 GiB
Duration : 1 h 31 min
Overall bit rate : 15.4 Mb/s
Movie name : Jolt 2021 from seleZen
Encoded date : UTC 2021-08-12 00:15:53
Writing application : mkvmerge v59.0.0 ('Shining Star') 64-bit
Writing library : libebml v1.4.2 + libmatroska v1.6.4
Video
ID : 1
Format : HEVC
Format/Info : High Efficiency Video Coding
Format profile : Main 10@L5@Main
HDR format : SMPTE ST 2094 App 4, Version 1, HDR10+ Profile B compatible
Codec ID : V_MPEGH/ISO/HEVC
Duration : 1 h 31 min
Bit rate : 14.4 Mb/s
Width : 3 840 pixels
Height : 1 600 pixels
Display aspect ratio : 2.40:1
Frame rate mode : Constant
Frame rate : 23.976 (24000/1001) FPS
Color space : YUV
Chroma subsampling : 4:2:0
Bit depth : 10 bits
Bits/(Pixel*Frame) : 0.098
Stream size : 9.14 GiB (93%)
Default : Yes
Forced : No
Color range : Limited
Color primaries : BT.2020
Transfer characteristics : PQ
Matrix coefficients : BT.2020 non-constant
Mastering display color pri : Display P3
Mastering display luminance : min: 0.0001 cd/m2, max: 1000 cd/m2
Maximum Content Light Level : 1140 cd/m2
Maximum Frame-Average Light : 831 cd/m2
Audio #1
ID : 2
Format : AC-3
Format/Info : Audio Coding 3
Commercial name : Dolby Digital
Codec ID : A_AC3
Duration : 1 h 31 min
Bit rate mode : Constant
Bit rate : 384 kb/s
Channel(s) : 6 channels
Channel layout : L R C LFE Ls Rs
Sampling rate : 48.0 kHz
Frame rate : 31.250 FPS (1536 SPF)
Compression mode : Lossy
Stream size : 250 MiB (2%)
Title : iTunes
Language : Russian
Service kind : Complete Main
Default : Yes
Forced : Yes
Audio #2
ID : 3
Format : E-AC-3
Format/Info : Enhanced AC-3
Commercial name : Dolby Digital Plus
Codec ID : A_EAC3
Duration : 1 h 31 min
Bit rate mode : Constant
Bit rate : 640 kb/s
Channel(s) : 6 channels
Channel layout : L R C LFE Ls Rs
Sampling rate : 48.0 kHz
Frame rate : 31.250 FPS (1536 SPF)
Compression mode : Lossy
Stream size : 417 MiB (4%)
Title : Original
Language : English
Service kind : Complete Main
Default : No
Forced : No
Text #1
ID : 4
Format : UTF-8
Codec ID : S_TEXT/UTF8
Codec ID/Info : UTF-8 Plain Text
Duration : 1 h 24 min
Bit rate : 96 b/s
Count of elements : 1030
Stream size : 59.8 KiB (0%)
Title : Russian [Full]
Language : Russian
Default : No
Forced : No
Text #2
ID : 5
Format : UTF-8
Codec ID : S_TEXT/UTF8
Codec ID/Info : UTF-8 Plain Text
Duration : 1 h 24 min
Bit rate : 61 b/s
Count of elements : 1332
Stream size : 38.3 KiB (0%)
Title : Full
Language : English
Default : No
Forced : No
Text #3
ID : 6
Format : UTF-8
Codec ID : S_TEXT/UTF8
Codec ID/Info : UTF-8 Plain Text
Duration : 1 h 24 min
Bit rate : 70 b/s
Count of elements : 1588
Stream size : 44.0 KiB (0%)
Title : SDH
Language : English
Default : No
Forced : No

admin

Post 20-Aug-2021 00:55

[Quote]

Информация о фильме
Название: G. I. Joe. Бросок кобры: Снейк Айз
Оригинальное название: Snake Eyes: G.I. Joe Origins
Год выхода: 2021
Жанр: Фантастика, фэнтези, боевик, триллер, приключения
Режиссер: Роберт Швентке
В ролях: Генри Голдинг, Самара Уивинг, Урсула Корберо, Ико Уайс, Эндрю Кодзи, Харука Абэ, Стивен Аллерик, Питер Менса, Такехиро Хира, Самуэль Финци, Саймон Чин

О фильме: Снейк Айз — самый загадочный и смертоносный член спецотряда G.I. Joe. Он всегда одет в черное, его лицо закрывает маска, и он никогда не разговаривает. Никто не знает, кто он и откуда.
«G.I. Joe: Бросок кобры. Снейк Айз» — спин-офф франшизы «Бросок кобры» о самом загадочном и смертоносном члене специального отряда G.I. Joe.

Страна: Канада, США
Студия: Di Bonaventura Pictures, Hasbro Inc., Metro-Goldwyn-Mayer (MGM), Paramount Pictures, Skydance Productions
Продолжительность: 02:01:25
Перевод: Дублированный | Пифагор
Качество: WEB-DL 2160p
Видео: 3840x1600 at 23.976 fps, MPEG-H HEVC HDR Video, ~ 14900 kbps avg
Аудио #01: 48 kHz, AC3, 5.1, 384 Kbps | Дублированный | RUS |
Аудио #02: 48 kHz, E-AC3+Atmos, 5.1, 768 Kbps | Оригинал | ENG |
Субтитры: Русские (Forced, full), английские

Скриншоты

MI

General
Unique ID : 194227402084274849616811277212990677795 (0x921ED643A17DAC9BDBF471FEB9EDA323)
Complete name : F:VideoSnake.Eyes.G.I.Joe.Origins.2021.WEB-DL.2160p.HDR.seleZen.mkv
Format : Matroska
Format version : Version 4
File size : 13.6 GiB
Duration : 2 h 1 min
Overall bit rate : 16.1 Mb/s
Movie name : Snake Eyes G I .Joe Origins 2021 from seleZen
Encoded date : UTC 2021-08-18 23:09:10
Writing application : mkvmerge v59.0.0 ('Shining Star') 64-bit
Writing library : libebml v1.4.2 + libmatroska v1.6.4
Video
ID : 1
Format : HEVC
Format/Info : High Efficiency Video Coding
Format profile : Main 10@L5@Main
HDR format : SMPTE ST 2094 App 4, Version 1, HDR10+ Profile B compatible
Codec ID : V_MPEGH/ISO/HEVC
Duration : 2 h 1 min
Bit rate : 14.9 Mb/s
Width : 3 840 pixels
Height : 1 600 pixels
Display aspect ratio : 2.40:1
Frame rate mode : Constant
Frame rate : 23.976 (24000/1001) FPS
Color space : YUV
Chroma subsampling : 4:2:0
Bit depth : 10 bits
Bits/(Pixel*Frame) : 0.101
Stream size : 12.7 GiB (93%)
Default : Yes
Forced : No
Color range : Limited
Color primaries : BT.2020
Transfer characteristics : PQ
Matrix coefficients : BT.2020 non-constant
Mastering display color pri : Display P3
Mastering display luminance : min: 0.0001 cd/m2, max: 1000 cd/m2
Maximum Content Light Level : 635 cd/m2
Maximum Frame-Average Light : 281 cd/m2
Audio #1
ID : 2
Format : AC-3
Format/Info : Audio Coding 3
Commercial name : Dolby Digital
Codec ID : A_AC3
Duration : 2 h 1 min
Bit rate mode : Constant
Bit rate : 384 kb/s
Channel(s) : 6 channels
Channel layout : L R C LFE Ls Rs
Sampling rate : 48.0 kHz
Frame rate : 31.250 FPS (1536 SPF)
Compression mode : Lossy
Stream size : 333 MiB (2%)
Title : Dub [Пифагор]
Language : Russian
Service kind : Complete Main
Default : Yes
Forced : Yes
Audio #2
ID : 3
Format : E-AC-3 JOC
Format/Info : Enhanced AC-3 with Joint Object Coding
Commercial name : Dolby Digital Plus with Dolby Atmos
Codec ID : A_EAC3
Duration : 2 h 1 min
Bit rate mode : Constant
Bit rate : 768 kb/s
Channel(s) : 6 channels
Channel layout : L R C LFE Ls Rs
Sampling rate : 48.0 kHz
Frame rate : 31.250 FPS (1536 SPF)
Compression mode : Lossy
Stream size : 667 MiB (5%)
Title : Original
Language : English
Service kind : Complete Main
Default : No
Forced : No
Complexity index : 16
Number of dynamic objects : 15
Bed channel count : 1 channel
Bed channel configuration : LFE
Text #1
ID : 4
Format : UTF-8
Codec ID : S_TEXT/UTF8
Codec ID/Info : UTF-8 Plain Text
Duration : 1 h 33 min
Bit rate : 1 b/s
Count of elements : 21
Stream size : 953 Bytes (0%)
Title : Forced
Language : Russian
Default : Yes
Forced : Yes
Text #2
ID : 5
Format : UTF-8
Codec ID : S_TEXT/UTF8
Codec ID/Info : UTF-8 Plain Text
Duration : 1 h 59 min
Bit rate : 41 b/s
Count of elements : 797
Stream size : 36.8 KiB (0%)
Title : Full
Language : Russian
Default : No
Forced : No
Text #3
ID : 6
Format : UTF-8
Codec ID : S_TEXT/UTF8
Codec ID/Info : UTF-8 Plain Text
Duration : 1 h 17 min
Bit rate : 0 b/s
Count of elements : 14
Stream size : 345 Bytes (0%)
Title : Forced
Language : English
Default : No
Forced : No
Text #4
ID : 7
Format : UTF-8
Codec ID : S_TEXT/UTF8
Codec ID/Info : UTF-8 Plain Text
Duration : 1 h 52 min
Bit rate : 27 b/s
Count of elements : 790
Stream size : 22.9 KiB (0%)
Title : Full
Language : English
Default : No
Forced : No
Text #5
ID : 8
Format : UTF-8
Codec ID : S_TEXT/UTF8
Codec ID/Info : UTF-8 Plain Text
Duration : 1 h 52 min
Bit rate : 31 b/s
Count of elements : 978
Stream size : 25.7 KiB (0%)
Title : SDH
Language : English
Default : No
Forced : No

admin

Post 20-Aug-2021 00:17

[Quote]

Информация о фильме
Название: Последний наемник
Оригинальное название: Le dernier mercenaire / The Last Mercenary
Год выхода: 2021
Жанр: Боевик, комедия
Режиссер: Давид Шарон
В ролях: Жан-Клод Ван Дамм, Альбан Иванов, Самир Декацца, Асса Силла, Эрик Жюдор, Миу-Миу, Патрик Тимси, Валери Каприски, Мишель Кремадес, Джимо
О фильме:
Осуждённый тайный агент вынужден вернуться во Францию, чтобы спасти своего сына, которого подставила международная террористическая организация.

Страна: Франция
Продолжительность: 01:52:26
Перевод: Профессиональный дублированный | Netflix
Файл
Кодек: H.265
Качество: WEBRip 2160p
Видео: MPEG-H HEVC, HDR, 3840x1920, 24.000 fps, 18.8 Mb/s, 10 Bit
Аудио 1: AC3, 48.0 kHz, 6 ch, 640 kb/s | RUS [DUB]
Аудио 2: AC3, 48.0 kHz, 6 ch, 640 kb/s | UKR [DUB]
Аудио 3: AC3, 48.0 kHz, 6 ch, 640 kb/s | ENG [DUB]
Аудио 4: AC3, 48.0 kHz, 6 ch, 640 kb/s | FRE [Оригинал]
Субтитры: Русские (Forced, full), украинские (Forced, full), английские

MI

Общее
Уникальный идентификатор : 184200224634085020784897329467448496261 (0x8A93AC3F25EBBED8A226501085821085)
Полное имя : The.Last.Mercenary.(2021).WEB.2160p.HDR.mkv
Формат : Matroska
Версия формата : Version 4 / Version 2
Размер файла : 16,5 Гбайт
Продолжительность : 1 ч. 52 м.
Общий поток : 21,0 Мбит/сек
Дата кодирования : UTC 2021-08-18 17:52:33
Программа кодирования : mkvmerge v8.3.0 ('Over the Horizon') 64bit
Библиотека кодирования : libebml v1.3.1 + libmatroska v1.4.2
Видео
Идентификатор : 1
Формат : HEVC
Формат/Информация : High Efficiency Video Coding
Профиль формата : Main 10@L5.1@High
HDR format : SMPTE ST 2086, HDR10 compatible
Идентификатор кодека : V_MPEGH/ISO/HEVC
Продолжительность : 1 ч. 50 м.
Битрейт : 18,8 Мбит/сек
Ширина : 3 840 пикселей
Высота : 1 920 пикселей
Соотношение сторон : 2,000
Режим частоты кадров : Постоянный
Частота кадров : 24,000 кадра/сек
Цветовое пространство : YUV
Субдискретизация насыщенности : 4:2:0 (Type 2)
Битовая глубина : 10 бит
Бит/(Пиксели*Кадры) : 0.106
Размер потока : 14,5 Гбайт (88%)
Библиотека кодирования : x265 3.5+9-bf91444e0:[Windows][GCC 10.0.0][64 bit] 10bit
Настройки программы : cpuid=1111039 / frame-threads=4 / numa-pools=16 / wpp / no-pmode / no-pme / no-psnr / no-ssim / log-level=2 / input-csp=1 / input-res=3840x1920 / interlace=0 / total-frames=0 / level-idc=51 / high-tier=1 / uhd-bd=0 / ref=4 / no-allow-non-conformance / repeat-headers / annexb / no-aud / no-eob / no-eos / no-hrd / info / hash=0 / no-temporal-layers / no-open-gop / min-keyint=24 / keyint=250 / gop-lookahead=0 / bframes=3 / b-adapt=2 / b-pyramid / bframe-bias=0 / rc-lookahead=20 / lookahead-slices=8 / scenecut=40 / hist-scenecut=0 / radl=0 / no-splice / no-intra-refresh / ctu=64 / min-cu-size=8 / no-rect / no-amp / max-tu-size=32 / tu-inter-depth=1 / tu-intra-depth=1 / limit-tu=0 / rdoq-level=0 / dynamic-rd=0.00 / no-ssim-rd / signhide / no-tskip / nr-intra=0 / nr-inter=0 / no-constrained-intra / no-strong-intra-smoothing / max-merge=3 / limit-refs=1 / no-limit-modes / me=1 / subme=2 / merange=57 / temporal-mvp / no-frame-dup / no-hme / weightp / no-weightb / no-analyze-src-pics / deblock=-3:-3 / no-sao / no-sao-non-deblock / rd=3 / selective-sao=0 / early-skip / rskip / no-fast-intra / no-tskip-fast / no-cu-lossless / b-intra / no-splitrd-skip / rdpenalty=0 / psy-rd=2.00 / psy-rdoq=0.00 / no-rd-refine / no-lossless / cbqpoffs=0 / crqpoffs=0 / rc=crf / crf=17.0 / qcomp=0.60 / qpstep=4 / stats-write=0 / stats-read=0 / vbv-maxrate=160000 / vbv-bufsize=160000 / vbv-init=0.9 / min-vbv-fullness=50.0 / max-vbv-fullness=80.0 / crf-max=0.0 / crf-min=0.0 / ipratio=1.40 / pbratio=1.30 / aq-mode=2 / aq-strength=1.00 / no-cutree / zone-count=0 / no-strict-cbr / qg-size=32 / no-rc-grain / qpmax=69 / qpmin=0 / no-const-vbv / sar=0 / overscan=0 / videoformat=5 / range=0 / colorprim=9 / transfer=16 / colormatrix=9 / chromaloc=1 / chromaloc-top=2 / chromaloc-bottom=2 / display-window=0 / master-display=G(13250,34500)B(7500,3000)R(34000,16000)WP(15635,16450)L(10000000,1) / cll=1124,177 / min-luma=0 / max-luma=1023 / log2-max-poc-lsb=8 / vui-timing-info / vui-hrd-info / slices=1 / no-opt-qp-pps / no-opt-ref-list-length-pps / no-multi-pass-opt-rps / scenecut-bias=0.05 / hist-threshold=0.03 / no-opt-cu-delta-qp / no-aq-motion / hdr10 / hdr10-opt / no-dhdr10-opt / no-idr-recovery-sei / analysis-reuse-level=0 / analysis-save-reuse-level=0 / analysis-load-reuse-level=0 / scale-factor=0 / refine-intra=0 / refine-inter=0 / refine-mv=1 / refine-ctu-distortion=0 / no-limit-sao / ctu-info=0 / no-lowpass-dct / refine-analysis-type=0 / copy-pic=1 / max-ausize-factor=1.0 / no-dynamic-refine / no-single-sei / no-hevc-aq / no-svt / no-field / qp-adaptation-range=1.00 / scenecut-aware-qp=0conformance-window-offsets / right=0 / bottom=0 / decoder-max-rate=0 / no-vbv-live-multi-pass
Default : Да
Forced : Нет
Цветовой диапазон : Limited
Основные цвета : BT.2020
Характеристики трансфера : PQ
Коэффициенты матрицы : BT.2020 non-constant
Mastering display color primaries : Display P3
Mastering display luminance : min: 0.0001 cd/m2, max: 1000 cd/m2
Maximum Content Light Level : 1124 cd/m2
Maximum Frame-Average Light Level : 177 cd/m2
Аудио #1
Идентификатор : 2
Формат : AC-3
Формат/Информация : Audio Coding 3
Коммерческое название : Dolby Digital
Идентификатор кодека : A_AC3
Продолжительность : 1 ч. 52 м.
Вид битрейта : Постоянный
Битрейт : 640 Кбит/сек
Каналы : 6 каналов
Channel layout : L R C LFE Ls Rs
Частота : 48,0 КГц
Частота кадров : 31,250 кадров/сек (1536 SPF)
Метод сжатия : С потерями
Размер потока : 515 Мбайт (3%)
Заголовок : DUB (Netflix)
Язык : Russian
Service kind : Complete Main
Default : Да
Forced : Нет
Аудио #2
Идентификатор : 3
Формат : AC-3
Формат/Информация : Audio Coding 3
Коммерческое название : Dolby Digital
Идентификатор кодека : A_AC3
Продолжительность : 1 ч. 52 м.
Вид битрейта : Постоянный
Битрейт : 640 Кбит/сек
Каналы : 6 каналов
Channel layout : L R C LFE Ls Rs
Частота : 48,0 КГц
Частота кадров : 31,250 кадров/сек (1536 SPF)
Метод сжатия : С потерями
Размер потока : 515 Мбайт (3%)
Заголовок : DUB (Netflix)
Язык : Ukrainian
Service kind : Complete Main
Default : Нет
Forced : Нет
Аудио #3
Идентификатор : 4
Формат : AC-3
Формат/Информация : Audio Coding 3
Коммерческое название : Dolby Digital
Идентификатор кодека : A_AC3
Продолжительность : 1 ч. 52 м.
Вид битрейта : Постоянный
Битрейт : 640 Кбит/сек
Каналы : 6 каналов
Channel layout : L R C LFE Ls Rs
Частота : 48,0 КГц
Частота кадров : 31,250 кадров/сек (1536 SPF)
Метод сжатия : С потерями
Размер потока : 515 Мбайт (3%)
Заголовок : DUB (Netflix)
Язык : English
Service kind : Complete Main
Default : Нет
Forced : Нет
Аудио #4
Идентификатор : 5
Формат : AC-3
Формат/Информация : Audio Coding 3
Коммерческое название : Dolby Digital
Идентификатор кодека : A_AC3
Продолжительность : 1 ч. 52 м.
Вид битрейта : Постоянный
Битрейт : 640 Кбит/сек
Каналы : 6 каналов
Channel layout : L R C LFE Ls Rs
Частота : 48,0 КГц
Частота кадров : 31,250 кадров/сек (1536 SPF)
Метод сжатия : С потерями
Размер потока : 515 Мбайт (3%)
Заголовок : Original
Язык : French
Service kind : Complete Main
Default : Нет
Forced : Нет
Текст #1
Идентификатор : 6
Формат : UTF-8
Идентификатор кодека : S_TEXT/UTF8
Идентификатор кодека/Информация : UTF-8 Plain Text
Продолжительность : 1 ч. 50 м.
Битрейт : 3 бит/сек
Count of elements : 65
Размер потока : 2,92 Кбайт (0%)
Заголовок : Forced
Язык : Russian
Default : Да
Forced : Нет
Текст #2
Идентификатор : 7
Формат : UTF-8
Идентификатор кодека : S_TEXT/UTF8
Идентификатор кодека/Информация : UTF-8 Plain Text
Продолжительность : 1 ч. 50 м.
Битрейт : 96 бит/сек
Count of elements : 1679
Размер потока : 78,4 Кбайт (0%)
Заголовок : Full
Язык : Russian
Default : Нет
Forced : Нет
Текст #3
Идентификатор : 8
Формат : UTF-8
Идентификатор кодека : S_TEXT/UTF8
Идентификатор кодека/Информация : UTF-8 Plain Text
Продолжительность : 1 ч. 50 м.
Битрейт : 3 бит/сек
Count of elements : 67
Размер потока : 2,66 Кбайт (0%)
Заголовок : Forced
Язык : Ukrainian
Default : Нет
Forced : Нет
Текст #4
Идентификатор : 9
Формат : UTF-8
Идентификатор кодека : S_TEXT/UTF8
Идентификатор кодека/Информация : UTF-8 Plain Text
Продолжительность : 1 ч. 50 м.
Битрейт : 88 бит/сек
Count of elements : 1677
Размер потока : 71,8 Кбайт (0%)
Заголовок : Full
Язык : Ukrainian
Default : Нет
Forced : Нет
Текст #5
Идентификатор : 10
Формат : UTF-8
Идентификатор кодека : S_TEXT/UTF8
Идентификатор кодека/Информация : UTF-8 Plain Text
Продолжительность : 1 ч. 49 м.
Битрейт : 59 бит/сек
Count of elements : 1569
Размер потока : 47,4 Кбайт (0%)
Язык : English
Default : Нет
Forced : Нет

Скриншоты

admin

Post 26-Jul-2021 06:19

[Quote]

День независимости: ДилогияIndependence Day: Dilogy

1. День независимости / Independence Day (1996) Extended Cut


Информация о фильме
Название: День независимости
Оригинальное название: Independence Day
Год выхода: 1996
Жанр: Фантастика, Боевик, Приключения
Режиссер: Роланд Эммерих
В ролях: Уилл Смит, Джефф Голдблюм, Билл Пуллман, Мэри МакДоннелл, Джадд Хёрш, Роберт Лоджа, Рэнди Куэйд, Маргарет Колин, Джеймс Ребхорн, Харви Файерстин
О фильме:
На Земле принимается сигнал, посланный источником явно неземного происхождения. Источник этот приближается, и на «уши» поднимается вся планета. Никто, правда, не ожидал, что инопланетяне окажутся такими огромными и в таком количестве.

Страна: США
Студия: 20th Century Fox Film Corporation, Centropolis Entertainment
Продолжительность: 02:33:33
Перевод: многоголосый профессиональный
Файл
Видео: 1920x804, ~8033 Кбит/сек, HEVC, 10 бит
Звук:
Аудио1: AC3, 6 ch, 448 Kbps - Русский, Многоголосый (Супербит)
Аудио2: AC3, 2 ch, 192 Kbps - Украинский, Двухголосый (1+1), без перевода расширенных сцен
Аудио3: AC3, 6 ch, 448 Kbps - Английский, Оригинал
Субтитры: русские, украинские (на расширенные сцены), английские
Семпл

Лог (x265 info), Mediainfo
x265 [info]: frame I: Avg QP:17.38 kb/s
x265 [info]: frame P: Avg QP:18.86 kb/s
x265 [info]: frame B: Avg QP:20.82 kb/s
General
Unique ID : 140193155588788441649829839721007982253 (0x69783839FA1BF0390E01B99B7154A6AD)
Complete name : E:TorrentIndependence DayIndependence Day (1996).mkv
Format : Matroska
Format version : Version 4
File size : 9.79 GiB
Duration : 2 h 33 min
Overall bit rate : 9 124 kb/s
Movie name : Independence Day (1996)
Encoded date : UTC 2021-07-18 17:14:06
Writing application : mkvmerge v59.0.0 ('Shining Star') 64-bit
Writing library : libebml v1.4.2 + libmatroska v1.6.4
Cover : Yes
Attachments : cover
Video
ID : 1
Format : HEVC
Format/Info : High Efficiency Video Coding
Format profile : Main 10@L4.1@High
HDR format : SMPTE ST 2086, HDR10 compatible
Codec ID : V_MPEGH/ISO/HEVC
Duration : 2 h 33 min
Bit rate : 8 033 kb/s
Width : 1 920 pixels
Height : 804 pixels
Display aspect ratio : 2.40:1
Frame rate mode : Constant
Frame rate : 23.976 (24000/1001) FPS
Color space : YUV
Chroma subsampling : 4:2:0 (Type 2)
Bit depth : 10 bits
Bits/(Pixel*Frame) : 0.217
Stream size : 8.62 GiB (88%)
Writing library : x265 3.5+1-ce882936d:[Windows][MSVC 1928][64 bit] 10bit
Encoding settings : cpuid=1111039 / frame-threads=4 / numa-pools=16 / wpp / no-pmode / no-pme / no-psnr / no-ssim / log-level=2 / input-csp=1 / input-res=1920x804 / interlace=0 / total-frames=220899 / level-idc=41 / high-tier=1 / uhd-bd=0 / ref=5 / no-allow-non-conformance / repeat-headers / annexb / no-aud / no-hrd / info / hash=0 / no-temporal-layers / open-gop / min-keyint=23 / keyint=240 / gop-lookahead=0 / bframes=16 / b-adapt=2 / b-pyramid / bframe-bias=0 / rc-lookahead=60 / lookahead-slices=4 / scenecut=40 / hist-scenecut=0 / radl=0 / no-splice / no-intra-refresh / ctu=32 / min-cu-size=8 / rect / amp / max-tu-size=32 / tu-inter-depth=4 / tu-intra-depth=4 / limit-tu=1 / rdoq-level=2 / dynamic-rd=0.00 / no-ssim-rd / signhide / no-tskip / nr-intra=0 / nr-inter=0 / no-constrained-intra / no-strong-intra-smoothing / max-merge=4 / limit-refs=2 / limit-modes / me=3 / subme=7 / merange=57 / temporal-mvp / no-frame-dup / no-hme / weightp / weightb / no-analyze-src-pics / deblock=-3:-3 / no-sao / no-sao-non-deblock / rd=6 / selective-sao=0 / no-early-skip / no-rskip / no-fast-intra / no-tskip-fast / no-cu-lossless / no-b-intra / no-splitrd-skip / rdpenalty=0 / psy-rd=2.00 / psy-rdoq=1.00 / no-rd-refine / no-lossless / cbqpoffs=0 / crqpoffs=0 / rc=crf / crf=19.0 / qcomp=0.65 / qpstep=4 / stats-write=0 / stats-read=0 / vbv-maxrate=50000 / vbv-bufsize=50000 / vbv-init=0.9 / min-vbv-fullness=50.0 / max-vbv-fullness=80.0 / crf-max=0.0 / crf-min=0.0 / ipratio=1.40 / pbratio=1.30 / aq-mode=1 / aq-strength=1.00 / no-cutree / zone-count=0 / no-strict-cbr / qg-size=32 / no-rc-grain / qpmax=69 / qpmin=0 / no-const-vbv / sar=1 / overscan=0 / videoformat=5 / range=0 / colorprim=9 / transfer=16 / colormatrix=9 / chromaloc=1 / chromaloc-top=2 / chromaloc-bottom=2 / display-window=0 / master-display=G(13250,34500)B(7500,3000)R(34000,16000)WP(15635,16450)L(10000000,0) / cll=0,0 / min-luma=0 / max-luma=1023 / log2-max-poc-lsb=8 / vui-timing-info / vui-hrd-info / slices=1 / no-opt-qp-pps / no-opt-ref-list-length-pps / no-multi-pass-opt-rps / scenecut-bias=0.05 / hist-threshold=0.03 / no-opt-cu-delta-qp / no-aq-motion / hdr10 / hdr10-opt / no-dhdr10-opt / no-idr-recovery-sei / analysis-reuse-level=0 / analysis-save-reuse-level=0 / analysis-load-reuse-level=0 / scale-factor=0 / refine-intra=0 / refine-inter=0 / refine-mv=1 / refine-ctu-distortion=0 / no-limit-sao / ctu-info=0 / no-lowpass-dct / refine-analysis-type=0 / copy-pic=1 / max-ausize-factor=1.0 / no-dynamic-refine / no-single-sei / no-hevc-aq / no-svt / no-field / qp-adaptation-range=1.00 / scenecut-aware-qp=0conformance-window-offsets / right=0 / bottom=0 / decoder-max-rate=0 / no-vbv-live-multi-pass
Default : Yes
Forced : No
Color range : Limited
Color primaries : BT.2020
Transfer characteristics : PQ
Matrix coefficients : BT.2020 non-constant
Mastering display color primar : Display P3
Mastering display luminance : min: 0.0000 cd/m2, max: 1000 cd/m2
Audio #1
ID : 2
Format : AC-3
Format/Info : Audio Coding 3
Commercial name : Dolby Digital
Codec ID : A_AC3
Duration : 2 h 33 min
Bit rate mode : Constant
Bit rate : 448 kb/s
Channel(s) : 6 channels
Channel layout : L R C LFE Ls Rs
Sampling rate : 48.0 kHz
Frame rate : 31.250 FPS (1536 SPF)
Compression mode : Lossy
Stream size : 492 MiB (5%)
Title : MVO Супербит
Language : Russian
Service kind : Complete Main
Default : Yes
Forced : No
Audio #2
ID : 3
Format : AC-3
Format/Info : Audio Coding 3
Commercial name : Dolby Digital
Codec ID : A_AC3
Duration : 2 h 33 min
Bit rate mode : Constant
Bit rate : 192 kb/s
Channel(s) : 2 channels
Channel layout : L R
Sampling rate : 48.0 kHz
Frame rate : 31.250 FPS (1536 SPF)
Compression mode : Lossy
Stream size : 211 MiB (2%)
Title : двоголосий закадровий з вставками оригіналу [1+1]
Language : Ukrainian
Service kind : Complete Main
Default : Yes
Forced : No
Audio #3
ID : 4
Format : AC-3
Format/Info : Audio Coding 3
Commercial name : Dolby Digital
Codec ID : A_AC3
Duration : 2 h 33 min
Bit rate mode : Constant
Bit rate : 448 kb/s
Channel(s) : 6 channels
Channel layout : L R C LFE Ls Rs
Sampling rate : 48.0 kHz
Frame rate : 31.250 FPS (1536 SPF)
Compression mode : Lossy
Stream size : 492 MiB (5%)
Title : Originals
Language : English
Service kind : Complete Main
Default : No
Forced : No
Text #1
ID : 5
Format : UTF-8
Codec ID : S_TEXT/UTF8
Codec ID/Info : UTF-8 Plain Text
Duration : 2 h 23 min
Bit rate : 119 b/s
Count of elements : 2742
Stream size : 125 KiB (0%)
Language : Russian
Default : No
Forced : No
Text #2
ID : 6
Format : UTF-8
Codec ID : S_TEXT/UTF8
Codec ID/Info : UTF-8 Plain Text
Duration : 2 h 18 min
Bit rate : 9 b/s
Count of elements : 206
Stream size : 10.1 KiB (0%)
Title : Forced - на розширені моменти
Default : No
Forced : No
Text #3
ID : 7
Format : UTF-8
Codec ID : S_TEXT/UTF8
Codec ID/Info : UTF-8 Plain Text
Duration : 2 h 23 min
Bit rate : 60 b/s
Count of elements : 1787
Stream size : 63.9 KiB (0%)
Language : English
Default : No
Forced : No
Menu
00:00:00.000 : :Глава 1
00:02:43.872 : :Глава 2
00:05:01.467 : :Глава 3
00:07:32.577 : :Глава 4
00:08:02.315 : :Глава 5
00:09:21.602 : :Глава 6
00:10:29.879 : :Глава 7
00:12:06.600 : :Глава 8
00:14:08.514 : :Глава 9
00:14:56.729 : :Глава 10
00:18:56.969 : :Глава 11
00:25:33.114 : :Глава 12
00:27:23.725 : :Глава 13
00:30:10.808 : :Глава 14
00:32:18.102 : :Глава 15
00:34:12.633 : :Глава 16
00:36:39.405 : :Глава 17
00:38:17.378 : :Глава 18
00:40:05.110 : :Глава 19
00:41:02.167 : :Глава 20
00:41:33.449 : :Глава 21
00:44:15.611 : :Глава 22
00:44:37.925 : :Глава 23
00:46:02.801 : :Глава 24
00:48:48.008 : :Глава 25
00:50:42.038 : :Глава 26
00:54:22.717 : :Глава 27
00:57:22.480 : :Глава 28
00:58:05.148 : :Глава 29
01:03:10.995 : :Глава 30
01:04:30.157 : :Глава 31
01:06:00.748 : :Глава 32
01:06:52.967 : :Глава 33
01:08:20.012 : :Глава 34
01:11:22.027 : :Глава 35
01:12:50.324 : :Глава 36
01:14:38.140 : :Глава 37
01:18:29.537 : :Глава 38
01:21:19.207 : :Глава 39
01:23:04.729 : :Глава 40
01:25:59.779 : :Глава 41
01:27:49.680 : :Глава 42
01:35:25.261 : :Глава 43
01:38:52.217 : :Глава 44
01:39:55.572 : :Глава 45
01:42:51.790 : :Глава 46
01:49:33.233 : :Глава 47
01:53:25.339 : :Глава 48
01:55:01.060 : :Глава 49
01:59:38.754 : :Глава 50
02:04:03.394 : :Глава 51
02:07:41.403 : :Глава 52
02:10:50.675 : :Глава 53
02:11:52.612 : :Глава 54
02:17:21.316 : :Глава 55
02:21:17.343 : :Глава 56
02:24:48.679 : :Глава 57
02:33:33.120 : :Глава 58

2. День независимости: Возрождение / Independence Day: Resurgence (2016)


Информация о фильме
Название: День независимости: Возрождение
Оригинальное название: Independence Day: Resurgence
Год выхода: 2016
Жанр: Фантастика, Боевик, Приключения
Режиссер: Роланд Эммерих
В ролях: Лиам Хемсворт, Джефф Голдблюм, Джесси Ашер, Билл Пуллман, Майка Монро, Села Уорд, Уильям Фихтнер, Джадд Хёрш, Брент Спайнер, Патрик Ст. Эсприт
О фильме:
Используя инопланетные технологии, жители Земли создали специальную программу по защите планеты. Но ничего не может нас спасти от нового, еще более разрушительного и масштабного инопланетного вторжения — только смелость нескольких героев, которые единственные могут спасти наш мир от уничтожения.

Страна: США
Студия: 20th Century Fox Film Corporation
Продолжительность: 01:59:44
Перевод: дублированный
Файл
Видео: 1920x802, ~6940 Кбит/сек, HEVC, 10 бит
Звук:
Аудио1: AC3, 6 ch, 448 Kbps - Русский, Дублированный (Лицензия)
Аудио2: AC3, 6 ch, 448 Kbps - Украинский, Дублированный (Лицензия)
Аудио3: AC3, 6 ch, 448 Kbps - Английский, Оригинал
Субтитры: русские (форсированные, полные), украинские (форсированные, полные), английские (форсированные, полные, SDH)
Семпл

Лог (x265 info), Mediainfo
x265 [info]: frame I: Avg QP:16.72 kb/s
x265 [info]: frame P: Avg QP:18.01 kb/s
x265 [info]: frame B: Avg QP:20.19 kb/s
General
Unique ID : 95498070105179591042425121502621564712 (0x47D842607B026F24ACA68C9BBAEB7F28)
Complete name : E:TorrentIndependence DayIndependence Day Resurgence (2016).mkv
Format : Matroska
Format version : Version 4
File size : 6.93 GiB
Duration : 1 h 59 min
Overall bit rate : 8 287 kb/s
Movie name : Independence Day: Resurgence (2016)
Encoded date : UTC 2021-07-19 10:36:09
Writing application : mkvmerge v59.0.0 ('Shining Star') 64-bit
Writing library : libebml v1.4.2 + libmatroska v1.6.4
Cover : Yes
Attachments : cover
Video
ID : 1
Format : HEVC
Format/Info : High Efficiency Video Coding
Format profile : Main 10@L4.1@High
HDR format : SMPTE ST 2086, HDR10 compatible
Codec ID : V_MPEGH/ISO/HEVC
Duration : 1 h 59 min
Bit rate : 6 940 kb/s
Width : 1 920 pixels
Height : 802 pixels
Display aspect ratio : 2.40:1
Frame rate mode : Constant
Frame rate : 23.976 (23976/1000) FPS
Original frame rate : 23.976 (24000/1001) FPS
Color space : YUV
Chroma subsampling : 4:2:0 (Type 2)
Bit depth : 10 bits
Bits/(Pixel*Frame) : 0.188
Stream size : 5.80 GiB (84%)
Writing library : x265 3.5+1-ce882936d:[Windows][MSVC 1928][64 bit] 10bit
Encoding settings : cpuid=1111039 / frame-threads=4 / numa-pools=16 / wpp / no-pmode / no-pme / no-psnr / no-ssim / log-level=2 / input-csp=1 / input-res=1920x802 / interlace=0 / total-frames=172248 / level-idc=41 / high-tier=1 / uhd-bd=0 / ref=5 / no-allow-non-conformance / repeat-headers / annexb / no-aud / no-hrd / info / hash=0 / no-temporal-layers / open-gop / min-keyint=23 / keyint=240 / gop-lookahead=0 / bframes=16 / b-adapt=2 / b-pyramid / bframe-bias=0 / rc-lookahead=60 / lookahead-slices=4 / scenecut=40 / hist-scenecut=0 / radl=0 / no-splice / no-intra-refresh / ctu=32 / min-cu-size=8 / rect / amp / max-tu-size=32 / tu-inter-depth=4 / tu-intra-depth=4 / limit-tu=1 / rdoq-level=2 / dynamic-rd=0.00 / no-ssim-rd / signhide / no-tskip / nr-intra=0 / nr-inter=0 / no-constrained-intra / no-strong-intra-smoothing / max-merge=4 / limit-refs=2 / limit-modes / me=3 / subme=7 / merange=57 / temporal-mvp / no-frame-dup / no-hme / weightp / weightb / no-analyze-src-pics / deblock=-3:-3 / no-sao / no-sao-non-deblock / rd=6 / selective-sao=0 / no-early-skip / no-rskip / no-fast-intra / no-tskip-fast / no-cu-lossless / no-b-intra / no-splitrd-skip / rdpenalty=0 / psy-rd=2.00 / psy-rdoq=1.00 / no-rd-refine / no-lossless / cbqpoffs=0 / crqpoffs=0 / rc=crf / crf=19.0 / qcomp=0.65 / qpstep=4 / stats-write=0 / stats-read=0 / vbv-maxrate=50000 / vbv-bufsize=50000 / vbv-init=0.9 / min-vbv-fullness=50.0 / max-vbv-fullness=80.0 / crf-max=0.0 / crf-min=0.0 / ipratio=1.40 / pbratio=1.30 / aq-mode=1 / aq-strength=1.00 / no-cutree / zone-count=0 / no-strict-cbr / qg-size=32 / no-rc-grain / qpmax=69 / qpmin=0 / no-const-vbv / sar=1 / overscan=0 / videoformat=5 / range=0 / colorprim=9 / transfer=16 / colormatrix=9 / chromaloc=1 / chromaloc-top=2 / chromaloc-bottom=2 / display-window=0 / master-display=G(13250,34500)B(7500,3000)R(34000,16000)WP(15635,16450)L(10000000,0) / cll=0,0 / min-luma=0 / max-luma=1023 / log2-max-poc-lsb=8 / vui-timing-info / vui-hrd-info / slices=1 / no-opt-qp-pps / no-opt-ref-list-length-pps / no-multi-pass-opt-rps / scenecut-bias=0.05 / hist-threshold=0.03 / no-opt-cu-delta-qp / no-aq-motion / hdr10 / hdr10-opt / no-dhdr10-opt / no-idr-recovery-sei / analysis-reuse-level=0 / analysis-save-reuse-level=0 / analysis-load-reuse-level=0 / scale-factor=0 / refine-intra=0 / refine-inter=0 / refine-mv=1 / refine-ctu-distortion=0 / no-limit-sao / ctu-info=0 / no-lowpass-dct / refine-analysis-type=0 / copy-pic=1 / max-ausize-factor=1.0 / no-dynamic-refine / no-single-sei / no-hevc-aq / no-svt / no-field / qp-adaptation-range=1.00 / scenecut-aware-qp=0conformance-window-offsets / right=0 / bottom=0 / decoder-max-rate=0 / no-vbv-live-multi-pass
Default : Yes
Forced : No
Color range : Limited
Color primaries : BT.2020
Transfer characteristics : PQ
Matrix coefficients : BT.2020 non-constant
Mastering display color primar : Display P3
Mastering display luminance : min: 0.0000 cd/m2, max: 1000 cd/m2
Audio #1
ID : 2
Format : AC-3
Format/Info : Audio Coding 3
Commercial name : Dolby Digital
Codec ID : A_AC3
Duration : 1 h 59 min
Bit rate mode : Constant
Bit rate : 448 kb/s
Channel(s) : 6 channels
Channel layout : L R C LFE Ls Rs
Sampling rate : 48.0 kHz
Frame rate : 31.250 FPS (1536 SPF)
Compression mode : Lossy
Stream size : 384 MiB (5%)
Title : Дубляж (Лицензия)
Language : Russian
Service kind : Complete Main
Default : No
Forced : No
Audio #2
ID : 3
Format : AC-3
Format/Info : Audio Coding 3
Commercial name : Dolby Digital
Codec ID : A_AC3
Duration : 1 h 59 min
Bit rate mode : Constant
Bit rate : 448 kb/s
Channel(s) : 6 channels
Channel layout : L R C LFE Ls Rs
Sampling rate : 48.0 kHz
Frame rate : 31.250 FPS (1536 SPF)
Compression mode : Lossy
Stream size : 384 MiB (5%)
Title : Дубляж (Лицензия)
Language : Ukrainian
Service kind : Complete Main
Default : Yes
Forced : No
Audio #3
ID : 4
Format : AC-3
Format/Info : Audio Coding 3
Commercial name : Dolby Digital
Codec ID : A_AC3
Duration : 1 h 59 min
Bit rate mode : Constant
Bit rate : 448 kb/s
Channel(s) : 6 channels
Channel layout : L R C LFE Ls Rs
Sampling rate : 48.0 kHz
Frame rate : 31.250 FPS (1536 SPF)
Compression mode : Lossy
Stream size : 384 MiB (5%)
Title : Original
Language : English
Service kind : Complete Main
Default : No
Forced : No
Text #1
ID : 5
Format : UTF-8
Codec ID : S_TEXT/UTF8
Codec ID/Info : UTF-8 Plain Text
Duration : 1 h 57 min
Bit rate : 1 b/s
Count of elements : 15
Stream size : 1.02 KiB (0%)
Title : Forced
Language : Russian
Default : Yes
Forced : No
Text #2
ID : 6
Format : UTF-8
Codec ID : S_TEXT/UTF8
Codec ID/Info : UTF-8 Plain Text
Duration : 1 h 58 min
Bit rate : 94 b/s
Count of elements : 1736
Stream size : 82.0 KiB (0%)
Title : Full
Language : Russian
Default : No
Forced : No
Text #3
ID : 7
Format : UTF-8
Codec ID : S_TEXT/UTF8
Codec ID/Info : UTF-8 Plain Text
Duration : 8 s 388 ms
Bit rate : 166 b/s
Count of elements : 3
Stream size : 175 Bytes (0%)
Title : Forced
Language : Ukrainian
Default : No
Forced : Yes
Text #4
ID : 8
Format : UTF-8
Codec ID : S_TEXT/UTF8
Codec ID/Info : UTF-8 Plain Text
Duration : 1 h 58 min
Bit rate : 95 b/s
Count of elements : 1733
Stream size : 82.9 KiB (0%)
Title : Full
Language : Ukrainian
Default : No
Forced : No
Text #5
ID : 9
Format : UTF-8
Codec ID : S_TEXT/UTF8
Codec ID/Info : UTF-8 Plain Text
Duration : 7 s 464 ms
Bit rate : 114 b/s
Count of elements : 3
Stream size : 107 Bytes (0%)
Title : Forced
Language : English
Default : No
Forced : No
Text #6
ID : 10
Format : UTF-8
Codec ID : S_TEXT/UTF8
Codec ID/Info : UTF-8 Plain Text
Duration : 1 h 49 min
Bit rate : 62 b/s
Count of elements : 1711
Stream size : 50.3 KiB (0%)
Title : Full
Language : English
Default : No
Forced : No
Text #7
ID : 11
Format : UTF-8
Codec ID : S_TEXT/UTF8
Codec ID/Info : UTF-8 Plain Text
Duration : 1 h 49 min
Bit rate : 74 b/s
Count of elements : 2158
Stream size : 59.7 KiB (0%)
Title : SDH
Language : English
Default : No
Forced : No
Menu
00:00:00.000 : 1
00:05:37.336 : 2
00:09:15.471 : 3
00:14:06.720 : 4
00:19:40.470 : 5
00:22:59.001 : 6
00:27:10.252 : 7
00:31:37.644 : 8
00:39:11.974 : 9
00:43:41.117 : 10
00:47:46.612 : 11
00:52:32.190 : 12
00:59:10.255 : 13
01:02:00.132 : 14
01:07:12.068 : 15
01:09:54.814 : 16
01:13:11.720 : 17
01:18:27.452 : 18
01:22:45.502 : 19
01:27:51.807 : 20
01:32:36.716 : 21
01:39:38.137 : 22
01:47:20.141 : 23
01:50:36.712 : 24

admin

Post 24-Jul-2021 05:30

[Quote]

Кроваво-красное небо / Blood Red Sky
Страна: Германия, США
Год выпуска: 2021
Жанр: ужасы, боевик
Продолжительность: 02:03:06
Перевод: Профессиональный (дублированный) | SDI Media по заказу Netflix
Режиссёр: Петер Торварт
В ролях: Пери Баумайстер, Грэм МакТавиш, Роланд Мёллер, Доминик Пёрселл, Александр Шеер, Карл Антон Кох, Чиди Аджуфо, Ребекка Дайсон-Смит, Гордон Браун, Рой МакКрири, Ребекка Дайсон-Смит, Гордон Браун, Рой МакКрири, Каис Сетти
Описание: Надя и её десятилетний сын летят ночным рейсом из Германии в Нью-Йорк, но их самолёт внезапно захватывает группа террористов, которая грозится убить пассажиров. Надя встаёт перед выбором: продолжать ли скрывать свою тёмную сторону или выпустить монстра на свободу ради спасения сына?

Качество: WEB-DL-HEVC 1080p
Контейнер: MKV
Видео: HEVC 10 bit, 1920x1080 (16:9), 25 fps, ~5121 kbps
Аудио №1: AC3, 48 kHz, 6 ch, 384 kbps
Аудио №2: E-AC3, 48 kHz, 6 ch, 640 kbps
Аудио №3: E-AC3, 48 kHz, 6 ch, 640 kbps
Субтитры: Русские (Forced, Full), немецкие (Forced, SDH), английские, румынские, украинские
Реклама: Отсутствует
Релиз: EniaHD

MediaInfo

General
Unique ID : 184669509424085231165571136890880226258 (0x8AEE0DC5EFA1F03FB5DF5C7AA5DD73D2)
Complete name : Blood.Red.Sky.2021.1080p.NF.WEB-DL.DD5.1.HEVC-EniaHD.mkv
Format : Matroska
Format version : Version 4
File size : 5.84 GiB
Duration : 2 h 3 min
Overall bit rate : 6 788 kb/s
Movie name : Blood Red Sky (2021) - EniaHD
Encoded date : UTC 2021-07-23 07:07:09
Writing application : mkvmerge v57.0.0 ('Till The End') 64-bit
Writing library : libebml v1.4.2 + libmatroska v1.6.4
Video
ID : 1
Format : HEVC
Format/Info : High Efficiency Video Coding
Format profile : Main 10@L4@Main
Codec ID : V_MPEGH/ISO/HEVC
Duration : 2 h 3 min
Bit rate : 5 121 kb/s
Width : 1 920 pixels
Height : 1 080 pixels
Display aspect ratio : 16:9
Frame rate mode : Constant
Frame rate : 25.000 FPS
Color space : YUV
Chroma subsampling : 4:2:0
Bit depth : 10 bits
Bits/(Pixel*Frame) : 0.099
Stream size : 4.40 GiB (75%)
Default : Yes
Forced : No
Color range : Limited
Color primaries : BT.709
Transfer characteristics : BT.709
Matrix coefficients : BT.709
Audio #1
ID : 2
Format : AC-3
Format/Info : Audio Coding 3
Commercial name : Dolby Digital
Codec ID : A_AC3
Duration : 2 h 3 min
Bit rate mode : Constant
Bit rate : 384 kb/s
Channel(s) : 6 channels
Channel layout : L R C LFE Ls Rs
Sampling rate : 48.0 kHz
Frame rate : 31.250 FPS (1536 SPF)
Compression mode : Lossy
Stream size : 338 MiB (6%)
Title : AC3
Language : Russian
Service kind : Complete Main
Default : Yes
Forced : No
Audio #2
ID : 3
Format : E-AC-3
Format/Info : Enhanced AC-3
Commercial name : Dolby Digital Plus
Codec ID : A_EAC3
Duration : 2 h 3 min
Bit rate mode : Constant
Bit rate : 640 kb/s
Channel(s) : 6 channels
Channel layout : L R C LFE Ls Rs
Sampling rate : 48.0 kHz
Frame rate : 31.250 FPS (1536 SPF)
Compression mode : Lossy
Stream size : 564 MiB (9%)
Title : E-AC3
Language : Russian
Service kind : Complete Main
Default : No
Forced : No
Audio #3
ID : 4
Format : E-AC-3
Format/Info : Enhanced AC-3
Commercial name : Dolby Digital Plus
Codec ID : A_EAC3
Duration : 2 h 3 min
Bit rate mode : Constant
Bit rate : 640 kb/s
Channel(s) : 6 channels
Channel layout : L R C LFE Ls Rs
Sampling rate : 48.0 kHz
Frame rate : 31.250 FPS (1536 SPF)
Compression mode : Lossy
Stream size : 564 MiB (9%)
Language : German
Service kind : Complete Main
Default : No
Forced : No
Text #1
ID : 5
Format : UTF-8
Codec ID : S_TEXT/UTF8
Codec ID/Info : UTF-8 Plain Text
Duration : 2 h 1 min
Bit rate : 1 b/s
Count of elements : 25
Stream size : 1.38 KiB (0%)
Title : Forced
Language : Russian
Default : Yes
Forced : No
Text #2
ID : 6
Format : UTF-8
Codec ID : S_TEXT/UTF8
Codec ID/Info : UTF-8 Plain Text
Duration : 2 h 1 min
Bit rate : 46 b/s
Count of elements : 987
Stream size : 41.7 KiB (0%)
Language : Russian
Default : No
Forced : No
Text #3
ID : 7
Format : UTF-8
Codec ID : S_TEXT/UTF8
Codec ID/Info : UTF-8 Plain Text
Duration : 1 h 59 min
Bit rate : 3 b/s
Count of elements : 68
Stream size : 2.96 KiB (0%)
Title : Forced
Language : German
Default : No
Forced : No
Text #4
ID : 8
Format : UTF-8
Codec ID : S_TEXT/UTF8
Codec ID/Info : UTF-8 Plain Text
Duration : 2 h 0 min
Bit rate : 40 b/s
Count of elements : 1230
Stream size : 35.9 KiB (0%)
Language : German
Default : No
Forced : No
Text #5
ID : 9
Format : UTF-8
Codec ID : S_TEXT/UTF8
Codec ID/Info : UTF-8 Plain Text
Duration : 1 h 51 min
Bit rate : 12 b/s
Count of elements : 379
Stream size : 10.3 KiB (0%)
Language : English
Default : No
Forced : No
Text #6
ID : 10
Format : UTF-8
Codec ID : S_TEXT/UTF8
Codec ID/Info : UTF-8 Plain Text
Duration : 2 h 1 min
Bit rate : 29 b/s
Count of elements : 961
Stream size : 26.2 KiB (0%)
Language : Romanian
Default : No
Forced : No
Text #7
ID : 11
Format : UTF-8
Codec ID : S_TEXT/UTF8
Codec ID/Info : UTF-8 Plain Text
Duration : 2 h 1 min
Bit rate : 46 b/s
Count of elements : 985
Stream size : 40.9 KiB (0%)
Language : Ukrainian
Default : No
Forced : No

Скриншоты


admin

Post 21-Jul-2021 04:40

[Quote]

Информация о фильме
Название: Судная ночь навсегда
Оригинальное название: The Forever Purge
Год выхода: 2021
Жанр: Ужасы, боевик, триллер
Режиссер: Эверардо Валерио Гоут
В ролях: Ана де ла Регера, Джош Лукас, Уилл Пэттон, Кэссиди Фриман, Вероника Фалькон, Ливэн Рамбин, Теноч Уэрта, Сьюзи Абромейт, Алехандро Эдда, Энтони Молинари
О фильме:
Этим летом все правила будут нарушены. Группа мародеров решает, что ежегодная Судная ночь не должна заканчиваться с наступлением утра, а может продолжаться бесконечно. Никто больше не будет в безопасности.

Страна: США, Мексика, Франция
Продолжительность: 01:43:28
Перевод: Любительский (двухголосый, закадровый) | Pazl Voice
Файл
Кодек: H.265
Качество: WEB-DL 2160p
Видео: MPEG-H HEVC, HDR, 3840x2078 (1.85:1), 23.976 fps, 23.1 Mb/s, 10 Bit
Аудио 1: AC3, 48.0 kHz, 6 ch, 448 kb/s | RUS [DVO, Pazl Voice] (Tnx.KinoPub)
Аудио 2: AC3, 48.0 kHz, 2 ch, 192 kb/s | UKR [DUB, Line]
Аудио 3: AC3, 48.0 kHz, 6 ch, 384 kb/s | ENG [Оригинал]
Субтитры: Английские
Примечание: Присутствует ненормативная лексика.
Рекламы нет | Сэмпл |

MI

Общее
Уникальный идентификатор : 181302736615320219954179408676404511005 (0x8865A30ECE78D1A9B68EFDEF703EC11D)
Полное имя : The.Forever.Purge.2021.WEB-DL.2160p.HDR.mkv
Формат : Matroska
Версия формата : Version 4 / Version 2
Размер файла : 17,5 Гбайт
Продолжительность : 1 ч. 43 м.
Общий поток : 24,2 Мбит/сек
Дата кодирования : UTC 2021-07-20 16:12:56
Программа кодирования : mkvmerge v8.3.0 ('Over the Horizon') 64bit
Библиотека кодирования : libebml v1.3.1 + libmatroska v1.4.2
Видео
Идентификатор : 1
Формат : HEVC
Формат/Информация : High Efficiency Video Coding
Профиль формата : Main 10@L5@High
HDR format : SMPTE ST 2086, HDR10 compatible
Идентификатор кодека : V_MPEGH/ISO/HEVC
Продолжительность : 1 ч. 43 м.
Битрейт : 23,1 Мбит/сек
Ширина : 3 840 пикселей
Высота : 2 078 пикселей
Соотношение сторон : 1,85:1
Режим частоты кадров : Постоянный
Частота кадров : 23,976 кадра/сек
Цветовое пространство : YUV
Субдискретизация насыщенности : 4:2:0 (Type 2)
Битовая глубина : 10 бит
Бит/(Пиксели*Кадры) : 0.121
Размер потока : 16,7 Гбайт (96%)
Default : Да
Forced : Нет
Цветовой диапазон : Limited
Основные цвета : BT.2020
Характеристики трансфера : PQ
Коэффициенты матрицы : BT.2020 non-constant
Mastering display color primaries : Display P3
Mastering display luminance : min: 0.0050 cd/m2, max: 1000 cd/m2
Maximum Content Light Level : 1049 cd/m2
Maximum Frame-Average Light Level : 500 cd/m2
Аудио #1
Идентификатор : 2
Формат : AC-3
Формат/Информация : Audio Coding 3
Коммерческое название : Dolby Digital
Идентификатор кодека : A_AC3
Продолжительность : 1 ч. 43 м.
Вид битрейта : Постоянный
Битрейт : 448 Кбит/сек
Каналы : 6 каналов
Channel layout : L R C LFE Ls Rs
Частота : 48,0 КГц
Частота кадров : 31,250 кадров/сек (1536 SPF)
Метод сжатия : С потерями
Размер потока : 332 Мбайт (2%)
Заголовок : DVO (Pazl Voice)
Язык : Russian
Service kind : Complete Main
Default : Да
Forced : Нет
Аудио #2
Идентификатор : 3
Формат : AC-3
Формат/Информация : Audio Coding 3
Коммерческое название : Dolby Digital
Идентификатор кодека : A_AC3
Продолжительность : 1 ч. 43 м.
Вид битрейта : Постоянный
Битрейт : 192 Кбит/сек
Каналы : 2 канала
Channel layout : L R
Частота : 48,0 КГц
Частота кадров : 31,250 кадров/сек (1536 SPF)
Метод сжатия : С потерями
Размер потока : 142 Мбайт (1%)
Заголовок : DUB (Line)
Язык : Ukrainian
Service kind : Complete Main
Default : Нет
Forced : Нет
Аудио #3
Идентификатор : 4
Формат : AC-3
Формат/Информация : Audio Coding 3
Коммерческое название : Dolby Digital
Идентификатор кодека : A_AC3
Продолжительность : 1 ч. 43 м.
Вид битрейта : Постоянный
Битрейт : 384 Кбит/сек
Каналы : 6 каналов
Channel layout : L R C LFE Ls Rs
Частота : 48,0 КГц
Частота кадров : 31,250 кадров/сек (1536 SPF)
Метод сжатия : С потерями
Размер потока : 284 Мбайт (2%)
Заголовок : Original
Язык : English
Service kind : Complete Main
Default : Нет
Forced : Нет
Текст #1
Идентификатор : 5
Формат : UTF-8
Идентификатор кодека : S_TEXT/UTF8
Идентификатор кодека/Информация : UTF-8 Plain Text
Продолжительность : 1 ч. 30 м.
Битрейт : 2 бит/сек
Count of elements : 78
Размер потока : 1,78 Кбайт (0%)
Заголовок : Forced
Язык : English
Default : Нет
Forced : Нет
Текст #2
Идентификатор : 6
Формат : UTF-8
Идентификатор кодека : S_TEXT/UTF8
Идентификатор кодека/Информация : UTF-8 Plain Text
Продолжительность : 1 ч. 43 м.
Битрейт : 64 бит/сек
Count of elements : 1770
Размер потока : 48,7 Кбайт (0%)
Заголовок : Full
Язык : English
Default : Нет
Forced : Нет
Меню
00:00:00.000 : en:Scene 1
00:04:59.966 : en:Scene 2
00:11:22.766 : en:Scene 3
00:18:09.464 : en:Scene 4
00:23:43.173 : en:Scene 5
00:29:00.407 : en:Scene 6
00:36:27.604 : en:Scene 7
00:42:38.183 : en:Scene 8
00:45:31.147 : en:Scene 9
00:52:23.852 : en:Scene 10
01:00:30.588 : en:Scene 11
01:05:46.321 : en:Scene 12
01:12:46.783 : en:Scene 13
01:18:10.023 : en:Scene 14
01:25:18.660 : en:Scene 15
01:32:07.902 : en:Scene 16

Скриншоты

admin

Post 19-Jul-2021 04:21

[Quote]

Информация о фильме
Название: Ассасин: Битва миров
Оригинальное название: A Writer's Odyssey: Assassin in red / Ci sha xiao shuo jia
Год выхода: 2021
Жанр: Фэнтези, боевик
Режиссер: Лу Ян
В ролях: Цзяинь Лэй, Ми Ян, Дун Цзыцзянь, Хэвэй Юй, Цзинфэй Го, Ван Шэнди, Лия Тун, Дун Цзэ, Ян И, Лю Тяньцзо
О фильме:
В неком фэнтезийном мире правит жестокий Бог, которому нужны лишь смерть и разрушения. Потеряв сестру, но обретя волшебный доспех, молодой воин Кунвэнь отправляется в путешествие, чтобы разыскать и убить Бога. В это время в нашем мире мужчина Гуань Нин уже шесть лет находится на грани отчаяния, разыскивая пропавшую дочку. Он выходит на торговцев детьми, но полиция ошибочно принимает его за преступника и арестовывает. Сбежать Нину помогает ассистентка влиятельного бизнесмена и предлагает ему сделку. Один популярный писатель в данный момент пишет роман в жанре фэнтези, который каким-то образом вредит здоровью её босса, а Нин в обмен на информацию о местонахождении дочери должен этого писателя убить.

Страна: Китай
Продолжительность: 02:09:52
Перевод(ы):
#1: Профессиональный дублированный | iTunes
#2: Профессиональный (многоголосый, закадровый) | HDRezka Studio
Файл
Кодек: H.265
Качество: WEB-DL 2160p
Видео: MPEG-H HEVC HDR Video, 3840x2080 (1.85:1), 24.000 fps, 15.6 Mb/s, 10 bit
Аудио 1: AC3, 48.0 kHz, 6 ch, 384 kb/s | RUS [DUB, iTunes]
Аудио 2: AC3, 48.0 kHz, 2 ch, 192 kb/s | RUS [MVO, HDRezka Studio]
Аудио 3: AC3, 48.0 kHz, 6 ch, 384 kb/s | UKR [DUB, iTunes]
Аудио 4: E-AC3, 48.0 kHz, 6 ch, 256 kb/s | CHI [Оригинал]
Субтитры: Русские (Forced), украинские (Forced), английские (Hardsub), китайские (Hardsub)
Сэмпл

MI

Общее
Уникальный идентификатор : 222187923063048812450102430165217752011 (0xA727D661DDF9B3A5859D7669B55EB3CB)
Полное имя : A.Writer's.Odyssey.(2021).HDR.WEB-DL.2160p.mkv
Формат : Matroska
Версия формата : Version 4 / Version 2
Размер файла : 15,3 Гбайт
Продолжительность : 2 ч. 9 м.
Общий поток : 16,8 Мбит/сек
Дата кодирования : UTC 2021-07-17 16:44:35
Программа кодирования : mkvmerge v8.3.0 ('Over the Horizon') 64bit
Библиотека кодирования : libebml v1.3.1 + libmatroska v1.4.2
Видео
Идентификатор : 1
Формат : HEVC
Формат/Информация : High Efficiency Video Coding
Профиль формата : Main 10@L5@High
HDR format : SMPTE ST 2086, HDR10 compatible
Идентификатор кодека : V_MPEGH/ISO/HEVC
Продолжительность : 2 ч. 9 м.
Битрейт : 15,6 Мбит/сек
Ширина : 3 840 пикселей
Высота : 2 080 пикселей
Соотношение сторон : 1,85:1
Режим частоты кадров : Постоянный
Частота кадров : 24,000 кадра/сек
Цветовое пространство : YUV
Субдискретизация насыщенности : 4:2:0
Битовая глубина : 10 бит
Бит/(Пиксели*Кадры) : 0.081
Размер потока : 14,2 Гбайт (93%)
Default : Да
Forced : Нет
Цветовой диапазон : Limited
Основные цвета : BT.2020
Характеристики трансфера : PQ
Коэффициенты матрицы : BT.2020 non-constant
Mastering display color primaries : R: x=0.708000 y=0.292000, G: x=0.170000 y=0.797000, B: x=0.130000 y=0.046000, White point: x=0.312700 y=0.329000
Mastering display luminance : min: 0.0001 cd/m2, max: 1000 cd/m2
Maximum Content Light Level : 718 cd/m2
Maximum Frame-Average Light Level : 352 cd/m2
Аудио #1
Идентификатор : 2
Формат : AC-3
Формат/Информация : Audio Coding 3
Коммерческое название : Dolby Digital
Идентификатор кодека : A_AC3
Продолжительность : 2 ч. 9 м.
Вид битрейта : Постоянный
Битрейт : 384 Кбит/сек
Каналы : 6 каналов
Channel layout : L R C LFE Ls Rs
Частота : 48,0 КГц
Частота кадров : 31,250 кадров/сек (1536 SPF)
Метод сжатия : С потерями
Размер потока : 357 Мбайт (2%)
Заголовок : DUB (iTunes)
Язык : Russian
Service kind : Complete Main
Default : Да
Forced : Нет
Аудио #2
Идентификатор : 3
Формат : AC-3
Формат/Информация : Audio Coding 3
Коммерческое название : Dolby Digital
Идентификатор кодека : A_AC3
Продолжительность : 2 ч. 9 м.
Вид битрейта : Постоянный
Битрейт : 192 Кбит/сек
Каналы : 2 канала
Channel layout : L R
Частота : 48,0 КГц
Частота кадров : 31,250 кадров/сек (1536 SPF)
Метод сжатия : С потерями
Размер потока : 178 Мбайт (1%)
Заголовок : MVO (HDRezka Studio)
Язык : Russian
Service kind : Complete Main
Default : Нет
Forced : Нет
Аудио #3
Идентификатор : 4
Формат : AC-3
Формат/Информация : Audio Coding 3
Коммерческое название : Dolby Digital
Идентификатор кодека : A_AC3
Продолжительность : 2 ч. 9 м.
Вид битрейта : Постоянный
Битрейт : 384 Кбит/сек
Каналы : 6 каналов
Channel layout : L R C LFE Ls Rs
Частота : 48,0 КГц
Частота кадров : 31,250 кадров/сек (1536 SPF)
Метод сжатия : С потерями
Размер потока : 357 Мбайт (2%)
Заголовок : DUB (iTunes)
Язык : Ukrainian
Service kind : Complete Main
Default : Нет
Forced : Нет
Аудио #4
Идентификатор : 5
Формат : E-AC-3
Формат/Информация : Enhanced AC-3
Коммерческое название : Dolby Digital Plus
Идентификатор кодека : A_EAC3
Продолжительность : 2 ч. 9 м.
Вид битрейта : Постоянный
Битрейт : 256 Кбит/сек
Каналы : 6 каналов
Channel layout : L R C LFE Ls Rs
Частота : 48,0 КГц
Частота кадров : 31,250 кадров/сек (1536 SPF)
Метод сжатия : С потерями
Размер потока : 238 Мбайт (2%)
Заголовок : Original
Язык : Chinese
Service kind : Complete Main
Default : Нет
Forced : Нет
Текст #1
Идентификатор : 6
Формат : UTF-8
Идентификатор кодека : S_TEXT/UTF8
Идентификатор кодека/Информация : UTF-8 Plain Text
Продолжительность : 1 ч. 48 м.
Битрейт : 0 бит/сек
Count of elements : 11
Размер потока : 663 байт (0%)
Заголовок : Forced
Язык : Russian
Default : Да
Forced : Нет
Текст #2
Идентификатор : 7
Формат : UTF-8
Идентификатор кодека : S_TEXT/UTF8
Идентификатор кодека/Информация : UTF-8 Plain Text
Продолжительность : 1 ч. 48 м.
Битрейт : 0 бит/сек
Count of elements : 12
Размер потока : 637 байт (0%)
Заголовок : Forced
Язык : Ukrainian
Default : Нет
Forced : Нет
Меню
00:00:00.000 : :Глава 1
00:15:32.208 : :Глава 2
00:31:40.875 : :Глава 3
00:48:13.667 : :Глава 4
01:06:27.458 : :Глава 5
01:15:22.542 : :Глава 6
01:23:56.958 : :Глава 7
01:27:11.083 : :Глава 8
01:33:23.208 : :Глава 9
01:44:31.458 : :Глава 10
01:51:31.208 : :Глава 11
01:55:10.125 : :Глава 12
01:58:51.083 : :Глава 13
02:03:55.042 : :Глава 14

Скриншоты

admin

Post 17-Jul-2021 04:23

[Quote]

Информация о фильме
Название: Ледяной драйв
Оригинальное название: The Ice Road
Год выхода: 2021
Жанр: боевик, триллер
Режиссер: Джонатан Хенсли
В ролях: Лиам Нисон, Маркус Томас, Лоренс Фишбёрн, Эмбер Мидфандер, Бенджамин Уокер, Холт Маккэллани, Мартин Сенсмейер, Мэтт МакКой, Мэтт Сэлинджер, Чад Брюс
О фильме:
Север Канады. Ненадёжный апрельский лёд, вес грузовика — 33 тонны. Проехать по замерзшей поверхности озера возможно только на определенной скорости, а остановка или ускорение означают верную смерть. Но именно такая задача стоит перед колонной грузовиков — только они могут спасти людей, оказавшихся в обрушившейся алмазной шахте. Однако ни трескающийся под колёсами лёд, ни снежная буря не сравнятся с испытаниями, которые ждут водителей впереди.

Страна: США
Продолжительность: 01:49:15
Перевод: Профессиональный дублированный | iTunes
Файл
Кодек: H.265
Качество: WEB-DL 2160p
Видео: MPEG-H HEVC, HDR10+, 3840x2160 (16:9), 23.976 fps, 14.8 Mb/s, 10 Bit
Аудио 1: AC3, 48.0 kHz, 6 ch, 384 kb/s | RUS [DUB, iTunes]
Аудио 2: E-AC3, 48.0 kHz, 6 ch, 640 kb/s | ENG [Оригинал]
Субтитры: Русские (Forced, full), английские (Full, SDH)

MI

Общее
Уникальный идентификатор : 201296258722632799848901890014033444879 (0x97703FCDFA0423B9ADB33B7D118F800F)
Полное имя : The.Ice.Road.2021.WEB-DL.2160p.HDR.mkv
Формат : Matroska
Версия формата : Version 4 / Version 2
Размер файла : 12,1 Гбайт
Продолжительность : 1 ч. 49 м.
Общий поток : 15,8 Мбит/сек
Дата кодирования : UTC 2021-07-16 09:39:08
Программа кодирования : mkvmerge v8.3.0 ('Over the Horizon') 64bit
Библиотека кодирования : libebml v1.3.1 + libmatroska v1.4.2
Видео
Идентификатор : 1
Формат : HEVC
Формат/Информация : High Efficiency Video Coding
Профиль формата : Main 10@L5@Main
HDR format : SMPTE ST 2094 App 4, Version 1, HDR10+ Profile B compatible
Идентификатор кодека : V_MPEGH/ISO/HEVC
Продолжительность : 1 ч. 49 м.
Битрейт : 14,8 Мбит/сек
Ширина : 3 840 пикселей
Высота : 2 160 пикселей
Соотношение сторон : 16:9
Режим частоты кадров : Постоянный
Частота кадров : 23,976 (24000/1001) кадра/сек
Цветовое пространство : YUV
Субдискретизация насыщенности : 4:2:0
Битовая глубина : 10 бит
Бит/(Пиксели*Кадры) : 0.075
Размер потока : 11,3 Гбайт (94%)
Default : Да
Forced : Нет
Цветовой диапазон : Limited
Основные цвета : BT.2020
Характеристики трансфера : PQ
Коэффициенты матрицы : BT.2020 non-constant
Mastering display color primaries : Display P3
Mastering display luminance : min: 0.0001 cd/m2, max: 1000 cd/m2
Maximum Content Light Level : 773 cd/m2
Maximum Frame-Average Light Level : 281 cd/m2
Аудио #1
Идентификатор : 2
Формат : AC-3
Формат/Информация : Audio Coding 3
Коммерческое название : Dolby Digital
Идентификатор кодека : A_AC3
Продолжительность : 1 ч. 49 м.
Вид битрейта : Постоянный
Битрейт : 384 Кбит/сек
Каналы : 6 каналов
Channel layout : L R C LFE Ls Rs
Частота : 48,0 КГц
Частота кадров : 31,250 кадров/сек (1536 SPF)
Метод сжатия : С потерями
Размер потока : 300 Мбайт (2%)
Заголовок : DUB (iTunes)
Язык : Russian
Service kind : Complete Main
Default : Да
Forced : Нет
Аудио #2
Идентификатор : 3
Формат : E-AC-3
Формат/Информация : Enhanced AC-3
Коммерческое название : Dolby Digital Plus
Идентификатор кодека : A_EAC3
Продолжительность : 1 ч. 49 м.
Вид битрейта : Постоянный
Битрейт : 640 Кбит/сек
Каналы : 6 каналов
Channel layout : L R C LFE Ls Rs
Частота : 48,0 КГц
Частота кадров : 31,250 кадров/сек (1536 SPF)
Метод сжатия : С потерями
Размер потока : 500 Мбайт (4%)
Заголовок : Original
Язык : English
Service kind : Complete Main
Default : Нет
Forced : Нет
Текст #1
Идентификатор : 4
Формат : UTF-8
Идентификатор кодека : S_TEXT/UTF8
Идентификатор кодека/Информация : UTF-8 Plain Text
Продолжительность : 1 ч. 41 м.
Битрейт : 2 бит/сек
Count of elements : 20
Размер потока : 1,72 Кбайт (0%)
Заголовок : Forced
Язык : Russian
Default : Да
Forced : Нет
Текст #2
Идентификатор : 5
Формат : UTF-8
Идентификатор кодека : S_TEXT/UTF8
Идентификатор кодека/Информация : UTF-8 Plain Text
Продолжительность : 1 ч. 40 м.
Битрейт : 68 бит/сек
Count of elements : 856
Размер потока : 50,1 Кбайт (0%)
Заголовок : Full
Язык : Russian
Default : Нет
Forced : Нет
Текст #3
Идентификатор : 6
Формат : UTF-8
Идентификатор кодека : S_TEXT/UTF8
Идентификатор кодека/Информация : UTF-8 Plain Text
Продолжительность : 1 ч. 44 м.
Битрейт : 40 бит/сек
Count of elements : 1112
Размер потока : 31,1 Кбайт (0%)
Заголовок : Full
Язык : English
Default : Нет
Forced : Нет
Текст #4
Идентификатор : 7
Формат : UTF-8
Идентификатор кодека : S_TEXT/UTF8
Идентификатор кодека/Информация : UTF-8 Plain Text
Продолжительность : 1 ч. 45 м.
Битрейт : 48 бит/сек
Count of elements : 1360
Размер потока : 37,3 Кбайт (0%)
Заголовок : SDH
Язык : English
Default : Нет
Forced : Нет
Меню
00:00:00.000 : en:Amazon Original
00:00:06.000 : en:Studio Logo
00:00:41.000 : en:Scene 3
00:03:34.000 : en:Scene 4
00:04:58.000 : en:Scene 5
00:06:20.000 : en:Scene 6
00:11:18.000 : en:Scene 7
00:14:10.000 : en:Scene 8
00:16:57.000 : en:Scene 9
00:17:29.000 : en:Scene 10
00:20:12.000 : en:Scene 11
00:22:25.000 : en:Scene 12
00:26:07.000 : en:Scene 13
00:26:50.000 : en:Scene 14
00:28:24.000 : en:Scene 15
00:39:11.000 : en:Scene 16
00:41:32.000 : en:Scene 17
00:46:28.000 : en:Scene 18
00:48:12.000 : en:Scene 19
00:48:42.000 : en:Scene 20
00:53:38.000 : en:Scene 21
01:02:10.000 : en:Scene 22
01:04:20.000 : en:Scene 23
01:05:54.000 : en:Scene 24
01:13:06.000 : en:Scene 25
01:17:33.000 : en:Scene 26
01:23:14.000 : en:Scene 27
01:25:02.000 : en:Scene 28
01:29:07.000 : en:Scene 29
01:35:58.000 : en:Scene 30
01:38:10.000 : en:Scene 31
01:41:46.000 : en:Scene 32
01:43:36.000 : en:End Credits

Скриншоты

admin

Post 16-Jul-2021 04:04

[Quote]

Информация о фильме
Название: Война будущего
Оригинальное название: The Tomorrow War
Год выхода: 2021
Жанр: Фантастика, боевик
Режиссер: Крис МакКей
В ролях: Крис Пратт, Ивонн Страховски, Дж.К. Симмонс, Бетти Гилпин, Сэм Ричардсон, Жасмин Мэтьюз, Эдвин Ходж, Райан Кира Армстронг, Кит Пауэрс, Мэри Линн Райскаб
О фильме:
Декабрь 2022 года. Во время финала чемпионата мира про футболу в Катаре на поле высаживается десант из будущего. Прибывшие заявляют, что через 30 лет Земля подвергнется инопланетному вторжению, и, если люди настоящего не помогут людям будущего, то человечество прекратит существование. Так начинается принудительная отправка граждан на войну, с которой возвращаются только 30%.
Через некоторое время приходит очередь и Дэна — бывшего военного, а ныне школьного учителя и заботливого отца. После короткого инструктажа его группу посылают на задание, но из-за технической ошибки высадка происходит не в том месте — на крыше дома в полуразрушенном городе, который вскоре подвергнется бомбардировке.

Страна: США
Продолжительность: 02:18:06
Перевод(ы):
#1: Профессиональный (многоголосый, закадровый) | HDRezka Studio
#2: Профессиональный (многоголосый, закадровый) | Jaskier
#3: Профессиональный (многоголосый, закадровый) | NewComers
Файл
Кодек: H.265
Качество: WEB-DL 2160p
Видео: MPEG-H HEVC HDR Video, 3840x1600 (2.40:1), 23.976 fps, 14.7 Mb/s, 10 bit
Аудио 1: AC3, 48.0 kHz, 6 ch, 448 kb/s | RUS [MVO, HDRezka Studio]
Аудио 2: AC3, 48.0 kHz, 6 ch, 384 kb/s | RUS [MVO, Jaskier]
Аудио 3: AC3, 48.0 kHz, 6 ch, 384 kb/s | RUS [MVO, NewComers]
Аудио 4: AC3, 48.0 kHz, 6 ch, 384 kb/s | UKR [MVO, HDrezka Studio / DniproFilm]
Аудио 5: E-AC3 JOC, 48.0 kHz, 6 ch, 448 kb/s | ENG [Оригинал]
Субтитры: Русские (Forced, full), украинские (Forced), английские (Full, SDH)

MI

Общее
Уникальный идентификатор : 253123903369419171087463758113192113126 (0xBE6DE3F8B8A18927879D2A64416173E6)
Полное имя : The.Tomorrow.War.(2021).WEB-DL.2160p.HDR.mkv
Формат : Matroska
Версия формата : Version 4 / Version 2
Размер файла : 16,2 Гбайт
Продолжительность : 2 ч. 18 м.
Общий поток : 16,8 Мбит/сек
Дата кодирования : UTC 2021-07-15 19:01:53
Программа кодирования : mkvmerge v8.3.0 ('Over the Horizon') 64bit
Библиотека кодирования : libebml v1.3.1 + libmatroska v1.4.2
Видео
Идентификатор : 1
Формат : HEVC
Формат/Информация : High Efficiency Video Coding
Профиль формата : Main 10@L5@Main
HDR format : SMPTE ST 2094 App 4, Version 1, HDR10+ Profile B compatible
Идентификатор кодека : V_MPEGH/ISO/HEVC
Продолжительность : 2 ч. 18 м.
Битрейт : 14,7 Мбит/сек
Ширина : 3 840 пикселей
Высота : 1 600 пикселей
Соотношение сторон : 2,40:1
Режим частоты кадров : Постоянный
Частота кадров : 23,976 (24000/1001) кадра/сек
Цветовое пространство : YUV
Субдискретизация насыщенности : 4:2:0
Битовая глубина : 10 бит
Бит/(Пиксели*Кадры) : 0.100
Размер потока : 14,2 Гбайт (88%)
Default : Да
Forced : Нет
Цветовой диапазон : Limited
Основные цвета : BT.2020
Характеристики трансфера : PQ
Коэффициенты матрицы : BT.2020 non-constant
Mastering display color primaries : Display P3
Mastering display luminance : min: 0.0001 cd/m2, max: 1000 cd/m2
Maximum Content Light Level : 956 cd/m2
Maximum Frame-Average Light Level : 570 cd/m2
Аудио #1
Идентификатор : 2
Формат : AC-3
Формат/Информация : Audio Coding 3
Коммерческое название : Dolby Digital
Идентификатор кодека : A_AC3
Продолжительность : 2 ч. 18 м.
Вид битрейта : Постоянный
Битрейт : 448 Кбит/сек
Каналы : 6 каналов
Channel layout : L R C LFE Ls Rs
Частота : 48,0 КГц
Частота кадров : 31,250 кадров/сек (1536 SPF)
Метод сжатия : С потерями
Размер потока : 443 Мбайт (3%)
Заголовок : MVO (HDRezka Studio)
Язык : Russian
Service kind : Complete Main
Default : Да
Forced : Нет
Аудио #2
Идентификатор : 3
Формат : AC-3
Формат/Информация : Audio Coding 3
Коммерческое название : Dolby Digital
Идентификатор кодека : A_AC3
Продолжительность : 2 ч. 18 м.
Вид битрейта : Постоянный
Битрейт : 384 Кбит/сек
Каналы : 6 каналов
Channel layout : L R C LFE Ls Rs
Частота : 48,0 КГц
Частота кадров : 31,250 кадров/сек (1536 SPF)
Метод сжатия : С потерями
Размер потока : 379 Мбайт (2%)
Заголовок : MVO (Jaskier)
Язык : Russian
Service kind : Complete Main
Default : Нет
Forced : Нет
Аудио #3
Идентификатор : 4
Формат : AC-3
Формат/Информация : Audio Coding 3
Коммерческое название : Dolby Digital
Идентификатор кодека : A_AC3
Продолжительность : 2 ч. 18 м.
Вид битрейта : Постоянный
Битрейт : 384 Кбит/сек
Каналы : 6 каналов
Channel layout : L R C LFE Ls Rs
Частота : 48,0 КГц
Частота кадров : 31,250 кадров/сек (1536 SPF)
Метод сжатия : С потерями
Размер потока : 379 Мбайт (2%)
Заголовок : MVO (NewComers)
Язык : Russian
Service kind : Complete Main
Default : Нет
Forced : Нет
Аудио #4
Идентификатор : 5
Формат : AC-3
Формат/Информация : Audio Coding 3
Коммерческое название : Dolby Digital
Идентификатор кодека : A_AC3
Продолжительность : 2 ч. 18 м.
Вид битрейта : Постоянный
Битрейт : 384 Кбит/сек
Каналы : 6 каналов
Channel layout : L R C LFE Ls Rs
Частота : 48,0 КГц
Частота кадров : 31,250 кадров/сек (1536 SPF)
Метод сжатия : С потерями
Размер потока : 379 Мбайт (2%)
Заголовок : MVO (HDrezka Studio / DniproFilm)
Язык : Ukrainian
Service kind : Complete Main
Default : Нет
Forced : Нет
Аудио #5
Идентификатор : 6
Формат : E-AC-3 JOC
Формат/Информация : Enhanced AC-3 with Joint Object Coding
Коммерческое название : Dolby Digital Plus with Dolby Atmos
Идентификатор кодека : A_EAC3
Продолжительность : 2 ч. 18 м.
Вид битрейта : Постоянный
Битрейт : 448 Кбит/сек
Каналы : 6 каналов
Channel layout : L R C LFE Ls Rs
Частота : 48,0 КГц
Частота кадров : 31,250 кадров/сек (1536 SPF)
Метод сжатия : С потерями
Размер потока : 443 Мбайт (3%)
Заголовок : Original
Язык : English
Service kind : Complete Main
Default : Нет
Forced : Нет
Complexity index : 16
Number of dynamic objects : 15
Bed channel count : 1 канал
Bed channel configuration : LFE
Текст #1
Идентификатор : 7
Формат : UTF-8
Идентификатор кодека : S_TEXT/UTF8
Идентификатор кодека/Информация : UTF-8 Plain Text
Продолжительность : 2 ч. 6 м.
Битрейт : 2 бит/сек
Count of elements : 23
Размер потока : 1,90 Кбайт (0%)
Заголовок : Forced
Язык : Russian
Default : Да
Forced : Нет
Текст #2
Идентификатор : 8
Формат : UTF-8
Идентификатор кодека : S_TEXT/UTF8
Идентификатор кодека/Информация : UTF-8 Plain Text
Продолжительность : 2 ч. 16 м.
Битрейт : 77 бит/сек
Count of elements : 1483
Размер потока : 77,5 Кбайт (0%)
Заголовок : Full
Язык : Russian
Default : Нет
Forced : Нет
Текст #3
Идентификатор : 9
Формат : UTF-8
Идентификатор кодека : S_TEXT/UTF8
Идентификатор кодека/Информация : UTF-8 Plain Text
Продолжительность : 2 ч. 6 м.
Битрейт : 0 бит/сек
Count of elements : 16
Размер потока : 928 байт (0%)
Заголовок : Forced
Язык : Ukrainian
Default : Нет
Forced : Нет
Текст #4
Идентификатор : 10
Формат : UTF-8
Идентификатор кодека : S_TEXT/UTF8
Идентификатор кодека/Информация : UTF-8 Plain Text
Продолжительность : 2 ч. 8 м.
Битрейт : 58 бит/сек
Count of elements : 1853
Размер потока : 55,2 Кбайт (0%)
Заголовок : Full
Язык : English
Default : Нет
Forced : Нет
Текст #5
Идентификатор : 11
Формат : UTF-8
Идентификатор кодека : S_TEXT/UTF8
Идентификатор кодека/Информация : UTF-8 Plain Text
Продолжительность : 2 ч. 17 м.
Битрейт : 61 бит/сек
Count of elements : 2195
Размер потока : 61,9 Кбайт (0%)
Заголовок : SDH
Язык : English
Default : Нет
Forced : Нет

Скриншоты

admin

Post 09-Jul-2021 05:25

[Quote]

Информация о фильме
Название: Заклятие 3: По воле дьявола
Оригинальное название: The Conjuring: The Devil Made Me Do It
Год выхода: 2021
Жанр: Ужасы, детектив
Режиссер: Майкл Чавес
В ролях: Патрик Уилсон, Вера Фармига, Руаири О Коннор, Сара Кэтрин Хук, Джулиан Хиллиард, Джон Ноубл, Эжени Бондюран, Шэннон Кук-Чун, Ронни Джин Блевинс, Кит А. Болден
О фильме:
Леденящая кровь история ужасающего убийства, которая поразила даже опытных исследователей паранормальных явлений Эда и Лоррейн Уорренов. Одно из их самых сенсационных дел началось с борьбы за душу юноши, а привело к тому, чего они ни разу не видели за свою практику — впервые в истории США подозреваемый в убийстве в свою защиту заявил, что был одержим демоном.

Страна: США, Великобритания
Студия: New Line Cinema, Atomic Monster, The Safran Company
Продолжительность: 01:51:51
Перевод: Дублированный[iTunes], любительский двухголосый, профессиональный многоголосый
Файл
Формат: MP4
Кодек: H.265
Качество: WebDL 2160p
Видео: HEVC, Dolby Vision Profile 5, 17,9 Mбит/с, 3840x2160, 23.976 кадр/с
Звук:
Аудио #1 Русский: AC3, 48.0 kHz, 6 ch, 384 kb/s | [Дубляж(iTunes)]
Аудио #2 Русский: AC3, 48.0 kHz, 6 ch, 448 kb/s | [Pazl Voice]
Аудио #3 Русский: AC3, 48.0 kHz, 6 ch, 448 kb/s | [HDRezka Dtudio]
Аудио #4 English: EAC3+Atmos, 5.1, 768 Kbps
Субтитры: русские(forced(x2), полные(x2), английские(full, SDH)
Дополнительная информация:
Релиз в MP4 в 5-м профиле Dolby Vision для воспроизведении на устройствах с поддержкой DV. Протестировано на тв-боксах Nvidia Shield 2019, Zidoo Z1000 Pro, Amazon FireTV Stick 4k, TiVo Stream 4K и Ugoos AM6+ и многих других, а также на встроенных плеерах телевизоров LG, Sony, Phillips и Panasonic.
На устройствах без поддержки Dolby Vision проигрываться не будет(или будет, но с искаженными цветами), так как в видеоряде отсутствует HDR слой

Mediainfo

Общее
Полное имя : I:RELEASESThe Conjuring 3The.Conjuring.2021.2160p.WEB-DL.DDP5.1.Atmos.DoVi.by.DVT.mp4
Формат : MPEG-4
Профиль формата : Base Media / Version 2
Идентификатор кодека : mp42 (isom/mp42/dby1)
Размер файла : 15,6 Гбайт
Продолжительность : 1 ч. 51 м.
Режим общего битрейта : Переменный
Общий поток : 20,0 Мбит/сек
Дата кодирования : UTC 2021-07-07 14:41:54
Дата пометки : UTC 2021-07-07 14:41:54
Видео
Идентификатор : 1
Формат : HEVC
Формат/Информация : High Efficiency Video Coding
Профиль формата : Main 10@L5@Main
HDR format : Dolby Vision, Version 1.0, dvhe.05.06, BL+RPU
Идентификатор кодека : dvhe
Идентификатор кодека/Информация : High Efficiency Video Coding with Dolby Vision
Продолжительность : 1 ч. 51 м.
Битрейт : 17,9 Мбит/сек
Ширина : 3 840 пикселей
Высота : 2 160 пикселей
Соотношение сторон : 16:9
Режим частоты кадров : Постоянный
Частота кадров : 23,976 (24000/1001) кадра/сек
Цветовое пространство : YUV
Субдискретизация насыщенности : 4:2:0
Битовая глубина : 10 бит
Бит/(Пиксели*Кадры) : 0.090
Размер потока : 14,0 Гбайт (90%)
Заголовок : The Conjuring. The Devil Made Me Do It (2021) - Release by Dolby Vision Torrents
Библиотека кодирования : x265 3.4hy:[Linux][GCC 7.5.0][64 bit] 10bit
Настройки программы : cpuid=1111039 / frame-threads=6 / no-wpp / no-pmode / no-pme / no-psnr / no-ssim / log-level=2 / input-csp=1 / input-res=3840x2160 / interlace=0 / total-frames=0 / level-idc=0 / high-tier=1 / uhd-bd=0 / ref=4 / no-allow-non-conformance / repeat-headers / annexb / aud / hrd / info / hash=0 / no-temporal-layers / no-open-gop / min-keyint=96 / keyint=96 / gop-lookahead=0 / bframes=4 / b-adapt=2 / b-pyramid / bframe-bias=0 / rc-lookahead=25 / lookahead-slices=4 / scenecut=40 / hist-scenecut=0 / radl=0 / no-splice / no-intra-refresh / ctu=64 / min-cu-size=8 / rect / no-amp / max-tu-size=32 / tu-inter-depth=1 / tu-intra-depth=1 / limit-tu=0 / rdoq-level=2 / dynamic-rd=0.00 / no-ssim-rd / signhide / no-tskip / nr-intra=0 / nr-inter=0 / no-constrained-intra / strong-intra-smoothing / max-merge=3 / limit-refs=3 / limit-modes / me=3 / subme=3 / merange=57 / temporal-mvp / no-frame-dup / no-hme / weightp / no-weightb / no-analyze-src-pics / deblock=0:0 / sao / no-sao-non-deblock / rd=4 / selective-sao=4 / no-early-skip / rskip / no-fast-intra / no-tskip-fast / no-cu-lossless / no-b-intra / no-splitrd-skip / rdpenalty=0 / psy-rd=2.00 / psy-rdoq=1.00 / no-rd-refine / no-lossless / cbqpoffs=0 / crqpoffs=3 / rc=abr / bitrate=18000 / qcomp=0.60 / qpstep=4 / stats-write=0 / stats-read=2 / cplxblur=20.0 / qblur=0.5 / vbv-maxrate=24500 / vbv-bufsize=24500 / vbv-init=0.6 / vbv-end=0.6 / vbv-end-fr-adj=0.0 / ipratio=1.40 / pbratio=1.30 / aq-mode=2 / aq-strength=1.00 / cutree / zone-count=0 / no-strict-cbr / qg-size=32 / no-rc-grain / qpmax=69 / qpmin=0 / no-const-vbv / sar=1 / overscan=0 / videoformat=5 / range=1 / colorprim=2 / transfer=2 / colormatrix=2 / chromaloc=0 / display-window=0 / cll=0,0 / min-luma=0 / max-luma=1023 / log2-max-poc-lsb=8 / vui-timing-info / vui-hrd-info / no-concatenation / slices=1 / no-opt-qp-pps / no-opt-ref-list-length-pps / no-multi-pass-opt-rps / scenecut-bias=0.05 / hist-threshold=0.01 / no-opt-cu-delta-qp / no-aq-motion / no-hdr10 / no-hdr10-opt / no-dhdr10-opt / no-idr-recovery-sei / analysis-reuse-level=0 / analysis-save-reuse-level=0 / analysis-load-reuse-level=0 / scale-factor=0 / refine-intra=0 / refine-inter=0 / refine-mv=1 / refine-ctu-distortion=0 / no-limit-sao / ctu-info=0 / no-lowpass-dct / refine-analysis-type=0 / copy-pic=1 / max-ausize-factor=1.0 / no-dynamic-refine / no-single-sei / no-hevc-aq / no-svt / no-field / qp-adaptation-range=1.00 / no-scenecut-aware-qpconformance-window-offsets / right=0 / bottom=0 / decoder-max-rate=0
Default : Да
Alternate group : 1
Дата кодирования : UTC 2021-06-04 07:57:30
Дата пометки : UTC 2021-07-07 14:46:01
Цветовой диапазон : Full
Codec configuration box : hvcC+dvcC
Аудио #1
Идентификатор : 2
Формат : AC-3
Формат/Информация : Audio Coding 3
Коммерческое название : Dolby Digital
Идентификатор кодека : ac-3
Продолжительность : 1 ч. 51 м.
Вид битрейта : Постоянный
Битрейт : 384 Кбит/сек
Максимальный битрейт : 406 Кбит/сек
Каналы : 6 каналов
Channel layout : L R C LFE Ls Rs
Частота : 48,0 КГц
Частота кадров : 31,250 кадров/сек (1536 SPF)
Метод сжатия : С потерями
Размер потока : 307 Мбайт (2%)
Заголовок : Dub 5.1 ch
Язык : Russian
Service kind : Complete Main
Дата кодирования : UTC 2021-07-07 14:43:46
Дата пометки : UTC 2021-07-07 14:46:01
Аудио #2
Идентификатор : 3
Формат : AC-3
Формат/Информация : Audio Coding 3
Коммерческое название : Dolby Digital
Идентификатор кодека : ac-3
Продолжительность : 1 ч. 51 м.
Вид битрейта : Постоянный
Битрейт : 448 Кбит/сек
Максимальный битрейт : 473 Кбит/сек
Каналы : 6 каналов
Channel layout : L R C LFE Ls Rs
Частота : 48,0 КГц
Частота кадров : 31,250 кадров/сек (1536 SPF)
Метод сжатия : С потерями
Размер потока : 358 Мбайт (2%)
Заголовок : Pazl Voice 5.1 ch
Язык : Russian
Service kind : Complete Main
Дата кодирования : UTC 2021-07-07 14:43:50
Дата пометки : UTC 2021-07-07 14:46:01
Аудио #3
Идентификатор : 4
Формат : AC-3
Формат/Информация : Audio Coding 3
Коммерческое название : Dolby Digital
Идентификатор кодека : ac-3
Продолжительность : 1 ч. 51 м.
Вид битрейта : Постоянный
Битрейт : 448 Кбит/сек
Максимальный битрейт : 473 Кбит/сек
Каналы : 6 каналов
Channel layout : L R C LFE Ls Rs
Частота : 48,0 КГц
Частота кадров : 31,250 кадров/сек (1536 SPF)
Метод сжатия : С потерями
Размер потока : 358 Мбайт (2%)
Заголовок : HDRezka 5.1 ch
Язык : Russian
Service kind : Complete Main
Дата кодирования : UTC 2021-07-07 14:43:53
Дата пометки : UTC 2021-07-07 14:46:01
Аудио #4
Идентификатор : 5
Формат : E-AC-3 JOC
Формат/Информация : Enhanced AC-3 with Joint Object Coding
Коммерческое название : Dolby Digital Plus with Dolby Atmos
Идентификатор кодека : ec-3
Продолжительность : 1 ч. 51 м.
Вид битрейта : Постоянный
Битрейт : 768 Кбит/сек
Максимальный битрейт : 811 Кбит/сек
Каналы : 6 каналов
Channel layout : L R C LFE Ls Rs
Частота : 48,0 КГц
Частота кадров : 31,250 кадров/сек (1536 SPF)
Метод сжатия : С потерями
Размер потока : 614 Мбайт (4%)
Заголовок : Original EAC3 Atmos 5.1 ch
Язык : English
Service kind : Complete Main
Default : Нет
Дата кодирования : UTC 2021-06-04 08:03:10
Дата пометки : UTC 2021-07-07 14:46:01
Complexity index : Not present / 16
Number of dynamic objects : 15
Bed channel count : 1 канал
Bed channel configuration : LFE
Текст #1
Идентификатор : 6
Формат : Timed Text
Идентификатор кодека : tx3g
Продолжительность : 1 ч. 46 м.
Вид битрейта : Переменный
Битрейт : 6 бит/сек
Размер потока : 4,69 Кбайт (0%)
Заголовок : Forced
Язык : Russian
Forced : Да
Дата кодирования : UTC 2021-07-07 14:46:01
Дата пометки : UTC 2021-07-07 14:46:01
Текст #2
Идентификатор : 7
Формат : Timed Text
Идентификатор кодека : tx3g
Продолжительность : 1 ч. 46 м.
Вид битрейта : Переменный
Битрейт : 4 бит/сек
Размер потока : 2,89 Кбайт (0%)
Заголовок : Forced HDRezka
Язык : Russian
Forced : Нет
Дата кодирования : UTC 2021-07-07 14:46:01
Дата пометки : UTC 2021-07-07 14:46:01
Текст #3
Идентификатор : 8
Формат : Timed Text
Идентификатор кодека : tx3g
Продолжительность : 1 ч. 51 м.
Вид битрейта : Переменный
Битрейт : 66 бит/сек
Размер потока : 53,9 Кбайт (0%)
Заголовок : Full
Язык : Russian
Forced : Нет
Дата кодирования : UTC 2021-07-07 14:46:01
Дата пометки : UTC 2021-07-07 14:46:01
Текст #4
Идентификатор : 9
Формат : Timed Text
Идентификатор кодека : tx3g
Продолжительность : 1 ч. 50 м.
Вид битрейта : Переменный
Битрейт : 61 бит/сек
Размер потока : 49,3 Кбайт (0%)
Заголовок : Full-1
Язык : Russian
Forced : Нет
Дата кодирования : UTC 2021-07-07 14:46:01
Дата пометки : UTC 2021-07-07 14:46:01
Текст #5
Идентификатор : 10
Формат : Timed Text
Идентификатор кодека : tx3g
Продолжительность : 1 ч. 46 м.
Вид битрейта : Переменный
Битрейт : 56 бит/сек
Размер потока : 43,8 Кбайт (0%)
Заголовок : Full
Язык : English
Forced : Нет
Дата кодирования : UTC 2021-07-07 14:46:01
Дата пометки : UTC 2021-07-07 14:46:01
Текст #6
Идентификатор : 11
Формат : Timed Text
Идентификатор кодека : tx3g
Продолжительность : 1 ч. 46 м.
Вид битрейта : Переменный
Битрейт : 48 бит/сек
Размер потока : 37,2 Кбайт (0%)
Заголовок : Full SDH
Язык : English
Forced : Нет
Дата кодирования : UTC 2021-07-07 14:46:01
Дата пометки : UTC 2021-07-07 14:46:01

Скриншоты

Невозможно получить скрины с нормальными цветами с PC, так как невозможно захватить кадр слоя DV если в видеоряде отсутствуют метаданные HDR.

admin

Post 09-Jul-2021 04:46

[Quote]

Информация о фильме
Название: Тихое место 2
Оригинальное название: A Quiet Place Part II
Год выхода: 2021
Жанр: Ужасы, фантастика, триллер, драма
Режиссер: Джон Красински
В ролях: Эмили Блант, Джон Красински, Милли Симмондс, Ноа Джуп, Киллиан Мёрфи, Джимон Хонсу, Окете Онаодован, Скут МакНэйри, Захари Голингер, Блейк ДеЛонг

О фильме: 474 дня прошло после нападения на Землю охотящихся на звук существ, семья Эбботт продолжает бороться за жизнь в полной тишине. Столкнувшись со смертельной угрозой в собственном доме, они вынуждены отправиться во внешний мир, где находят убежище и старого знакомого семьи. Поймав радиосигнал, Реган вычисляет место предполагаемой колонии выживших и решает во что бы то ни стало её разыскать.
Страна: США
Студия: Buffalo FilmWorks, Paramount Pictures, Platinum Dunes, Sunday Night Productions
Продолжительность: 01:37:01
Перевод: Дублированный | iTunes
Качество: WEB-DL 2160p
Видео: 3840x1606 at 23.976 fps, MPEG-H HEVC HDR Video, ~ 14400 kbps avg
Аудио #01: 48 kHz, AC3, 5.1, 384 Kbps | iTunes | RUS |
Аудио #02: 48 kHz, E-AC3_Atmos, 5.1, 768 Kbps | Оригинал | ENG |
Субтитры: Русские (Forced, full), украинские (Full), английские

Скриншоты

MI

General
Unique ID : 7088777143918275412637033541933408783 (0x5553FB2797E3898659C265251C3220F)
Complete name : F:VideoA.Quiet.Place.Part.II.2020.WEB-DL.2160.HDR.seleZen.mkv
Format : Matroska
Format version : Version 4
File size : 10.5 GiB
Duration : 1 h 37 min
Overall bit rate : 15.6 Mb/s
Movie name : A Quiet Place Part II 2020 from seleZen
Encoded date : UTC 2021-07-07 20:57:39
Writing application : mkvmerge v55.0.0 ('Waiting For Space') 64-bit
Writing library : libebml v1.4.2 + libmatroska v1.6.4
Video
ID : 1
Format : HEVC
Format/Info : High Efficiency Video Coding
Format profile : Main 10@L5@High
HDR format : SMPTE ST 2086, HDR10 compatible
Codec ID : V_MPEGH/ISO/HEVC
Duration : 1 h 37 min
Bit rate : 14.4 Mb/s
Width : 3 840 pixels
Height : 1 606 pixels
Display aspect ratio : 2.40:1
Frame rate mode : Constant
Frame rate : 23.976 (24000/1001) FPS
Color space : YUV
Chroma subsampling : 4:2:0 (Type 2)
Bit depth : 10 bits
Bits/(Pixel*Frame) : 0.097
Stream size : 9.76 GiB (93%)
Language : English
Default : Yes
Forced : No
Color range : Limited
Color primaries : BT.2020
Transfer characteristics : PQ
Matrix coefficients : BT.2020 non-constant
Mastering display color pri : Display P3
Mastering display luminance : min: 0.0050 cd/m2, max: 1000 cd/m2
Maximum Content Light Level : 1450 cd/m2
Maximum Frame-Average Light : 278 cd/m2
Audio #1
ID : 2
Format : AC-3
Format/Info : Audio Coding 3
Commercial name : Dolby Digital
Codec ID : A_AC3
Duration : 1 h 37 min
Bit rate mode : Constant
Bit rate : 384 kb/s
Channel(s) : 6 channels
Channel layout : L R C LFE Ls Rs
Sampling rate : 48.0 kHz
Frame rate : 31.250 FPS (1536 SPF)
Compression mode : Lossy
Stream size : 266 MiB (2%)
Title : iTunes
Language : Russian
Service kind : Complete Main
Default : Yes
Forced : Yes
Audio #2
ID : 3
Format : E-AC-3 JOC
Format/Info : Enhanced AC-3 with Joint Object Coding
Commercial name : Dolby Digital Plus with Dolby Atmos
Codec ID : A_EAC3
Duration : 1 h 37 min
Bit rate mode : Constant
Bit rate : 768 kb/s
Channel(s) : 6 channels
Channel layout : L R C LFE Ls Rs
Sampling rate : 48.0 kHz
Frame rate : 31.250 FPS (1536 SPF)
Compression mode : Lossy
Stream size : 533 MiB (5%)
Title : Original
Language : English
Service kind : Complete Main
Default : No
Forced : No
Complexity index : 16
Number of dynamic objects : 15
Bed channel count : 1 channel
Bed channel configuration : LFE
Text #1
ID : 4
Format : UTF-8
Codec ID : S_TEXT/UTF8
Codec ID/Info : UTF-8 Plain Text
Duration : 1 h 35 min
Bit rate : 3 b/s
Count of elements : 78
Stream size : 2.26 KiB (0%)
Title : Forced
Language : Russian
Default : Yes
Forced : Yes
Text #2
ID : 5
Format : UTF-8
Codec ID : S_TEXT/UTF8
Codec ID/Info : UTF-8 Plain Text
Duration : 1 h 35 min
Bit rate : 17 b/s
Count of elements : 331
Stream size : 12.4 KiB (0%)
Title : Full
Language : Russian
Default : No
Forced : No
Text #3
ID : 6
Format : UTF-8
Codec ID : S_TEXT/UTF8
Codec ID/Info : UTF-8 Plain Text
Duration : 1 h 35 min
Bit rate : 17 b/s
Count of elements : 339
Stream size : 12.4 KiB (0%)
Title : Full
Language : Ukrainian
Default : No
Forced : No
Text #4
ID : 7
Format : UTF-8
Codec ID : S_TEXT/UTF8
Codec ID/Info : UTF-8 Plain Text
Duration : 47 min 28 s
Bit rate : 3 b/s
Count of elements : 69
Stream size : 1.26 KiB (0%)
Title : Forced
Language : English
Default : No
Forced : No
Text #5
ID : 8
Format : UTF-8
Codec ID : S_TEXT/UTF8
Codec ID/Info : UTF-8 Plain Text
Duration : 1 h 26 min
Bit rate : 18 b/s
Count of elements : 563
Stream size : 11.9 KiB (0%)
Title : SDH
Language : English
Default : No
Forced : No
Menu
00:00:00.000 : Scene 1
00:06:39.107 : Scene 2
00:12:16.319 : Scene 3
00:17:00.270 : Scene 4
00:26:28.171 : Scene 5
00:33:26.339 : Scene 6
00:38:06.703 : Scene 7
00:45:53.753 : Scene 8
00:51:18.036 : Scene 9
00:55:35.919 : Scene 10
01:02:21.282 : Scene 11
01:08:43.832 : Scene 12
01:16:31.925 : Scene 13
01:21:25.885 : Scene 14
01:28:11.833 : Scene 15

admin

Post 09-Jul-2021 04:30

[Quote]

Информация о фильме
Название: Кролик Питер 2
Оригинальное название: Peter Rabbit 2: The Runaway
Год выхода: 2021
Жанр: мультфильм, фэнтези, комедия, приключения, семейный
Режиссер: Уилл Глак
В ролях: Джеймс Корден, Роуз Бирн, Донал Глисон, Дэвид Ойелоуо, Марго Робби, Элизабет Дебики, Айми Хорн, Колин Муди, Ленни Джеймс, Хейли Этвелл
О фильме:
Продолжение истории маленького и непоседливого кролика по имени Питер. Беатрис, Томас и крольчата, наконец, находят общий язык и начинают спокойную и размеренную жизнь за городом. Однако Питеру это совсем не по нраву: его мятежная душа требует приключений, и он отправляется на их поиски в большой город, туда, где его проделки уж точно оценят по достоинству. Тем временем, члены его большой дружной семьи, рискуя жизнью, отправляются вслед за Питером, чтобы вернуть его домой, и теперь беглецу предстоит решить, что же для него важнее всего.

Страна: Австралия, Индия, США, Великобритания, Канада
Продолжительность: 01:33:21
Перевод(ы):
#1: Профессиональный дублированный | Line
#2: Любительский (двухголосый, закадровый) | Pazl Voice
Файл
Кодек: H.265
Качество: WEB-DL 2160p
Видео: HEVC, 3840x1590 (2.40:1), 23.976 fps, 11.8 Mb/s, 10 bit
Аудио 1: AC3, 48.0 kHz, 2 ch, 256 kb/s | RUS [DUB, Line] (Tnx.KinoPub)
Аудио 2: AC3, 48.0 kHz, 2 ch, 256 kb/s | RUS [DVO, Pazl Voice] (Tnx.KinoPub)
Аудио 3: AC3, 48.0 kHz, 2 ch, 192 kb/s | UKR [DUB, Line] (Tnx.eneyida)
Аудио 4: E-AC3 JOC, 48.0 kHz, 6 ch, 768 kb/s | ENG [Оригинал]
Субтитры: Английские
Сэмпл

MI

Общее
Уникальный идентификатор : 179195047614223017127871288944626799324 (0x86CFB5F78DA1F4AB90CEF1D50B7092DC)
Полное имя : Peter.Rabbit.2.The.Runaway.2021.WEB-DL.2160p.mkv
Формат : Matroska
Версия формата : Version 4 / Version 2
Размер файла : 8,66 Гбайт
Продолжительность : 1 ч. 33 м.
Общий поток : 13,3 Мбит/сек
Дата кодирования : UTC 2021-07-08 19:35:37
Программа кодирования : mkvmerge v8.3.0 ('Over the Horizon') 64bit
Библиотека кодирования : libebml v1.3.1 + libmatroska v1.4.2
Видео
Идентификатор : 1
Формат : HEVC
Формат/Информация : High Efficiency Video Coding
Профиль формата : Main 10@L5@High
Идентификатор кодека : V_MPEGH/ISO/HEVC
Продолжительность : 1 ч. 33 м.
Битрейт : 11,8 Мбит/сек
Ширина : 3 840 пикселей
Высота : 1 590 пикселей
Соотношение сторон : 2,40:1
Режим частоты кадров : Постоянный
Частота кадров : 23,976 кадра/сек
Цветовое пространство : YUV
Субдискретизация насыщенности : 4:2:0
Битовая глубина : 10 бит
Бит/(Пиксели*Кадры) : 0.081
Размер потока : 7,70 Гбайт (89%)
Default : Да
Forced : Нет
Цветовой диапазон : Limited
Основные цвета : BT.709
Характеристики трансфера : BT.709
Коэффициенты матрицы : BT.709
Аудио #1
Идентификатор : 2
Формат : AC-3
Формат/Информация : Audio Coding 3
Коммерческое название : Dolby Digital
Идентификатор кодека : A_AC3
Продолжительность : 1 ч. 33 м.
Вид битрейта : Постоянный
Битрейт : 256 Кбит/сек
Каналы : 2 канала
Channel layout : L R
Частота : 48,0 КГц
Частота кадров : 31,250 кадров/сек (1536 SPF)
Метод сжатия : С потерями
Размер потока : 171 Мбайт (2%)
Заголовок : DUB (Line)
Язык : Russian
Service kind : Complete Main
Default : Да
Forced : Нет
Аудио #2
Идентификатор : 3
Формат : AC-3
Формат/Информация : Audio Coding 3
Коммерческое название : Dolby Digital
Идентификатор кодека : A_AC3
Продолжительность : 1 ч. 33 м.
Вид битрейта : Постоянный
Битрейт : 256 Кбит/сек
Каналы : 2 канала
Channel layout : L R
Частота : 48,0 КГц
Частота кадров : 31,250 кадров/сек (1536 SPF)
Метод сжатия : С потерями
Размер потока : 171 Мбайт (2%)
Заголовок : Pazl Voice
Язык : Russian
Service kind : Complete Main
Default : Нет
Forced : Нет
Аудио #3
Идентификатор : 4
Формат : AC-3
Формат/Информация : Audio Coding 3
Коммерческое название : Dolby Digital
Идентификатор кодека : A_AC3
Продолжительность : 1 ч. 33 м.
Вид битрейта : Постоянный
Битрейт : 192 Кбит/сек
Каналы : 2 канала
Channel layout : L R
Частота : 48,0 КГц
Частота кадров : 31,250 кадров/сек (1536 SPF)
Метод сжатия : С потерями
Размер потока : 128 Мбайт (1%)
Заголовок : DUB (Line)
Язык : Ukrainian
Service kind : Complete Main
Default : Нет
Forced : Нет
Аудио #4
Идентификатор : 5
Формат : E-AC-3 JOC
Формат/Информация : Enhanced AC-3 with Joint Object Coding
Коммерческое название : Dolby Digital Plus with Dolby Atmos
Идентификатор кодека : A_EAC3
Продолжительность : 1 ч. 33 м.
Вид битрейта : Постоянный
Битрейт : 768 Кбит/сек
Каналы : 6 каналов
Channel layout : L R C LFE Ls Rs
Частота : 48,0 КГц
Частота кадров : 31,250 кадров/сек (1536 SPF)
Метод сжатия : С потерями
Размер потока : 513 Мбайт (6%)
Заголовок : Original
Язык : English
Service kind : Complete Main
Default : Нет
Forced : Нет
Complexity index : 16
Number of dynamic objects : 15
Bed channel count : 1 канал
Bed channel configuration : LFE
Текст #1
Идентификатор : 6
Формат : UTF-8
Идентификатор кодека : S_TEXT/UTF8
Идентификатор кодека/Информация : UTF-8 Plain Text
Продолжительность : 1 ч. 26 м.
Битрейт : 76 бит/сек
Count of elements : 1378
Размер потока : 48,2 Кбайт (0%)
Заголовок : Full
Язык : English
Default : Нет
Forced : Нет
Текст #2
Идентификатор : 7
Формат : UTF-8
Идентификатор кодека : S_TEXT/UTF8
Идентификатор кодека/Информация : UTF-8 Plain Text
Продолжительность : 1 ч. 33 м.
Битрейт : 88 бит/сек
Count of elements : 1991
Размер потока : 60,1 Кбайт (0%)
Заголовок : SDH
Язык : English
Default : Нет
Forced : Нет

Скриншоты

 

Current time is: 28-Oct 10:10

All times are UTC + 3