Search found 3 matches

Author Message

admin

Post 20-Nov-2018 08:06

[Quote]


XLD: Инструкция по настройке для снятия аудиоданных с максимальной точностью (Mac OSX).
    -Программу скачиваем, например, здесь. Или ищем раздел Download на сайте разработчика на предмет последней версии программы.-
    Пошаговое руководство настройки X Lossless Decoder для снятия достоверной копии Audio CD.
    -
  • Настройка CD Rip
    1. Обратитесь к системному меню - Об этом компьютере / About this Mac:

    Развернуть для просмотра

    2. В открывшемся окне выберите - Storage:

    Развернуть для просмотра

    3. В списке устройств слева выберите - Оптический накопитель. На открывшейся вкладке будет видна модель вашего привода.

    Развернуть для просмотра

    4. Перейдите по адресу AccurateRip - Drive Offsets и найдите там свою модель привода. Запомните значение Correction Offset.
    В случае если вашей модели там не оказалось, но XLD автоматически выставил вам некое значение смещения, то придется ему доверится, сделав скидку на то, что далеко не все модели приводов представлены по базе в виде доступного для чтения списка (факт).
    5. Запустите X Lossless Decoder и открыв вкладку настроек CD Rip проверьте совпадает ли значение Offset которое выставил XLD с данными из базы AccurateRip.

    Развернуть для просмотра

    Так как параметр Offset всегда разная в зависимости от модели, но постоянная для каждой модели привода величина, то вы могли узнать это значение и ранее. Например используя программу EAC.
    6. Рекомендуемые настройки вкладки CD Rip:
    - Ripper Mode: XLD Secure Ripper
    - Use C2 error pointers (drive support is required): выключить
    - Max retry count: 20
    - Read samples offset correction value: определённое для привода значение.
      Set automatically if possible: включить
    - Query AccurateRip database to check integrity: включить
    - Treat AccurateRip as an inconsistency in log: включить
    - Save Log File: Always
    - Save Cue Sheet: Always
    - Verify Suspicious Sectors: включить
    - Test Before Copy: Always
    - Don't detect pregap, ISRC and MCN: выключить
    - Scan Replay Gain: включить настоятельно рекомендуется - при включении этой функции в отчёте будут отображаться также и пиковые уровни
    Обязательные пункты выделены цветом. Не указанные пункты - по желанию.
    Примечания:
    Современные версии X Lossless Decoder не имеют пункта позволяющего управлять кэшем привода. Разработчики приняли обоснованное решение отключать его использование по умолчанию.
    Для плохо читающихся дисков значение Max retry count можно увеличить, но, как правило, к достижению положительного результата это не приводит.

    Правильные настройки вкладки CD Rip


  • Настройка формата вывода аудио данных
    7. Открыть вкладку настроек XLD - Общие/General, где в качестве формата вывода выбрать - FLAC

    Развернуть для просмотра

    8. В опциях можно выбрать уровень компрессии в промежутке 5-8. В данном случае выбран уровень компрессии 8.

    Развернуть для просмотра


    Примечание: использование уровня компрессии меньше 5 запрещено правилами.
    9. Вкладка CDDB. Прочие пункты настроек вкладки по умолчанию.

    Развернуть для просмотра

    10. На вкладке "Metadata" необходимо разрешить автоматическое добавление отсутствующих тегов после обращения к FreeDB, отметить пункт "Embed cover art images into files" для того, что бы автоматически встраивать обложки в файлы треков. Однако если вас не устраивает качество предлагаемой обложки, то XLD обладает возможностью замены обложки путем перетаскивания любой картинки на поле обложки в главном окне.

    Развернуть для просмотра


  • Вставляем диск в привод
    Автоматически определяются зазоры:

    Развернуть для просмотра

    11. Если сведения о диске присутствуют в базе FreeDB, то в главном окне X Lossless Decoder появится информация о треках. В противном случае вам потребуется вводить данные вручную.

    Развернуть для просмотра

    Если вариантов данных о диске два или более, то X Lossless Decoder создаст запрос предлагая вам сделать выбор.

    Развернуть для просмотра

    12. В этом же окне необходимо выбрать опцию "Include pre-gap for all tracks" в случае потрекового рипа.

    Развернуть для просмотра

    12.1В случае имиджевого надо выбрать опцию "Save as a single file (+cue)".

    Развернуть для просмотра

    13. Если данные о треках отсутствуют в базе FreeBD, или не достаточно точны, то вы можете выполнить редакцию тегов вручную. Например, указать каталожный номер диска.
    Для этого требуется: выделить любой из треков в главном окне (рис.11) и в контекстном меню (правая кнопка мыши) выбрать пункт - "Редактировать теги", после чего откроется окно, где навигация по трекам как вперед, так и назад, осуществляется путем нажатия кнопок - Prev / Next.

    Развернуть для просмотра

    Общие данные редактируются для всех треков одновременно:

    Развернуть для просмотра

    14. После завершения процедур определения диска по базе FreeDB, или редакции тегов вручную, нажмите кнопку - "Extract".

    Развернуть для просмотра

    Прогресс декодирования для потрекового и имджевого рипа соотвественно:

    Развернуть для просмотра

    Развернуть для просмотра


    После, в случае правильной настройки XLD Rip, вы сможете наблюдать процесс потрекового извлечения данных с последующим сопоставлением CRC тестовой копии трека и повторной с преобразованием в выходной формат FLAC.
    -
  • Итог для потрекового рипа На выходе получаем файлы: .flac (количество зависит от количества треков), .cue, .log

    Развернуть для просмотра


  • Итог для имиджевого рипа На выходе получаем 3 файла: .flac, .cue, .log

    Развернуть для просмотра


-Рассмотрим подробнее log файл отчета который предоставляет X Lossless Decoder.
Научившись правильно толковать эти данные, вы самостоятельно сможете сделать вывод о правильности настроек.
-
  • Разделенный на логические блоки отчет рипа X Lossless Decoder
    Этот пример содержит построчные технические комментарии, раскрывающие значения параметров (для потрекового рипа)
    1.

    Версия декодера, точная дата рипа, название диска, модель привода и версия его прошивки, а так же статус носителя информации

    X Lossless Decoder version 20141129a (148.2)
    XLD extraction logfile from 2015-10-28 19:42:46 +0300
    Rupert Hine / Waving not Drowning (396 986-2)
    Used drive : HL-DT-ST DVDRAM GE20NU11 (revision CN01)
    Media type : Pressed CD
    2.

    Метод чтения Кэширование аудио потока приводом ,контроль возврата ошибок С2 ,коррекция смещения при чтении - offset

    Ripper mode : XLD Secure Ripper
    Disable audio cache : OK for the drive with a cache less than 1375KiB
    Make use of C2 pointers : NO
    Read offset correction : 667
    Max retry count : 100
    Gap status : Analyzed, Appended
    3.

    Трек | Старт | Длительность | Начальный сектор | Конечный сектор

    TOC of the extracted CD
    Track | Start | Length | Start sector | End sector
    ---------------------------------------------------------
    1 | 00:00:33 | 03:46:02 | 33 | 16984
    2 | 03:46:35 | 04:47:68 | 16985 | 38577
    3 | 08:34:28 | 04:24:55 | 38578 | 58432
    4 | 12:59:08 | 03:31:02 | 58433 | 74259
    5 | 16:30:10 | 05:30:20 | 74260 | 99029
    6 | 22:00:30 | 03:24:73 | 99030 | 114402
    7 | 25:25:28 | 04:17:70 | 114403 | 133747
    8 | 29:43:23 | 05:28:70 | 133748 | 158417
    9 | 35:12:18 | 06:11:15 | 158418 | 186257
    10 | 41:23:33 | 02:05:20 | 186258 | 195652[/pre]
    3.1

    Отчёт AccurateRip

    AccurateRip Summary (DiscID: 00106a57-00842537-850a300a)
    Track 01 : OK (v1+v2, confidence 23/23)
    Track 02 : OK (v1+v2, confidence 23/23)
    Track 03 : OK (v1+v2, confidence 23/23)
    Track 04 : OK (v1+v2, confidence 23/23)
    Track 05 : OK (v1+v2, confidence 22/22)
    Track 06 : OK (v1+v2, confidence 23/23)
    Track 07 : OK (v1+v2, confidence 22/22)
    Track 08 : OK (v1+v2, confidence 23/23)
    Track 09 : OK (v1+v2, confidence 22/22)
    Track 10 : OK (v1+v2, confidence 22/22)
    ->All tracks accurately ripped.
    3.2

    Общий отчёт снятия рипа по уровням и возможным ошибкам

    All Tracks
    Album gain : -1.35 dB
    Peak : 0.885071
    Statistics
    Read error : 0
    Jitter error (maybe fixed) : 0
    Retry sector count : 0
    Damaged sector count : 0
    4.1

    По отдельным трекам: путь сохранения преобразованного трека, его наименование и его расширение

    Track 01
    Filename : /XLD/Rupert Hine - 1982 - Waving not Drowning (396 986-2)/01 Rupert Hine - Eleven Faces.flac
    4.2

    Длительность зазора между треками

    Pre-gap length : 00:02:33
    4.3

    Коррекция громкости, пиковый уровень трека, трек прочитан дважды, выведены контрольные суммы, тест сравнения пройден

    Track gain               : -0.74 dB
    Peak : 0.611023
    CRC32 hash (test run) : D9C91AC5
    CRC32 hash : D9C91AC5
    CRC32 hash (skip zero) : 2B9F7AFC
    4.4

    Хэш базы данных AccurateRip, подтверждение совпадения и наличия в трека (образа) в базе, количество совпадений подобных вашему рипу

    AccurateRip v1 signature : 679BF491
    AccurateRip v2 signature : B3541568
    ->Accurately ripped (v1+v2, confidence 10+13/23)
    4.5

    Количество и тип ошибок при считывании треков

    Statistics
    Read error : 0
    Jitter error (maybe fixed) : 0
    Retry sector count : 0
    Damaged sector count : 0
    5.

    Итоговый отчёт

    No errors occurred
    End of status report
    6.

    Контрольная сумма лога

    -----BEGIN XLD SIGNATURE-----
    QtkEybrCN8d.6Y8JGGyWaP3GRVDYrZXo7Cv.snQ8xSkp_kXYB9KQHHhUmHxHULRh67QNuAtglTfNHgaq.u9uhH4VHS5t9c2mlzyZ.iW
    -----END XLD SIGNATURE-----

  • Цельный отчет имиджевого рипа X Lossless Decoder

    Развернуть для просмотра

    X Lossless Decoder version 20141129a (148.2)
    XLD extraction logfile from 2015-10-28 21:32:31 +0300
    Rupert Hine / Waving not Drowning (396 986-2)
    Used drive : HL-DT-ST DVDRAM GE20NU11 (revision CN01)
    Media type : Pressed CD
    Ripper mode : XLD Secure Ripper
    Disable audio cache : OK for the drive with a cache less than 1375KiB
    Make use of C2 pointers : NO
    Read offset correction : 667
    Max retry count : 100
    Gap status : Analyzed, Appended
    TOC of the extracted CD
    Track | Start | Length | Start sector | End sector
    ---------------------------------------------------------
    1 | 00:00:33 | 03:46:02 | 33 | 16984
    2 | 03:46:35 | 04:47:68 | 16985 | 38577
    3 | 08:34:28 | 04:24:55 | 38578 | 58432
    4 | 12:59:08 | 03:31:02 | 58433 | 74259
    5 | 16:30:10 | 05:30:20 | 74260 | 99029
    6 | 22:00:30 | 03:24:73 | 99030 | 114402
    7 | 25:25:28 | 04:17:70 | 114403 | 133747
    8 | 29:43:23 | 05:28:70 | 133748 | 158417
    9 | 35:12:18 | 06:11:15 | 158418 | 186257
    10 | 41:23:33 | 02:05:20 | 186258 | 195652
    AccurateRip Summary (DiscID: 00106a57-00842537-850a300a)
    Track 01 : OK (v1+v2, confidence 23/23)
    Track 02 : OK (v1+v2, confidence 23/23)
    Track 03 : OK (v1+v2, confidence 23/23)
    Track 04 : OK (v1+v2, confidence 23/23)
    Track 05 : OK (v1+v2, confidence 22/22)
    Track 06 : OK (v1+v2, confidence 23/23)
    Track 07 : OK (v1+v2, confidence 22/22)
    Track 08 : OK (v1+v2, confidence 23/23)
    Track 09 : OK (v1+v2, confidence 22/22)
    Track 10 : OK (v1+v2, confidence 22/22)
    ->All tracks accurately ripped.
    All Tracks
    Filename : /XLD/Rupert Hine - 1982 - Waving not Drowning (396 986-2)/Waving not Drowning (396 986-2).flac
    Album gain : -1.35 dB
    Peak : 0.885071
    CRC32 hash (test run) : EF0B4EC3
    CRC32 hash : EF0B4EC3
    CRC32 hash (skip zero) : 7A489EDB
    Statistics
    Read error : 0
    Jitter error (maybe fixed) : 0
    Retry sector count : 0
    Damaged sector count : 0
    Track 01
    Pre-gap length : 00:02:33
    Track gain : -0.74 dB
    Peak : 0.611023
    CRC32 hash (test run) : D9C91AC5
    CRC32 hash : D9C91AC5
    CRC32 hash (skip zero) : 2B9F7AFC
    AccurateRip v1 signature : 679BF491
    AccurateRip v2 signature : B3541568
    ->Accurately ripped (v1+v2, confidence 10+13/23)
    Statistics
    Read error : 0
    Jitter error (maybe fixed) : 0
    Retry sector count : 0
    Damaged sector count : 0
    Track 02
    Track gain : -0.98 dB
    Peak : 0.885071
    CRC32 hash (test run) : 157C8788
    CRC32 hash : 157C8788
    CRC32 hash (skip zero) : 0830E09F
    AccurateRip v1 signature : 9B7789EA
    AccurateRip v2 signature : 9129EE88
    ->Accurately ripped (v1+v2, confidence 10+13/23)
    Statistics
    Read error : 0
    Jitter error (maybe fixed) : 0
    Retry sector count : 0
    Damaged sector count : 0
    Track 03
    Pre-gap length : 00:01:33
    Track gain : 1.32 dB
    Peak : 0.617188
    CRC32 hash (test run) : 85C581DD
    CRC32 hash : 85C581DD
    CRC32 hash (skip zero) : C2505BE4
    AccurateRip v1 signature : 62BA237B
    AccurateRip v2 signature : 6CB2AE9E
    ->Accurately ripped (v1+v2, confidence 10+13/23)
    Statistics
    Read error : 0
    Jitter error (maybe fixed) : 0
    Retry sector count : 0
    Damaged sector count : 0
    Track 04
    Track gain : 2.41 dB
    Peak : 0.578430
    CRC32 hash (test run) : EC513F58
    CRC32 hash : EC513F58
    CRC32 hash (skip zero) : 70FC80C2
    AccurateRip v1 signature : F3768A54
    AccurateRip v2 signature : 14A5C238
    ->Accurately ripped (v1+v2, confidence 10+13/23)
    Statistics
    Read error : 0
    Jitter error (maybe fixed) : 0
    Retry sector count : 0
    Damaged sector count : 0
    Track 05
    Track gain : -1.75 dB
    Peak : 0.845306
    CRC32 hash (test run) : AB9C01B6
    CRC32 hash : AB9C01B6
    CRC32 hash (skip zero) : 2D63C27D
    AccurateRip v1 signature : 9F5DAA17
    AccurateRip v2 signature : 59099070
    ->Accurately ripped (v1+v2, confidence 9+13/22)
    Statistics
    Read error : 0
    Jitter error (maybe fixed) : 0
    Retry sector count : 0
    Damaged sector count : 0
    Track 06
    Pre-gap length : 00:01:32
    Track gain : -2.50 dB
    Peak : 0.691437
    CRC32 hash (test run) : A93A6DB6
    CRC32 hash : A93A6DB6
    CRC32 hash (skip zero) : C11BEA2A
    AccurateRip v1 signature : BF4F3847
    AccurateRip v2 signature : 0346F283
    ->Accurately ripped (v1+v2, confidence 10+13/23)
    Statistics
    Read error : 0
    Jitter error (maybe fixed) : 0
    Retry sector count : 0
    Damaged sector count : 0
    Track 07
    Pre-gap length : 00:01:05
    Track gain : -2.64 dB
    Peak : 0.778046
    CRC32 hash (test run) : FCF91CC1
    CRC32 hash : FCF91CC1
    CRC32 hash (skip zero) : 131003CE
    AccurateRip v1 signature : 36CA7E37
    AccurateRip v2 signature : 27BDA7A9
    ->Accurately ripped (v1+v2, confidence 9+13/22)
    Statistics
    Read error : 0
    Jitter error (maybe fixed) : 0
    Retry sector count : 0
    Damaged sector count : 0
    Track 08
    Track gain : 0.47 dB
    Peak : 0.619263
    CRC32 hash (test run) : 5AD9C827
    CRC32 hash : 5AD9C827
    CRC32 hash (skip zero) : 8918B3AF
    AccurateRip v1 signature : A099056F
    AccurateRip v2 signature : 6BC73B74
    ->Accurately ripped (v1+v2, confidence 10+13/23)
    Statistics
    Read error : 0
    Jitter error (maybe fixed) : 0
    Retry sector count : 0
    Damaged sector count : 0
    Track 09
    Track gain : -1.99 dB
    Peak : 0.857910
    CRC32 hash (test run) : E5B55019
    CRC32 hash : E5B55019
    CRC32 hash (skip zero) : A9563741
    AccurateRip v1 signature : DE1ECC50
    AccurateRip v2 signature : 34E3F2F4
    ->Accurately ripped (v1+v2, confidence 9+13/22)
    Statistics
    Read error : 0
    Jitter error (maybe fixed) : 0
    Retry sector count : 0
    Damaged sector count : 0
    Track 10
    Track gain : -0.62 dB
    Peak : 0.707153
    CRC32 hash (test run) : 076989E6
    CRC32 hash : 076989E6
    CRC32 hash (skip zero) : 9A99ACDC
    AccurateRip v1 signature : 8599B5D9
    AccurateRip v2 signature : B7E48F94
    ->Accurately ripped (v1+v2, confidence 10+12/22)
    Statistics
    Read error : 0
    Jitter error (maybe fixed) : 0
    Retry sector count : 0
    Damaged sector count : 0
    No errors occurred
    End of status report
    -----BEGIN XLD SIGNATURE-----
    QtkEybrCN8d.6Y8JGGyWaP3GRVDYrZXo7Cv.snQ8xSkp_kXYB9KQHHhUmHxHULRh67QNuAtglTfNHgaq.u9uhH4VHS5t9c2mlzyZ.iW
    -----END XLD SIGNATURE-----

    Расширение Log Checker - настоятельно рекомендуется!.
    Доступно для скачивания на сайте разработчика в разделе Download.

    Развернуть для просмотра

    Установка:
    1. Вручную поместить скачанный файл XLDLogChecker.bundle в папку ~/Library/Application Support/XLD/PlugIns.
    ИЛИ
    2. Скачать и запустить программу автоматической установки расширения (позаимствована на стороннем ресурсе - без гарантии!).
    Использование:
    В меню XLD выбираем Log Checker...

    Развернуть для просмотра

    В открывшееся окно перетаскиваем файл лога XLD, который необходимо проверить,

    Развернуть для просмотра

    Готово!

    Развернуть для просмотра

    -
  • admin

    Post 20-Nov-2018 07:25

    [Quote]

    Справочник. Синтаксис CUE sheet (индексной карты, cuesheet, cue-файлов)
    I. Что такое cue-файл
    Cue-файлы используются для того, чтобы обеспечить информацию о больших аудио-файлах.
    Обычно они используются либо при извлечении информации, либо при записи на CD. Это -- простые текстовые файлы, имеющие расширение cue.
    Cue-файл может содержать мета-данные (например, TITLE и PERFORMER) и должен содержать информацию о файле (файлах), на которые ссылается (команда FILE), а также номера треков (TRACK) и индексные точки (INDEX). INDEX задается в формате MM:SS:FF, где MM -- количество минут, SS -- количество секунд, FF -- количество фреймов (в одной секунде 75 фреймов).
    Cue-файлы стали популярными благодаря пользователям ЕАСа, которые делают рипы аудио CD в один файл-образ, сопровождаемый cue-файлом. ЕАС может создать четыре разных типа индексных карт в cue-файле, три для потрековых рипов (когда cue-файл может ссылаться на несколько файлов) и один для образа.
    Cue-файлы могут использоваться при записи данных на диски и на аудио CD. Здесь мы фокусируемся исключительно на аудио-командах.
    II. История
    Формат cue-файла был изобретен Jeff Arnold'ом из GoldenHawk Technology для использования с приложениями DAO (Disc At Once) и CDRWIN. С тех пор этот формат был де-факто принят как стандарт и использовался разными другими приложениями, включая foobar2000. Общепринято считать официальной спецификацией cue-файлов Appendix A в CDRWIN User's Guide.
    Название происходит от команды SEND CUE SHEET, когда cue-файл, описывающий индексную карту диска, должен посылаться на драйв до того, как начнется запись в SAO записывающей моде. Драйв пишет на диск, используя информацию из cue-файла, чтобы генерировать данные P и Q суб-каналов и чтобы найти формат и размер блока данных, передаваемых с командой WRITE.
    III. Команды в cue-файле
    Следующие команды детально описаны в Приложении A пользовательского описания CDRWIN:
    • CATALOG
    • CDTEXTFILE
    • FILE
    • FLAGS
    • INDEX
    • ISRC
    • PERFORMER
    • POSTGAP
    • PREGAP
    • REM
    • SONGWRITER
    • TITLE
    • TRACK
    Чаще всего используются:
    FILE
    Команда FILE специфицирует файл, на которые cue-файл в данный момент ссылается. Подходящие типы файлов -- WAVE, MP3 и AIFF, хотя другие форматы, например, лосслесс-форматы подобные WavPack и FLAC, также могут быть использованы с типом файла WAVE.
    INDEX
    Число между 00 и 99. Индексные точки задаются в формате MM:SS:FF относительно начала файла, на который в данный момент идет ссылка. команда INDEX 01 определяет начало нового трека. Команда INDEX 00 задает прегэп для трека; вы можете заметить, что аудиоплейер начинает считать время при исполнении данного трека с некоторого отрицательного значения -- это как раз период между INDEX 00 и INDEX 01.

    PERFORMER

    На уровне диска задает исполнителя для всего CD, на уровне трека -- исполнителя данного трека.
    PREGAP
    Используется для задания прегэпа трека в формате MM:SS:FF.

    REM

    Используется для комментариев в cue-файле. Эта команда часто используется для того, чтобы сохранить мета-данные к TITLE и PERFORMER, например, дату или жанр диска.
    TITLE
    На уровне всего диска задает название альбома, на уровне трека -- название трека.
    TRACK
    Число между 01 и 99, указывающее номер трека.
    IV. Примеры
    1. Стандартный cue-файл для одного файла (рип образом):
    REM GENRE Alternative
    REM DATE 1991
    REM DISCID 860B640B
    REM COMMENT "ExactAudioCopy v0.95b4"
    PERFORMER "My Bloody Valentine"
    TITLE "Loveless"
    FILE "My Bloody Valentine - Loveless.wav" WAVE
    TRACK 01 AUDIO
    TITLE "Only Shallow"
    PERFORMER "My Bloody Valentine"
    INDEX 01 00:00:00
    TRACK 02 AUDIO
    TITLE "Loomer"
    PERFORMER "My Bloody Valentine"
    INDEX 01 04:17:52
    Этот cue-файл, созданные ЕАСом, демонстрирует первые два трека стандартного cue-файла для одного файла, полученного при рипом образом. Заметим использование команды REM, чтобы записать добавочные мета-данные в формате REM <TAG> "<value>". Команды PERFORMER и TITLE в начале cue-файла задают исполнителя для всего диска и название альбома. INDEX 01 для TRACK 02 говорит не то, что длина трека 4 мин 17.693 с, а то, что начало трека лежит на расстоянии 4 мин 17.693 с от начала файла (так что, на самом деле, 4 мин 17.693 -- это длина TRACK 01). Если бы TRACK 02 был длиной ровно 3 мин, INDEX 01 для TRACK 03 был бы 07:17:52.
    Обратите также внимание на ссылку, задающую путь к файлу (она может также быть абсолютной, т.е. указывать полный путь) и тип файла -- WAVE.

    2. Стандартный cue-файл для одного файла с TRACK 01 INDEX 00 для скрытого трека
    PERFORMER "Bloc Party"
    TITLE "Silent Alarm"
    FILE "Bloc Party - Silent Alarm.flac" WAVE
    TRACK 01 AUDIO
       TITLE "Like Eating Glass"
       PERFORMER "Bloc Party"
       INDEX 00 00:00:00
       INDEX 01 03:22:70
    TRACK 02 AUDIO
       TITLE "Helicopter"
       PERFORMER "Bloc Party"
       INDEX 00 07:42:69
       INDEX 01 07:44:69
    Этот cue-файл демонстрирует первые два трека стандартного cue-файла для одного файла, полученного при рипе образом со скрытым треком в начале. Заметьте, что INDEX 01 для TRACK 01 указывает 03:22:70 (3 мин 22.933 с) вместо 00:00:00, как в первом примере и в большинстве cue-файлов. INDEX 00 для TRACK 02 более стандартный -- 2 секунды до INDEX 01.
    С таким INDEX 00 как для TRACK 01 вы не сможете обычно видеть нормальный отсчет с отрицательного значения, которое вы можете видеть от команды INDEX 00 для следующего трека. Чтобы слушать этот трек на аудио-CD-плейере, вам понадобится запустить диск проигрываться и включить перемотку, чтобы перемотать назад, по сути с точки 3 мин 22 с, к настоящему началу диска.
    Заметьте также, что ссылка на файл -- FLAC, но используется тип файла WAVE. Для mp3-файлов тип файла был бы MP3, для AIFF -- AIFF, но для всех остальных случаев используется тип файла WAVE.

    3. Потрековый рип с откорректированными зазорами
    REM DISCID 3D0E2605
    REM COMMENT "ExactAudioCopy v0.99pb5"
    PERFORMER "Swallow The Sun"
    TITLE "Plague Of Butterflies"
    FILE "01. Swallow The Sun – Plague Of Butterflies.wav" WAVE
      TRACK 01 AUDIO
        TITLE "Plague Of Butterflies"
        PERFORMER "Swallow The Sun"
        INDEX 01 00:00:00
    FILE "02. Swallow The Sun – Through Her Silvery Body.wav" WAVE
      TRACK 02 AUDIO
        TITLE "Through Her Silvery Body"
        PERFORMER "Swallow The Sun"
        INDEX 00 00:00:00
        INDEX 01 00:06:50
    FILE "03. Swallow The Sun – Out Of This Gloomy Light.wav" WAVE
      TRACK 03 AUDIO
        TITLE "Out Of This Gloomy Light"
        PERFORMER "Swallow The Sun"
        INDEX 01 00:00:00
    FILE "04. Swallow The Sun – Swallow.wav" WAVE
      TRACK 04 AUDIO
        TITLE "Swallow"
        PERFORMER "Swallow The Sun"
        INDEX 00 00:00:00
        INDEX 01 00:01:03
    FILE "05. Swallow The Sun – Under The Waves.wav" WAVE
      TRACK 05 AUDIO
        TITLE "Under The Waves"
        PERFORMER "Swallow The Sun"
        INDEX 01 00:00:00
    Этот cue-файл, созданный ЕАСом при потрековом рипе, -- для случая зазоров, присоединенных к началу следующего трека. Этот метод позволяет сохранить зазоры, но при добавлении зазора к следующему треку, он может начинаться с тишины, что делает воспроизведение менее удовлетворительным.
    4. Потрековый рип с удаленными зазорами
    REM DISCID 3D0E2605
    REM COMMENT "ExactAudioCopy v0.99pb5"
    PERFORMER "Swallow The Sun"
    TITLE "Plague Of Butterflies"
    FILE "01. Swallow The Sun – Plague Of Butterflies.wav" WAVE
      TRACK 01 AUDIO
        TITLE "Plague Of Butterflies"
        PERFORMER "Swallow The Sun"
        INDEX 01 00:00:00
    FILE "02. Swallow The Sun – Through Her Silvery Body.wav" WAVE
      TRACK 02 AUDIO
        TITLE "Through Her Silvery Body"
        PERFORMER "Swallow The Sun"
        PREGAP 00:06:50
        INDEX 01 00:00:00
    FILE "03. Swallow The Sun – Out Of This Gloomy Light.wav" WAVE
      TRACK 03 AUDIO
        TITLE "Out Of This Gloomy Light"
        PERFORMER "Swallow The Sun"
        INDEX 01 00:00:00
    FILE "04. Swallow The Sun – Swallow.wav" WAVE
      TRACK 04 AUDIO
        TITLE "Swallow"
        PERFORMER "Swallow The Sun"
        PREGAP 00:01:03
        INDEX 01 00:00:00
    FILE "05. Swallow The Sun – Under The Waves.wav" WAVE
      TRACK 05 AUDIO
        TITLE "Under The Waves"
        PERFORMER "Swallow The Sun"
        INDEX 01 00:00:00
    Этот cue-файл, созданный ЕАСом при потрековом рипе, убирает зазоры, но искусственно создает тишину между треками, используя команду PREGAP. Это замечательно, если в зазорах была тишина, но никуда не годится, если зазоры содержат звук.
    5. Потрековый рип с зазорами (Noncompliant -- несовместимый синтаксис cue-файла)
    REM DISCID 3D0E2605
    REM COMMENT "ExactAudioCopy v0.99pb5"
    PERFORMER "Swallow The Sun"
    TITLE "Plague Of Butterflies"
    FILE "01. Swallow The Sun – Plague Of Butterflies.wav" WAVE
      TRACK 01 AUDIO
        TITLE "Plague Of Butterflies"
        PERFORMER "Swallow The Sun"
        INDEX 01 00:00:00
      TRACK 02 AUDIO
        TITLE "Through Her Silvery Body"
        PERFORMER "Swallow The Sun"
        INDEX 00 34:35:64
    FILE "02. Swallow The Sun – Through Her Silvery Body.wav" WAVE
        INDEX 01 00:00:00
    FILE "03. Swallow The Sun – Out Of This Gloomy Light.wav" WAVE
      TRACK 03 AUDIO
        TITLE "Out Of This Gloomy Light"
        PERFORMER "Swallow The Sun"
        INDEX 01 00:00:00
      TRACK 04 AUDIO
        TITLE "Swallow"
        PERFORMER "Swallow The Sun"
        INDEX 00 05:33:44
    FILE "04. Swallow The Sun – Swallow.wav" WAVE
        INDEX 01 00:00:00
    FILE "05. Swallow The Sun – Under The Waves.wav" WAVE
      TRACK 05 AUDIO
        TITLE "Under The Waves"
        PERFORMER "Swallow The Sun"
        INDEX 01 00:00:00
    Этот cue-файл, созданный ЕАСом при потрековом рипе, присоединяет зазоры к предыдущему треку и предпочтителен для пользователей, которые делают потрековый рип, но желают сохранить информацию зазоров. Данный формат позволяет сохранить зазоры, но в таком месте файла-трека, где это не мешает воспроизведению. К сожалению, этот формат имеет несовместимый синтаксис, поэтому приложения, жестко ориентированые на спецификацию (подобно foobar2000), не способны его прочесть. ЕАС, очевидно, читает эти cue-файлы, так же как приложение для прожигания CD-дисков Burrrn.
    Заметьте, что INDEX 00 для TRACK 02 расположен там, где все еще идет ссылка на первый FILE.
    6. Потрековый рип с зазорами (Noncompliant -- несовместимый синтаксис cue-файла) (другой вариант)
    REM GENRE Hardcore
    REM DATE 2008
    REM DISCID 7C0A780A
    REM COMMENT "ExactAudioCopy v0.99pb4"
    PERFORMER "Norma Jean"
    TITLE "The Anti Mother"
    FILE "01 - Vipers, Snakes, And Actors.wav" WAVE
      TRACK 01 AUDIO
        TITLE "Vipers, Snakes, And Actors"
        PERFORMER "Norma Jean"
        PREGAP 00:00:05
        INDEX 01 00:00:00
    FILE "02 - Self Employed Chemist.wav" WAVE
      TRACK 02 AUDIO
        TITLE "Self Employed Chemist"
        PERFORMER "Norma Jean"
        INDEX 01 00:00:00
    FILE "03 - Birth Of The Anti Mother.wav" WAVE
      TRACK 03 AUDIO
        TITLE "Birth Of The Anti Mother"
        PERFORMER "Norma Jean"
        INDEX 01 00:00:00
      TRACK 04 AUDIO
        TITLE "Robots 3 Humans 0"
        PERFORMER "Norma Jean"
        INDEX 00 02:31:28
    FILE "04 - Robots 3 Humans 0.wav" WAVE
        INDEX 01 00:00:00
    FILE "05 - Death Of The Anti Mother.wav" WAVE
      TRACK 05 AUDIO
        TITLE "Death Of The Anti Mother"
        PERFORMER "Norma Jean"
        INDEX 01 00:00:00
    FILE "06 - Surrender Your Sons....wav" WAVE
      TRACK 06 AUDIO
        TITLE "Surrender Your Sons..."
        PERFORMER "Norma Jean"
        INDEX 01 00:00:00
    FILE "07 - Murphy Was An Optimist.wav" WAVE
      TRACK 07 AUDIO
        TITLE "Murphy Was An Optimist"
        PERFORMER "Norma Jean"
        INDEX 01 00:00:00
    FILE "08 - Opposite Of Left And Wrong.wav" WAVE
      TRACK 08 AUDIO
        TITLE "Opposite Of Left And Wrong"
        PERFORMER "Norma Jean"
        INDEX 01 00:00:00
    FILE "09 - ...Discipline Your Daughters.wav" WAVE
      TRACK 09 AUDIO
        TITLE "...Discipline Your Daughters"
        PERFORMER "Norma Jean"
        INDEX 01 00:00:00
    FILE "10 - And There Will Be A Swarm Of Hornets.wav" WAVE
      TRACK 10 AUDIO
        TITLE "And There Will Be A Swarm Of Hornets"
        PERFORMER "Norma Jean"
        INDEX 01 00:00:00
    В данном случае длина зазора перед первым треком составила 00:02:05 вместо стандартной 00:02:00. Разница добавлена командой PREGAP 00:00:05, создающей тихую паузу длины 00:00:05.
    7. Краткие пояснения.
    Структура расстановки индексов в cue-файле такова -- индексы (которые являются просто метками) расставляются внутри каждой логической единицы независимо. Логической единицей при рипе образом является весь образ, при рипе треками -- отдельный трек. При этом INDEX 01 всегда обозначает начало трека, а INDEX 00 -- начало зазора. Остальные индексы являются просто дополнительными метками, которые позволяют (увы, только малому числу) "железным" плейерам начинать проигрывание с них.
    Такая структура cue-файла означает, что при рипе образом все индексы отвечают непрерывно растущим числам (времени от начала), и INDEX 01 и INDEX 00 чередуются (иногда INDEX 00 может не быть, если зазор между треками отсутствует). В то же время при потрековом рипе числа растут (а индексы чередуются, если вообще есть INDEX 00) только внутри каждого трека.
    Если при потрековом рипе трек начинается с INDEX 00 -- он начинается с зазора, т.е. был создан Потрековый рип с откорректированными зазорами. При этом INDEX 00 отвечают нулевые цифры, так как начало зазора совпадает с началом логической единицы (трека). В другом случае Noncompliant cue-файла зазоры, напротив, присоединяются к концу предыдущего трека, т.е. трек начинается с INDEX 01 (с нулевым значением), а в конце его стоит INDEX 00 (с ненулевым значением, отвечающим длине трека), который отвечают началу зазора следующего трека.
    Наконец, имеется еще случай Потрекового рипа с удаленными зазорами, когда INDEX 00 просто отсутствуют и заменены паузами с тишиной. Это делает команда PREGAP -- вставляет тихую паузу данной длины (цифра после слова PREGAP).
    Имеются две тонкости, связанные с началом диска. Во-первых, заметим, что обычно cue-файл для образа начинается с нулевого INDEX 01. Исключением является случай скрытого трека (см. пример 2 выше). Во-вторых, бывает проблема с зазором перед первым треком. Если выбран способ присоединения зазоров к предыдущему треку (Noncompliant cue-файл), то зазор перед первым треком присоединить не к чему. Поэтому в процессе рипа он автоматически заменится PREGAP заданной длины минус стандартные 0:00:02, которые всегда присутствуют. Однако команда PREGAP -- это тишина, поэтому, если этот пред-зазор содержал какой-то музыкальный материал (что иногда бывает), этот материал будет утерян. Чтобы иметь возможность собрать точный образ диска в этом случае нужны специальные приемы, которые будут рассмотрены в подробном тексте.
    8. Потрековый рип без зазоров.
    В заключение для полноты картины приведем пример диска, на котором полностью отсутствуют зазоры. В этом случае, не важно, какой тип CUE мы выберем. Будь то noncompliant, с удалёнными зазорами или с откорректированными - все они идентичны. INDEX 00 полностью отсутствуют, INDEX 01 всегда начинается с нуля.
    REM GENRE "Progressive Rock"
    REM DATE 2007
    REM DISCID CC0AE50E
    REM COMMENT "ExactAudioCopy v0.99pb5"
    PERFORMER "Ugly Custard"
    TITLE "Ungly Custard"
    FILE "Scarboro' Fair.wav" WAVE
      TRACK 01 AUDIO
        TITLE "Scarboro' Fair"
        PERFORMER "Ugly Custard"
        INDEX 01 00:00:00
    FILE "Link.wav" WAVE
      TRACK 02 AUDIO
        TITLE "Link"
        PERFORMER "Ugly Custard"
        INDEX 01 00:00:00
    FILE "My Babe.wav" WAVE
      TRACK 03 AUDIO
        TITLE "My Babe"
        PERFORMER "Ugly Custard"
        INDEX 01 00:00:00
    FILE "Link.wav" WAVE
      TRACK 04 AUDIO
        TITLE "Link"
        PERFORMER "Ugly Custard"
        INDEX 01 00:00:00
    FILE "Hung Upside Down.wav" WAVE
      TRACK 05 AUDIO
        TITLE "Hung Upside Down"
        PERFORMER "Ugly Custard"
        INDEX 01 00:00:00
    FILE "Link.wav" WAVE
      TRACK 06 AUDIO
        TITLE "Link"
        PERFORMER "Ugly Custard"
        INDEX 01 00:00:00
    FILE "Custards Last Stand.wav" WAVE
      TRACK 07 AUDIO
        TITLE "Custards Last Stand"
        PERFORMER "Ugly Custard"
        INDEX 01 00:00:00
    FILE "Babe I'm Gonna Leave You.wav" WAVE
      TRACK 08 AUDIO
        TITLE "Babe I'm Gonna Leave You"
        PERFORMER "Ugly Custard"
        INDEX 01 00:00:00
    FILE "Link.wav" WAVE
      TRACK 09 AUDIO
        TITLE "Link"
        PERFORMER "Ugly Custard"
        INDEX 01 00:00:00
    FILE "Cry From The Heart.wav" WAVE
      TRACK 10 AUDIO
        TITLE "Cry From The Heart"
        PERFORMER "Ugly Custard"
        INDEX 01 00:00:00
    FILE "Link.wav" WAVE
      TRACK 11 AUDIO
        TITLE "Link"
        PERFORMER "Ugly Custard"
        INDEX 01 00:00:00
    FILE "Never In A Blues Day.wav" WAVE
      TRACK 12 AUDIO
        TITLE "Never In A Blues Day"
        PERFORMER "Ugly Custard"
        INDEX 01 00:00:00
    FILE "Link.wav" WAVE
      TRACK 13 AUDIO
        TITLE "Link"
        PERFORMER "Ugly Custard"
        INDEX 01 00:00:00
    FILE "Feel This.wav" WAVE
      TRACK 14 AUDIO
        TITLE "Feel This"
        PERFORMER "Ugly Custard"
        INDEX 01 00:00:00

    admin

    Post 20-Nov-2018 07:14

    [Quote]

    Цель данной инструкции - помочь начинающим, неподготовленным пользователям правильно настроить программу Exact Audio Copy (в дальнейшем ЕАС) и быстро научиться снимать правильные рипы с аудио CD. Методика снятия рипов образом (image+.cue), описанная в данной инструкции, универсальна и применима в подавляющем большинстве случаев.
    Скачать данную инструкцию в формате CHM для локального использования можно из этой раздачи.-Настройка программы Exact Audio Copy для снятия точного рипа1. Скачайте и установите последнюю версию EAC V1.0 beta 3 со страницы загрузки программы.

    Некоторые замечания по установке программы

    Для установки программы требуется проинсталлированная в Вашей системе платформа Microsoft .NET Frameworks 2.0 или выше. Если у Вас она не инсталлирована, скачайте и установите её до установки ЕАС. Инсталлятор, с учётом разрядности Вашей системы, можно взять отсюда - http://www.filebox.ru/p/net-framework/ .
    Во время установки Вы увидите окно выбора компонентов программы в котором Вы можете отключить ненужные Вам элементы и включить необходимые:

    Для заполнения тэгов Вам будет необходим минимум один поставщик метаданных. В поставке ЕАС их предлагается три:
    freedb Metedata Plugin - основной поставщик метаданных, помимо стандартной информации о диске имеет встроенные функции поиска картинок и текстов песен.
    GD3 Metedata Plugin - комерческая база метаданных, за пользование которой нужно платить абонентскую плату.
    CTDB Plugin - подключает к поиску информации о диске дополнительную бесплатную базу метаданных, производит дополнительную проверку рипа по CUETools DB, функциями поиска текстов и картинок не обладает.
    Также предлагаются следующие дополнительные компоненты:
    CDRDAO - может понадобиться, если Вы собираетесь использовать ЕАС и для записи дисков.
    FLAC - консольный кодировщик для упаковки рипов в одноимённый формат.
    AccurateRip - функция проверки рипа по базе AccurateRip.
    2. При первом запуске программа предложит выполнить макрос настройки - откажитесь.
    Примечание. Если в Вашей системе программа ЕАС по какой-то причине не установилась или не открылась, рекомендуется скачать и установить какую-либо из предыдущих версий, например 0.99 prebeta 5.
    Примите во внимание, что название некоторых опций настроек в старых версиях ЕАС могут не соответствовать инструкции или вообще отсутствовать.
    После открытия главного окна программы нажмите F9 и выставьте в указанных вкладках все "галочки" и переключатели в полное соответствие с представленными скриншотами:

    Параметры ЕАС



    Примечание. Если Вам нужны англоязычные логи извлечения, включите опцию, обведенную на скриншоте синим прямоугольником.

    Внимание! Если по окончании снятия рипа файл отчёта не генерируется, и программа выдаёт ошибку, выключите опцию добавления в отчет контрольной суммы. Реализация данной функции на Вашем компьютере аппаратно невозможна.
    Внимание! Еслы Вы хотите сохранить информацию о кодах UPC/ISRC, и Ваш привод поддерживает функцию их считывания, можете использовать эту опцию. Однако следует помнить, что при снятии рипа с дисков, выпущенных до 1996-го года (и у некоторых современных) значения кодов могут быть неверными или нулевыми. Сохранение таких кодов в индексной карте может привести к неправильной работе записывающих программ. Опцию считывания кодов UPC/ISRC для подобных дисков рекомендуется отключать.

    Внимание! Если Вас интересуют только полные и точные лосслесс рипы, никогда ничего не включайте на вкладке "Нормализация" и вообще забудьте о её существовании.

    Это окно не будет пустым только в том случае, если во время установки Вы выбрали компонент CTDB Plugin.
    Включите этот компонент, если хотите использовать плагин для дополнительной проверки рипа по базе CUETools DB и отправки данных о рипе в эту базу, с генерацией соответствующей записи в логе извлечения.
    Внимание! Если Вы планируете использовать данный плагин только в качестве дополнительного поставщика метаданных, включать его на этой вкладке не нужно.

    Предупреждение пользователям CTDB Plugin

    Если у Вашего рипа, в результате проверки, будут найдены расхождения с данными из базы CUETools DB, в логе извлечения Вы увидите приглашение откорректировать рип в программе CUETools. Ни в коем случае не проводите эту операцию. Рипы изменённые в сторонних программах к размещению на трекере запрещены.

    Содержимое остальных вкладок, не представленных на скриншотах, на на порядок и качество извлечения аудиоданных не влияет.
    3. Закройте программу и запустите снова для того, чтобы все настройки вступили в силу.
    В ниспадающем списке приводов, расположенном под главным меню программы, должен появиться Ваш CD привод (все приводы, если у Вас их несколько). Если привод определился, можно переходить к его настройке - пункту 4. Если этого по какой-то причине не произошло, что бывает в крайне редких случаях, нужно установить внешний интерфейс ASPI.

    Установка внешнего интерфейса

    1. Скачайте интерфейсную библиотеку по адресу ftp://ftp6.ahead.de/wnaspi32.dll и поместите её в корневую папку установки ЕАС.
    2. Нажмите F9, выберите вкладку Интерфейс и установите переключатель как указано на скриншоте.

    3. Сохраните настройки, выйдите из программы и снова запустите её, чтобы настройки вступили в силу.
    4. Нажмите F10 и выполните настройки текущего привода. Если у Вас несколько приводов, настройки нужно будет повторить для каждого из них.

    Параметры дисковода

    Внимание! Настройки выделенные красными прямоугольниками следует соблюдать неукоснительно.



    Внимание! В поле обозначенное красным прямоугольником нужно вписать правильное значение коррекции смещения для выбранного привода.
    Это значение находится по таблице базы AccurateRip - http://www.accuraterip.com/driveoffsets.htm . При поиске этого значения используйте полное наименование модели привода, вплоть до последней буквы. Если Вашего привода нет в таблице, то определить его смещение можно по ключевому диску при настройке ЕАС для работы с базой AccurateRip, как указано в пункте 7 инструкции.
    Примечание. Используйте опцию выделенную синим прямоугольником только если Вы на 100% уверены, что Ваш привод поддерживает чтение обоих экстраобластей - Lead-In и Lead-Out. Неправильное использование опции может привести к ошибкам извлечения.
    -Внимание! Если ЕАС не сможет самостоятельно определить команду чтения, что бывает крайне редко, попробуйте установить команду чтения вручную, например, как указано на скриншоте:

    Но лучший выход в таком случае - сменить привод.
    5. Поскольку раздача несжатых образов на трекере запрещена, нажмите F11, чтобы настроить параметры сжатия Вашего рипа.

    Параметры сжатия


    1. В списке Схемы передачи параметров выбираете "Пользовательский кодировщик".
    2. В поле обозначенное зелёным прямоугольником вписываете расширение файла используемого кодировщика.
    3. Нажимаете кнопку "Обзор" и указываете путь к исполняемому файлу кодировщика (находите исполняемый файл в открывшемся окне проводника).
    4. В поле обозначенное синим прямоугольником вписываете дополнительные параметры командной строки кодировщика.
    Заполняемые данные для некоторых лосслесс кодировщиков:

    FLAC

    Входит в поставку ЕАС, находится в подпапке "Flac" установки программы.
    Последнюю версию можно скачать отсюда - http://flac.sourceforge.net/download.html
    Расширение файла: .flac
    Исполняемый файл: flac.exe
    Необходимые параметры командной строки: -V -8 %source%
    Расширенные параметры командной строки (рекомендуется): -V -8 -T "Date=%year%" -T "Genre=%genre%" %source%

    WavPack

    Скачивают исполняемые файлы кодировщика отсюда - http://www.wavpack.com/downloads.html
    Расширение файла: .wv
    Исполняемый файл: wavpack.exe
    Необходимые параметры командной строки: -hm %source% %dest%
    Расширенные параметры командной строки (рекомендуется): -hm -w "Year=%year%" -w "Genre=%genre%" %source% %dest%

    Monkey's Audio (APE&#41;

    Скачивают установщик отсюда - http://www.monkeysaudio.com/download.html
    Расширение файла: .ape
    Исполняемый файл: MAC.exe
    Параметры командной строки: %source% %dest% -c3000
    -Внимание! В предыдущих версиях ЕАС на вкладке Смещение параметров сжатия была опция "Смещение сжатия". В настоящей версии она отсутствует. Если Вы настраиваете старую версию ЕАС, ни в коем случае не используйте эту опцию.
    6. Для того, чтобы использовать функцию автозаполнения тэгов и закачки мультимедия, нажмите F12 и настройте взаимодействие ЕАС с интернет-базами:

    Параметры метаданных


    Внимание! В поле обозначенное красным прямоугольником следует внести свой e-mail. Если это поле останется незаполненным, Вы не сможете пользоваться функцией поиска информации о диске для автозаполнения тэгов.

    Перебирая поставщиков метаданных в поле выбора, Вы можете настроить дополнительные параметры для каждого из них, если таковые имеются. Да установки дополнительных параметров нажмите кнопку на панели.
    Дополнительные параметры freedb:

    Здесь Вы можете настроить или отключить функции поиска картинок и текстов песен.
    Дополнительные параметры CUETools DB:

    Здесь настраивается глубина поиска информации.
    7. Крайне полезной функцией ЕАС является возможность проверки рипов по базе AccurateRip. По умолчанию эта функция не активна (строка использования функции серого цвета), чтобы активизировать её выполните следующие действия:

    Активация функции проверки рипов по базе AccurateRip

    Для активации этой функции в ЕАС необходимо наличие так называемого ключевого диска (Key Disk). Как только диск, который по мнению ЕАС может являться ключевым, попадает в привод, ЕАС открывает окно приглашения к конфигурированию

    Нажимаете кнопку "Configure" и ждёте результат.
    Если диск не является ключевым, по истечении некоторого времени Вы увидете окно

    Это значит, что попытка не удалась и нужно пробовать следующий диск.
    Если информации о Вашем приводе нет в базе AccurateRip, в лоток привода вставлена лицензионная, пиратская копия оригинального диска, или его копия, записанная на CD-R, то ЕАС попросит вставить ещё несколько (до 3-х) дисков, для определения точного смещения, и Вы увидите окно

    Внимание! Используйте для конфигурирования только оригинальные диски.
    Когда же Вы увидите такое окно

    то вставленный диск является ключевым и ЕАС сконфигурирована для работы с базой AccurateRip.
    После активации функции проверки, вкладка "Смещение и скорость" в настройках привода будет выглядеть следующим образом

    Сводка проверки Вашего рипа по базе AccurateRip будет автоматически добавляться в отчёт снятия.
    Настройка ЕАС завершена.-Снятие точного рипа в формате image+.cue1. Вставьте диск в CD-привод.
    2. Выполните (проверьте) заполнение тэгов для индексной карты CUE

    Заполнение тэгов

    Если на диске присутствует информация в виде CD-текста, тэги Название CD, Артист и Названия треков заполнятся автоматически. Тэги Год издания и Жанр в этом случае нужно будет заполнить вручную. Если на диске нет CD-текста, будет выполнена попытка автоматической загрузки тэгов от интернет-поставщика метаданных.
    Если Вас по какой либо причине не устраивает информация из CD-текста диска, или Вы хотите загрузить дополнительные данные, процедуру автозаполнения тэгов по информации от интернет-поставщиков метаданных можно вызвать вручную, нажав кнопку

    находящуюся на панели управления под списком выбора дисковода.
    При этом на самой кнопке будет присутствовать логотип текущего поставщика метаданных (выбранного последний раз).
    Если Вас этот поставщик не устраивает или не может предоставить данные, вы можете сменить его нажав на чёрный треугольник справа от кнопки:

    Для вызова процедуры автозаполнения тэгов от текущего поставщика метаданных, можно также воспользоваться меню База данных->получить информацию о CD из->сетевой базы поставщика метаданных, или комбинацией клавиш Alt+G.
    Если так случилось, что информации о Вашем диске и в интернет-базах ещё нет - такое бывает со "свежими" дисками - информацию для тэгов нужно заполнить вручную. Поля обязательные для заполнения выделены красными прямоугольниками:

    Если это альбом одного исполнителя и он указан в поле Артист для всего альбома, то поля Исполнитель для каждого трека заполнять не надо - они заполнятся автоматически.
    Заполняйте поля Исполнитель для каждого трека, только если на диске сборник разных исполнителей. При этом в поле Артист альбома желательно указать "Сборник" ("Компиляция") или "Трибьют-альбом" для русскоязычных альбомов, в зависимости от типа конкретного сборника, или "Various Artist" ("Compilation") или "Tribute", для англоязычных альбомов соответственно.
    Будьте внимательны! Не все поставщики метаданных заполняют автоматически все необходимые поля тэгов. В этом случае, Вам также необходимо заполнить недостающие поля вручную.
    Остальные информационные поля (не выделенные красным) при создании рипа образом не используются, но сохраняются в базе данных ЕАС.
    3. Выполните команду меню Действия->Протестировать и скопировать образ, создав индексную карту (Cue Sheet)->в сжатом виде..., как показано на рисунке

    Команда снятия сжатого рипа

    В открывшемся окне проводника выберите папку для сохранения рипа и нажмите OK.
    Внимание! Для снятия рипа настоятельно рекомендуется использовать команду Протестировать и скопировать.
    4. В процессе снятия рипа Вы будете наблюдать окно извлечения аудиоданных. По завершению процедуры снятия окно примет такой вид

    Окно извлечения аудиоданных

    Нажмите кнопку ОК.
    Снятие рипа завершено.
    -
    Примеры листингов правильно снятого рипа

    Лог создания рипа

    Exact Audio Copy V1.0 beta 3 from 29. August 2011
    EAC extraction logfile from 15. October 2011, 13:03
    Manhattan Jazz Quintet / My Funny Valentine
    Used drive : TEAC CD-W524E Adapter: 0 ID: 3
    Read mode : Secure
    Utilize accurate stream : Yes
    Defeat audio cache : Yes
    Make use of C2 pointers : No
    Read offset correction : 686
    Overread into Lead-In and Lead-Out : No
    Fill up missing offset samples with silence : Yes
    Delete leading and trailing silent blocks : No
    Null samples used in CRC calculations : Yes
    Used interface : Native Win32 interface for Win NT & 2000
    Used output format : User Defined Encoder
    Selected bitrate : 128 kBit/s
    Quality : High
    Add ID3 tag : No
    Command line compressor : G:\Program Files\Exact Audio Copy\Encoder\wavpack.exe
    Additional command line options : -hm -w "Year=%year%" -w "Genre=%genre%" %source% %dest%
    TOC of the extracted CD
    Track | Start | Length | Start sector | End sector
    ---------------------------------------------------------
    1 | 0:00.00 | 6:58.50 | 0 | 31399
    2 | 6:58.50 | 9:09.05 | 31400 | 72579
    3 | 16:07.55 | 7:59.05 | 72580 | 108509
    4 | 24:06.60 | 7:26.20 | 108510 | 141979
    5 | 31:33.05 | 7:53.25 | 141980 | 177479
    6 | 39:26.30 | 8:56.67 | 177480 | 217746
    Range status and errors
    Selected range
    Filename F:\WAV\Manhattan Jazz Quintet - My Funny Valentine.wav
    Peak level 100.0 %
    Extraction speed 5.0 X
    Range quality 100.0 %
    Test CRC 04135E17
    Copy CRC 04135E17
    Copy OK
    No errors occurred
    AccurateRip summary
    Track 1 accurately ripped (confidence 3) [AC866C70] (AR v1)
    Track 2 accurately ripped (confidence 3) [CCADD110] (AR v1)
    Track 3 accurately ripped (confidence 3) [D6752C49] (AR v1)
    Track 4 accurately ripped (confidence 3) [05B09156] (AR v1)
    Track 5 accurately ripped (confidence 3) [0CF8667C] (AR v1)
    Track 6 accurately ripped (confidence 3) [8D0C1823] (AR v1)
    All tracks accurately ripped
    End of status report
    ==== Log checksum 19538941844B6C46BA6FBEB00B0DCF00F565A7812BFA6755C75429062F41ABD1 ====

    Содержание индексной карты (.CUE&#41;

    REM GENRE Jazz
    REM DATE 1986
    REM DISCID 5B0B5706
    REM COMMENT "ExactAudioCopy v1.0b3"
    PERFORMER "Manhattan Jazz Quintet"
    TITLE "My Funny Valentine"
    FILE "Manhattan Jazz Quintet - My Funny Valentine.wv" WAVE
    TRACK 01 AUDIO
    TITLE "Mr. P.C."
    PERFORMER "Manhattan Jazz Quintet"
    INDEX 01 00:00:00
    TRACK 02 AUDIO
    TITLE "'Round Midnight"
    PERFORMER "Manhattan Jazz Quintet"
    INDEX 00 06:57:00
    INDEX 01 06:58:50
    TRACK 03 AUDIO
    TITLE "On A Clear Day (You Can See For Ever)"
    PERFORMER "Manhattan Jazz Quintet"
    INDEX 00 16:06:07
    INDEX 01 16:07:55
    TRACK 04 AUDIO
    TITLE "My Funny Valentine"
    PERFORMER "Manhattan Jazz Quintet"
    INDEX 00 24:04:72
    INDEX 01 24:06:60
    TRACK 05 AUDIO
    TITLE "New York State Of Mind"
    PERFORMER "Manhattan Jazz Quintet"
    INDEX 00 31:30:27
    INDEX 01 31:33:05
    TRACK 06 AUDIO
    TITLE "S.U. Blues"
    PERFORMER "Manhattan Jazz Quintet"
    INDEX 01 39:26:30

    -
    Примечание. Рипы образом (image+.cue) по приведенной в данной инструкции методике можно снимать со всех дисков, отвечающих стандарту Audio CD (диски без защиты и со стандартной немодифицированной ТОС), а также со всех типов экстра-CD (ECD, дисков, содержащих медийные данные в качестве бонуса), кроме тех дисков, у которых медийные данные размещены в предзазоре первого трека. Снятие образов с подобных дисков производится по специальной методике, описание которой выходит за рамки настоящей инструкции.
    Цель данной инструкции - помочь начинающим, неподготовленным пользователям правильно настроить программу Exact Audio Copy (в дальнейшем ЕАС) и быстро научиться снимать правильные рипы с аудио CD. Методика снятия рипов образом (image+.cue), описанная в данной инструкции, универсальна и применима в подавляющем большинстве случаев.
     

    Current time is: 08-Dec 08:04

    All times are UTC + 3