Search found 4 matches

Author Message

admin

Post 13-Oct-2017 19:49

[Quote]

Во всем виноват енот / Wakefield
«What would your life be like without you ?»
6.503 / 10 6.60 / 10
- Год выпуска: 2016
Страна: США
Жанр: Драма
Продолжительность: 01:48:41
Перевод: Дублированный (iTunes)
Оригинальная аудиодорожка: Нет
Cубтитры: Нет
Режиссёр: Робин Суикорд
Сценарий: Робин Суикорд
Продюсер: Бонни Кертис, Венди Федерман, Джули Линн
Оператор: Андрей Боуден Шварц
Композитор: Аарон Цигман
Художник: Джаннин Оппуолл, Ким Нго, Дженнифер М. Джентиле
Монтаж: Мэтт Мэддокс
В ролях: Брайан Крэнстон, Йен Энтони Дэйл, Дженнифер Гарнер, Беверли Д’Анджело, Джейсон О’Мара, Пиппа Беннетт-Уорнер, Эллери Спрейберри, Виктория Бруно, Моника Лосон, Исаак Лейва
Сборы в США: $262 599
Сборы в России: $259 098
Мировая премьера: 2 сентября 2016
Премьера (РФ): 6 июля 2017, «Cinema Prestige»
Описание: Говард Уэйкфилд, преуспевающий юрист, верный муж, заботливый отец двух дочерей, однажды круто изменил свою жизнь. Это произошло внезапно, когда он подходил к родному роскошному гнездышку в пригороде Нью-Йорка. Погнавшись за наглым енотом, сидевшим у него на пути, Уэйкфилд оказался на чердаке заброшенного гаража, откуда были видны светящиеся окна его гостиной. Накрыт стол, домочадцы ждут отца. «А что будет, если я пропаду? Будут ли плакать любящие крошки? Быстро ли жена найдет мне замену? Помрут ли они с голоду без моих доходов?» — подумал Говард и решил… остаться жить на чердаке.-Качество исходника: WEB-DL 1080p (HDClub)
Качество: WEB-DL
Тип: HD (1080p)
Контейнер: M4V
Видео: H.264, 1920x804, 2.40:1, 4 569 Kbps, 24.000 fps
Аудио 1: Русский/Дублированный (iTunes), AAC / 2.0 / 160 Kbps / 48.0 KHz
Аудио 2: Русский/Дублированный (iTunes), AC-3 / 5.1 / 384 Kbps / 48.0 KHz
-

iTunes Meta Tags

Sort Name: Wakefield
XID: Apple:vendor_id:2016-945153
contentID: 1250894395
Copyright: © 2016 WAKEFIELD PRODUCTIONS, LLC All rights reserved.
Screenwriters: Робин Суикорд
Producers: Бонни Кертис, Венди Федерман, Джули Линн
Director: Робин Суикорд
Cast: Брайан Крэнстон, Йен Энтони, Дэйл, Дженнифер Гарнер, Беверли Д’Анджело, Джейсон О’Мара, Пиппа Беннетт-Уорнер, Эллери Спрейберри, Виктория Бруно, Моника Лосон, Исаак Лейва
Studio: IFC Films
Rating Annotation: Rated R for some sexual material and language.
Rating: 5
Long Description: Говард Уэйкфилд, преуспевающий юрист, верный муж, заботливый отец двух дочерей, однажды круто изменил свою жизнь. Это произошло внезапно, когда он подходил к родному роскошному гнездышку в пригороде Нью-Йорка. Погнавшись за наглым енотом, сидевшим у него на пути, Уэйкфилд оказался на чердаке заброшенного гаража, откуда были видны светящиеся окна его гостиной. Накрыт стол, домочадцы ждут отца. «А что будет, если я пропаду? Будут ли плакать любящие крошки? Быстро ли жена найдет мне замену? Помрут ли они с голоду без моих доходов?» - подумал Говард и решил… остаться жить на чердаке.
Description: Говард Уэйкфилд, преуспевающий юрист, верный муж, заботливый отец двух дочерей, однажды круто изменил свою жизнь.
Release Date: 2016-09-02T08:00:00Z
Genre: Drama
Artist: Robin Swicord
Name: Wakefield

MediaInfo

General
Complete name : /Users/imac/HandBrake/Wakefield.WEB-DL.1080p.m4v
Format : MPEG-4
Codec ID : M4V
File size : 3.89 GiB
Duration : 1h 48mn
Overall bit rate mode : Variable
Overall bit rate : 5 118 Kbps
Movie name : Wakefield
Performer : Robin Swicord
Director : Робин Суикорд
Actor : Брайан Крэнстон / Йен Энтони / Дэйл / Дженнифер Гарнер / Беверли Д’Анджело / Джейсон О’Мара / Пиппа Беннетт-Уорнер / Эллери Спрейберри / Виктория Бруно / Моника Лосон / Исаак Лейва
Screenplay by : Робин Суикорд
Producer : Бонни Кертис / Венди Федерман / Джули Линн
Production studio : IFC Films
Genre : Drama
ContentType : Short Film
Description : Говард Уэйкфилд, преуспевающий юрист, верный муж, заботливый отец двух дочерей, однажды круто изменил свою жизнь.
Recorded date : UTC 2016-09-02 08:00:00
Encoded date : UTC 2017-08-19 14:31:17
Tagged date : UTC 2017-08-19 14:32:03
Copyright : © 2016 WAKEFIELD PRODUCTIONS, LLC All rights reserved.
Cover : Yes
Rating : None
Title/Sort : Wakefield
LongDescription : Говард Уэйкфилд, преуспевающий юрист, верный муж, заботливый отец двух дочерей, однажды круто изменил свою жизнь. Это произошло внезапно, когда он подходил к родному роскошному гнездышку в пригороде Нью-Йорка. Погнавшись за наглым енотом, сидевшим у него на пути, Уэйкфилд оказался на чердаке заброшенного гаража, откуда были видны светящиеся окна его гостиной. Накрыт стол, домочадцы ждут отца. «А что будет, если я пропаду? Будут ли плакать любящие крошки? Быстро ли жена найдет мне замену? Помрут ли они с голоду без моих доходов?» - подумал Говард и решил… остаться жить на чердаке.
AppleStoreCatalogID : 1250894395
Vendor : Apple:vendor_id:2016-945153
ContentRating : mpaa|R|400|Rated R for some sexual material and language.
Video #1
ID : 1
Format : AVC
Format/Info : Advanced Video Codec
Format profile : High@L4
Format settings, CABAC : Yes
Format settings, ReFrames : 5 frames
Codec ID : avc1
Codec ID/Info : Advanced Video Coding
Duration : 1h 48mn
Bit rate : 4 569 Kbps
Width : 1 920 pixels
Height : 804 pixels
Display aspect ratio : 2.40:1
Frame rate mode : Variable
Frame rate : 24.000 fps
Minimum frame rate : 23.810 fps
Maximum frame rate : 24.390 fps
Color space : YUV
Chroma subsampling : 4:2:0
Bit depth : 8 bits
Scan type : Progressive
Bits/(Pixel*Frame) : 0.123
Stream size : 3.47 GiB (89%)
Title : Main Program
Language : English
Encoded date : UTC 2017-08-19 14:31:17
Tagged date : UTC 2017-08-19 14:31:23
Color range : Limited
Color primaries : BT.709
Transfer characteristics : BT.709
Matrix coefficients : BT.709
Video #2
ID : 5
Format : JPEG
Codec ID : jpeg
Duration : 1h 48mn
Bit rate mode : Variable
Bit rate : 743 bps
Width : 640 pixels
Height : 268 pixels
Display aspect ratio : 2.40:1
Frame rate mode : Variable
Frame rate : 0.003 fps
Minimum frame rate : 0.002 fps
Maximum frame rate : 0.004 fps
Color space : YUV
Chroma subsampling : 4:2:0
Bit depth : 8 bits
Compression mode : Lossy
Bits/(Pixel*Frame) : 1.444
Stream size : 544 KiB (0%)
Title : Chapter Images
Language : English
Encoded date : UTC 2017-08-19 14:31:31
Tagged date : UTC 2017-08-19 14:31:31
Audio #1
ID : 2
Format : AAC
Format/Info : Advanced Audio Codec
Format profile : LC
Codec ID : 40
Duration : 1h 48mn
Bit rate mode : Variable
Bit rate : 157 Kbps
Maximum bit rate : 230 Kbps
Channel(s) : 2 channels
Channel positions : Front: L R
Sampling rate : 48.0 KHz
Compression mode : Lossy
Stream size : 122 MiB (3%)
Title : Russian Stereo
Language : Russian
Encoded date : UTC 2017-08-19 14:31:17
Tagged date : UTC 2017-08-19 14:31:24
Audio #2
ID : 3
Format : AC-3
Format/Info : Audio Coding 3
Mode extension : CM (complete main)
Format settings, Endianness : Big
Codec ID : ac-3
Duration : 1h 48mn
Bit rate mode : Constant
Bit rate : 384 Kbps
Channel(s) : 6 channels
Channel positions : Front: L C R, Side: L R, LFE
Sampling rate : 48.0 KHz
Bit depth : 16 bits
Compression mode : Lossy
Stream size : 299 MiB (8%)
Title : Russian DD 5.1
Language : Russian
Encoded date : UTC 2017-08-19 14:31:17
Tagged date : UTC 2017-08-19 14:31:23
Menu #1
00:00:00.000 : 1
00:07:14.208 : 2
00:12:40.999 : 3
00:19:36.665 : 4
00:26:00.706 : 5
00:31:58.997 : 6
00:37:56.247 : 7
00:42:44.747 : 8
00:48:19.372 : 9
00:56:05.622 : 10
01:02:19.288 : 11
01:06:54.746 : 12
01:12:00.662 : 13
01:17:15.787 : 14
01:22:34.870 : 15
01:27:26.911 : 16
01:34:01.327 : 17
01:38:51.827 : 18
Menu #2
ID : 4
Codec ID : text
Duration : 1h 48mn
Language : English
Encoded date : UTC 2017-08-19 14:31:25
Tagged date : UTC 2017-08-19 14:31:25
00:00:00.000 : 1
00:07:14.208 : 2
00:12:40.999 : 3
00:19:36.665 : 4
00:26:00.706 : 5
00:31:58.997 : 6
00:37:56.247 : 7
00:42:44.747 : 8
00:48:19.372 : 9
00:56:05.622 : 10
01:02:19.288 : 11
01:06:54.746 : 12
01:12:00.662 : 13
01:17:15.787 : 14
01:22:34.870 : 15
01:27:26.911 : 16
01:34:01.327 : 17
01:38:51.827 : 18
Bit rate mode : VBR

Скриншоты

admin

Post 13-Oct-2017 19:47

[Quote]

…А в душе я танцую / Inside I'm Dancing
"Парализуй жизнь" 7.7 / 10 | 8.31 / 10|R
- Год выпуска: 2004
Страна: Великобритания, Ирландия, Франция
Жанр: драма, комедия, мелодрама
Продолжительность: 98 мин.
Перевод: Профессиональный многоголосый закадровый
Оригинальная аудиодорожка: есть
Субтитры: Русские полные, английские полные
Режиссёр: Дэмиен О’Доннелл
Сценарий: Джефри Кейн, Кристиан О’Рейли
Продюсер: Джеймс Флинн, Хуанита Уилсон, Тим Беван
Оператор: Питер Робертсон
Композитор: Дэвид Джульян
Художник: Том Конрой, Стефен Дэйли, Лорна Мари Муган
Монтаж: Фрэнсис Паркер
В ролях: Джеймс МакЭвой, Стивен Робертсон, Ромола Гарай, Джерард МакСорли, Том Хикки, Бренда Фрикер, Алан Кинг, Рут МакКейб, Анна Хили, Сара Джейн Драмми
Сборы в США: $23 844
Мировая премьера: 10 октября 2004
Релиз на DVD: 23 июня 2011, Neoclassica
Описание: Майклу 24 года, и почти всю свою жизнь он провел в доме для инвалидов, куда попал с церебральным параличом. Он знакомится с новым пациентом клиники - Рори О’Ши, которого приковала к инвалидной коляске мышечная атрофия. Как и Майкл, он практически не может передвигаться, но это не мешает Рори по-своему наслаждаться жизнью. Его смелость и безразличие к ударам судьбы становятся отличным примером для Майкла.-Качество исходника: WEB-DL (HDClub)
Качество: WEB-DL
Тип: HD (720p)
Контейнер: M4V
Видео: 1280x544 at 23.976 fps, MPEG-4 AVC, ~4000 kbps avg
Аудио №1: Русский / Многоголосый закадровый, R5 / ААС / 2.0 / 48.0 KHz / 160 kbps
Аудио №2: Русский / Многоголосый закадровый/ ААС / 2.0 / 48.0 KHz / 160 kbps
Аудио №3: Английский / Оригинал / ААС / 2.0 / 48.0 KHz / 165 kbps
Аудио №4: Русский / Многоголосый закадровый, R5 / АС-3 / 5.1 / 48.0 KHz / 448 kbps
Аудио №5: Английский / Оригинал / АС-3 / 5.1 / 48.0 KHz / 384 kbps
Субтитры №1: Русские полные, R5
Субтитры №2: Русские полные
Субтитры №3: Английские полные-

Знаете ли Вы, что...


  • Во время съемок актеры проводили в инвалидных креслах по 12 часов в день.
  • Готовясь к съемкам, актер Джеймс МакЭвой много общался с людьми, у которых мышечная дистрофия Дюшенна. Он выяснил, что они предпочитают, чтобы их вообще не замечали — только бы не жалели.
  • Джеймс МакЭвой хотел пробоваться на роль Майкла, но после совместного прослушивания с шотландским актером Стивеном Робертсоном понял, что тот больше подходит на эту роль.
  • Фильм основан на рассказе ирландского писателя Кристиана О’Рейли (Christian O’Reilly), который сам работал в дублинском Центре по предоставлению права на самостоятельное проживание, где познакомился с Дермотом Уолшем (Dermot Walsh), у которого был церебральный паралич.

-

iTunes Meta Tags for country DE

Name: Inside I'm Dancing
Artist: Damien O'Donnell
Genre: Comedy
Release Date: 2004-10-10T00:00:00Z
Description: Майклу 24 года, и почти всю свою жизнь он провел в доме для инвалидов, куда попал с церебральным параличом. Он знакомится с новым пациентом клиники - Рори О’Ши, которого приковала к инвалидной коляске мышечная атрофия.
Long Description: Майклу 24 года, и почти всю свою жизнь он провел в доме для инвалидов, куда попал с церебральным параличом. Он знакомится с новым пациентом клиники - Рори О’Ши, которого приковала к инвалидной коляске мышечная атрофия. Как и Майкл, он практически не может передвигаться, но это не мешает Рори по-своему наслаждаться жизнью. Его смелость и безразличие к ударам судьбы становятся отличным примером для Майкла.
Rating: Ab 6 Jahren
Rating Annotation: n/a
Studio: Focus Features
Cast: Джеймс МакЭвой, Стивен Робертсон, Ромола Гарай, Джерард МакСорли, Том Хикки, Бренда Фрикер, Алан Кинг, Рут МакКейб, Анна Хили, Сара Джейн Драмми
Director: Дэмиен О’Доннелл
Producers: Джеймс Флинн, Хуанита Уилсон, Тим Беван
Screenwriters: Джефри Кейн, Кристиан О’Рейли
Copyright: © 2005 Focus Features, LLC. All Rights Reserved.
contentID: 453375270
XID: Apple:vendor_id:2004-84014
Sort Name: Inside I'm Dancing

MediaInfo

Формат : MPEG-4
Идентификатор кодека : M4V
Размер файла : 3,89 Гбайт
Продолжительность : 1 ч. 44 м.
Режим общего битрейта : Переменный
Общий поток : 5354 Кбит/сек
Название фильма : Inside I'm Dancing
Исполнитель : Damien O'Donnell
Жанр : Comedy
Дата записи : UTC 2004-10-10 08:00:00
Дата кодирования : UTC 2013-10-18 05:18:43
Дата пометки : UTC 2013-10-18 05:45:53
Правообладатель : © 2005 Focus Features, LLC. All Rights Reserved.
Обложка : Yes
sonm : Inside I'm Dancing
desc : Майклу 24 года, и почти всю свою жизнь он провел в доме для инвалидов, куда попал с церебральным параличом. Он знакомится с новым пациентом клиники - Рори О’Ши, которого приковала к инвалидной коляске мышечная атрофия.
ldes : Майклу 24 года, и почти всю свою жизнь он провел в доме для инвалидов, куда попал с церебральным параличом. Он знакомится с новым пациентом клиники - Рори О’Ши, которого приковала к инвалидной коляске мышечная атрофия. Как и Майкл, он практически не может передвигаться, но это не мешает Рори по-своему наслаждаться жизнью. Его смелость и безразличие к ударам судьбы становятся отличным примером для Майкла.
hdvd : 1
stik : 9
rtng : 0
cnID : 453375270
xid : Apple:vendor_id:2004-84014
iTunEXTC : de-movie|ab 6 Jahren|100|
iTunMOVI : <?xml version="1.0" encoding="UTF-8"?> / <!DOCTYPE plist PUBLIC "-//Apple//DTD PLIST 1.0//EN" "http://www.apple.com/DTDs/PropertyList-1.0.dtd"> / <plist version="1.0"> / <dict> /  <key>cast</key> /  <array> /   <dict> /    <key>name</key> /    <string>Джеймс МакЭвой</string> /   </dict> /   <dict> /    <key>name</key> /    <string>Стивен Робертсон</string> /   </dict> /   <dict> /    <key>name</key> /    <string>Ромола Гарай</string> /   </dict> /   <dict> /    <key>name</key> /    <string>Джерард МакСорли</string> /   </dict> /   <dict> /    <key>name</key> /    <string>Том Хикки</string> /   </dict> /   <dict> /    <key>name</key> /    <string>Бренда Фрикер</string> /   </dict> /   <dict> /    <key>name</key> /    <string>Алан Кинг</string> /   </dict> /   <dict> /    <key>name</key> /    <string>Рут МакКейб</string> /   </dict> /   <dict> /    <key>name</key> /    <string>Анна Хили</string> /   </dict> /   <dict> /    <key>name</key> /    <string>Сара Джейн Драмми</string> /   </dict> /  </array> /  <key>directors</key> /  <array> /   <dict> /    <key>name</key> /    <string>Дэмиен О’Доннелл</string> /   </dict> /  </array> /  <key>producers</key> /  <array> /   <dict> /    <key>name</key> /    <string>Джеймс Флинн</string> /   </dict> /   <dict> /    <key>name</key> /    <string>Хуанита Уилсон</string> /   </dict> /   <dict> /    <key>name</key> /    <string>Тим Беван</string> /   </dict> /  </array> /  <key>screenwriters</key> /  <array> /   <dict> /    <key>name</key> /    <string>Джефри Кейн</string> /   </dict> /   <dict> /    <key>name</key> /    <string>Кристиан О’Рейли</string> /   </dict> /  </array> /  <key>studio</key> /  <string>Focus Features</string> / </dict> / </plist>
Видео #1
Идентификатор : 1
Формат : AVC
Формат/Информация : Advanced Video Codec
Профиль формата : Main@L3.1
Параметр CABAC формата : Нет
Параметр ReFrames формата : 2 кадра
Идентификатор кодека : avc1
Идентификатор кодека/Информация : Advanced Video Coding
Продолжительность : 1 ч. 44 м.
Вид битрейта : Переменный
Битрейт : 4003 Кбит/сек
Ширина : 1280 пикселей
Высота : 544 пикселя
Соотношение сторон : 2,35:1
Режим частоты кадров : Переменный
Частота кадров : 23,976 кадра/сек
Минимальная частота кадров : 23,810 кадра/сек
Максимальная частота кадров : 24,390 кадра/сек
Цветовое пространство : YUV
Субдискретизация насыщенности : 4:2:0
Битовая глубина : 8 бит
Тип развёртки : Прогрессивная
Бит/(Пиксели*Кадры) : 0.240
Размер потока : 2,91 Гбайт (75%)
Язык : English
Дата кодирования : UTC 2013-10-18 05:18:43
Дата пометки : UTC 2013-10-18 05:24:39
Основные цвета : BT.709
Характеристики трансфера : BT.709
Коэффициенты матрицы : BT.709
Видео #2
Идентификатор : 11
Формат : JPEG
Идентификатор кодека : jpeg
Продолжительность : 1 ч. 44 м.
Вид битрейта : Переменный
Битрейт : 975 бит/сек
Ширина : 640 пикселей
Высота : 272 пикселя
Соотношение сторон : 2,35:1
Режим частоты кадров : Переменный
Частота кадров : 0,003 кадр/сек
Минимальная частота кадров : 0,002 кадр/сек
Максимальная частота кадров : 0,006 кадр/сек
Цветовое пространство : YUV
Субдискретизация насыщенности : 4:2:0
Битовая глубина : 8 бит
Метод сжатия : С потерями
Бит/(Пиксели*Кадры) : 1.867
Размер потока : 793 Кбайт (0%)
Язык : English
Дата кодирования : UTC 2013-10-18 05:26:42
Дата пометки : UTC 2013-10-18 05:26:43
Аудио #1
Идентификатор : 2
Формат : AAC
Формат/Информация : Advanced Audio Codec
Профиль формата : LC
Идентификатор кодека : 40
Продолжительность : 1 ч. 44 м.
Вид битрейта : Переменный
Битрейт : 165 Кбит/сек
Максимальный битрейт : 266 Кбит/сек
Каналы : 2 канала
Расположение каналов : Front: L R
Частота : 48,0 КГц
Метод сжатия : С потерями
Задержка видео : 42 мс.
Размер потока : 122 Мбайт (3%)
Язык : Russian
Дата кодирования : UTC 2013-10-18 05:18:43
Дата пометки : UTC 2013-10-18 05:18:58
Аудио #2
Идентификатор : 3
Формат : AAC
Формат/Информация : Advanced Audio Codec
Профиль формата : LC
Идентификатор кодека : 40
Продолжительность : 1 ч. 44 м.
Вид битрейта : Переменный
Битрейт : 164 Кбит/сек
Максимальный битрейт : 257 Кбит/сек
Каналы : 2 канала
Расположение каналов : Front: L R
Частота : 48,0 КГц
Метод сжатия : С потерями
Задержка видео : 42 мс.
Размер потока : 122 Мбайт (3%)
Язык : Russian
Дата кодирования : UTC 2013-10-18 05:18:43
Дата пометки : UTC 2013-10-18 05:24:53
Аудио #3
Идентификатор : 4
Формат : AAC
Формат/Информация : Advanced Audio Codec
Профиль формата : LC
Идентификатор кодека : 40
Продолжительность : 1 ч. 44 м.
Вид битрейта : Переменный
Битрейт : 164 Кбит/сек
Максимальный битрейт : 265 Кбит/сек
Каналы : 2 канала
Расположение каналов : Front: L R
Частота : 48,0 КГц
Метод сжатия : С потерями
Задержка видео : 42 мс.
Размер потока : 122 Мбайт (3%)
Язык : English
Дата кодирования : UTC 2013-10-18 05:18:43
Дата пометки : UTC 2013-10-18 05:25:07
Аудио #4
Идентификатор : 5
Формат : AC-3
Формат/Информация : Audio Coding 3
Расширение режима : CM (complete main)
Параметр Endianness формата : Big
Идентификатор кодека : ac-3
Продолжительность : 1 ч. 44 м.
Вид битрейта : Постоянный
Битрейт : 448 Кбит/сек
Каналы : 6 каналов
Расположение каналов : Front: L C R, Side: L R, LFE
Частота : 48,0 КГц
Битовая глубина : 16 бит
Метод сжатия : С потерями
Задержка видео : 42 мс.
Размер потока : 333 Мбайт (8%)
Язык : Russian
Дата кодирования : UTC 2013-10-18 05:18:43
Дата пометки : UTC 2013-10-18 05:24:39
Аудио #5
Идентификатор : 6
Формат : AC-3
Формат/Информация : Audio Coding 3
Расширение режима : CM (complete main)
Параметр Endianness формата : Big
Идентификатор кодека : ac-3
Продолжительность : 1 ч. 44 м.
Вид битрейта : Постоянный
Битрейт : 384 Кбит/сек
Каналы : 6 каналов
Расположение каналов : Front: L C R, Side: L R, LFE
Частота : 48,0 КГц
Битовая глубина : 16 бит
Метод сжатия : С потерями
Задержка видео : 42 мс.
Размер потока : 286 Мбайт (7%)
Язык : English
Дата кодирования : UTC 2013-10-18 05:18:43
Дата пометки : UTC 2013-10-18 05:24:39
Текст #1
Идентификатор : 7
Формат : Timed Text
Режим смешивания : sbtl
Идентификатор кодека : tx3g
Продолжительность : 1 ч. 41 м.
Вид битрейта : Переменный
Битрейт : 75 бит/сек
Задержка видео : 42 мс.
Размер потока : 55,8 Кбайт (0%)
Язык : Russian
Дата кодирования : UTC 2013-10-18 05:18:43
Дата пометки : UTC 2013-10-18 05:24:39
Текст #2
Идентификатор : 8
Формат : Timed Text
Режим смешивания : sbtl
Идентификатор кодека : tx3g
Продолжительность : 1 ч. 40 м.
Вид битрейта : Переменный
Битрейт : 74 бит/сек
Задержка видео : 42 мс.
Размер потока : 54,5 Кбайт (0%)
Язык : Russian
Дата кодирования : UTC 2013-10-18 05:18:43
Дата пометки : UTC 2013-10-18 05:24:39
Текст #3
Идентификатор : 9
Формат : Timed Text
Режим смешивания : sbtl
Идентификатор кодека : tx3g
Продолжительность : 1 ч. 39 м.
Вид битрейта : Переменный
Битрейт : 47 бит/сек
Задержка видео : 42 мс.
Размер потока : 34,0 Кбайт (0%)
Язык : English
Дата кодирования : UTC 2013-10-18 05:18:43
Дата пометки : UTC 2013-10-18 05:24:39
Меню #1
00:00:00.000 : Chapter 1
00:03:06.000 : Chapter 2
00:07:23.000 : Chapter 3
00:14:20.000 : Chapter 4
00:17:56.000 : Chapter 5
00:23:31.000 : Chapter 6
00:29:18.000 : Chapter 7
00:32:15.000 : Chapter 8
00:36:39.000 : Chapter 9
00:42:50.000 : Chapter 10
00:45:41.000 : Chapter 11
00:52:22.000 : Chapter 12
00:56:34.000 : Chapter 13
01:03:44.000 : Chapter 14
01:10:59.000 : Chapter 15
01:18:27.000 : Chapter 16
01:25:02.000 : Chapter 17
01:32:36.000 : Chapter 18
01:36:15.000 : Chapter 19
01:40:25.000 : Chapter 20

Скриншоты

, ,

admin

Post 13-Oct-2017 19:33

[Quote]

Человек-паук: Возвращение домой / Spider-Man: Homecoming
«Homework can wait. The city can't»
7.080 / 10 8.00 / 10
- Год выпуска: 2017
Страна: США
Жанр: Фантастика, боевик, приключения
Продолжительность: 02:13:26
Перевод: Дублированный (iTunes)
Оригинальная аудиодорожка: Есть
Cубтитры: Русские форсированные, Английские форсированные, Украинские форсированные, Русские, Английские, Украинские
Режиссёр: Джон Уоттс
Сценарий: Джонатан М. Голдштейн, Джон Фрэнсис Дейли, Джон Уоттс
Продюсер: Виктория Алонсо, Ави Арад, Митчелл Белл
Оператор: Сальваторе Тотино
Композитор: Майкл Джаккино
Художник: Оливер Шолль, Лорен Абиунесс, Одра Эйвери
Монтаж: Дэбби Берман, Дэн Лебентал
В ролях: Том Холланд, Роберт Дауни мл., Майкл Китон, Мариса Томей, Джон Фавро, Джейкоб Баталон, Зендея, Лора Хэрриер, Тони Револори, Дональд Гловер
Бюджет: $175 000 000
Сборы в США: $332 003 538
Сборы в мире: + $542 403 493 = $874 407 031
Сборы в России: $17 154 063
Мировая премьера: 28 июня 2017
Премьера (РФ): 6 июля 2017, «WDSSPR»
Описание: После исторической встречи с командой Мстителей Питер Паркер возвращается домой, стараясь зажить обычной жизнью под опекой своей тёти Мэй. Но теперь за Питером приглядывает ещё кое-что… Тони Старк видел Человека-Паука в деле и должен стать его наставником. Когда новый злодей Стервятник угрожает уничтожить всё, что дорого Питеру, приходит время доказать всем, что такое настоящий супергерой.-Качество исходника: WEB-DL 1080p (NNMClub)
Качество: WEB-DL
Тип: HD (1080p)
Контейнер: M4V
Видео: H.264, 1920x800, 2.40:1, 4 522 Kbps, 23.976 fps
Аудио 1: Русский/Дублированный (iTunes), AAC / 2.0 / 160 Kbps / 48.0 KHz
Аудио 2: Английский/Оригинальная дорожка , AAC / 2.0 / 160 Kbps / 48.0 KHz
Аудио 3: Украинский/Дублированный (iTunes), AAC / 2.0 / 160 Kbps / 48.0 KHz
Аудио 4: Русский/Дублированный (iTunes), AC-3 / 5.1 / 384 Kbps / 48.0 KHz
Аудио 5: Английский/Оригинальная дорожка , AC-3 / 5.1 / 384 Kbps / 48.0 KHz
Субтитры 1: Русские форсированные
Субтитры 2: Английские форсированные
Субтитры 3: Украинские форсированные
Субтитры 4: Русские полные
Субтитры 5: Английские полные
Субтитры 6: Украинские полные
-

iTunes Meta Tags

Sort Name: Spider-Man: Homecoming
XID: Apple:vendor_id:2017-690593
contentID: 1243195844
Screenwriters: Джонатан М. Голдштейн, Джон Фрэнсис Дейли, Джон Уоттс
Producers: Виктория Алонсо, Ави Арад, Митчелл Белл
Director: Джон Уоттс
Cast: Том Холланд, Роберт Дауни мл., Майкл Китон, Мариса Томей, Джон Фавро, Джейкоб Баталон, Зендея, Лора Хэрриер, Тони Револори, Дональд Гловер
Studio: Columbia Pictures
Rating Annotation: Rated PG-13 for sci-fi action violence, some language and brief suggestive comments.
Rating: 4
Long Description: После исторической встречи с командой Мстителей Питер Паркер возвращается домой, стараясь зажить обычной жизнью под опекой своей тёти Мэй. Но теперь за Питером приглядывает ещё кое-что… Тони Старк видел Человека-Паука в деле и должен стать его наставником. Когда новый злодей Стервятник угрожает уничтожить всё, что дорого Питеру, приходит время доказать всем, что такое настоящий супергерой.
Description: После исторической встречи с командой Мстителей Питер Паркер возвращается домой, стараясь зажить обычной жизнью под опекой своей тёти Мэй. Но теперь за Питером приглядывает ещё кое-что…
Release Date: 2017-06-28T08:00:00Z
Genre: Action & Adventure
Artist: Jon Watts
Name: Spider-Man: Homecoming

MediaInfo

General
Complete name : /Users/imac/HandBrake/Spider.Man.Homecoming.WEB-DL.1080p.m4v
Format : MPEG-4
Codec ID : M4V
File size : 5.38 GiB
Duration : 2h 13mn
Overall bit rate mode : Variable
Overall bit rate : 5 772 Kbps
Movie name : Spider-Man: Homecoming
Performer : Jon Watts
Director : Джон Уоттс
Actor : Том Холланд / Роберт Дауни мл. / Майкл Китон / Мариса Томей / Джон Фавро / Джейкоб Баталон / Зендея / Лора Хэрриер / Тони Револори / Дональд Гловер
Screenplay by : Джонатан М. Голдштейн / Джон Фрэнсис Дейли / Джон Уоттс
Producer : Виктория Алонсо / Ави Арад / Митчелл Белл
Production studio : Columbia Pictures
Genre : Action & Adventure
ContentType : Short Film
Description : После исторической встречи с командой Мстителей Питер Паркер возвращается домой, стараясь зажить обычной жизнью под опекой своей тёти Мэй. Но теперь за Питером приглядывает ещё кое-что…
Recorded date : UTC 2017-06-28 08:00:00
Encoded date : UTC 2017-09-29 15:33:26
Tagged date : UTC 2017-09-29 16:15:57
Cover : Yes
Rating : None
Title/Sort : Spider-Man: Homecoming
LongDescription : После исторической встречи с командой Мстителей Питер Паркер возвращается домой, стараясь зажить обычной жизнью под опекой своей тёти Мэй. Но теперь за Питером приглядывает ещё кое-что… Тони Старк видел Человека-Паука в деле и должен стать его наставником. Когда новый злодей Стервятник угрожает уничтожить всё, что дорого Питеру, приходит время доказать всем, что такое настоящий супергерой.
AppleStoreCatalogID : 1243195844
Vendor : Apple:vendor_id:2017-690593
ContentRating : mpaa|PG-13|300|Rated PG-13 for sci-fi action violence, some language and brief suggestive comments.
Video #1
ID : 1
Format : AVC
Format/Info : Advanced Video Codec
Format profile : High@L4
Format settings, CABAC : Yes
Format settings, ReFrames : 5 frames
Codec ID : avc1
Codec ID/Info : Advanced Video Coding
Duration : 2h 13mn
Bit rate : 4 522 Kbps
Width : 1 920 pixels
Height : 800 pixels
Display aspect ratio : 2.40:1
Frame rate mode : Variable
Frame rate : 23.976 fps
Minimum frame rate : 23.810 fps
Maximum frame rate : 24.390 fps
Color space : YUV
Chroma subsampling : 4:2:0
Bit depth : 8 bits
Scan type : Progressive
Bits/(Pixel*Frame) : 0.123
Stream size : 4.21 GiB (78%)
Title : Main Program
Language : English
Encoded date : UTC 2017-09-29 15:33:26
Tagged date : UTC 2017-09-29 15:33:37
Color range : Limited
Color primaries : BT.709
Transfer characteristics : BT.709
Matrix coefficients : BT.709
Video #2
ID : 15
Format : JPEG
Codec ID : jpeg
Duration : 2h 13mn
Bit rate mode : Variable
Bit rate : 621 bps
Width : 640 pixels
Height : 266 pixels
Display aspect ratio : 2.40:1
Frame rate mode : Variable
Frame rate : 0.002 fps
Minimum frame rate : 0.001 fps
Maximum frame rate : 0.003 fps
Color space : YUV
Chroma subsampling : 4:2:0
Bit depth : 8 bits
Compression mode : Lossy
Bits/(Pixel*Frame) : 1.824
Stream size : 606 KiB (0%)
Title : Chapter Images
Language : English
Encoded date : UTC 2017-09-29 15:33:45
Tagged date : UTC 2017-09-29 15:33:45
Audio #1
ID : 2
Format : AAC
Format/Info : Advanced Audio Codec
Format profile : LC
Codec ID : 40
Duration : 2h 13mn
Bit rate mode : Variable
Bit rate : 157 Kbps
Maximum bit rate : 238 Kbps
Channel(s) : 2 channels
Channel positions : Front: L R
Sampling rate : 48.0 KHz
Compression mode : Lossy
Stream size : 150 MiB (3%)
Title : Russian Stereo
Language : Russian
Encoded date : UTC 2017-09-29 15:33:26
Tagged date : UTC 2017-09-29 15:33:39
Audio #2
ID : 3
Format : AAC
Format/Info : Advanced Audio Codec
Format profile : LC
Codec ID : 40
Duration : 2h 13mn
Bit rate mode : Variable
Bit rate : 157 Kbps
Maximum bit rate : 236 Kbps
Channel(s) : 2 channels
Channel positions : Front: L R
Sampling rate : 48.0 KHz
Compression mode : Lossy
Stream size : 150 MiB (3%)
Title : English Stereo
Language : English
Encoded date : UTC 2017-09-29 15:33:26
Tagged date : UTC 2017-09-29 15:33:39
Audio #3
ID : 4
Format : AAC
Format/Info : Advanced Audio Codec
Format profile : LC
Codec ID : 40
Duration : 2h 13mn
Bit rate mode : Variable
Bit rate : 156 Kbps
Maximum bit rate : 228 Kbps
Channel(s) : 2 channels
Channel positions : Front: L R
Sampling rate : 48.0 KHz
Compression mode : Lossy
Stream size : 149 MiB (3%)
Title : Ukrainian Stereo
Language : Ukrainian
Encoded date : UTC 2017-09-29 15:33:26
Tagged date : UTC 2017-09-29 15:33:39
Audio #4
ID : 5
Format : AC-3
Format/Info : Audio Coding 3
Mode extension : CM (complete main)
Format settings, Endianness : Big
Codec ID : ac-3
Duration : 2h 13mn
Bit rate mode : Constant
Bit rate : 384 Kbps
Channel(s) : 6 channels
Channel positions : Front: L C R, Side: L R, LFE
Sampling rate : 48.0 KHz
Bit depth : 16 bits
Compression mode : Lossy
Stream size : 367 MiB (7%)
Title : Russian DD 5.1
Language : Russian
Encoded date : UTC 2017-09-29 15:33:26
Tagged date : UTC 2017-09-29 15:33:37
Audio #5
ID : 6
Format : AC-3
Format/Info : Audio Coding 3
Mode extension : CM (complete main)
Format settings, Endianness : Big
Codec ID : ac-3
Duration : 2h 13mn
Bit rate mode : Constant
Bit rate : 384 Kbps
Channel(s) : 6 channels
Channel positions : Front: L C R, Side: L R, LFE
Sampling rate : 48.0 KHz
Bit depth : 16 bits
Compression mode : Lossy
Stream size : 367 MiB (7%)
Title : English DD 5.1
Language : English
Encoded date : UTC 2017-09-29 15:33:26
Tagged date : UTC 2017-09-29 15:33:37
Text #1
ID : 8
Format : Timed Text
Muxing mode : sbtl
Codec ID : tx3g
Duration : 2h 13mn
Bit rate mode : Variable
Bit rate : 1 bps
Stream size : 885 Bytes (0%)
Title : Russian forced
Language : Russian
Encoded date : UTC 2017-09-29 15:33:26
Tagged date : UTC 2017-09-29 15:33:37
Text #2
ID : 9
Format : Timed Text
Muxing mode : sbtl
Codec ID : tx3g
Duration : 14mn 58s
Bit rate mode : Variable
Bit rate : 1 bps
Stream size : 59.0 Bytes (0%)
Title : English forced
Language : English
Encoded date : UTC 2017-09-29 15:33:26
Tagged date : UTC 2017-09-29 15:33:37
Text #3
ID : 10
Format : Timed Text
Muxing mode : sbtl
Codec ID : tx3g
Duration : 2h 13mn
Bit rate mode : Variable
Bit rate : 15 bps
Stream size : 14.5 KiB (0%)
Title : Ukrainian forced
Language : Ukrainian
Encoded date : UTC 2017-09-29 15:33:26
Tagged date : UTC 2017-09-29 15:33:37
Text #4
ID : 11
Format : Timed Text
Muxing mode : sbtl
Codec ID : tx3g
Duration : 2h 13mn
Bit rate mode : Variable
Bit rate : 114 bps
Stream size : 111 KiB (0%)
Title : Russian full
Language : Russian
Encoded date : UTC 2017-09-29 15:33:26
Tagged date : UTC 2017-09-29 15:33:37
Text #5
ID : 12
Format : Timed Text
Muxing mode : sbtl
Codec ID : tx3g
Duration : 2h 13mn
Bit rate mode : Variable
Bit rate : 73 bps
Stream size : 71.5 KiB (0%)
Title : English full
Language : English
Encoded date : UTC 2017-09-29 15:33:26
Tagged date : UTC 2017-09-29 15:33:37
Text #6
ID : 13
Format : Timed Text
Muxing mode : sbtl
Codec ID : tx3g
Duration : 2h 13mn
Bit rate mode : Variable
Bit rate : 104 bps
Stream size : 102 KiB (0%)
Title : Ukrainian full
Language : Ukrainian
Encoded date : UTC 2017-09-29 15:33:26
Tagged date : UTC 2017-09-29 15:33:37
Menu #1
00:00:00.000 : 1
00:05:33.083 : 2
00:14:23.279 : 3
00:20:49.999 : 4
00:26:18.243 : 5
00:36:26.976 : 6
00:46:02.926 : 7
00:54:39.192 : 8
01:05:09.280 : 9
01:12:02.276 : 10
01:20:19.189 : 11
01:29:40.542 : 12
01:36:55.894 : 13
01:44:43.152 : 14
01:50:30.249 : 15
01:57:52.566 : 16
Menu #2
ID : 14
Codec ID : text
Duration : 2h 13mn
Language : English
Encoded date : UTC 2017-09-29 15:33:39
Tagged date : UTC 2017-09-29 15:33:39
00:00:00.000 : 1
00:05:33.083 : 2
00:14:23.279 : 3
00:20:49.999 : 4
00:26:18.243 : 5
00:36:26.976 : 6
00:46:02.926 : 7
00:54:39.192 : 8
01:05:09.280 : 9
01:12:02.276 : 10
01:20:19.189 : 11
01:29:40.542 : 12
01:36:55.894 : 13
01:44:43.152 : 14
01:50:30.249 : 15
01:57:52.566 : 16
Bit rate mode : VBR

Скриншоты

admin

Post 13-Oct-2017 19:30

[Quote]

Человек-паук: Возвращение домой / Spider-Man: Homecoming
«Homework can wait. The city can't»
7.080 / 10 8.00 / 10
- Год выпуска: 2017
Страна: США
Жанр: Фантастика, боевик, приключения
Продолжительность: 02:13:26
Перевод: Дублированный (iTunes)
Оригинальная аудиодорожка: Есть
Cубтитры: Русские форсированные, Английские форсированные, Украинские форсированные, Русские, Английские, Украинские
Режиссёр: Джон Уоттс
Сценарий: Джонатан М. Голдштейн, Джон Фрэнсис Дейли, Джон Уоттс
Продюсер: Виктория Алонсо, Ави Арад, Митчелл Белл
Оператор: Сальваторе Тотино
Композитор: Майкл Джаккино
Художник: Оливер Шолль, Лорен Абиунесс, Одра Эйвери
Монтаж: Дэбби Берман, Дэн Лебентал
В ролях: Том Холланд, Роберт Дауни мл., Майкл Китон, Мариса Томей, Джон Фавро, Джейкоб Баталон, Зендея, Лора Хэрриер, Тони Револори, Дональд Гловер
Бюджет: $175 000 000
Сборы в США: $332 003 538
Сборы в мире: + $542 403 493 = $874 407 031
Сборы в России: $17 154 063
Мировая премьера: 28 июня 2017
Премьера (РФ): 6 июля 2017, «WDSSPR»
Описание: После исторической встречи с командой Мстителей Питер Паркер возвращается домой, стараясь зажить обычной жизнью под опекой своей тёти Мэй. Но теперь за Питером приглядывает ещё кое-что… Тони Старк видел Человека-Паука в деле и должен стать его наставником. Когда новый злодей Стервятник угрожает уничтожить всё, что дорого Питеру, приходит время доказать всем, что такое настоящий супергерой.-Качество исходника: WEB-DL 720p (NNMClub)
Качество: WEB-DL
Тип: HD (720p)
Контейнер: M4V
Видео: H.264, 1280x532, 2.40:1, 4 021 Kbps, 23.976 fps
Аудио 1: Русский/Дублированный (iTunes), AAC / 2.0 / 160 Kbps / 48.0 KHz
Аудио 2: Английский/Оригинальная дорожка , AAC / 2.0 / 160 Kbps / 48.0 KHz
Аудио 3: Украинский/Дублированный (iTunes), AAC / 2.0 / 160 Kbps / 48.0 KHz
Аудио 4: Русский/Дублированный (iTunes), AC-3 / 5.1 / 384 Kbps / 48.0 KHz
Аудио 5: Английский/Оригинальная дорожка , AC-3 / 5.1 / 384 Kbps / 48.0 KHz
Субтитры 1: Русские форсированные
Субтитры 2: Английские форсированные
Субтитры 3: Украинские форсированные
Субтитры 4: Русские полные
Субтитры 5: Английские полные
Субтитры 6: Украинские полные
-

iTunes Meta Tags

Sort Name: Spider-Man: Homecoming
XID: Apple:vendor_id:2017-690593
contentID: 1243195844
Screenwriters: Джонатан М. Голдштейн, Джон Фрэнсис Дейли, Джон Уоттс
Producers: Виктория Алонсо, Ави Арад, Митчелл Белл
Director: Джон Уоттс
Cast: Том Холланд, Роберт Дауни мл., Майкл Китон, Мариса Томей, Джон Фавро, Джейкоб Баталон, Зендея, Лора Хэрриер, Тони Револори, Дональд Гловер
Studio: Columbia Pictures
Rating Annotation: Rated PG-13 for sci-fi action violence, some language and brief suggestive comments.
Rating: 4
Long Description: После исторической встречи с командой Мстителей Питер Паркер возвращается домой, стараясь зажить обычной жизнью под опекой своей тёти Мэй. Но теперь за Питером приглядывает ещё кое-что… Тони Старк видел Человека-Паука в деле и должен стать его наставником. Когда новый злодей Стервятник угрожает уничтожить всё, что дорого Питеру, приходит время доказать всем, что такое настоящий супергерой.
Description: После исторической встречи с командой Мстителей Питер Паркер возвращается домой, стараясь зажить обычной жизнью под опекой своей тёти Мэй. Но теперь за Питером приглядывает ещё кое-что…
Release Date: 2017-06-28T08:00:00Z
Genre: Action & Adventure
Artist: Jon Watts
Name: Spider-Man: Homecoming

MediaInfo

General
Complete name : /Users/imac/HandBrake/Spider.Man.Homecoming.WEB-DL.720p.m4v
Format : MPEG-4
Codec ID : M4V
File size : 4.91 GiB
Duration : 2h 13mn
Overall bit rate mode : Variable
Overall bit rate : 5 271 Kbps
Movie name : Spider-Man: Homecoming
Performer : Jon Watts
Director : Джон Уоттс
Actor : Том Холланд / Роберт Дауни мл. / Майкл Китон / Мариса Томей / Джон Фавро / Джейкоб Баталон / Зендея / Лора Хэрриер / Тони Револори / Дональд Гловер
Screenplay by : Джонатан М. Голдштейн / Джон Фрэнсис Дейли / Джон Уоттс
Producer : Виктория Алонсо / Ави Арад / Митчелл Белл
Production studio : Columbia Pictures
Genre : Action & Adventure
ContentType : Short Film
Description : После исторической встречи с командой Мстителей Питер Паркер возвращается домой, стараясь зажить обычной жизнью под опекой своей тёти Мэй. Но теперь за Питером приглядывает ещё кое-что…
Recorded date : UTC 2017-06-28 08:00:00
Encoded date : UTC 2017-09-29 16:56:18
Tagged date : UTC 2017-09-29 22:27:01
Cover : Yes
Rating : None
Title/Sort : Spider-Man: Homecoming
LongDescription : После исторической встречи с командой Мстителей Питер Паркер возвращается домой, стараясь зажить обычной жизнью под опекой своей тёти Мэй. Но теперь за Питером приглядывает ещё кое-что… Тони Старк видел Человека-Паука в деле и должен стать его наставником. Когда новый злодей Стервятник угрожает уничтожить всё, что дорого Питеру, приходит время доказать всем, что такое настоящий супергерой.
HDVideo : Yes
AppleStoreCatalogID : 1243195844
Vendor : Apple:vendor_id:2017-690593
ContentRating : mpaa|PG-13|300|Rated PG-13 for sci-fi action violence, some language and brief suggestive comments.
Video #1
ID : 1
Format : AVC
Format/Info : Advanced Video Codec
Format profile : Main@L3.1
Format settings, CABAC : No
Format settings, ReFrames : 2 frames
Codec ID : avc1
Codec ID/Info : Advanced Video Coding
Duration : 2h 13mn
Bit rate : 4 021 Kbps
Width : 1 280 pixels
Height : 532 pixels
Display aspect ratio : 2.40:1
Frame rate mode : Variable
Frame rate : 23.976 fps
Minimum frame rate : 23.810 fps
Maximum frame rate : 24.390 fps
Color space : YUV
Chroma subsampling : 4:2:0
Bit depth : 8 bits
Scan type : Progressive
Bits/(Pixel*Frame) : 0.246
Stream size : 3.75 GiB (76%)
Title : Main Program
Language : English
Encoded date : UTC 2017-09-29 16:56:18
Tagged date : UTC 2017-09-29 16:58:10
Color range : Limited
Color primaries : BT.709
Transfer characteristics : BT.709
Matrix coefficients : BT.709
Video #2
ID : 14
Format : JPEG
Codec ID : jpeg
Duration : 2h 13mn
Bit rate mode : Variable
Bit rate : 635 bps
Width : 640 pixels
Height : 266 pixels
Display aspect ratio : 2.40:1
Frame rate mode : Variable
Frame rate : 0.002 fps
Minimum frame rate : 0.001 fps
Maximum frame rate : 0.003 fps
Color space : YUV
Chroma subsampling : 4:2:0
Bit depth : 8 bits
Compression mode : Lossy
Bits/(Pixel*Frame) : 1.865
Stream size : 620 KiB (0%)
Title : Chapter Images
Language : English
Encoded date : UTC 2017-09-29 16:58:15
Tagged date : UTC 2017-09-29 16:58:15
Audio #1
ID : 2
Format : AAC
Format/Info : Advanced Audio Codec
Format profile : LC
Codec ID : 40
Duration : 2h 13mn
Bit rate mode : Variable
Bit rate : 157 Kbps
Maximum bit rate : 238 Kbps
Channel(s) : 2 channels
Channel positions : Front: L R
Sampling rate : 48.0 KHz
Compression mode : Lossy
Stream size : 150 MiB (3%)
Title : Russian Stereo
Language : Russian
Encoded date : UTC 2017-09-29 16:56:18
Tagged date : UTC 2017-09-29 16:56:28
Audio #2
ID : 3
Format : AAC
Format/Info : Advanced Audio Codec
Format profile : LC
Codec ID : 40
Duration : 2h 13mn
Bit rate mode : Variable
Bit rate : 157 Kbps
Maximum bit rate : 236 Kbps
Channel(s) : 2 channels
Channel positions : Front: L R
Sampling rate : 48.0 KHz
Compression mode : Lossy
Stream size : 150 MiB (3%)
Title : English Stereo
Language : English
Encoded date : UTC 2017-09-29 16:56:18
Tagged date : UTC 2017-09-29 16:56:28
Audio #3
ID : 4
Format : AAC
Format/Info : Advanced Audio Codec
Format profile : LC
Codec ID : 40
Duration : 2h 13mn
Bit rate mode : Variable
Bit rate : 156 Kbps
Maximum bit rate : 228 Kbps
Channel(s) : 2 channels
Channel positions : Front: L R
Sampling rate : 48.0 KHz
Compression mode : Lossy
Stream size : 149 MiB (3%)
Title : Ukrainian Stereo
Language : Ukrainian
Encoded date : UTC 2017-09-29 16:56:18
Tagged date : UTC 2017-09-29 16:56:28
Audio #4
ID : 5
Format : AC-3
Format/Info : Audio Coding 3
Mode extension : CM (complete main)
Format settings, Endianness : Big
Codec ID : ac-3
Duration : 2h 13mn
Bit rate mode : Constant
Bit rate : 384 Kbps
Channel(s) : 6 channels
Channel positions : Front: L C R, Side: L R, LFE
Sampling rate : 48.0 KHz
Bit depth : 16 bits
Compression mode : Lossy
Stream size : 367 MiB (7%)
Title : Russian DD 5.1
Language : Russian
Encoded date : UTC 2017-09-29 16:56:18
Tagged date : UTC 2017-09-29 16:56:28
Audio #5
ID : 6
Format : AC-3
Format/Info : Audio Coding 3
Mode extension : CM (complete main)
Format settings, Endianness : Big
Codec ID : ac-3
Duration : 2h 13mn
Bit rate mode : Constant
Bit rate : 384 Kbps
Channel(s) : 6 channels
Channel positions : Front: L C R, Side: L R, LFE
Sampling rate : 48.0 KHz
Bit depth : 16 bits
Compression mode : Lossy
Stream size : 367 MiB (7%)
Title : English DD 5.1
Language : English
Encoded date : UTC 2017-09-29 16:56:18
Tagged date : UTC 2017-09-29 16:56:28
Text #1
ID : 7
Format : Timed Text
Muxing mode : sbtl
Codec ID : tx3g
Duration : 2h 13mn
Bit rate mode : Variable
Bit rate : 1 bps
Stream size : 831 Bytes (0%)
Title : Russian forced
Language : Russian
Encoded date : UTC 2017-09-29 16:56:18
Tagged date : UTC 2017-09-29 16:56:28
Text #2
ID : 8
Format : Timed Text
Muxing mode : sbtl
Codec ID : tx3g
Duration : 14mn 57s
Duration_FirstFrame : 14mn 50s
Duration_LastFrame : -2s 210ms
Bit rate mode : Variable
Bit rate : 0 bps
Stream size : 37.0 Bytes (0%)
Title : English forced
Language : English
Encoded date : UTC 2017-09-29 16:56:18
Tagged date : UTC 2017-09-29 16:56:19
Text #3
ID : 9
Format : Timed Text
Muxing mode : sbtl
Codec ID : tx3g
Duration : 2h 13mn
Bit rate mode : Variable
Bit rate : 15 bps
Stream size : 14.3 KiB (0%)
Title : Ukrainian forced
Language : Ukrainian
Encoded date : UTC 2017-09-29 16:56:18
Tagged date : UTC 2017-09-29 16:56:28
Text #4
ID : 10
Format : Timed Text
Muxing mode : sbtl
Codec ID : tx3g
Duration : 2h 13mn
Bit rate mode : Variable
Bit rate : 114 bps
Stream size : 111 KiB (0%)
Title : Russian full
Language : Russian
Encoded date : UTC 2017-09-29 16:56:18
Tagged date : UTC 2017-09-29 16:56:28
Text #5
ID : 11
Format : Timed Text
Muxing mode : sbtl
Codec ID : tx3g
Duration : 2h 12mn
Bit rate mode : Variable
Bit rate : 73 bps
Stream size : 71.5 KiB (0%)
Title : English full
Language : English
Encoded date : UTC 2017-09-29 16:56:18
Tagged date : UTC 2017-09-29 16:56:28
Text #6
ID : 12
Format : Timed Text
Muxing mode : sbtl
Codec ID : tx3g
Duration : 2h 13mn
Bit rate mode : Variable
Bit rate : 104 bps
Stream size : 102 KiB (0%)
Title : Ukrainian full
Language : Ukrainian
Encoded date : UTC 2017-09-29 16:56:18
Tagged date : UTC 2017-09-29 16:56:28
Menu #1
00:00:00.000 : 1
00:05:33.083 : 2
00:14:23.279 : 3
00:20:49.999 : 4
00:26:18.243 : 5
00:36:26.976 : 6
00:46:02.926 : 7
00:54:39.192 : 8
01:05:09.280 : 9
01:12:02.276 : 10
01:20:19.189 : 11
01:29:40.542 : 12
01:36:55.894 : 13
01:44:43.152 : 14
01:50:30.249 : 15
01:57:52.566 : 16
Menu #2
ID : 13
Codec ID : text
Duration : 2h 13mn
Language : English
Encoded date : UTC 2017-09-29 16:58:11
Tagged date : UTC 2017-09-29 16:58:11
00:00:00.000 : 1
00:05:33.083 : 2
00:14:23.279 : 3
00:20:49.999 : 4
00:26:18.243 : 5
00:36:26.976 : 6
00:46:02.926 : 7
00:54:39.192 : 8
01:05:09.280 : 9
01:12:02.276 : 10
01:20:19.189 : 11
01:29:40.542 : 12
01:36:55.894 : 13
01:44:43.152 : 14
01:50:30.249 : 15
01:57:52.566 : 16
Bit rate mode : VBR

Скриншоты

 

Current time is: 09-Dec 10:19

All times are UTC + 3