Гамлет: Камбербэтч / National Theatre Live: Hamlet (Линдси Тёрнер / Lyndsey Turner) Барбикан / Barbican [2015, Великобритания, Драма, TS-AVC]

Reply to topic
 
Author Message

admin ®

Gender: Male

Longevity: 3 years 4 months

Posts: 10153

Post 28-Nov-2017 02:57

[Quote]

Гамлет: Камбербэтч / National Theatre Live: Hamlet
Театр: Барбикан / Barbican
Страна: Великобритания
Жанр: Драма, Трагедия
Год выпуска: 2015
Продолжительность: 03:00:19
Оригинальная аудиодорожка: английский
Перевод: cубтитры
Субтитры: русские, английские
Драматург: Уильям Шекспир
Режиссёр: Линдси Тёрнер / Lyndsey Turner
В ролях:
Гамлет – Бенедикт Камбербэтч
Клавдий – Киаран Хайндс
Горацио – Лео Билл
Офелия – Сиан Брук
Гертруда – Анастасия ХиллОписание: Миссия проекта Королевского национального театра National Theatre Live (NT Live) – сделать лучшие постановки британского театра доступными зрителям во всем мире. TheatreHD представляет грандиозную постановку знаменитой трагедии Уильяма Шекспира в новой трактовке на сцене театра «Барбикан» с Бенедиктом Камбербэтчем в роли Гамлета.
Дания, принц Гамлет. Призрак отца Гамлета раскрывает ему страшную тайну своей смерти, взывая к мести. Гамлет, хотя и охвачен гневом, медлит с её осуществлением. Принц разочаровывается в друзьях и в любви и впадает в глубокую меланхолию, заставляя окружающих сомневаться в своей вменяемости. Гамлет находит способ изобличить убийцу, и тем самым бросает вызов дяде, и тот, в надежде избавится от племянника, отправляет его с опасной миссией в Англию. Однако вопреки ожиданиям принц возвращается домой…Доп. информация:
Интро (00:12:26) + Акт I (01:49:49) + Акт II (00:58:04)
За что спасибо Гусён0кСемпл: http://multi-up.com/1101666Качество видео: TS
Формат видео: MKVВидео: AVC, 16:9, 1136x640, 25 fps, ~ 3 000 Kbps, 8 bits
Аудио: English, 48 kHz, AC3 6 ch, 448 Kbps

MediaInfo

1 intro.mkv

General
Unique ID : 176016945904511356960859730308607826420 (0x846BA1747CCED713A2D657C44BB4D9F4)
Complete name : C:\temp\HAMLET NTLive 10.15.2015 HDTV 1080i AC3 Multisubs OR MME\1 Intro.mkv
Format : Matroska
Format version : Version 4 / Version 2
File size : 306 MiB
Duration : 12mn 26s
Overall bit rate : 3 439 Kbps
Encoded date : UTC 2016-05-06 10:54:21
Writing application : mkvmerge v7.9.0 ('Birds') 64bit
Writing library : libebml v1.3.1 + libmatroska v1.4.2
DURATION : 00:06:48.489000000
NUMBER_OF_FRAMES : 96
NUMBER_OF_BYTES : 5894
_STATISTICS_WRITING_APP : mkvmerge v7.9.0 ('Birds') 64bit
_STATISTICS_WRITING_DATE_UTC : 2016-05-06 10:54:21
_STATISTICS_TAGS : BPS DURATION NUMBER_OF_FRAMES NUMBER_OF_BYTESVideo
ID : 1
Format : AVC
Format/Info : Advanced Video Codec
Format profile : High@L3.2
Format settings, CABAC : Yes
Format settings, ReFrames : 7 frames
Codec ID : V_MPEG4/ISO/AVC
Duration : 12mn 26s
Bit rate : 2 990 Kbps
Width : 1 136 pixels
Height : 640 pixels
Display aspect ratio : 16:9
Frame rate mode : Constant
Frame rate : 25.000 fps
Color space : YUV
Chroma subsampling : 4:2:0
Bit depth : 8 bits
Scan type : Progressive
Bits/(Pixel*Frame) : 0.165
Stream size : 260 MiB (85%)
Writing library : x264 core 146 r2538 121396c
Encoding settings : cabac=1 / ref=7 / deblock=1:0:0 / analyse=0x3:0x113 / me=umh / subme=9 / psy=1 / psy_rd=1.00:0.00 / mixed_ref=1 / me_range=24 / chroma_me=1 / trellis=1 / 8x8dct=1 / cqm=0 / deadzone=21,11 / fast_pskip=1 / chroma_qp_offset=-2 / threads=6 / lookahead_threads=1 / sliced_threads=0 / nr=0 / decimate=1 / interlaced=0 / bluray_compat=0 / constrained_intra=0 / bframes=7 / b_pyramid=2 / b_adapt=1 / b_bias=0 / direct=1 / weightb=1 / open_gop=0 / weightp=2 / keyint=250 / keyint_min=25 / scenecut=40 / intra_refresh=0 / rc_lookahead=40 / rc=2pass / mbtree=1 / bitrate=2990 / ratetol=1.0 / qcomp=0.60 / qpmin=0 / qpmax=69 / qpstep=4 / cplxblur=20.0 / qblur=0.5 / ip_ratio=1.40 / aq=1:1.00
Default : Yes
Forced : NoAudio
ID : 2
Format : AC-3
Format/Info : Audio Coding 3
Mode extension : CM (complete main)
Format settings, Endianness : Big
Codec ID : A_AC3
Duration : 12mn 26s
Bit rate mode : Constant
Bit rate : 448 Kbps
Channel(s) : 6 channels
Channel positions : Front: L C R, Side: L R, LFE
Sampling rate : 48.0 KHz
Bit depth : 16 bits
Compression mode : Lossy
Stream size : 39.8 MiB (13%)
Language : English
Default : Yes
Forced : NoText #1
ID : 3
Format : UTF-8
Codec ID : S_TEXT/UTF8
Codec ID/Info : UTF-8 Plain Text
Title : Intro_RUS
Language : Russian
Default : No
Forced : NoText #2
ID : 4
Format : UTF-8
Codec ID : S_TEXT/UTF8
Codec ID/Info : UTF-8 Plain Text
Title : Intro_ENG
Language : English
Default : No
Forced : No

2 Part I.mkv

General
Unique ID : 185947581968066487504395376922986731022 (0x8BE4339D5C1B8F7C8E8D57158842D60E)
Complete name : I:\VIDEO\HAMLET NTLive 10.15.2015 HDTV 1080i AC3 Multisubs OR MME\2 Part I.mkv
Format : Matroska
Format version : Version 4 / Version 2
File size : 2.65 GiB
Duration : 1h 49mn
Overall bit rate : 3 449 Kbps
Encoded date : UTC 2016-05-10 16:44:27
Writing application : mkvmerge v7.9.0 ('Birds') 64bit
Writing library : libebml v1.3.1 + libmatroska v1.4.2
DURATION : 01:47:55.316000000
NUMBER_OF_FRAMES : 1124
NUMBER_OF_BYTES : 70758
_STATISTICS_WRITING_APP : mkvmerge v7.9.0 ('Birds') 64bit
_STATISTICS_WRITING_DATE_UTC : 2016-05-10 16:44:27
_STATISTICS_TAGS : BPS DURATION NUMBER_OF_FRAMES NUMBER_OF_BYTESVideo
ID : 1
Format : AVC
Format/Info : Advanced Video Codec
Format profile : High@L3.2
Format settings, CABAC : Yes
Format settings, ReFrames : 7 frames
Codec ID : V_MPEG4/ISO/AVC
Duration : 1h 49mn
Bit rate : 2 999 Kbps
Width : 1 136 pixels
Height : 640 pixels
Display aspect ratio : 16:9
Frame rate mode : Constant
Frame rate : 25.000 fps
Color space : YUV
Chroma subsampling : 4:2:0
Bit depth : 8 bits
Scan type : Progressive
Bits/(Pixel*Frame) : 0.165
Stream size : 2.25 GiB (85%)
Writing library : x264 core 146 r2538 121396c
Encoding settings : cabac=1 / ref=7 / deblock=1:0:0 / analyse=0x3:0x113 / me=umh / subme=9 / psy=1 / psy_rd=1.00:0.00 / mixed_ref=1 / me_range=24 / chroma_me=1 / trellis=1 / 8x8dct=1 / cqm=0 / deadzone=21,11 / fast_pskip=1 / chroma_qp_offset=-2 / threads=6 / lookahead_threads=1 / sliced_threads=0 / nr=0 / decimate=1 / interlaced=0 / bluray_compat=0 / constrained_intra=0 / bframes=7 / b_pyramid=2 / b_adapt=1 / b_bias=0 / direct=1 / weightb=1 / open_gop=0 / weightp=2 / keyint=250 / keyint_min=25 / scenecut=40 / intra_refresh=0 / rc_lookahead=40 / rc=2pass / mbtree=1 / bitrate=2999 / ratetol=1.0 / qcomp=0.60 / qpmin=0 / qpmax=69 / qpstep=4 / cplxblur=20.0 / qblur=0.5 / ip_ratio=1.40 / aq=1:1.00
Default : Yes
Forced : NoAudio
ID : 2
Format : AC-3
Format/Info : Audio Coding 3
Mode extension : CM (complete main)
Format settings, Endianness : Big
Codec ID : A_AC3
Duration : 1h 49mn
Bit rate mode : Constant
Bit rate : 448 Kbps
Channel(s) : 6 channels
Channel positions : Front: L C R, Side: L R, LFE
Sampling rate : 48.0 KHz
Bit depth : 16 bits
Compression mode : Lossy
Stream size : 352 MiB (13%)
Language : English
Default : Yes
Forced : NoText #1
ID : 3
Format : UTF-8
Codec ID : S_TEXT/UTF8
Codec ID/Info : UTF-8 Plain Text
Title : Part I_RUS
Language : Russian
Default : No
Forced : NoText #2
ID : 4
Format : UTF-8
Codec ID : S_TEXT/UTF8
Codec ID/Info : UTF-8 Plain Text
Title : Part I_ENG
Language : English
Default : No
Forced : No

3 Part II.mkv

General
Unique ID : 252811648474056330231765069126640470428 (0xBE31C09DD9BE9E97869D699EFF82099C)
Complete name : C:\temp\HAMLET NTLive 10.15.2015 HDTV 1080i AC3 Multisubs OR MME\3 Part II.mkv
Format : Matroska
Format version : Version 4 / Version 2
File size : 1.40 GiB
Duration : 58mn 4s
Overall bit rate : 3 451 Kbps
Encoded date : UTC 2016-05-05 14:15:10
Writing application : mkvmerge v7.9.0 ('Birds') 64bit
Writing library : libebml v1.3.1 + libmatroska v1.4.2
DURATION : 00:52:05.356000000
NUMBER_OF_FRAMES : 503
NUMBER_OF_BYTES : 29561
_STATISTICS_WRITING_APP : mkvmerge v7.9.0 ('Birds') 64bit
_STATISTICS_WRITING_DATE_UTC : 2016-05-05 14:15:10
_STATISTICS_TAGS : BPS DURATION NUMBER_OF_FRAMES NUMBER_OF_BYTESVideo
ID : 1
Format : AVC
Format/Info : Advanced Video Codec
Format profile : High@L3.2
Format settings, CABAC : Yes
Format settings, ReFrames : 7 frames
Codec ID : V_MPEG4/ISO/AVC
Duration : 58mn 4s
Bit rate : 3 000 Kbps
Width : 1 136 pixels
Height : 640 pixels
Display aspect ratio : 16:9
Frame rate mode : Constant
Frame rate : 25.000 fps
Color space : YUV
Chroma subsampling : 4:2:0
Bit depth : 8 bits
Scan type : Progressive
Bits/(Pixel*Frame) : 0.165
Stream size : 1.19 GiB (85%)
Writing library : x264 core 146 r2538 121396c
Encoding settings : cabac=1 / ref=7 / deblock=1:0:0 / analyse=0x3:0x113 / me=umh / subme=9 / psy=1 / psy_rd=1.00:0.00 / mixed_ref=1 / me_range=24 / chroma_me=1 / trellis=1 / 8x8dct=1 / cqm=0 / deadzone=21,11 / fast_pskip=1 / chroma_qp_offset=-2 / threads=6 / lookahead_threads=1 / sliced_threads=0 / nr=0 / decimate=1 / interlaced=0 / bluray_compat=0 / constrained_intra=0 / bframes=7 / b_pyramid=2 / b_adapt=1 / b_bias=0 / direct=1 / weightb=1 / open_gop=0 / weightp=2 / keyint=250 / keyint_min=25 / scenecut=40 / intra_refresh=0 / rc_lookahead=40 / rc=2pass / mbtree=1 / bitrate=3000 / ratetol=1.0 / qcomp=0.60 / qpmin=0 / qpmax=69 / qpstep=4 / cplxblur=20.0 / qblur=0.5 / ip_ratio=1.40 / aq=1:1.00
Default : Yes
Forced : NoAudio
ID : 2
Format : AC-3
Format/Info : Audio Coding 3
Mode extension : CM (complete main)
Format settings, Endianness : Big
Codec ID : A_AC3
Duration : 58mn 4s
Bit rate mode : Constant
Bit rate : 448 Kbps
Channel(s) : 6 channels
Channel positions : Front: L C R, Side: L R, LFE
Sampling rate : 48.0 KHz
Bit depth : 16 bits
Compression mode : Lossy
Stream size : 186 MiB (13%)
Language : English
Default : Yes
Forced : NoText #1
ID : 3
Format : UTF-8
Codec ID : S_TEXT/UTF8
Codec ID/Info : UTF-8 Plain Text
Title : Part II_RUS
Language : Russian
Default : No
Forced : NoText #2
ID : 4
Format : UTF-8
Codec ID : S_TEXT/UTF8
Codec ID/Info : UTF-8 Plain Text
Title : Part II_ENG
Language : English
Default : No
Forced : No

Скриншот с названием постановки

Скриншоты

[Profile] [PM]
Display posts:    
Reply to topic

Current time is: 26-Feb 03:58

All times are UTC + 3



You cannot post new topics in this forum
You cannot reply to topics in this forum
You cannot edit your posts in this forum
You cannot delete your posts in this forum
You cannot vote in polls in this forum
You cannot attach files in this forum
You can download files in this forum