Discovery. Речные монстры / River monsters [S09] (2017) HDTVRip 720р | NEON Studio

Reply to topic
 
Author Message

admin ®

Gender: Male

Longevity: 4 years 2 months

Posts: 13333

Post 05-Nov-2017 23:47

[Quote]

Название: Речные монстры
Оригинальное название: River monsters
Год выхода: 2017
Жанр: Документальный, рыбалка, путешествия, география, природа, приключения
Режиссер: Барни Ревилл, Доминик Уэстон, Шарлотта Джонс
Ведущий: Джереми Уэйд
Описание сериала:
После восьми сезонов биолог и рыбак-экстремал Джереми Уэйд решил повесить на гвоздь свою удочку в финальных эпизодах Речных Монстров. Благодаря Речным Монстрам мы увидели как Уэйд проводит всю жизнь в поисках опаснейших водных обитателей, среди которых и хищники, и жертвы, легендарные и мифические. Начиная с 2008 г. на удочку Уэйда попадались одни из самых редких, опасных и неуловимых созданий, обитающих в глубинах вод. Он возвращается. Еще на один сезон.
Страна: США
Производство: США, Icon Films, Global Entertainment, Discovery Channel HD
Продолжительность: ~00:50:00
Перевод: Любительский (одноголосый) NEON Studio
Субтитры: Отсутствуют


Файл
Формат: MKV
Качество: HDTVRip (720p)
Видео: MPEG-4 AVC, ~ 2500 Кбит/с, 1280x720
Аудио: 48 kHz, AC3 Dolby Digital, 2/0 (L,R) ch, ~192 kbps

MediaInfo

Формат : Matroska
Версия формата : Version 4 / Version 2
Размер файла : 1,73 Гбайт
Продолжительность : 1 ч. 32 м.
Общий поток : 2688 Кбит/сек
Дата кодирования : UTC 2017-06-19 03:07:15
Программа кодирования : mkvmerge v12.0.0 ('Trust / Lust') 64bit
Библиотека кодирования : libebml v1.3.4 + libmatroska v1.4.5
Видео
Идентификатор : 1
Формат : AVC
Формат/Информация : Advanced Video Codec
Профиль формата : Main@L5.1
Параметр CABAC формата : Да
Параметр ReFrames формата : 1 кадр
Идентификатор кодека : V_MPEG4/ISO/AVC
Продолжительность : 1 ч. 32 м.
Битрейт : 2494 Кбит/сек
Ширина : 1280 пикселей
Высота : 720 пикселей
Соотношение сторон : 16:9
Режим частоты кадров : Постоянный
Частота кадров : 25,000 кадров/сек
Цветовое пространство : YUV
Субдискретизация насыщенности : 4:2:0
Битовая глубина : 8 бит
Тип развёртки : Прогрессивная
Бит/(Пиксели*Кадры) : 0.108
Размер потока : 1,61 Гбайт (93%)
Default : Да
Forced : Нет
Аудио
Идентификатор : 2
Формат : AC-3
Формат/Информация : Audio Coding 3
Расширение режима : CM (complete main)
Параметр Endianness формата : Big
Идентификатор кодека : A_AC3
Продолжительность : 1 ч. 32 м.
Вид битрейта : Постоянный
Битрейт : 192 Кбит/сек
Каналы : 2 канала
Расположение каналов : Front: L R
Частота : 48,0 КГц
Частота кадров : 31,250 кадров/сек (1536 spf)
Метод сжатия : С потерями
Размер потока : 127 Мбайт (7%)
Default : Да
Forced : Нет

Скриншоты

[Profile] [PM]
Display posts:    
Reply to topic

Current time is: 04-Dec 06:48

All times are UTC + 3



You cannot post new topics in this forum
You cannot reply to topics in this forum
You cannot edit your posts in this forum
You cannot delete your posts in this forum
You cannot vote in polls in this forum
You cannot attach files in this forum
You can download files in this forum