Чарли Пуля / Fast Charlie (2023) WEB-DLRip от New-Team | D

Ответить на тему
Статистика раздачи
Размер:  1.46 GB   |    Зарегистрирован:  4 месяца 5 дней   |    Скачан:  0 раз
Сидов:  324  [  0 KB/s  ]   Личеров:  2  [  0 KB/s  ]   Подробная статистика пиров
 
   
 
 
Автор Сообщение

admin ®

Статус: Не в сети

Стаж: 6 лет 8 месяцев

Сообщений: 23696

Репутация: 0 [+] [-]

Откуда: Россия

Создавать темы 11-Фев-2024 21:41 | #1

[Цитировать]

Чарли Пуля / Fast Charlie
Год выпуска: 2023
Выпущено: США / Ashland Hill Media Finance, BCD Travel, Boomtown Media Partners, Foresight Unlimited, Golden Liberty Films, Streamline Global Group, UTA Independent Film Group
Жанр: Боевик, криминал, драма
Режиссер: Филлип Нойс / Phillip Noyce
В ролях: Пирс Броснан, Морена Баккарин, Джеймс Каан, Гбенга Акиннагбе, Колин Сэлмон, Мэтт Кук, Бреннан Кил Кук, Тоби Хасс, Фредрик Лене, Мези Этвуд, Линдси Дж. Смит, Шэрон Глесс, Джейк Гродник
О фильме: Чарли Свифт по прозвищу Пуля — хладнокровный киллер и мастер по решению сложных проблем. Много лет он верой и правдой служит своему боссу, мафиози Стэну, пока от того не решает избавиться конкурент. Избежавший расправы герой встает на путь мести, заручившись неожиданной поддержкой Марси — бывшей жены бандита, некогда погибшего от рук Чарли.

Продолжительность: 01:30:12
Перевод: Профессиональный (полное дублирование) | Pride Production
Субтитры: нет.
Формат: AVI
Качество: WEB-DLRip
Видео: 720x304 (2.35:1), 23.976 fps, XviD MPEG-4 ~ 1928 kbps avg, bit/pixel, 0.367 build 74
Аудио: 48 kHz, AC3 Dolby Digital, 3/2 (L,C,R,l,r) + LFE ch, ~ 384 kbps

Скриншоты

-

MediaInfo

Общее
Полное имя : E:TorrentsFast.Charlie.2023.WEB-DLRip_от New-Team_by_JNS82.avi
Формат : AVI
Формат/Информация : Audio Video Interleave
Размер файла : 1,46 Гбайт
Продолжительность : 1 ч. 30 м.
Общий поток : 2 321 Кбит/сек
Программа кодирования : VirtualDubModRus 1.5.10.2 (build 2542/release)
Библиотека кодирования : VirtualDubMod build 2542/release
Видео
Идентификатор : 0
Формат : MPEG-4 Visual
Профиль формата : Advanced Simple@L5
Настройки формата : BVOP1 / Custom Matrix
Параметр BVOP формата : 1
Параметр QPel формата : Нет
Параметр GMC формата : Без точки перехода
Параметр матрицы формата : Выборочная
Идентификатор кодека : XVID
Идентификатор кодека/Подсказка : XviD
Продолжительность : 1 ч. 30 м.
Битрейт : 1 928 Кбит/сек
Ширина : 720 пикселей
Высота : 304 пикселя
Соотношение сторон : 2,35:1
Частота кадров : 23,976 (24000/1001) кадра/сек
Цветовое пространство : YUV
Субдискретизация насыщенности : 4:2:0
Битовая глубина : 8 бит
Тип развёртки : Прогрессивная
Метод сжатия : С потерями
Бит/(Пиксели*Кадры) : 0.367
Размер потока : 1,21 Гбайт (83%)
Библиотека кодирования : XviD 74
Аудио
Идентификатор : 1
Формат : AC-3
Формат/Информация : Audio Coding 3
Коммерческое название : Dolby Digital
Идентификатор кодека : 2000
Продолжительность : 1 ч. 30 м.
Вид битрейта : Постоянный
Битрейт : 384 Кбит/сек
Каналы : 6 каналов
Channel layout : L R C LFE Ls Rs
Частота : 48,0 КГц
Частота кадров : 31,250 кадров/сек (1536 SPF)
Метод сжатия : С потерями
Размер потока : 248 Мбайт (17%)
Выравнивание : Разделение по промежуткам
Продолжительность промежутка : 42 мс. (1,00 видеокадр)
Время предзагрузки промежутка : 500 мс.
Service kind : Complete Main
[ivtracker.org].t41262.torrent 
 ЗОЛОТАЯ РАЗДАЧА! СКАЧАННОЕ НЕ ЗАСЧИТЫВАЕТСЯ! 
Торрент: Зарегистрирован [ 2024-02-11 21:41 ] · E191A863B31C6DCFB6B4395D35CF3EBAFB5AD492

Скачать .torrent

Скачать

59 KB

Статус: проверено · admin · 4 месяца 5 дней назад
Скачан: 0 раз
Размер: 1.46 GB
Поделиться:
 
Похожие темы
[Профиль] [ЛС]
Вернуться к началу
Показать сообщения:    
Ответить на тему

Текущее время: 17-Июн 07:02

Часовой пояс: UTC + 3



Вы не можете начинать темы
Вы не можете отвечать на сообщения
Вы не можете редактировать свои сообщения
Вы не можете удалять свои сообщения
Вы не можете голосовать в опросах
Вы не можете прикреплять файлы к сообщениям
Вы можете скачивать файлы