Планета Максимус (2023) WEB-DL 1080p

Ответить на тему
Статистика раздачи
Размер:  3.61 GB   |    Зарегистрирован:  5 месяцев 24 дня   |    Скачан:  0 раз
Сидов:  12  [  0 KB/s  ]   Личеров:  3  [  0 KB/s  ]   Подробная статистика пиров
 
   
 
 
Автор Сообщение

admin ®

Статус: Не в сети

Стаж: 6 лет 8 месяцев

Сообщений: 23696

Репутация: 0 [+] [-]

Откуда: Россия

Создавать темы 25-Дек-2023 22:39 | #1

[Цитировать]

«Киноверсия спектакля Александра Петрова. Важная история о большой любви, основанная на реальных событиях»
Информация о фильме
Оригинальное название: Планета Максимус
Год выхода: 2023
Жанр: драма, спектакль
Режиссер: Александр Петров
В ролях: Александр Петров, Екатерина Чаннова
О фильме:
«Планета Максимус» — киноверсия знаменитого спектакля Александра Петрова, основанного на реальных событиях. В центре повествования — Максим и его девушка Катя. Петров рассказывает о зарождении любви, о нелегкой судьбе Максима и о том, что остается, когда один из влюбленных стремительно угасает. Это история о безграничной любви. История, которую, по словам автора, невозможно было не написать. Постановка объединила в себе кино, театр, поэзию и музыку.
На сцене — наполненная водой ванна. Скоро рядом с ней появляется мужская фигура в костюме Человека-паука с воздушным шариком в руках. Оказавшись рядом с ванной, человек снимает костюм и переодевается в джинсы и пиджак. Это — Александр Петров. Он вышел на сцену, чтобы рассказать трагическую историю одной любви, но не своей, а лучшего друга Максима, умершего от рака, и его девушки Кати.
Петров выносит на сцену коробку с надписью «Хрупкое» и один за другим достает из нее листы со стихами. Позади актера — большой экран, на котором то и дело возникает видеоряд, дополняющий историю. Пока Петров читает стихи, рядом появляется актриса Екатерина Чаннова, исполнившая роль Кати. Спектакль погружает зрителя в историю с помощью лирики, музыки, видеоряда и кино. Благодаря существованию фильма каждый, кто был на спектакле Александра Петрова, может заново обратиться к истории, но увидеть ее уже с другого ракурса, изучить каждое мгновение с помощью крупных планов и удачного монтажа.
Для тех, кто не знаком со спектаклем, фильм «Планета Максимус» будет интересен вдвойне. Трогательная, чуткая и тонкая постановка Петрова навсегда останется с вами уже после первого просмотра.

Выпущено: Россия / ИП, САГ
Продолжительность: 01:36:18
Озвучивание: Оригинальное
Файл
Формат: MKV
Качество: WEB-DL 1080p
Видео: MPEG-4 AVC, 5120 Kb/s, 1920x1080
Аудио: Russian: AAC, 256 Kb/s (2 ch)
Субтитры: Russian (Full)
Дополнительно: Нет

Интересные факты:

▪ История основана на реальных событиях.
▪ Издательство «Бомбора» выпустила книгу «Хрупкое: стихи, проза, спектакль» о героях постановки и истории ее создания.
▪ Продюсер «Планеты Максимус» — Анастасия Сайфулина. Это ее первый проект.
▪ В фильме-спектакле всего два актера. Компанию Петрову составила Екатерина Чаннова. Ранее она снималась в сериале Сарика Андреасяна «Чикатило», драматической комедии Ивана Капитонова «Голова-жестянка» и в мелодраме Сергея Ильина «Страсти по Матвею».
▪ Музыку для «Планеты Максимус» написала группа Ocean Jet.
▪ Премьера спектакля состоялась на сцене Театра Ермоловой.

Инфо-файл:

Complete name : Планета Максимус (2023) WEB-DL 1080p.mkv
Format : Matroska
Format version : Version 4
File size : 3.61 GiB
Duration : 1 h 36 min
Overall bit rate : 5 373 kb/s
Frame rate : 25.000 FPS
Encoded date : 2023-12-22 15:30:05 UTC
Writing application : mkvmerge v75.0.0 ('Goliath') 64-bit
Writing library : libebml v1.4.4 + libmatroska v1.7.1
Video
ID : 1
Format : AVC
Format/Info : Advanced Video Codec
Format profile : High@L4
Format settings : CABAC / 4 Ref Frames
Format settings, CABAC : Yes
Format settings, Reference frames : 4 frames
Codec ID : V_MPEG4/ISO/AVC
Duration : 1 h 36 min
Bit rate : 5 120 kb/s
Width : 1 920 pixels
Height : 1 080 pixels
Display aspect ratio : 16:9
Frame rate mode : Constant
Frame rate : 25.000 FPS
Color space : YUV
Chroma subsampling : 4:2:0
Bit depth : 8 bits
Scan type : Progressive
Bits/(Pixel*Frame) : 0.099
Stream size : 3.44 GiB (95%)
Title : Планета Максимус (2023) WEB-DL 1080p
Writing library : x264 core 152 r2854 e9a5903
Encoding settings : cabac=1 / ref=3 / deblock=1:0:0 / analyse=0x3:0x113 / me=hex / subme=7 / psy=1 / psy_rd=1.00:0.00 / mixed_ref=1 / me_range=16 / chroma_me=1 / trellis=1 / 8x8dct=1 / cqm=0 / deadzone=21,11 / fast_pskip=1 / chroma_qp_offset=-2 / threads=34 / lookahead_threads=5 / sliced_threads=0 / nr=0 / decimate=1 / interlaced=0 / bluray_compat=0 / constrained_intra=0 / bframes=6 / b_pyramid=2 / b_adapt=1 / b_bias=0 / direct=1 / weightb=1 / open_gop=0 / weightp=2 / keyint=50 / keyint_min=26 / scenecut=0 / intra_refresh=0 / rc_lookahead=40 / rc=2pass / mbtree=1 / bitrate=5120 / ratetol=1.0 / qcomp=0.60 / qpmin=0 / qpmax=69 / qpstep=4 / cplxblur=20.0 / qblur=0.5 / vbv_maxrate=7680 / vbv_bufsize=20480 / nal_hrd=none / filler=0 / ip_ratio=1.40 / aq=1:1.00
Language : Russian
Default : Yes
Forced : No
Audio
ID : 2
Format : AAC LC
Format/Info : Advanced Audio Codec Low Complexity
Codec ID : A_AAC-2
Duration : 1 h 36 min
Bit rate : 256 kb/s
Channel(s) : 2 channels
Channel layout : L R
Sampling rate : 48.0 kHz
Frame rate : 46.875 FPS (1024 SPF)
Compression mode : Lossy
Stream size : 176 MiB (5%)
Language : Russian
Default : Yes
Forced : No
Text
ID : 3
Format : UTF-8
Codec ID : S_TEXT/UTF8
Codec ID/Info : UTF-8 Plain Text
Duration : 1 h 26 min
Bit rate : 106 b/s
Frame rate : 0.223 FPS
Count of elements : 1159
Stream size : 67.9 KiB (0%)
Title : Full
Language : Russian
Default : No
Forced : No

Скриншоты

[ivtracker.org].t41154.torrent 
 ЗОЛОТАЯ РАЗДАЧА! СКАЧАННОЕ НЕ ЗАСЧИТЫВАЕТСЯ! 
Торрент: Зарегистрирован [ 2023-12-25 22:39 ] · F0D898A6F285CE6BDDB5CFDD81D1FBAA2834314A

Скачать .torrent

Скачать

19 KB

Статус: проверено · admin · 5 месяцев 24 дня назад
Скачан: 0 раз
Размер: 3.61 GB
Поделиться:
 
Похожие темы
[Профиль] [ЛС]
Вернуться к началу
Показать сообщения:    
Ответить на тему

Текущее время: 19-Июн 07:37

Часовой пояс: UTC + 3



Вы не можете начинать темы
Вы не можете отвечать на сообщения
Вы не можете редактировать свои сообщения
Вы не можете удалять свои сообщения
Вы не можете голосовать в опросах
Вы не можете прикреплять файлы к сообщениям
Вы можете скачивать файлы