Yello - Touch Yello: The Virtual Concert (2009) DVDRip-AVC | КПК

Ответить на тему
Статистика раздачи
Размер:  343 MB   |    Зарегистрирован:  1 год 3 месяца   |    Скачан:  0 раз
Сидов:  2  [  0 KB/s  ]   Личеров:  3  [  0 KB/s  ]   Подробная статистика пиров
 
   
 
 
Автор Сообщение

admin ®

Статус: Не в сети

Пол: Мужской

Стаж: 6 лет 5 месяцев

Сообщений: 23667

Репутация: 0 [+] [-]

Откуда: Россия

Создавать темы 15-Ноя-2022 23:35 | #1

[Цитировать]

Информация о фильме
Название: Touch Yello: The Virtual Concert
Исполнитель: Yello
Год выхода: 2009
Жанр: Electronic, Synth-pop, Future-Jazz
Режиссер: Кевин Бланк, Борис Бланк, Дитер Мейер
В ролях: Борис Бланк, Дитер Мейер, Хайди Хэппи, Тиль Брённер, Доротея Оберлингер, Лиза Мария Беренбольд, Франсис Бенджамин Мейер

О фильме:
В 2009 году вышел новый альбом Yello, который называется «Touch Yello». Данный альбом имеет две версии: обычную и Limited Edition с бонусными треками и DVD. На DVD можно обнаружить запись виртуального концерта («The Virtual Concert»), презентация которого состоялась в Берлине 1 октября 2009-го года

Страна: Швейцария
Студия: Encore Pictures
Продолжительность: 00:40:35

Файл
Формат: MP4
Качество: DVDRip 360p (исх. DVD5)
Видео: AVC, 640x360 at 25.000 fps, 1016 kbps
Аудио: AAC LC, 48.0 kHz, 2 ch, 160 kbps
Субтитры: none

MediaInfo

General
Complete name : Yello-Touch.Yello.The.Virtual.Concert.2009.DVDRip.mp4
Format : MPEG-4
Format profile : Base Media
Codec ID : isom (isom/avc1)
File size : 343 MiB
Duration : 40 min 35 s
Overall bit rate mode : Variable
Overall bit rate : 1 180 kb/s
Encoded date : UTC 2022-11-13 16:24:13
Tagged date : UTC 2022-11-13 16:24:13
Video
ID : 1
Format : AVC
Format/Info : Advanced Video Codec
Format profile : [email protected]
Format settings : CABAC / 16 Ref Frames
Format settings, CABAC : Yes
Format settings, RefFrames : 16 frames
Codec ID : avc1
Codec ID/Info : Advanced Video Coding
Duration : 40 min 35 s
Bit rate : 1 016 kb/s
Maximum bit rate : 6 550 kb/s
Width : 640 pixels
Height : 360 pixels
Display aspect ratio : 16:9
Frame rate mode : Constant
Frame rate : 25.000 FPS
Color space : YUV
Chroma subsampling : 4:2:0
Bit depth : 8 bits
Scan type : Progressive
Bits/(Pixel*Frame) : 0.176
Stream size : 295 MiB (86%)
Writing library : x264 core 129
Encoding settings : cabac=1 / ref=16 / deblock=1:-1:-1 / analyse=0x3:0x133 / me=umh / subme=10 / psy=1 / psy_rd=1.00:0.15 / mixed_ref=1 / me_range=24 / chroma_me=1 / trellis=2 / 8x8dct=1 / cqm=0 / deadzone=21,11 / fast_pskip=1 / chroma_qp_offset=-3 / threads=2 / lookahead_threads=1 / sliced_threads=0 / nr=0 / decimate=1 / interlaced=0 / bluray_compat=0 / constrained_intra=0 / bframes=8 / b_pyramid=2 / b_adapt=2 / b_bias=0 / direct=3 / weightb=1 / open_gop=0 / weightp=2 / keyint=250 / keyint_min=25 / scenecut=40 / intra_refresh=0 / rc_lookahead=60 / rc=crf / mbtree=1 / crf=17.0 / qcomp=0.60 / qpmin=0 / qpmax=69 / qpstep=4 / ip_ratio=1.40 / aq=1:1.00
Encoded date : UTC 2022-11-13 16:24:13
Tagged date : UTC 2022-11-13 16:24:22
Codec configuration box : avcC
Audio
ID : 2
Format : AAC LC
Format/Info : Advanced Audio Codec Low Complexity
Codec ID : mp4a-40-2
Duration : 40 min 35 s
Bit rate mode : Variable
Bit rate : 160 kb/s
Maximum bit rate : 299 kb/s
Channel(s) : 2 channels
Channel layout : L R
Sampling rate : 48.0 kHz
Frame rate : 46.875 FPS (1024 SPF)
Compression mode : Lossy
Stream size : 46.4 MiB (14%)
Encoded date : UTC 2022-11-13 16:24:20
Tagged date : UTC 2022-11-13 16:24:22
Menu
00:00:00.000 : Intro
00:01:45.600 : Till Tomorrow
00:05:15.840 : The Expert
00:09:07.680 : You Better Hide
00:13:29.280 : Out Of Dawn
00:16:39.840 : Bostich (Reflected)
00:20:38.400 : Kiss In Blue
00:24:18.720 : Vertical Vision
00:28:33.600 : Tiger Dust
00:31:50.880 : Tangier Blue
00:34:32.160 : Oh Yeah 2009
00:36:56.160 : The Race 2008
00:39:01.440 : Credits

Скриншоты

[ivtracker.org].t38726.torrent 
 ЗОЛОТАЯ РАЗДАЧА! СКАЧАННОЕ НЕ ЗАСЧИТЫВАЕТСЯ! 
Торрент: Зарегистрирован [ 2022-11-15 23:35 ] · 15640939C8C83F686082E7BD499CD4AD04DE93EB

Скачать .torrent

Скачать

14 KB

Статус: проверено · admin · 1 год 3 месяца назад
Скачан: 0 раз
Размер: 343 MB
Поделиться:
 
Похожие темы
[Профиль] [ЛС]
Вернуться к началу
Показать сообщения:    
Ответить на тему

Текущее время: 04-Мар 10:49

Часовой пояс: UTC + 3



Вы не можете начинать темы
Вы не можете отвечать на сообщения
Вы не можете редактировать свои сообщения
Вы не можете удалять свои сообщения
Вы не можете голосовать в опросах
Вы не можете прикреплять файлы к сообщениям
Вы можете скачивать файлы