Yes - The Quest [24-bit Hi-Res] (2021) FLAC

Reply to topic
DL-List and Torrent activity [Update пиров]
Size:  719 MB   |    Registered:  3 months 17 days   |    Completed:  0 times

Seeder not seen: Never

 
   
 
 
Author Message

admin ®

Gender: Male

Longevity: 4 years 3 months

Posts: 14738

Post 01-Oct-2021 15:18

[Quote]

Название: The Quest
Исполнитель: Yes
Год: 2021
Жанр: Progressive-Rock, Symphonic-Prog
Страна: United Kingdom
Продолжительность: 01:01:35
Формат/Кодек: FLAC
Тип рипа: Tracks
Битрейт аудио: Lossless
Разрядность: 24 Bit/44.1 kHz
Носитель: WEB

Трек-лист

Disc 1
01. The Ice Bridge (7:03)
02. Dare to Know (5:58)
03. Minus the Man (5:35)
04. Leave Well Alone (8:08)
05. The Western Edge (4:25)
06. Future Memories (5:10)
07. Music to My Ears (4:41)
08. A Living Island (6:51)
Disc 2
01. Sister Sleeping Soul (4:50)
02. Mystery Tour (3:35)
03. Damaged World (5:19)

DR
foobar2000 1.6.5 / Dynamic Range Meter 1.1.1
--------------------------------------------------------------------------------
Analyzed: Yes / The Quest
--------------------------------------------------------------------------------
DR Peak RMS Duration Track
--------------------------------------------------------------------------------
DR9 -0.35 dB -10.60 dB 7:03 01-The Ice Bridge
DR10 -0.33 dB -12.17 dB 5:58 02-Dare to Know
DR9 -0.31 dB -11.61 dB 5:35 03-Minus the Man
DR11 -0.36 dB -13.24 dB 8:08 04-Leave Well Alone
DR8 -0.31 dB -10.33 dB 4:25 05-The Western Edge
DR11 -1.84 dB -17.46 dB 5:10 06-Future Memories
DR10 -0.42 dB -11.87 dB 4:41 07-Music to My Ears
DR9 -0.39 dB -12.43 dB 6:51 08-A Living Island
--------------------------------------------------------------------------------
Number of tracks: 8
Official DR value: DR10
Samplerate: 44100 Hz
Channels: 2
Bits per sample: 24
Bitrate: 1619 kbps
Codec: FLAC
================================================================================
foobar2000 1.6.5 / Dynamic Range Meter 1.1.1
--------------------------------------------------------------------------------
Analyzed: Yes / The Quest
--------------------------------------------------------------------------------
DR Peak RMS Duration Track
--------------------------------------------------------------------------------
DR10 -0.35 dB -12.17 dB 4:50 01-Sister Sleeping Soul
DR10 -0.33 dB -11.31 dB 3:35 02-Mystery Tour
DR10 -0.49 dB -11.69 dB 5:19 03-Damaged World
--------------------------------------------------------------------------------
Number of tracks: 3
Official DR value: DR10
Samplerate: 44100 Hz
Channels: 2
Bits per sample: 24
Bitrate: 1643 kbps
Codec: FLAC
================================================================================
 GOLD TORRENT! DOWNLOAD TRAFFIC DOES NOT CONSIDER! 
Torrent: Registered [ 2021-10-01 15:18 ]   · B2B50A610C22B2C5EF962BF73B01E3240A4850

Download .torrent

Download

16 KB

Status: checked
Completed: 0 times
Size: 719 MB
Поделиться:
terms.php
[Profile] [PM]
Display posts:    
Reply to topic

Current time is: 19-Jan 13:50

All times are UTC + 3



You cannot post new topics in this forum
You cannot reply to topics in this forum
You cannot edit your posts in this forum
You cannot delete your posts in this forum
You cannot vote in polls in this forum
You cannot attach files in this forum
You can download files in this forum