Проклятие ведьмы / The Reckoning (2020) BDRip 1080p от селезень | iTunes

Reply to topic
DL-List and Torrent activity [Update пиров]
Size:  11.68 GB   |    Registered:  4 days   |    Completed:  0 times
Seeders:  117  [  0 KB/s  ]   Leechers:  10  [  0 KB/s  ]   Show peers in full details
 
   
 
 
Author Message

admin ®

Gender: Male

Longevity: 3 years 6 months

Posts: 10301

Post 07-Apr-2021 13:30

[Quote]

Информация о фильме
Название: Проклятие ведьмы
Оригинальное название: The Reckoning
Год выхода: 2020
Жанр: Ужасы
Режиссер: Нил Маршалл
В ролях: Шарлотта Кирк, Джо Андерсон, Стивен Вэддингтон, Шон Пертуи, Йен Уайт, Эмма Холцер, Кэл Макэнинк, Рик Уорден, Марк Райан, Леон Окенден

О фильме: XVII век. Времена чумы и безжалостной охоты на ведьм. Дьявол протягивает руку помощи девушке, попавшей в заточение Святой инквизиции. Под пытками от нее требуют признаться в сговоре с темными силами. Однако, чем дольше девушка терпит мучения, тем меньше у неё сил сопротивляться предложению Князя тьмы.
Страна: Великобритания
Студия: BondIt, Buffalo 8 Productions, Fourth Culture Films, Moviebar Productions
Продолжительность: 01:50:55
Перевод: Дублированный | iTunes
Качество: BDRip 1080p
Видео: MPEG-4 AVC, 1920x808, 14.0 Mbit/s, 23.976 fps
Аудио #01: 48 kHz, AC3, 5.1, 384 Kbps | iTunes | RUS |
Аудио #02: 48 kHz, AC3, 5.1, 640 Kbps | Оригинал | ENG |
Субтитры: Русские (Full), английские

Скриншоты

MI

General
Unique ID : 168805427024689101812789114183375872794 (0x7EFEBE1F80ADBE3FC216A001D2A7631A)
Complete name : F:VideoThe.Reckoning.2021.BDRip.1080p.seleZen.mkv
Format : Matroska
Format version : Version 4
File size : 11.7 GiB
Duration : 1 h 51 min
Overall bit rate : 15.1 Mb/s
Movie name : The Reckoning 2021 from seleZen
Encoded date : UTC 2021-04-06 21:48:22
Writing application : mkvmerge v55.0.0 ('Waiting For Space') 64-bit
Writing library : libebml v1.4.2 + libmatroska v1.6.4
Video
ID : 1
Format : AVC
Format/Info : Advanced Video Codec
Format profile : High@L4.1
Format settings : CABAC / 5 Ref Frames
Format settings, CABAC : Yes
Format settings, Reference : 5 frames
Codec ID : V_MPEG4/ISO/AVC
Duration : 1 h 50 min
Bit rate : 14.0 Mb/s
Width : 1 920 pixels
Height : 808 pixels
Display aspect ratio : 2.40:1
Frame rate mode : Constant
Frame rate : 23.976 (24000/1001) FPS
Color space : YUV
Chroma subsampling : 4:2:0
Bit depth : 8 bits
Scan type : Progressive
Bits/(Pixel*Frame) : 0.378
Stream size : 10.9 GiB (93%)
Title : MTeam
Writing library : x264 core 157 r2938 2b00a84 TnP@MTeam Mod
Encoding settings : cabac=1 / ref=5 / deblock=1:-3:-3 / analyse=0x3:0x133 / me=umh / subme=10 / psy=1 / psy_rd=1.05:0.00 / mixed_ref=1 / me_range=32 / chroma_me=1 / trellis=2 / 8x8dct=1 / cqm=0 / deadzone=21,11 / fast_pskip=0 / chroma_qp_offset=-2 / threads=12 / lookahead_threads=2 / sliced_threads=0 / nr=0 / decimate=0 / interlaced=0 / bluray_compat=0 / constrained_intra=0 / bframes=8 / b_pyramid=2 / b_adapt=2 / b_bias=0 / direct=3 / weightb=1 / open_gop=0 / weightp=2 / keyint=250 / keyint_min=24 / scenecut=40 / intra_refresh=0 / rc_lookahead=250 / rc=crf / mbtree=0 / crf=16.8 / qcomp=0.60 / qpmin=0 / qpmax=69 / qpstep=4 / vbv_maxrate=62500 / vbv_bufsize=78125 / crf_max=0.0 / nal_hrd=none / filler=0 / ip_ratio=1.30 / pb_ratio=1.20 / aq=3:0.80
Language : English
Default : Yes
Forced : No
Color range : Limited
Color primaries : BT.709
Matrix coefficients : BT.709
Audio #1
ID : 2
Format : AC-3
Format/Info : Audio Coding 3
Commercial name : Dolby Digital
Codec ID : A_AC3
Duration : 1 h 51 min
Bit rate mode : Constant
Bit rate : 384 kb/s
Channel(s) : 6 channels
Channel layout : L R C LFE Ls Rs
Sampling rate : 48.0 kHz
Frame rate : 31.250 FPS (1536 SPF)
Compression mode : Lossy
Stream size : 305 MiB (3%)
Title : iTunes
Language : Russian
Service kind : Complete Main
Default : Yes
Forced : Yes
Audio #2
ID : 3
Format : AC-3
Format/Info : Audio Coding 3
Commercial name : Dolby Digital
Codec ID : A_AC3
Duration : 1 h 50 min
Bit rate mode : Constant
Bit rate : 640 kb/s
Channel(s) : 6 channels
Channel layout : L R C LFE Ls Rs
Sampling rate : 48.0 kHz
Frame rate : 31.250 FPS (1536 SPF)
Compression mode : Lossy
Stream size : 508 MiB (4%)
Title : Original
Language : English
Service kind : Complete Main
Default : No
Forced : No
Text #1
ID : 4
Format : UTF-8
Codec ID : S_TEXT/UTF8
Codec ID/Info : UTF-8 Plain Text
Duration : 1 h 45 min
Bit rate : 70 b/s
Count of elements : 1232
Stream size : 54.5 KiB (0%)
Title : Full
Language : Russian
Default : No
Forced : No
Text #2
ID : 5
Format : UTF-8
Codec ID : S_TEXT/UTF8
Codec ID/Info : UTF-8 Plain Text
Duration : 1 h 40 min
Bit rate : 40 b/s
Count of elements : 1066
Stream size : 29.8 KiB (0%)
Title : Full
Language : English
Default : No
Forced : No
Menu
00:00:00.000 : en:Chapter 01
00:09:22.395 : en:Chapter 02
00:21:25.409 : en:Chapter 03
00:36:21.971 : en:Chapter 04
00:46:47.680 : en:Chapter 05
00:57:44.836 : en:Chapter 06
01:14:35.513 : en:Chapter 07
01:46:29.133 : en:Chapter 08
 GOLD TORRENT! DOWNLOAD TRAFFIC DOES NOT CONSIDER! 
Torrent: Registered [ 2021-04-07 13:30 ]   · D60745115C022E9B2DD8A0F60185BDA026BD595D

Download .torrent

Download

16 KB

Status: checked
Completed: 0 times
Size: 11.68 GB
Поделиться:
terms.php
[Profile] [PM]
Display posts:    
Reply to topic

Current time is: 12-Apr 08:43

All times are UTC + 3



You cannot post new topics in this forum
You cannot reply to topics in this forum
You cannot edit your posts in this forum
You cannot delete your posts in this forum
You cannot vote in polls in this forum
You cannot attach files in this forum
You can download files in this forum