[Amatory] - Снег в Аду 2.021 [Клип] (2021) WEBRip 2160p

Reply to topic
 
Author Message

admin ®

Gender: Male

Longevity: 3 years 6 months

Posts: 10342

Post 04-Apr-2021 14:12

[Quote]

Название: Снег в Аду 2.021 [Клип]
Исполнитель: [AMATORY]
Год: 2021
Жанр: Alternative
Страна: Russian Federation
Качество: WEBRip 2160p
Продолжительность: 00:03:43
Формат/Кодек: MKV, VP9
Video: VP9, 14.5 Mb/s, 3840x2160 (1.778), 25.000 fps
Audio: AAC, 128 kb/s, 2 channels, 44.1 kHz

Mediainfo

Format : Matroska
Format version : Version 4
File size : 389 MiB
Duration : 3 min 43 s
Overall bit rate : 14.6 Mb/s
Encoded date : UTC 2021-04-03 13:53:15
Writing application : mkvmerge v51.0.0 ('I Wish') 64-bit
Writing library : libebml v1.4.0 + libmatroska v1.6.2
Video
ID : 1
Format : VP9
Codec ID : V_VP9
Duration : 3 min 43 s
Bit rate : 14.5 Mb/s
Width : 3 840 pixels
Height : 2 160 pixels
Display aspect ratio : 16:9
Frame rate mode : Constant
Frame rate : 25.000 FPS
Color space : YUV
Bits/(Pixel*Frame) : 0.070
Stream size : 385 MiB (99%)
Language : English
Default : Yes
Forced : No
Color range : Limited
Color primaries : BT.709
Transfer characteristics : BT.709
Matrix coefficients : BT.709
Audio
ID : 2
Format : AAC LC
Format/Info : Advanced Audio Codec Low Complexity
Codec ID : A_AAC-2
Duration : 3 min 43 s
Bit rate : 128 kb/s
Channel(s) : 2 channels
Channel layout : L R
Sampling rate : 44.1 kHz
Frame rate : 43.066 FPS (1024 SPF)
Compression mode : Lossy
Stream size : 3.41 MiB (1%)
Language : English
Default : Yes
Forced : No

Скриншоты

[Profile] [PM]
Display posts:    
Reply to topic

Current time is: 13-Apr 05:02

All times are UTC + 3



You cannot post new topics in this forum
You cannot reply to topics in this forum
You cannot edit your posts in this forum
You cannot delete your posts in this forum
You cannot vote in polls in this forum
You cannot attach files in this forum
You cannot download files in this forum