Search found 32 matches

Author Message

admin

Post 04-Apr-2021 14:20

[Quote]

Название: Lords of War
Исполнитель: Hellspike
Год: 2020 / Продолжительность : 00:40:30
Страна: Portugal / Жанр: Thrash-Metal
Битрейт аудио: 320kbps
Формат/Кодек: MP3

01 - Titans' Clash, 02 - Storm of Fear
03 - House of Asterion, 04 - Full Spectrum Dominance
05 - Fallen Empire, 06 - Lords of War
07 - Iron Forces United, 08 - Stellar Victory

admin

Post 04-Apr-2021 14:15

[Quote]

Название: Hell In A Bottle
Исполнитель: Vomit Division
Год: 2020 / Продолжительность : 00:34:13
Страна: Germany / Жанр: Thrash-Metal
Битрейт аудио: 320kbps
Формат/Кодек: MP3

01 - Panzerabwehr Rock'n'roll, 02 - Slaves Of The Cock
03 - Cunts & Cocaine, 04 - Homunculus
05 - Black Metal Bastards, 06 - Hunger Of Ghouls
07 - Demons Come Back, 08 - Goat Vvytch King

admin

Post 01-Apr-2021 11:48

[Quote]

Название: Lamb of God [Deluxe, 24bit Hi-Res]
Исполнитель: Lamb of God
Год: 2021
Жанр: Groove-Metal, Thrash-Metal
Страна: США/USA
Продолжительность: 01:56:21
Формат/Кодек: FLAC
Битрейт аудио: 24/44,1

Трек-лист

01. Memento Mori
02. Checkmate
03. Gears
04. Reality Bath
05. New Colossal Hate
06. Resurrection Man
07. Poison Dream ft. Jamey Jasta
08. Routes ft. Chuck Billy
09. Bloodshot Eyes
10. On The Hook
11. Ghost Shaped People
12. Hyperthermic/Accelerate
13. Memento Mori (Live)
14. Checkmate (Live)
15. Gears (Live)
16. Reality Bath (Live)
17. New Colossal Hate (Live)
18. Resurrection Man (Live)
19. Poison Dream (Live)
20. Routes (Live)
21. Bloodshot Eyes (Live)
22. On The Hook (Live)
23. Contractor (Live)
24. Ruin (Live)
25. The Death of Us (Live)
26. 512 (Live)
Дополнительная информация:

Лог проверки качества

foobar2000 1.5.4 / Dynamic Range Meter 1.1.1
log date: 2021-03-31 16:35:55
--------------------------------------------------------------------------------
Analyzed: Lamb of God / Lamb of God (Deluxe Edition)
--------------------------------------------------------------------------------
DR Peak RMS Duration Track
--------------------------------------------------------------------------------
DR6 0.00 dB -7.99 dB 5:48 01-Memento Mori
DR6 0.00 dB -6.74 dB 4:31 02-Checkmate
DR6 0.00 dB -6.63 dB 3:55 03-Gears
DR6 0.00 dB -6.95 dB 4:32 04-Reality Bath
DR6 0.00 dB -6.44 dB 4:31 05-New Colossal Hate
DR6 0.00 dB -7.13 dB 5:00 06-Resurrection Man
DR5 0.00 dB -6.22 dB 4:58 07-Poison Dream ft. Jamey Jasta
DR6 0.00 dB -6.27 dB 3:04 08-Routes ft. Chuck Billy
DR6 0.00 dB -6.57 dB 3:57 09-Bloodshot Eyes
DR6 0.00 dB -6.74 dB 4:30 10-On The Hook
DR6 0.00 dB -6.90 dB 4:06 11-Ghost Shaped People
DR6 0.00 dB -6.94 dB 4:05 12-Hyperthermic/Accelerate
DR6 0.00 dB -7.28 dB 5:51 13-Memento Mori (Live)
DR6 0.00 dB -6.61 dB 4:40 14-Checkmate (Live)
DR6 0.00 dB -6.55 dB 3:58 15-Gears (Live)
DR6 0.00 dB -7.09 dB 4:48 16-Reality Bath (Live)
DR6 0.00 dB -6.62 dB 4:38 17-New Colossal Hate (Live)
DR6 0.00 dB -7.23 dB 5:20 18-Resurrection Man (Live)
DR6 0.00 dB -6.76 dB 4:55 19-Poison Dream (Live)
DR6 0.00 dB -6.30 dB 2:57 20-Routes (Live)
DR6 0.00 dB -7.03 dB 4:21 21-Bloodshot Eyes (Live)
DR6 0.00 dB -6.99 dB 4:28 22-On The Hook (Live)
DR6 0.00 dB -6.83 dB 4:01 23-Contractor (Live)
DR6 0.00 dB -6.64 dB 3:56 24-Ruin (Live)
DR6 0.00 dB -6.73 dB 4:12 25-The Death of Us (Live)
DR6 0.00 dB -7.24 dB 5:19 26-512 (Live)
--------------------------------------------------------------------------------
Number of tracks: 26
Official DR value: DR6
Samplerate: 44100 Hz
Channels: 2
Bits per sample: 24
Bitrate: 1706 kbps
Codec: FLAC
================================================================================

admin

Post 21-Mar-2021 08:04

[Quote]

Metallica - Дискография
Metallica — американская метал-группа, образованная в 1981 году. Исполняет музыку в стиле трэш-метал и хэви-метал. Metallica оказала большое влияние на развитие метала и входит (наряду со Slayer, Megadeth и Anthrax) в «большую четвёрку трэш-метала». Альбомы Metallica были проданы в общей сложности в количестве более 100 миллионов экземпляров по всему миру, что делает её самым коммерчески успешным металическим коллективом. В 2011 году один из крупнейших журналов о метал-музыке «Kerrang!» в июньском номере признал Metallica лучшей метал-группой последних 30 лет.
Лицензия
Официальный сайт

Жанр: Thrash-Metal, Speed-Metal, Heavy-Metal, Hard-Rock | Носитель: WEB | Год издания : 1983-2020
Страна исполнителя (группы): US | Издатель (лейбл): Warner Bros., Elektra, Vertigo, Megaforce
Аудиокодек: FLAC (*.flac) | Тип рипа: tracks+.m3u | Битрейт аудио: lossless | Разрядность: 24/96 | 24/88.2 | 24/44.1
Продолжительность: 60:07:17 | Источник (релизер): Camerado | Наличие сканов в содержимом раздачи: нет

Треклист

(1983) Kill 'Em All (Deluxe Edition)
Kill 'Em All (Remastered)
[01] Hit The Lights [04:16]
[02] The Four Horsemen [07:13]
[03] Motorbreath [03:08]
[04] Jump In The Fire [04:41]
[05] (Anesthesia) - Pulling Teeth [04:15]
[06] Whiplash [04:09]
[07] Phantom Lord [05:01]
[08] No Remorse [06:27]
[09] Seek & Destroy [06:55]
[10] Metal Militia [05:11]
Live At Espace Balard, Paris, France - February 9th, 1984
[01] The Ecstasy Of Gold [03:46]
[02] Hit The Lights (Live) [04:17]
[03] The Four Horsemen (Live) [07:27]
[04] Jump In The Fire (Live) [04:42]
[05] Phantom Lord (Live) [04:48]
[06] No Remorse (Live) [06:25]
[07] Ride The Lightning (Live) [06:26]
[08] Motorbreath (Live) [03:06]
[09] (Anesthesia) - Pulling Teeth (Live) [03:12]
[10] Whiplash (Live) [04:09]
[11] Seek & Destroy (Live) [07:22]
[12] Metal Militia (Live) [07:49]
Jump In The Fire EP
[01] Jump In The Fire [04:41]
[02] Seek & Destroy ("Live" At The Automatt) [07:03]
[03] Phantom Lord ("Live" At The Automatt) [04:53]
Rough Mixes From Lars' Vault & The Whiplash EP Tracks
[01] Motorbreath (Rough Mix) [03:14]
[02] Hit The Lights (Rough Mix) [04:22]
[03] (Anesthesia) - Pulling Teeth (Rough Mix) [04:29]
[04] Seek & Destroy (Rough Mix) [06:57]
[05] Phantom Lord (Rough Mix) [05:04]
[06] Whiplash (Rough Mix) [04:15]
[07] The Four Horsemen (Rough Mix) [07:12]
[08] Seek & Destroy (NOT Live From The Automatt) [07:00]
[09] Phantom Lord (NOT Live From The Automatt) [04:50]
[10] Jump In The Fire [04:44]
[11] Whiplash (Special Neckbrace Remix) [04:11]
[12] Seek & Destroy ("Live" At The Automatt) [07:03]
[13] Phantom Lord ("Live" At The Automatt) [04:54]
Live At J Bees Rock III, Middletown, NY - January 20th, 1984
[01] The Four Horsemen (Live) [05:46]
[02] Jump In The Fire (Live) [05:14]
[03] Fight Fire With Fire (Live) [05:32]
[04] Ride The Lightning (Live) [07:14]
[05] Phantom Lord (Live) [05:21]
[06] Seek & Destroy (Live) [07:48]
[07] Whiplash (Live) [06:35]
Live At The Keystone, Palo Alto, CA - October 31st, 1983
[01] Hit The Lights (Live) [04:25]
[02] The Four Horsemen (Live) [07:29]
[03] Jump In The Fire (Live) [05:00]
[04] Fight Fire With Fire (Live) [05:36]
[05] Ride The Lightning (Live) [07:55]
[06] Phantom Lord (Live) [05:35]
[07] When Hell Freezes Over ("The Call Of Ktulu") (Live) [09:10]
[08] Seek & Destroy (Live) [07:22]
[09] (Anesthesia) - Pulling Teeth (Live) [02:35]
[10] Whiplash (Live) [05:48]
[11] Creeping Death (Live) [07:48]
[12] Guitar Solo (Live) [02:40]
[13] Metal Militia (Live) [07:46]
(1984) Ride The Lightning (Deluxe Edition)
Ride The Lightning (Remastered)
[01] Fight Fire With Fire [04:45]
[02] Ride The Lightning [06:37]
[03] For Whom The Bell Tolls [05:10]
[04] Fade To Black [06:57]
[05] Trapped Under Ice [04:04]
[06] Escape [04:24]
[07] Creeping Death [06:36]
[08] The Call Of Ktulu [08:53]
Live At The Hollywood Palladium, Los Angeles, CA - March 10th, 1985
[01] The Ecstasy Of Gold [01:36]
[02] Fight Fire With Fire (Live) [04:39]
[03] Ride The Lightning (Live) [07:08]
[04] Phantom Lord (Live) [05:05]
[05] (Anesthesia) - Pulling Teeth (Live) [03:35]
[06] For Whom The Bell Tolls (Live) [04:29]
[07] No Remorse (Live) [06:24]
[08] Fade To Black (Live) [07:15]
[09] Seek & Destroy (Live) [07:06]
[10] Creeping Death (Live) [05:55]
[11] Am I Evil? (Live) [03:39]
[12] Motorbreath (Live) [03:19]
Creeping Death EP
[01] Creeping Death [06:36]
[02] Am I Evil? [07:50]
[03] Blitzkrieg [03:37]
Demos & Rough Mixes From Lars' Vault
[01] Ride The Lightning (Studio Demo) [06:48]
[02] When Hell Freezes Over ("The Call Of Ktulu") (Studio Demo) [08:42]
[03] Creeping Death (Studio Demo) [07:11]
[04] Fight Fire With Fire (Studio Demo) [05:01]
[05] Ride The Lightning (Garage Demo) [07:34]
[06] When Hell Freezes Over ("The Call Of Ktulu") (Garage Demo) [09:22]
[07] Fight Fire With Fire (Garage Demo) [05:28]
[08] Ride The Lightning (Boom Box Demo) [07:44]
[09] Blitzkrieg (Rhythm Track Rough Mix) [03:38]
[10] Am I Evil? (Rhythm Track Rough Mix) [08:06]
Live At Kabuki Theatre, San Francisco, CA - March 15th, 1985
[01] Fight Fire With Fire (Live) [03:45]
[02] Ride The Lightning (Live) [06:48]
[03] Phantom Lord (Live) [04:45]
[04] The Four Horsemen (Live) [06:01]
[05] (Anesthesia) - Pulling Teeth (Live) [01:40]
[06] For Whom The Bell Tolls (Live) [04:16]
[07] No Remorse (Live) [06:15]
[08] Fade To Black (Live) [06:43]
[09] Creeping Death (Live) [05:33]
[10] Guitar Solo (Live) [02:48]
[11] Am I Evil? (Live) [03:34]
[12] Motorbreath (Live) [03:03]
Live At The Lyceum Theatre, London, UK - December 20th, 1984
[01] Phantom Lord (Live) [04:13]
[02] The Four Horsemen (Live) [06:29]
[03] (Anesthesia) - Pulling Teeth (Live) [04:16]
[04] For Whom The Bell Tolls (Live) [04:32]
[05] No Remorse (Live) [06:07]
[06] The Call Of Ktulu (Live) [07:47]
[07] Seek & Destroy (Live) [07:03]
[08] Whiplash (Live) [04:35]
[09] Creeping Death (Live) [05:14]
[10] Guitar Solo (Live) [01:23]
[11] Metal Militia (Live) [09:01]
Live At Castle Donington, UK - August 17th, 1985
[01] Creeping Death (Live) [05:52]
[02] Ride The Lightning (Live) [07:07]
[03] For Whom The Bell Tolls (Live) [04:43]
[04] The Four Horsemen (Live) [05:57]
[05] Fade To Black (Live) [07:08]
[06] Seek & Destroy (Live) [06:59]
[07] Whiplash (Live) [04:30]
[08] Motorbreath (Live) [04:04]
(1986) Master Of Puppets (2016 Remastered)
[01] Battery [05:13]
[02] Master Of Puppets [08:35]
[03] The Thing That Should Not Be [06:36]
[04] Welcome Home (Sanitarium) [06:27]
[05] Disposable Heroes [08:17]
[06] Leper Messiah [05:40]
[07] Orion [08:27]
[08] Damage, Inc. [05:32]
(1986) Master Of Puppets (2017 Remastered Deluxe Edition)
Master Of Puppets (Remastered)
[01] Battery [05:12]
[02] Master Of Puppets [08:35]
[03] The Thing That Should Not Be [06:36]
[04] Welcome Home (Sanitarium) [06:27]
[05] Disposable Heroes [08:17]
[06] Leper Messiah [05:40]
[07] Orion [08:27]
[08] Damage, Inc. [05:32]
Live At The Aragon Ballroom, Chicago, IL - May 25th, 1986
[01] Battery (Live) [03:52]
[02] Master Of Puppets (Live) [08:18]
[03] For Whom The Bell Tolls (Live) [04:15]
[04] Welcome Home (Sanitarium) (Live) [07:06]
[05] The Thing That Should Not Be (Live) [06:15]
[06] (Anesthesia) - Pulling Teeth (Live) [02:57]
[07] Damage, Inc. (Live) [04:25]
[08] Fade To Black (Live) [06:48]
[09] Seek & Destroy (Live) [07:22]
[10] Creeping Death (Live) [06:22]
[11] The Four Horsemen (Live) [05:21]
[12] Guitar Solo (Live) [03:12]
[13] Am I Evil? (Live) [03:42]
[14] Whiplash (Live) [04:44]
Rough Mixes From The Vault
[01] Battery (October 1985, Work In Progress Rough Mix) [05:09]
[02] Master Of Puppets (November 1985, Work In Progress Rough Mix) [08:44]
[03] The Thing That Should Not Be (December 1985, Work In Progress Rough Mix) [06:22]
[04] Welcome Home (Sanitarium) (November 1985, Work In Progress Rough Mix) [06:29]
[05] Disposable Heroes (November 1985, Work In Progress Rough Mix) [08:26]
[06] Leper Messiah (December 1985, Work In Progress Rough Mix) [05:45]
[07] Orion (November 1985, Work In Progress Rough Mix) [08:22]
[08] Damage, Inc. (October 1985, Work In Progress Rough Mix) [04:14]
[09] The Money Will Roll Right In (Work In Progress Rough Mix) [02:57]
[10] The Prince (Work In Progress Rough Mix) [04:46]
Riffs, Demos & Outtakes From Lars' & James' Vaults
[01] Battery (1985, From James' Riff Tapes) [00:16]
[02] Battery (1985, From James' Riff Tapes II) [01:07]
[03] Master Of Puppets (1985, From Kirk's Riff Tapes) [00:37]
[04] Master Of Puppets (1985, From James' Riff Tapes) [01:41]
[05] Master Of Puppets (1985, From James' Riff Tapes II) [00:29]
[06] The Thing That Should Not Be (1985, From James' Riff Tapes) [00:35]
[07] Welcome Home (Sanitarium) (1985, From James' Riff Tapes) [02:07]
[08] Welcome Home (Sanitarium) (1985, From James' Riff Tapes II) [01:58]
[09] Disposable Heroes (1985, From Kirk's Riff Tapes) [01:27]
[10] Disposable Heroes (1985, From James' Riff Tapes) [00:32]
[11] Leper Messiah (1985, From James' Riff Tapes) [00:54]
[12] Leper Messiah (1985, From James' Riff Tapes II) [00:54]
[13] Orion (1985, From James' Riff Tapes) [01:15]
[14] Damage, Inc. (1985, From James' Riff Tapes) [01:54]
[15] Disposable Heroes (May 1985, Writing In Progress) [04:11]
[16] Battery (May 1985, Writing In Progress) [06:26]
[17] Welcome Home (Sanitarium) (May 1985, Writing In Progress) [06:16]
[18] Disposable Heroes (May 1985, Writing In Progress II) [05:40]
[19] Battery (Early June 1985 Demo) [04:41]
[20] Disposable Heroes (Early June 1985 Demo) [08:38]
[21] Welcome Home (Sanitarium) (Early June 1985 Demo) [05:05]
[22] Master Of Puppets (Mid-June 1985, Writing In Progress) [01:31]
[23] Master Of Puppets (Mid-June 1985, Writing In Progress II) [12:08]
[24] Master Of Puppets (Mid-June 1985 Demo) [08:44]
[25] Disposable Heroes (Late June 1985 Demo) [08:57]
[26] Battery (Late June 1985 Demo) [04:42]
[27] Welcome Home (Sanitarium) (Late June 1985 Demo) [09:00]
[28] Master Of Puppets (Late June 1985 Demo) [08:19]
[29] Damage, Inc. (Late August 1985, Writing In Progress) [02:40]
[30] Leper Messiah (Late August 1985 Demo) [05:34]
[31] Damage, Inc. (Late August 1985 Demo) [04:35]
[32] Leper Messiah (Late August 1985 Demo II) [05:55]
[33] Orion (September 1985 Drum Room Demo) [08:18]
[34] The Thing That Should Not Be (September 1985, Writing In Progress) [04:18]
[35] The Thing That Should Not Be (September 1985 Drum Room Demo) [06:21]
[36] The Money Will Roll Right In (September 1985 Drum Room Jam) [02:50]
[37] The Prince (September 1985 Drum Room Jam) [04:58]
[38] Welcome Home (Sanitarium) (Late 1985 Guitar Solo Outtakes) [01:23]
[39] Orion (Late 1985 Guitar Solo Outtakes) [00:54]
[40] Orion (Late 1985, Kirk & Lars In The Control Room) [01:02]
Live At The Meadowlands, East Rutherford, NJ - April 21st, 1986
[01] The Ecstasy Of Gold [01:35]
[02] Battery (Live) [04:40]
[03] Master Of Puppets (Live) [08:42]
[04] For Whom The Bell Tolls (Live) [04:24]
[05] Ride The Lightning (Live) [06:33]
[06] Welcome Home (Sanitarium) (Live) [05:41]
[07] Seek & Destroy (Live) [03:50]
[08] Creeping Death (Live) [06:47]
[09] Am I Evil? (Live) [04:13]
[10] Damage, Inc. (Live) [05:05]
Live At Hampton Coliseum, Hampton, VA - August 3rd, 1986
[01] Battery (Live) [04:26]
[02] Master Of Puppets (Live) [07:59]
[03] For Whom The Bell Tolls (Live) [05:10]
[04] Bass Solo (Live) [00:59]
[05] Welcome Home (Sanitarium) (Live) [09:26]
[06] Seek & Destroy (Live) [07:50]
[07] Creeping Death (Live) [08:20]
[08] Am I Evil? (Live) [03:46]
[09] Damage, Inc. (Live) [05:56]
Jason's Audition & Live At The Country Club, Reseda, CA - November 8th, 1986
[01] Master Of Puppets (Jason's First Audition) [07:36]
[02] Battery (Jason's First Audition) [04:13]
[03] Seek & Destroy (Jason's Second Audition) [06:11]
[04] Creeping Death (Jason's Second Audition) [05:38]
[05] Fight Fire With Fire (Jason's Second Audition) [04:03]
[06] Master Of Puppets (Live) [07:51]
[07] For Whom The Bell Tolls (Live) [04:50]
[08] Welcome Home (Sanitarium) (Live) [06:04]
[09] Ride The Lightning (Live) [06:21]
[10] Guitar Solo (Live) [02:30]
[11] Whiplash (Live) [04:08]
[12] Seek & Destroy (Live) [06:34]
[13] The Four Horsemen (Live) [05:03]
[14] Am I Evil? (Live) [03:45]
[15] Damage, Inc. (Live) [04:39]
Live At Grugahalle, Essen, West Germany - January 25th, 1987
[01] Master Of Puppets (Live) [04:46]
[02] For Whom The Bell Tolls (Live) [04:30]
[03] Welcome Home (Sanitarium) (Live) [05:49]
[04] Ride The Lightning (Live) [06:25]
[05] Bass Solo (Live) [05:06]
[06] Whiplash (Live) [04:00]
[07] The Thing That Should Not Be (Live) [05:42]
[08] Creeping Death (Live) [07:42]
[09] The Four Horsemen (Live) [04:59]
[10] Guitar Solo (Live) [02:47]
[11] Am I Evil? (Live) [03:41]
[12] Damage, Inc. (Live) [05:10]
[13] Blitzkrieg (Live) [04:25]
Live At Solnahallen, Stockholm, Sweden - September 26th, 1986
[01] The Ecstasy Of Gold [01:42]
[02] Battery (Live) [04:27]
[03] Master Of Puppets (Live) [07:40]
[04] For Whom The Bell Tolls (Live) [04:20]
[05] Welcome Home (Sanitarium) (Live) [05:52]
[06] Ride The Lightning (Live) [06:12]
[07] (Anesthesia) - Pulling Teeth (Live) [05:11]
[08] Whiplash (Live) [03:45]
[09] The Thing That Should Not Be (Live) [05:58]
[10] Fade To Black (Live) [06:43]
[11] Seek & Destroy (Live) [06:48]
[12] Creeping Death (Live) [07:00]
[13] The Four Horsemen (Live) [04:47]
[14] Guitar Solo (Live) [01:06]
[15] Am I Evil? (Live) [03:35]
[16] Damage, Inc. (Live) [04:36]
[17] Blitzkrieg (Live) [04:05]
[18] Fight Fire With Fire (Live) [04:41]
(1987) The $5.98 E.P. - Garage Days Re-Revisited
[01] Helpless [06:38]
[02] The Small Hours [06:41]
[03] The Wait [04:52]
[04] Crash Course In Brain Surgery [03:09]
[05] Last Caress / Green Hell [03:30]
(1988) ...And Justice For All (2016 Remastered)
[01] Blackened [06:42]
[02] ...And Justice For All [09:46]
[03] Eye Of The Beholder [06:26]
[04] One [07:28]
[05] The Shortest Straw [06:35]
[06] Harvester Of Sorrow [05:45]
[07] The Frayed Ends Of Sanity [07:43]
[08] To Live Is To Die [09:48]
[09] Dyers Eve [05:13]
(1988) ...And Justice For All (2018 Remastered Deluxe Edition)
...And Justice For All (Remastered)
[01] Blackened [06:42]
[02] ...And Justice For All [09:46]
[03] Eye Of The Beholder [06:26]
[04] One [07:26]
[05] The Shortest Straw [06:35]
[06] Harvester Of Sorrow [05:45]
[07] The Frayed Ends Of Sanity [07:43]
[08] To Live Is To Die [09:48]
[09] Dyers Eve [05:13]
Seattle '89
[01] The Ecstasy Of Gold [01:59]
[02] Blackened (Live) [06:37]
[03] For Whom The Bell Tolls (Live) [05:30]
[04] Welcome Home (Sanitarium) (Live) [06:47]
[05] Harvester Of Sorrow (Live) [06:11]
[06] The Four Horsemen (Live) [06:00]
[07] The Thing That Should Not Be (Live) [07:08]
[08] Bass Solo (Live) [07:30]
[09] Master Of Puppets (Live) [08:51]
[10] Fade To Black (Live) [08:11]
[11] Seek & Destroy (Live) [09:02]
[12] ...And Justice For All (Live) [11:01]
[13] One (Live) [09:28]
[14] Creeping Death (Live) [07:50]
[15] Guitar Solo (Live) [06:36]
[16] Battery (Live) [06:18]
[17] Encore Jam (Live) [02:49]
[18] Last Caress (Live) [01:54]
[19] Am I Evil? (Live) [04:10]
[20] Whiplash (Live) [05:37]
[21] Breadfan (Live) [04:44]
Riffs, Jams & Demos
[01] Blackened (1987, From James' Riff Tapes) [00:36]
[02] Blackened (1987, From James' Riff Tapes II) [03:09]
[03] ...And Justice For All (1987, From James' Riff Tapes) [02:39]
[04] ...And Justice For All (1988, From James' Riff Tapes) [00:44]
[05] Eye Of The Beholder (1987, From James' Riff Tapes) [01:29]
[06] Eye Of The Beholder (1987, From James' Riff Tapes II) [00:38]
[07] One (1987, From James' Riff Tapes) [02:23]
[08] The Shortest Straw (1986, From James' Riff Tapes) [01:47]
[09] The Shortest Straw (1986, From James' Riff Tapes II) [00:47]
[10] Harvester Of Sorrow (1987, From James' Riff Tapes) [01:10]
[11] The Frayed Ends Of Sanity (1987, From James' Riff Tapes) [01:40]
[12] To Live Is To Die (1986, From James' Riff Tapes) [01:31]
[13] To Live Is To Die (1988, From James' Riff Tapes) [00:57]
[14] Dyers Eve (1986, From James' Riff Tapes) [01:12]
[15] Dyers Eve (1987, From James' Riff Tapes) [06:05]
[16] Blackened (October 1987, Writing In Progress) [03:23]
[17] ...And Justice For All (October 1987, Writing In Progress) [00:59]
[18] ...And Justice For All (October 1987, Writing In Progress II) [01:28]
[19] One (October 1987, Writing In Progress) [01:10]
[20] The Shortest Straw (October 1987, Writing In Progress) [00:52]
[21] ...And Justice For All (November 1987, Writing In Progress) [08:25]
[22] The Frayed Ends Of Sanity (November 1987, Writing In Progress) [07:57]
[23] One (November 1987, Writing In Progress) [02:18]
[24] Dyers Eve (November 1987, Writing In Progress) [05:43]
[25] Eye Of The Beholder (November 1987, Writing In Progress) [06:52]
[26] To Live Is To Die (November 1987, Writing In Progress) [00:55]
[27] The Shortest Straw (December 1987, Writing In Progress) [06:46]
[28] Harvester Of Sorrow (December 1987, Writing In Progress) [05:22]
[29] Blackened (November 1987 Demo) [05:58]
[30] ...And Justice For All (November 1987 Demo) [08:18]
[31] Eye Of The Beholder (November 1987 Demo) [06:30]
[32] One (November 1987 Demo) [07:08]
[33] The Frayed Ends Of Sanity (November 1987 Demo) [07:38]
[34] Eye Of The Beholder (January 1988 Demo) [06:33]
[35] The Shortest Straw (January 1988 Demo) [06:48]
[36] Harvester Of Sorrow (January 1988 Demo) [05:51]
[37] Dyers Eve (January 1988 Demo) [06:01]
[38] To Live Is To Die (January 1988 Demo) [10:05]
Rough Mixes From The Vault
[01] Blackened (Work In Progress Rough Mix) [06:02]
[02] ...And Justice For All (Work In Progress Rough Mix) [09:50]
[03] Eye Of The Beholder (Work In Progress Rough Mix) [06:32]
[04] One (Work In Progress Rough Mix) [07:14]
[05] The Shortest Straw (Work In Progress Rough Mix) [06:39]
[06] Harvester Of Sorrow (Work In Progress Rough Mix) [05:48]
[07] The Frayed Ends Of Sanity (Work In Progress Rough Mix) [07:42]
[08] To Live Is To Die (Acoustic Intro) (Work In Progress Rough Mix) [02:40]
[09] To Live Is To Die (Work In Progress Rough Mix) [08:57]
[10] Dyers Eve (Work In Progress Rough Mix) [05:24]
[11] Breadfan (Work In Progress Rough Mix) [05:38]
[12] The Prince (Work In Progress Rough Mix) [04:26]
Live At The Troubadour, West Hollywood, CA - May 24th, 1988 + B-Sides
[01] Creeping Death (Live) [06:55]
[02] For Whom The Bell Tolls (Live) [04:33]
[03] Welcome Home (Sanitarium) (Live) [07:00]
[04] The Four Horsemen (Live) [05:50]
[05] Whiplash (Live) [04:19]
[06] Fade To Black (Live) [07:21]
[07] Seek & Destroy (Live) [07:19]
[08] Master Of Puppets (Live) [09:01]
[09] Encore Jam (Live) [01:27]
[10] Last Caress (Live) [01:22]
[11] Am I Evil? (Live) [03:45]
[12] Battery (Live) [05:16]
[13] Encore Jam #2 (Live) [01:05]
[14] Harvester Of Sorrow (Live) [06:48]
[15] Leper Messiah (Live) [05:35]
[16] Blitzkrieg (Live) [05:39]
+
[17] Breadfan (Remastered) [05:44]
[18] The Prince (Remastered) [04:26]
[19] For Whom The Bell Tolls (Live) [04:47]
[20] Welcome Home (Sanitarium) (Live) [06:06]
[21] Seek & Destroy (Live) [08:43]
[22] Creeping Death (Live) [08:11]
[23] Harvester Of Sorrow (Live) [06:19]
[24] One (Live) [07:12]
[25] Breadfan (Live) [04:17]
[26] Last Caress (Live) [01:40]
Live At The Hammersmith Odeon, London, UK - October 10th, 1988 + Radio Edits
[01] Welcome Home (Sanitarium) (Live) [06:27]
[02] The Four Horsemen (Live) [05:14]
[03] Harvester Of Sorrow (Live) [05:20]
[04] Eye Of The Beholder (Live) [06:05]
[05] Bass Solo (Live) [06:46]
[06] Master Of Puppets (Live) [07:37]
[07] Damage, Inc. (Live) [03:58]
[08] One (Live) [08:13]
[09] Seek & Destroy (Live) [06:57]
[10] ...And Justice For All (Live) [07:05]
[11] Encore Jam (Live) [01:02]
[12] Creeping Death (Live) [07:13]
[13] Fade To Black (Live) [06:47]
[14] Guitar Solo (Live) [06:16]
[15] Battery (Live) [04:54]
[16] Encore Jam #2 (Live) [03:32]
[17] Last Caress (Live) [01:20]
[18] Am I Evil? (Live) [03:45]
[19] Whiplash (Live) [04:01]
+
[20] Eye Of The Beholder (Radio Edit) [05:58]
[21] One (Radio Edit) [05:02]
[22] ...And Justice For All (Radio Edit) [06:00]
Live At Long Beach Arena, Long Beach, CA - December 7th, 1988 + More
[01] Blackened (Live) [02:02]
[02] For Whom The Bell Tolls (Live) [04:29]
[03] Welcome Home (Sanitarium) (Live) [06:11]
[04] Leper Messiah (Live) [05:45]
[05] Harvester Of Sorrow (Live) [05:12]
[06] Eye Of The Beholder (Live) [06:06]
[07] Bass Solo (Live) [06:18]
[08] Master Of Puppets (Live) [07:29]
[09] One (Live) [08:09]
[10] Seek & Destroy (Live) [07:09]
[11] ...And Justice For All (Live) [09:47]
[12] Encore Jam (Live) [00:49]
[13] Creeping Death (Live) [06:54]
[14] Fade To Black (Live) [06:33]
[15] Guitar Solo (Live) [05:53]
[16] Battery (Live) [04:45]
+
[17] Last Caress (Live) [01:20]
[18] Am I Evil? (Live) [03:45]
[19] Whiplash (Live) [03:52]
(1991) Metallica
[01] Enter Sandman [05:32]
[02] Sad But True [05:25]
[03] Holier Than Thou [03:48]
[04] The Unforgiven [06:27]
[05] Wherever I May Roam [06:44]
[06] Don't Tread On Me [04:01]
[07] Through The Never [04:04]
[08] Nothing Else Matters [06:29]
[09] Of Wolf And Man [04:17]
[10] The God That Failed [05:09]
[11] My Friend Of Misery [06:49]
[12] The Struggle Within [03:54]
(1993) Live Shit: Binge & Purge
[01] Enter Sandman (Live) [07:28]
[02] Creeping Death (Live) [07:28]
[03] Harvester Of Sorrow (Live) [07:19]
[04] Welcome Home (Sanitarium) (Live) [06:39]
[05] Sad But True (Live) [06:07]
[06] Of Wolf And Man (Live) [06:22]
[07] The Unforgiven (Live) [06:48]
[08] Justice Medley (Live) [09:38]
[09] Solos (Bass/Guitar) (Live) [18:49]
[10] Through The Never (Live) [03:47]
[11] For Whom The Bell Tolls (Live) [05:48]
[12] Fade To Black (Live) [07:12]
[13] Master Of Puppets (Live) [04:35]
[14] Seek And Destroy (Live) [18:08]
[15] Whiplash (Live) [05:34]
[16] Nothing Else Matters (Live) [06:22]
[17] Wherever I May Roam (Live) [06:33]
[18] Am I Evil? (Live) [05:42]
[19] Last Caress (Live) [01:25]
[20] One (Live) [10:27]
[21] Battery (Live) [10:05]
[22] The Four Horsemen (Live) [06:08]
[23] Motorbreath (Live) [03:14]
[24] Stone Cold Crazy (Live) [05:32]
(1996) Load
[01] Ain't My Bitch [05:04]
[02] 2 X 4 [05:28]
[03] The House Jack Built [06:39]
[04] Until It Sleeps [04:30]
[05] King Nothing [05:28]
[06] Hero Of The Day [04:22]
[07] Bleeding Me [08:18]
[08] Cure [04:54]
[09] Poor Twisted Me [04:00]
[10] Wasting My Hate [03:57]
[11] Mama Said [05:20]
[12] Thorn Within [05:52]
[13] Ronnie [05:17]
[14] The Outlaw Torn [09:49]
(1997) Reload
[01] Fuel [04:29]
[02] The Memory Remains [04:39]
[03] Devil's Dance [05:19]
[04] The Unforgiven II [06:36]
[05] Better Than You [05:22]
[06] Slither [05:13]
[07] Carpe Diem Baby [06:12]
[08] Bad Seed [04:05]
[09] Where The Wild Things Are [06:54]
[10] Prince Charming [06:05]
[11] Low Man's Lyric [07:37]
[12] Attitude [05:16]
[13] Fixxxer [08:15]
(1998) Garage Inc.
[01] Free Speech For The Dumb [02:35]
[02] It's Electric [03:34]
[03] Sabbra Cadabra [06:20]
[04] Turn The Page [06:07]
[05] Die, Die My Darling [02:29]
[06] Loverman [07:53]
[07] Mercyful Fate [11:12]
[08] Astronomy [06:38]
[09] Whiskey In The Jar [05:05]
[10] Tuesday's Gone [09:06]
[11] The More I See [04:49]
[12] Helpless [06:38]
[13] The Small Hours [06:43]
[14] The Wait [04:55]
[15] Crash Course In Brain Surgery [03:10]
[16] Last Caress/ Green Hell [03:30]
[17] Am I Evil? [07:50]
[18] Blitzkrieg [03:37]
[19] Breadfan [05:41]
[20] The Prince [04:26]
[21] Stone Cold Crazy [02:18]
[22] So What [03:09]
[23] Killing Time [03:04]
[24] Overkill [04:05]
[25] Damage Case [03:40]
[26] Stone Dead Forever [04:52]
[27] Too Late Too Late [03:12]
(1999) S&M
[01] The Ecstasy Of Gold (Live) [02:31]
[02] The Call Of Ktulu (Live) [09:34]
[03] Master Of Puppets (Live) [08:55]
[04] Of Wolf And Man (Live) [04:19]
[05] The Thing That Should Not Be (Live) [07:27]
[06] Fuel (Live) [04:36]
[07] The Memory Remains (Live) [04:42]
[08] No Leaf Clover (Live) [05:43]
[09] Hero Of The Day (Live) [04:45]
[10] Devil's Dance (Live) [05:26]
[11] Bleeding Me (Live) [09:02]
[12] Nothing Else Matters (Live) [06:47]
[13] Until It Sleeps (Live) [04:30]
[14] For Whom The Bell Tolls (Live) [04:52]
[15] – Human (Live) [04:20]
[16] Wherever I May Roam (Live) [07:01]
[17] The Outlaw Torn (Live) [09:59]
[18] Sad But True (Live) [05:46]
[19] One (Live) [07:53]
[20] Enter Sandman (Live) [07:39]
[21] Battery (Live) [07:25]
(2003) St. Anger
[01] Frantic [05:50]
[02] St. Anger [07:21]
[03] Some Kind Of Monster [08:26]
[04] Dirty Window [05:25]
[05] Invisible Kid [08:30]
[06] My World [05:46]
[07] Shoot Me Again [07:10]
[08] Sweet Amber [05:27]
[09] The Unnamed Feeling [07:09]
[10] Purify [05:14]
[11] All Within My Hands [08:48]
(2004) Some Kind Of Monster
[01] Some Kind Of Monster [08:28]
[02] The Four Horsemen (Live) [05:22]
[03] Damage, Inc. (Live) [05:00]
[04] Leper Messiah (Live) [05:57]
[05] Motorbreath (Live) [03:21]
[06] Ride The Lightning (Live) [06:42]
[07] Hit The Lights (Live) [04:14]
[08] Some Kind Of Monster (Edit) [04:17]
(2008) Death Magnetic
[01] That Was Just Your Life [07:08]
[02] The End Of The Line [07:52]
[03] Broken, Beat & Scarred [06:25]
[04] The Day That Never Comes [07:56]
[05] All Nightmare Long [07:58]
[06] Cyanide [06:40]
[07] The Unforgiven III [07:47]
[08] The Judas Kiss [08:01]
[09] Suicide & Redemption [09:58]
[10] My Apocalypse [05:01]
(2011) Beyond Magnetic
[01] Hate Train [06:59]
[02] Just A Bullet Away [07:11]
[03] Hell And Back [06:58]
[04] Rebel Of Babylon [08:02]
(2013) Through The Never (Music From The Motion Picture)
[01] The Ecstasy Of Gold [02:01]
[02] Creeping Death (Live) [06:19]
[03] For Whom The Bell Tolls (Live) [04:40]
[04] Fuel (Live) [03:57]
[05] Ride The Lightning (Live) [06:54]
[06] One (Live) [08:25]
[07] The Memory Remains (Live) [05:43]
[08] Wherever I May Roam (Live) [06:18]
[09] Cyanide (Live) [07:01]
[10] ...And Justice For All (Live) [09:18]
[11] Master Of Puppets (Live) [08:25]
[12] Battery (Live) [05:14]
[13] Nothing Else Matters (Live) [07:22]
[14] Enter Sandman (Live) [06:22]
[15] Hit The Lights (Live) [04:40]
[16] Orion (Live) [08:27]
(2014) Lords Of Summer
[01] Lords Of Summer (First Pass Version) [08:20]
[02] Lords Of Summer (Live Version) [08:48]
(2016) Hardwired...To Self-Destruct (Deluxe Edition)
Album:
[01] Hardwired [03:09]
[02] Atlas, Rise! [06:29]
[03] Now That We're Dead [06:59]
[04] Moth Into Flame [05:51]
[05] Dream No More [06:30]
[06] Halo On Fire [08:15]
[07] Confusion [06:41]
[08] ManUNkind [06:56]
[09] Here Comes Revenge [07:18]
[10] Am I Savage? [06:30]
[11] Murder One [05:45]
[12] Spit Out The Bone [07:09]
Bonus:
[01] Lords Of Summer (2016) [07:10]
[02] Ronnie Rising Medley [09:03]
[03] When A Blind Man Cries [04:35]
[04] Remember Tomorrow [05:50]
[05] Helpless (Live at Rasputin Music) [03:08]
[06] Hit The Lights (Live at Rasputin Music) [04:07]
[07] The Four Horsemen (Live at Rasputin Music) [05:19]
[08] Ride The Lightning (Live at Rasputin Music) [06:56]
[09] Fade To Black (Live at Rasputin Music) [07:24]
[10] Jump In The Fire (Live at Rasputin Music) [05:13]
[11] For Whom The Bell Tolls (Live at Rasputin Music) [04:32]
[12] Creeping Death (Live at Rasputin Music) [06:43]
[13] Metal Militia (Live at Rasputin Music) [06:07]
[14] Hardwired (Live in Minneapolis) [03:30]
(2020) S&M2
[01] The Ecstasy Of Gold (Live) [2:41]
[02] The Call Of Ktulu (Live) [9:14]
[03] For Whom The Bell Tolls (Live) [4:37]
[04] The Day That Never Comes (Live) [8:27]
[05] The Memory Remains (Live) [5:42]
[06] Confusion (Live) [6:41]
[07] Moth Into Flame (Live) [6:18]
[08] The Outlaw Torn (Live) [10:03]
[09] No Leaf Clover (Live) [5:30]
[10] Halo On Fire (Live) [8:17]
[11] Intro To Scythian Suite (Live) [5:17]
[12] Scythian Suite, Opus 20 II: The Enemy God And The Dance Of The Dark Spirits (Live) [3:39]
[13] Intro To The Iron Foundry (Live) [1:03]
[14] The Iron Foundry, Opus 19 (Live) [4:16]
[15] The Unforgiven III (Live) [8:19]
[16] All Within My Hands (Live) [6:14]
[17] (Anesthesia) - Pulling Teeth (Live) [7:28]
[18] Wherever I May Roam (Live) [6:32]
[19] One (Live) [9:24]
[20] Master Of Puppets (Live) [8:30]
[21] Nothing Else Matters (Live) [6:40]
[22] Enter Sandman (Live) [8:46]
Обновление
Добавлено: (2020) S&M2

admin

Post 01-Jan-2020 22:33

[Quote]

-Название: Дискография
Исполнитель: Metallica
Год: 1982-2016
Жанр: Thrash-Metal, Heavy-Metal
Страна: USA-Продолжительность: 9560 минут
Формат/Кодек: MP3
Битрейт аудио: 320 kbps

Трек-лист

[1983]-Kill 'Em All

01. Hit The Lights (04:17)
02. The Four Horsemen (07:14)
03. Motorbreath (03:09)
04. Jump In The Fire (04:42)
05. (Anesthesia) Pulling Teeth (04:15)
06. Whiplash (04:11)
07. Phantom Lord (05:02)
08. No Remorse (06:27)
09. Seek & Destroy (06:56)
10. Metal Militia (05:11)
11. Am I Evil? (07:52)
12. Blitzkrieg (03:36)
[1984]-Ride The Lightning

01. Fight Fire With Fire (04:46)
02. Ride The Lightning (06:38)
03. For Whom The Bell Tolls (05:12)
04. Fade To Black (06:53)
05. Trapped Under Ice (04:05)
06. Escape (04:24)
07. Creeping Death (06:37)
08. The Call Of Ktulu (08:55)
[1986]-Master Of Puppets

01. Battery (05:13)
02. Master Of Puppets (08:35)
03. The Thing That Should Not Be (06:37)
04. Welcome Home (Sanitarium) (06:28)
05. Disposable Heroes (08:17)
06. Leper Messiah (05:41)
07. Orion (08:28)
08. Damage, Inc. (05:32)
[1988]-...And Justice For All

01. Blackened (06:43)
02. ...And Justice For All (09:46)
03. Eye Of The Beholder (06:26)
04. One (07:26)
05. The Shortest Straw (06:36)
06. Harvester Of Sorrow (05:46)
07. The Frayed Ends Of Sanity (07:44)
08. To Live Is To Die (09:49)
09. Dyers Eve (05:17)
10. The Prince (04:27)
[1991]-Metallica

01. Enter Sandman (05:32)
02. Sad But True (05:25)
03. Holier Than Thou (03:48)
04. The Unforgiven (06:28)
05. Wherever I May Roam (06:45)
06. Don't Tread On Me (04:00)
07. Through The Never (04:05)
08. Nothing Else Matters (06:29)
09. Of Wolf And Man (04:17)
10. The God That Failed (05:09)
11. My Friend Of Misery (06:50)
12. The Struggle Within (03:54)
13. So What (03:09)
[1996]-Load

01. Ain't My Bitch (05:04)
02. 2 X 4 (05:29)
03. The House Jack Built (06:39)
04. Until It Sleeps (04:30)
05. King Nothing (05:28)
06. Hero Of The Day (04:22)
07. Bleeding Me (08:19)
08. Cure (04:54)
09. Poor Twisted Me (04:00)
10. Wasting My Hate (03:58)
11. Mama Said (05:20)
12. Thorn Within (05:52)
13. Ronnie (05:18)
14. The Outlaw Torn (09:50)
[1997]-ReLoad

01. Fuel (04:30)
02. The Memory Remains (04:40)
03. Devil's Dance (05:19)
04. The Unforgiven II (06:37)
05. Better Than You (05:22)
06. Slither (05:13)
07. Carpe Diem Baby (06:13)
08. Bad Seed (04:06)
09. Where The Wild Things Are (06:55)
10. Prince Charming (06:05)
11. Low Man's Lyric (07:38)
12. Attitude (05:16)
13. Fixxxer (08:16)
[1998]-Garage Inc.

CD-1:
01. Free Speech For The Dumb (02:36)
02. It's Electric (03:34)
03. Sabbra Cadabra (06:21)
04. Turn The Page (06:07)
05. Die, Die My Darling (02:29)
06. Loverman (07:53)
07. Mercyful Fate (11:12)
08. Astronomy (06:38)
09. Whiskey In The Jar (05:05)
10. Tuesday's Gone (09:06)
11. The More I See (04:50)
CD-2:
01. Helpless (06:39)
02. The Small Hours (06:43)
03. The Wait (04:56)
04. Crash Course In Brain Surgery (03:11)
05. Last Caress / Green Hell (03:30)
06. Am I Evil? (07:51)
07. Blitzkrieg (03:37)
08. Breadfan (05:42)
09. The Prince (04:26)
10. Stone Cold Crazy (02:18)
11. So What (03:09)
12. Killing Time (03:04)
13. Overkill (04:05)
14. Damage Case (03:41)
15. Stone Dead Forever (04:52)
16. Too Late Too Late (03:13)
[2003]-St. Anger

01. Frantic (05:51)
02. St. Anger (07:22)
03. Some Kind Of Monster (08:26)
04. Dirty Window (05:25)
05. Invisible Kid (08:31)
06. My World (05:46)
07. Shoot Me Again (07:10)
08. Sweet Amber (05:27)
09. The Unnamed Feeling (07:10)
10. Purify (05:14)
11. All Within My Hands (08:49)
[2008]-Death Magnetic

01. That Was Just Your Life (07:09)
02. The End Of The Line (07:53)
03. Broken, Beat & Scarred (06:26)
04. The Day That Never Comes (07:57)
05. All Nightmare Long (07:58)
06. Cyanide (06:40)
07. The Unforgiven III (07:47)
08. The Judas Kiss (08:01)
09. Suicide & Redemption (09:58)
10. My Apocalypse (05:01)
[2011]-Lulu (w. Lou Reed)

CD-1:
01. Brandenburg Gate (04:22)
02. The View (05:21)
03. Pumping Blood (07:25)
04. Mistress Dread (06:53)
05. Iced Honey (04:38)
06. Cheat On Me (11:27)
CD-2:
01. Frustration (08:34)
02. Little Dog (08:02)
03. Dragon (11:11)
04. Junior Dad (19:30)
[2016]-Hardwired... To Self-Destruct

CD-1:
01. Hardwired (03:10)
02. Atlas, Rise! (06:29)
03. Now That We're Dead (06:59)
04. Moth Into Flame (05:51)
05. Dream No More (06:30)
06. Halo On Fire (08:16)
CD-2:
01. Confusion (06:42)
02. ManUNkind (06:56)
03. Here Comes Revenge (07:18)
04. Am I Savage? (06:30)
05. Murder One (05:46)
06. Spit Out The Bone (07:10)
CD-3:
01. Lords Of Summer (07:10)
02. Ronnie Rising Medley (A Light In The Black / Tarot Woman / Stargazer / Kill The King) (09:04)
03. When A Blind Man Cries (04:35)
04. Remember Tomorrow (05:50)
05. Helpless (Live) (03:08)
06. Hit The Lights (Live) (04:07)
07. The Four Horsemen (Live) (05:20)
08. Ride The Lightning (Live) (06:57)
09. Fade To Black (Live) (07:25)
10. Jump In The Fire (Live) (05:13)
11. For Whom The Bell Tolls (Live) (04:32)
12. Creeping Death (Live) (06:44)
13. Metal Militia (Live) (06:08)
14. Hardwired (Live) (03:30)
+ все Single, EPs, Live, Remastered-

Дополнительная информация:

Metallica (читается как Метáллика) — американская метал-группа, образованная в 1981 году.
Metallica оказала большое влияние на развитие метала и входит (наряду с такими группами как Slayer, Megadeth и Anthrax) в «большую четвёрку трэш-метала». Альбомы Metallica были проданы в общей сложности в количестве более 110 миллионов экземпляров по всему миру, что делает её одним из самых коммерчески успешных металлических коллективов. В 2011 году один из крупнейших журналов о метал-музыке Kerrang! в июньском номере признал Metallica лучшей метал-группой последних 30 лет.
Группа получила сторонников в среде поклонников андеграундной музыки и одобрительные отзывы критиков, выпустив третий студийный альбом Master of Puppets (1986), который сейчас считается «классикой трэш-метала» и который существенно повлиял на дальнейшее развитие этого жанра. Коммерческий успех пришёл после выпуска пятого альбома (также известного под названием The Black Album), который дебютировал на первой строчке чарта Billboard 200. В 2000 году Metallica были в числе музыкальных исполнителей, подавших иск против Napster, в связи с бесплатным распространением материалов, защищенных авторским правом, без разрешения авторов. В результате, была достигнута договоренность, по которой Napster стал платным сервисом. Несмотря на первое место в Billboard 200, альбом St. Anger (2003), за исключением гитарных соло и «стального звучания» малого барабана, разочаровал многих фанатов группы. В фильме Some Kind of Monster показан процесс создания St. Anger и отношения между участниками группы в течение этого времени. В 2009 году Metallica была введена в Зал славы рок-н-ролла. В 2012 году Metallica основали независимый лейбл Blackened Recordings и выкупили права на все свои студийные альбомы и видео.
-

admin

Post 15-Aug-2019 20:05

[Quote]


Название: Born To Perish
Исполнитель: Destruction
Страна: Germany
Жанр: Thrash-Metal
Год: 2019
Продолжительность: 00:50:25
Битрейт аудио: 320 Kbps
Формат/Кодек: MP3


01. Born to Perish (5:20)
02. Inspired by Death (4:16)
03. Betrayal (4:06)
04. Rotten (4:50)
05. Filthy Wealth (4:02)
06. Butchered for Life (6:43)
07. Tyrants of the Netherworld (3:41)
08. We Breed Evil (5:17)
09. Fatal Flight 17 (4:28)
10. Ratcatcher (4:03)
11. Hellbound (3:39)

admin

Post 12-Jun-2019 20:18

[Quote]

Название: Death Wears Suit!
Исполнитель: Death Is Death
Год: 2019
Жанр: Thrash-Metal, Crossover
Страна: Finland
Продолжительность: 27:00
Формат/Кодек: MP3
Битрейт аудио: 320 kbps-✧ 01. Boss Death (02:47)
✧ 02. Death Is Liberty (02:35)
✧ 03. Death Wears Suit (02:11)
✧ 04. Pupilic Death (02:32)
✧ 05. South Of Death (03:02)
✧ 06. Speed Death (03:02)
✧ 07. What Is Death (03:48)
✧ 08. Memory Death (02:42)
✧ 09. Kill Bystander Death (01:47)
✧ 10. Death Silence (02:30)

admin

Post 08-Jun-2019 20:44

[Quote]

Название: Bury the Pain
Исполнитель: Xentrix
Страна: UK
Жанр: Thrash-Metal
Год: 2019
Продолжительность: 00:51:15
Битрейт аудио: 320 Kbps
Формат/Кодек: MP3


01. Bury the Pain (6:36)
02. There Will Be Consequences (4:10)
03. Bleeding Out (4:34)
04. The Truth Lies Buried (6:39)
05. Let the World Burn (5:15)
06. The Red Mist Descends (5:12)
07. World of Mouth (4:55)
08. Deathless and Divine (4:07)
09. The One You Fear (5:39)
10. Evil by Design (4:08)

admin

Post 21-May-2019 06:10

[Quote]

Название: Headbanging Forever
Исполнитель: Extrema
Год: 2019
Жанр: Thrash-Metal, Groove-Metal
Страна: Italy
Продолжительность: 46:08
Формат/Кодек: MP3
Битрейт аудио: 320 kbps (CD-Rip)-01. The Call (3:44)
02. Borders Of Fire (4:55)
03. For The Loved And The Lost (4:30)
04. Heaven's Blind (4:46)
05. Pitch Black Eyes (4:38)
06. Headbanging Forever (3:28)
07. Believer (4:43)
08. Invisible (6:25)
09. Paralyzed (4:28)
10. The Showdown (4:31)

admin

Post 08-Mar-2019 01:32

[Quote]

Название: First Class Violence
Исполнитель: Darkness
Год: 2019
Жанр: Thrash-Metal
Страна: Germany
Продолжительность: 40:51
Формат/Кодек: MP3
Битрейт аудио: 320 kbps (CD-Rip)-01. Prelude In E (01:12)
02. Low Velocity Blood Spatter (04:11)
03. Neoprimitive (04:33)
04. Hate Is My Engine (04:04)
05. See You On The Bodyfarm (03:56)
06. Zeutan (03:07)
07. The Autocrazy (Autocracy) Club (04:42)
08. Born Dead (04:44)
09. First Class Violence (04:22)
10. I Betray (05:56)

LOG

Exact Audio Copy V0.99 prebeta 5 from 4. May 2009
EAC extraction logfile from 6. March 2019, 19:49
Darkness / First Class Violence
Used drive : Optiarc DVD RW AD-7200A Adapter: 0 ID: 0
Read mode : Secure
Utilize accurate stream : Yes
Defeat audio cache : Yes
Make use of C2 pointers : No
Read offset correction : 48
Overread into Lead-In and Lead-Out : No
Fill up missing offset samples with silence : Yes
Delete leading and trailing silent blocks : No
Null samples used in CRC calculations : Yes
Used interface : Native Win32 interface for Win NT & 2000
Gap handling : Not detected, thus appended to previous track
Used output format : LAME MP3 Encoder
Selected bitrate : 320 kBit/s
Quality : High
Add ID3 tag : Yes
Command line compressor : D:ПрoграммыExact Audio Copy (0.99)Lame 3.93.1lame.exe
Additional command line options : -m s -q 0
TOC of the extracted CD
Track | Start | Length | Start sector | End sector
---------------------------------------------------------
1 | 0:00.00 | 1:12.53 | 0 | 5452
2 | 1:12.53 | 4:11.49 | 5453 | 24326
3 | 5:24.27 | 4:33.54 | 24327 | 44855
4 | 9:58.06 | 4:04.36 | 44856 | 63191
5 | 14:02.42 | 3:56.63 | 63192 | 80954
6 | 17:59.30 | 3:07.00 | 80955 | 94979
7 | 21:06.30 | 4:42.49 | 94980 | 116178
8 | 25:49.04 | 4:44.35 | 116179 | 137513
9 | 30:33.39 | 4:22.26 | 137514 | 157189
10 | 34:55.65 | 5:56.69 | 157190 | 183958
Track 1
Filename D:Death MetalСD-Rip's (EAC)1-Prelude In E.wav
Peak level 96.4 %
Track quality 99.8 %
Copy CRC 271DAC90
Cannot be verified as accurate (confidence 2) [A96EDFB2], AccurateRip returned [D01C3CFF]
Copy OK
Track 2
Filename D:Death MetalСD-Rip's (EAC)2-Low Velocity Blood Spatter.wav
Peak level 96.4 %
Track quality 100.0 %
Copy CRC 142405AB
Cannot be verified as accurate (confidence 2) [A1BC5C65], AccurateRip returned [AD02C65A]
Copy OK
Track 3
Filename D:Death MetalСD-Rip's (EAC)3-Neoprimitive.wav
Peak level 96.4 %
Track quality 100.0 %
Copy CRC AAB791F3
Cannot be verified as accurate (confidence 2) [A970178F], AccurateRip returned [16C62C7E]
Copy OK
Track 4
Filename D:Death MetalСD-Rip's (EAC)4-Hate Is My Engine.wav
Peak level 96.4 %
Track quality 100.0 %
Copy CRC 06C31074
Cannot be verified as accurate (confidence 2) [24995A8D], AccurateRip returned [8CD9FB1E]
Copy OK
Track 5
Filename D:Death MetalСD-Rip's (EAC)5-See You On The Bodyfarm.wav
Peak level 96.4 %
Track quality 100.0 %
Copy CRC E9A4400B
Cannot be verified as accurate (confidence 2) [7779F441], AccurateRip returned [C2CE3882]
Copy OK
Track 6
Filename D:Death MetalСD-Rip's (EAC)6-Zeutan.wav
Peak level 96.4 %
Track quality 100.0 %
Copy CRC 3EC0DE56
Cannot be verified as accurate (confidence 2) [F56E206F], AccurateRip returned [98EAD195]
Copy OK
Track 7
Filename D:Death MetalСD-Rip's (EAC)7-The Autocrazy (Autocracy) Club.wav
Peak level 96.4 %
Track quality 100.0 %
Copy CRC D85865C0
Cannot be verified as accurate (confidence 2) [8CDD3E31], AccurateRip returned [B00A2D54]
Copy OK
Track 8
Filename D:Death MetalСD-Rip's (EAC)8-Born Dead.wav
Peak level 96.4 %
Track quality 100.0 %
Copy CRC CAA9E3CA
Cannot be verified as accurate (confidence 2) [AA5B40BE], AccurateRip returned [2EA7B713]
Copy OK
Track 9
Filename D:Death MetalСD-Rip's (EAC)9-First Class Violence.wav
Peak level 96.4 %
Track quality 99.9 %
Copy CRC 2D8B036F
Cannot be verified as accurate (confidence 2) [5C2654D7], AccurateRip returned [8F04D47B]
Copy OK
Track 10
Filename D:Death MetalСD-Rip's (EAC)10-I Betray.wav
Peak level 96.4 %
Track quality 100.0 %
Copy CRC B76A392B
Cannot be verified as accurate (confidence 2) [879C7936], AccurateRip returned [B2106D11]
Copy OK
No tracks could be verified as accurate
You may have a different pressing from the one(s) in the database
No errors occurred
End of status report

admin

Post 01-Mar-2019 01:59

[Quote]

Название: Shades Of The Untold
Исполнитель: Shadowmare
Год: 2019
Жанр: Thrash-Metal
Страна: Portugal
Продолжительность: 01:01:50
Формат/Кодек: MP3
Битрейт аудио: 320 Kbps

1. Future Hell
2. Doomline
3. Beneath the Deadly Cold
4. The Oblivion City
5. Mirrors Nightmare
6. The Mad Executioner
7. Blend in Darkness
8. Darkstoned Wall
9. The Blackened Road
10. Absolute Order

admin

Post 01-Mar-2019 01:56

[Quote]

Название: The Horde
Исполнитель: Black Thorn Halo
Год: 2019
Жанр: Thrash-Groove-Metal
Страна: USA
Продолжительность: 00:34:30
Формат/Кодек: MP3
Битрейт аудио: 320 Kbps

01. The Rising
02. Kill the Pain
03. The Horde
04. Into the Unknown (On the Razor's Edge)
05. The Swarming
06. Wargasm
07. Cenote Sacred
08. Dare You to Live
Дополнительная информация: Line Up:
Jack "The Ripper" Krupski - Bass
Eric Mulero - Drums
Craig Leach - Guitars
Ralph Lopez - Vocals

admin

Post 19-Jan-2019 03:57

[Quote]

Название: Hellbound
Исполнитель: Iron Angel
Год: 2018
Жанр: Speed Metal
Страна: Germany
Продолжительность: 00:47:12
Формат/Кодек: FLAC
Битрейт аудио: lossless

Трек-лист

01. Writing's on the wall
02. Judgement day
03. Hell and back
04. Carnivore flashmob
05. Blood and leather
06. Deliverance in black
07. Waiting for a Miracle
08. Hellbound
09. Purist of sin
10. Ministry of metal

admin

Post 13-Jan-2019 04:04

[Quote]

Название: Evil In The Night
Исполнитель: Merciless Death
Год: 2007
Жанр: Thrash Metal
Страна: USA
Продолжительность: 00:26:24
Формат/Кодек: MP3
Битрейт аудио: 320 kbps

Трек-лист

01.Slaughter Lord
02.Deadly Assault
03.Command Death
04.Burn in Hell
05.Exumer
06.Act Of Violence
07.Final Slaughter
08.Ready To Kill

admin

Post 29-Dec-2018 14:58

[Quote]

Название: In Own Space
Исполнитель: Alligator
Год издания: 2018
Жанр: Thrash-Metal, Old-School-Thrash-Metal
Страна: Россия
Продолжительность: 27:38
Формат/Кодек: MP3
Битрейт аудио: 320 kbps
Наличие сканов: -Трек-лист:
01. Panic In The Train (3:31)
02. Music Of My Soul (3:19)
03. In Own Space (3:16)
04. Im Going Home (3:45)
05. Hell Close (3:48)
06. Scream Of Love (3:04)
07. Genocide (3:16)
08. Slowly Dies (3:40)
 

Current time is: 13-Apr 10:02

All times are UTC + 3