Search found 500 matches

Author Message

admin

Post Yesterday 21:02

[Quote]

Информация о фильме
Название: Сэм: Песочный эльф
Оригинальное название: Four Kids and It
Год выхода: 2020
Жанр: Фэнтези, семейный
Режиссер: Энди де Эммони
В ролях: Паула Пэттон, Мэттью Гуд, Расселл Брэнд, Эшли Ауфдерхайд, Билли Дженкинс, Уильям Франклин-Миллер, Эли Солан, Элли-Мэй Сиам, Эмили Хайэмс, Теди-Роуз Маллесон-Аллен, Шерил, Пол Базели, Николас Эй Ньюман, Лайза Тайрелл, Марк Куикли, Торин Кондерн
О фильме:
По одноименному роману Жаклин Уилсон. Волшебный эльф Сэм обладает магической силой — исполняет любые желания. Четверо детей знакомятся с ним и получают все, о чем мечтали: розовый вертолёт, способность взбираться на любые скалы, летать и даже стать поп-звездой и кумиром миллионов. Но эльфа ждёт опасность. Но у коллекционера Тристана другие планы, с помощью Сэма можно получить золото и власть.

Страна: Великобритания
Студия: Dan Films, Deadpan Pictures, Kindle Entertainment, Sky original
Продолжительность: 01:39:30
Перевод: Дублированный | Мосфильм-Мастер
Примечание: Без рекламы
Файл
Формат: MKV
Качество: WEBRip 1080p
Видео: MPEG-4 AVC, 4500 Кбит/с, 1920x800
Звук: AC3, 2 ch, 192 Кбит/с
Субтитры: Отсутствуют
Семпл

Скриншоты

MI

Общее
Уникальный идентификатор : 303441113023227995248270139488366141136 (0xE448A1F19CC63C8C9D9E79483F9E9ED0)
Полное имя : D:Sem.Pesochnyj.elf.2020.WEB-DL.1080p.mkv
Формат : Matroska
Версия формата : Version 4
Размер файла : 3,24 Гбайт
Продолжительность : 1 ч. 39 м.
Режим общего битрейта : Переменный
Общий поток : 4 663 Кбит/сек
Название фильма : Sem.Pesochnyj.elf.2020.WEB-DL.1080p
Дата кодирования : UTC 2021-04-13 16:49:10
Программа кодирования : mkvmerge v56.1.0 ('My Friend') 64-bit
Библиотека кодирования : libebml v1.4.2 + libmatroska v1.6.4
Attachments : poster.jpg
Видео
Идентификатор : 1
Формат : AVC
Формат/Информация : Advanced Video Codec
Профиль формата : High@L4
Настройки формата : CABAC / 1 Ref Frames
Параметр CABAC формата : Да
Параметр RefFrames формата : 1 кадр
Параметр GOP формата : M=1, N=48
Идентификатор кодека : V_MPEG4/ISO/AVC
Продолжительность : 1 ч. 39 м.
Вид битрейта : Переменный
Битрейт : 4 500 Кбит/сек
Ширина : 1 920 пикселей
Высота : 800 пикселей
Соотношение сторон : 2,40:1
Режим частоты кадров : Постоянный
Частота кадров : 24,000 кадра/сек
Цветовое пространство : YUV
Субдискретизация насыщенности : 4:2:0
Битовая глубина : 8 бит
Тип развёртки : Прогрессивная
Бит/(Пиксели*Кадры) : 0.122
Размер потока : 3,11 Гбайт (96%)
Default : Да
Forced : Нет
Аудио
Идентификатор : 2
Формат : AC-3
Формат/Информация : Audio Coding 3
Коммерческое название : Dolby Digital
Идентификатор кодека : A_AC3
Продолжительность : 1 ч. 39 м.
Вид битрейта : Постоянный
Битрейт : 192 Кбит/сек
Каналы : 2 канала
Channel layout : L R
Частота : 48,0 КГц
Частота кадров : 31,250 кадров/сек (1536 SPF)
Метод сжатия : С потерями
Размер потока : 137 Мбайт (4%)
Service kind : Complete Main
Default : Да
Forced : Нет

admin

Post Yesterday 20:48

[Quote]

https://ivtracker.org/viewtopic.php?t=25385

admin

Post 07-Apr-2021 13:24

[Quote]

Информация о фильме
Название: Засуха
Оригинальное название: The Dry
Год выхода: 2020
Жанр: Триллер, драма, криминал, детектив
Режиссер: Роберт Коннолли
В ролях: Эрик Бана, Женевьев О`Рейли, Кейр О`Доннелл, Джеймс Фрешвилл, Мэттью Нэйбл, Сэм Корлетт, Джереми Линдсэй Тейлор, Рени Лим, Эдди Бару, Джон Полсон
О фильме:
Аарон Фалк возвращается в родной измученный засухой город, чтобы расследуя цепочку недавних убийств раскрыть тайну гибели своей школьной подруги.

Страна: США, Австралия
Студия: Arenamedia, Screen Australia
Продолжительность: 01:57:16
Перевод: Любительский многоголосый | MUZOBOZ
Без рекламы!
Файл
Формат: MKV
Качество: WEB-DL 1080p
Видео: MPEG-4 AVC, 4597 Kбит/с, 1912x792
Аудио 1: Русский (AC3, 2 ch, 192 Кбит/с) MVO (MUZOBOZ)
Аудио 2: Английский (AC3, 6 ch, 384 Кбит/с) Original
Субтитры: Английские
Семпл

М/И

Общее
Уникальный идентификатор : 211428138162550459287024724628094906613 (0x9F0F94075C94A7F285BD385B1AC8F0F5)
Полное имя : D:РаздачаZasuha.2020.WEB-DL 1080p.ExKinoRay.mkv
Формат : Matroska
Версия формата : Version 4 / Version 2
Размер файла : 4,24 Гбайт
Продолжительность : 1 ч. 57 м.
Общий поток : 5175 Кбит/сек
Название фильма : The.Dry.2020.WEB-DL 1080p.ExKinoRay & grab777
Дата кодирования : UTC 2021-04-06 17:34:53
Программа кодирования : mkvmerge v7.3.0 ('Nouages') 64bit built on Oct 22 2014 18:53:34
Библиотека кодирования : libebml v1.3.0 + libmatroska v1.4.1
Видео
Идентификатор : 1
Формат : AVC
Формат/Информация : Advanced Video Codec
Профиль формата : High@L4
Настройки формата : CABAC / 5 Ref Frames
Параметр CABAC формата : Да
Параметр RefFrames формата : 5 кадров
Идентификатор кодека : V_MPEG4/ISO/AVC
Продолжительность : 1 ч. 57 м.
Битрейт : 4597 Кбит/сек
Ширина : 1912 пикселей
Высота : 792 пикселя
Соотношение сторон : 2,40:1
Режим частоты кадров : Постоянный
Частота кадров : 24,000 кадра/сек
Цветовое пространство : YUV
Субдискретизация насыщенности : 4:2:0
Битовая глубина : 8 бит
Тип развёртки : Прогрессивная
Бит/(Пиксели*Кадры) : 0.126
Размер потока : 3,77 Гбайт (89%)
Заголовок : FGT
Язык : English
Default : Да
Forced : Нет
Цветовой диапазон : Limited
Основные цвета : BT.709
Характеристики трансфера : BT.709
Коэффициенты матрицы : BT.709
Аудио #1
Идентификатор : 2
Формат : AC-3
Формат/Информация : Audio Coding 3
Параметр Endianness формата : Big
Идентификатор кодека : A_AC3
Продолжительность : 1 ч. 57 м.
Вид битрейта : Постоянный
Битрейт : 192 Кбит/сек
Каналы : 2 канала
Расположение каналов : Front: L R
Частота : 48,0 КГц
Частота кадров : 31,250 кадров/сек (1536 SPF)
Битовая глубина : 16 бит
Метод сжатия : С потерями
Размер потока : 161 Мбайт (4%)
Заголовок : MVO (MUZOBOZ)
Язык : Russian
Default : Да
Forced : Нет
Аудио #2
Идентификатор : 3
Формат : AC-3
Формат/Информация : Audio Coding 3
Параметр Endianness формата : Big
Идентификатор кодека : A_AC3
Продолжительность : 1 ч. 57 м.
Вид битрейта : Постоянный
Битрейт : 384 Кбит/сек
Каналы : 6 каналов
Расположение каналов : Front: L C R, Side: L R, LFE
Частота : 48,0 КГц
Частота кадров : 31,250 кадров/сек (1536 SPF)
Битовая глубина : 16 бит
Метод сжатия : С потерями
Размер потока : 322 Мбайт (7%)
Заголовок : Original
Язык : English
Default : Нет
Forced : Нет
Текст
Идентификатор : 4
Формат : UTF-8
Идентификатор кодека : S_TEXT/UTF8
Идентификатор кодека/Информация : UTF-8 Plain Text
Продолжительность : 1 ч. 50 м.
Битрейт : 47 бит/сек
ElementCount : 1329
Размер потока : 38,2 Кбайт (0%)
Язык : English
Default : Нет
Forced : Нет

Скриншоты

admin

Post Yesterday 20:46

[Quote]


Название фильма: Зссуха
Оригинальное название фильма: The Dry
Год выпуска: 2020
Страна: Австралия, США
Студия: Arenamedia, Cornerstone Films, Film Victoria, Made Up Stories, Media Super, Pick Up Truck Pictures, Screen Australia
Жанр: Триллер, драма, криминал, детектив
Продолжительность: 01:57:16
Перевод: Профессиональный (многоголосый, закадровый) | HDRezka Studio
Режиссер: Роберт Коннолли
В ролях: Эрик Бана, Женевьев О’Рейли, Кейр О’Доннелл, Брюс Спенс, Мэтью Нэйбл, Мартин Дингл Уолл, Джеймс Фрешвилл, Сэм Корлетт, BeBe Bettencourt, Джон Полсон
О фильме: Полицейский Аарон Фалк возвращается в родной измученный засухой город, чтобы присутствовать на похоронах своего друга детства Люка, который якобы убил свою жену и ребенка, прежде чем покончить с собой. Неохотно принявшись за расследование, мужчина вскоре обнаруживает связь между этим делом и давним событием, в котором когда-то обвиняли самого Аарона, – смертью 17-летней девушки..

Без рекламы!
Качество: WEB-DL 1080p | The.Dry.2020.1080p.WEB-DL.DD5.1.H264
Видео: MPEG-4 AVC, 4597 Kбит/с, 1912x792
Аудио 1: AC3, 6 ch, 448 Кбит/с |RUS | (censored)
Аудио 2: AC3, 6 ch, 448 Кбит/с |RUS | (uncensored)
Аудио 3: AC3, 6 ch, 384 Кбит/с | ENG
Субтитры: Английские

Скриншоты


Инфо

Общее
Уникальный идентификатор : 227542562648900514454931232951625212772 (0xAB2F1A7F290B33F9C54B7585215A6364)
Полное имя : C:DownloadsThe.Dry.(2020).1080p.WEB-DL.Gateberg.mkv
Формат : Matroska
Версия формата : Version 4
Размер файла : 4,82 Гбайт
Продолжительность : 1 ч. 57 м.
Общий поток : 5 880 Кбит/сек
Название фильма : The.Dry.(2020).1080p.WEB-DL.Gateberg
Дата кодирования : UTC 2021-04-14 06:02:59
Программа кодирования : mkvmerge v53.0.0 ('Fool's Gold') 64-bit
Библиотека кодирования : libebml v1.4.1 + libmatroska v1.6.2
Видео
Идентификатор : 1
Формат : AVC
Формат/Информация : Advanced Video Codec
Профиль формата : High@L4
Настройки формата : CABAC / 5 Ref Frames
Параметр CABAC формата : Да
Параметр RefFrames формата : 5 кадров
Идентификатор кодека : V_MPEG4/ISO/AVC
Продолжительность : 1 ч. 57 м.
Битрейт : 4 597 Кбит/сек
Ширина : 1 912 пикселей
Высота : 792 пикселя
Соотношение сторон : 2,40:1
Режим частоты кадров : Постоянный
Частота кадров : 24,000 кадра/сек
Цветовое пространство : YUV
Субдискретизация насыщенности : 4:2:0
Битовая глубина : 8 бит
Тип развёртки : Прогрессивная
Бит/(Пиксели*Кадры) : 0.126
Размер потока : 3,77 Гбайт (78%)
Язык : English
Default : Да
Forced : Нет
Цветовой диапазон : Limited
Основные цвета : BT.709
Характеристики трансфера : BT.709
Коэффициенты матрицы : BT.709
Аудио #1
Идентификатор : 2
Формат : AC-3
Формат/Информация : Audio Coding 3
Коммерческое название : Dolby Digital
Идентификатор кодека : A_AC3
Продолжительность : 1 ч. 57 м.
Вид битрейта : Постоянный
Битрейт : 448 Кбит/сек
Каналы : 6 каналов
Channel layout : L R C LFE Ls Rs
Частота : 48,0 КГц
Частота кадров : 31,250 кадров/сек (1536 SPF)
Метод сжатия : С потерями
Размер потока : 376 Мбайт (8%)
Заголовок : (MVO) HDRezka Studio (Цензура)
Язык : Russian
Service kind : Complete Main
Default : Да
Forced : Нет
Аудио #2
Идентификатор : 3
Формат : AC-3
Формат/Информация : Audio Coding 3
Коммерческое название : Dolby Digital
Идентификатор кодека : A_AC3
Продолжительность : 1 ч. 57 м.
Вид битрейта : Постоянный
Битрейт : 448 Кбит/сек
Каналы : 6 каналов
Channel layout : L R C LFE Ls Rs
Частота : 48,0 КГц
Частота кадров : 31,250 кадров/сек (1536 SPF)
Метод сжатия : С потерями
Размер потока : 376 Мбайт (8%)
Заголовок : (MVO) HDRezka Studio (без цензуры)
Язык : Russian
Service kind : Complete Main
Default : Нет
Forced : Нет
Аудио #3
Идентификатор : 4
Формат : AC-3
Формат/Информация : Audio Coding 3
Коммерческое название : Dolby Digital
Идентификатор кодека : A_AC3
Продолжительность : 1 ч. 57 м.
Вид битрейта : Постоянный
Битрейт : 384 Кбит/сек
Каналы : 6 каналов
Channel layout : L R C LFE Ls Rs
Частота : 48,0 КГц
Частота кадров : 31,250 кадров/сек (1536 SPF)
Метод сжатия : С потерями
Размер потока : 322 Мбайт (7%)
Язык : English
Service kind : Complete Main
Default : Нет
Forced : Нет
Текст
Идентификатор : 5
Формат : UTF-8
Идентификатор кодека : S_TEXT/UTF8
Идентификатор кодека/Информация : UTF-8 Plain Text
Продолжительность : 1 ч. 50 м.
Битрейт : 47 бит/сек
Count of elements : 1329
Размер потока : 38,2 Кбайт (0%)
Язык : English
Default : Нет
Forced : Нет

admin

Post 13-Apr-2021 00:57

[Quote]

Информация о фильме
Название: Скайлайн 3
Оригинальное название: Skylin3s / Skylines
Год выхода: 2020
Жанр: Фантастика, боевик
Режиссер: Лиам О’Доннелл
В ролях: Линдси Морган, Рона Митра, Александр Сиддиг, Джеймс Космо, Дэниэл Бернхард, Джонатан Ховард, Чарли Юн, Иева Андреевайте, Джереми Фицджералд

О фильме: Через 15 лет после вторжения неизвестный вирус угрожает хрупкому сосуществованию дружественных инопланетных гибридов и людей. Родившаяся на космическом корабле мутант Роуз Корли сама испытывает трудности с управлением огневой рукой, когда на неё выходят члены сопротивления. Они предлагают девушке в составе хорошо подготовленного отряда, куда входит и её брат-инопланетянин Трент, отправиться на вражескую планету и захватить сердечник разрушенного корабля, который поможет спасти человечество.
Страна: Великобритания
Студия: Artbox, Fasten Films, Media Finance Capital, Mirabelle Pictures Productions
Продолжительность: 01:45:22
Перевод(ы):
#1: Дублированный | iTunes

#2: Авторский | Андрей Дольский
Качество: BDRip 1080p
Видео: MPEG-4 AVC, 1920x804, 10.5 Mbit/s, 23.976 fps
Аудио #01: 48 kHz, AC3, 5.1, 384 Kbps | Дублированный | RUS |
Аудио #02: 48 kHz, AC3, 5.1, 384 Kbps | Авторский | RUS |
Субтитры: Русские (Forced, SDH), английские

Скриншоты

MI

General
Unique ID : 53381821675954825683587627942744221027 (0x2828F702B6D8CD98F4755B0D1EC8E563)
Complete name : F:VideoSkylines.2020.BDRip.1080p.seleZen.mkv
Format : Matroska
Format version : Version 4
File size : 8.92 GiB
Duration : 1 h 53 min
Overall bit rate : 11.2 Mb/s
Movie name : Skylines 2020 from seleZen
Encoded date : UTC 2021-04-11 21:39:32
Writing application : mkvmerge v55.0.0 ('Waiting For Space') 64-bit
Writing library : libebml v1.4.2 + libmatroska v1.6.4
Video
ID : 1
Format : AVC
Format/Info : Advanced Video Codec
Format profile : High@L4.1
Format settings : CABAC / 5 Ref Frames
Format settings, CABAC : Yes
Format settings, Reference : 5 frames
Codec ID : V_MPEG4/ISO/AVC
Duration : 1 h 53 min
Bit rate : 10.5 Mb/s
Width : 1 920 pixels
Height : 804 pixels
Display aspect ratio : 2.40:1
Frame rate mode : Constant
Frame rate : 23.976 (24000/1001) FPS
Color space : YUV
Chroma subsampling : 4:2:0
Bit depth : 8 bits
Scan type : Progressive
Bits/(Pixel*Frame) : 0.284
Stream size : 8.31 GiB (93%)
Writing library : x264 core 161 r3033 0d754ec
Encoding settings : cabac=1 / ref=5 / deblock=1:-3:-3 / analyse=0x3:0x113 / me=umh / subme=10 / psy=1 / psy_rd=1.05:0.00 / mixed_ref=1 / me_range=32 / chroma_me=1 / trellis=2 / 8x8dct=1 / cqm=0 / deadzone=21,11 / fast_pskip=0 / chroma_qp_offset=-2 / threads=12 / lookahead_threads=2 / sliced_threads=0 / nr=0 / decimate=0 / interlaced=0 / bluray_compat=0 / constrained_intra=0 / bframes=9 / b_pyramid=2 / b_adapt=2 / b_bias=0 / direct=3 / weightb=1 / open_gop=0 / weightp=2 / keyint=240 / keyint_min=23 / scenecut=40 / intra_refresh=0 / rc_lookahead=50 / rc=2pass / mbtree=0 / bitrate=10499 / ratetol=1.0 / qcomp=0.65 / qpmin=0 / qpmax=69 / qpstep=4 / cplxblur=20.0 / qblur=0.5 / vbv_maxrate=50000 / vbv_bufsize=62500 / nal_hrd=none / filler=0 / ip_ratio=1.30 / pb_ratio=1.20 / aq=3:0.80
Language : English
Default : Yes
Forced : No
Color range : Limited
Color primaries : BT.709
Transfer characteristics : BT.709
Matrix coefficients : BT.709
Audio #1
ID : 2
Format : AC-3
Format/Info : Audio Coding 3
Commercial name : Dolby Digital
Codec ID : A_AC3
Duration : 1 h 53 min
Bit rate mode : Constant
Bit rate : 384 kb/s
Channel(s) : 6 channels
Channel layout : L R C LFE Ls Rs
Sampling rate : 48.0 kHz
Frame rate : 31.250 FPS (1536 SPF)
Compression mode : Lossy
Stream size : 312 MiB (3%)
Title : iTunes
Language : Russian
Service kind : Complete Main
Default : Yes
Forced : Yes
Audio #2
ID : 3
Format : AC-3
Format/Info : Audio Coding 3
Commercial name : Dolby Digital
Codec ID : A_AC3
Duration : 1 h 53 min
Bit rate mode : Constant
Bit rate : 384 kb/s
Channel(s) : 6 channels
Channel layout : L R C LFE Ls Rs
Sampling rate : 48.0 kHz
Frame rate : 31.250 FPS (1536 SPF)
Compression mode : Lossy
Stream size : 311 MiB (3%)
Title : AVO [Dolskiy]
Language : Russian
Service kind : Complete Main
Default : No
Forced : No
Text #1
ID : 4
Format : UTF-8
Codec ID : S_TEXT/UTF8
Codec ID/Info : UTF-8 Plain Text
Duration : 1 h 42 min
Bit rate : 9 b/s
Count of elements : 171
Stream size : 6.78 KiB (0%)
Title : Forced
Language : Russian
Default : No
Forced : No
Text #2
ID : 5
Format : UTF-8
Codec ID : S_TEXT/UTF8
Codec ID/Info : UTF-8 Plain Text
Duration : 1 h 44 min
Bit rate : 82 b/s
Count of elements : 1271
Stream size : 62.9 KiB (0%)
Title : SDH
Language : Russian
Default : No
Forced : No
Text #3
ID : 6
Format : UTF-8
Codec ID : S_TEXT/UTF8
Codec ID/Info : UTF-8 Plain Text
Duration : 1 h 44 min
Bit rate : 38 b/s
Count of elements : 1021
Stream size : 29.4 KiB (0%)
Title : SDH
Language : English
Default : No
Forced : No
Menu
00:00:00.000 : en:00:00:00.000
00:17:53.614 : en:00:17:53.614
00:32:07.843 : en:00:32:07.843
00:51:53.485 : en:00:51:53.485
01:13:12.179 : en:01:13:12.179
01:34:54.272 : en:01:34:54.272

admin

Post 13-Apr-2021 00:56

[Quote]

Информация о фильме
Название: Скайлайн 3
Оригинальное название: Skylin3s / Skylines
Год выхода: 2020
Жанр: Фантастика, боевик
Режиссер: Лайам О’Доннелл
В ролях: Линдси Морган, Джонатан Ховард, Дэниэл Бернхард, Рона Митра, Наоми Танкел, Чарли Юн, Джереми Фицджералд, Иева Андреевайте, Джеймс Космо, Александр Сиддиг, Яян Рухьян, Саманта Жан, Жиэдре Бонд, Пхун Джян
О фильме: Через 15 лет после вторжения неизвестный вирус угрожает хрупкому сосуществованию дружественных инопланетных гибридов и людей. Родившаяся на космическом корабле мутант Роуз Корли сама испытывает трудности с управлением огневой рукой, когда на неё выходят члены сопротивления. Они предлагают девушке в составе хорошо подготовленного отряда, куда входит и её брат-инопланетянин Трент, отправиться на вражескую планету и захватить сердечник от разрушенного корабля, который поможет спасти человечество.

Выпущено: Франция / Artbox, Fasten Films, Media Finance Capital, Mirabelle Pictures Productions
Продолжительность: 01:53:19
Озвучивание: Дублированное | iTunes
Файл
Формат: MKV
Качество: BDRemux 1080р
Видео: MPEG-4 AVC, 22.6 Мb/s, 1920x1080
Аудио #1: Russian: 48 kHz, AC3 Dolby Digital, 3/2 (L, C, R, l, r) + LFE ch, ~384 Kbps | DUB | iTunes
Аудио #2: English: 48 kHz, DTS-HD Master Audio, 3/2 (L, C, R, l, r) + LFE ch, ~2054 Kbps | Original
Субтитры: Russian (Forced), English
Дополнительно: Сохранены оригинальные чаптеры.

MediaInfo:

Complete name : Skylines.2020.1080p.BDREMUX.ELEKTRI4KA.UNIONGANG.mkv
Format : Matroska
Format version : Version 4
File size : 19.8 GiB
Duration : 1 h 53 min
Overall bit rate mode : Variable
Overall bit rate : 25.0 Mb/s
Movie name : Skylines.2020.1080p.BDREMUX.ELEKTRI4KA.UNIONGANG.
Encoded date : UTC 2021-04-11 20:41:59
Writing application : mkvmerge v8.3.0 ('Over the Horizon') 64bit
Writing library : libebml v1.3.1 + libmatroska v1.4.2
Video
ID : 1
Format : AVC
Format/Info : Advanced Video Codec
Format profile : High@L4.1
Format settings : CABAC / 3 Ref Frames
Format settings, CABAC : Yes
Format settings, Reference frames : 3 frames
Codec ID : V_MPEG4/ISO/AVC
Duration : 1 h 53 min
Bit rate mode : Variable
Bit rate : 22.6 Mb/s
Maximum bit rate : 35.0 Mb/s
Width : 1 920 pixels
Height : 1 080 pixels
Display aspect ratio : 16:9
Frame rate mode : Constant
Frame rate : 23.976 (24000/1001) FPS
Standard : NTSC
Color space : YUV
Chroma subsampling : 4:2:0
Bit depth : 8 bits
Scan type : Progressive
Bits/(Pixel*Frame) : 0.455
Stream size : 17.9 GiB (90%)
Language : English
Default : No
Forced : No
Color range : Limited
Color primaries : BT.709
Transfer characteristics : BT.709
Matrix coefficients : BT.709
Audio #1
ID : 2
Format : AC-3
Format/Info : Audio Coding 3
Commercial name : Dolby Digital
Codec ID : A_AC3
Duration : 1 h 53 min
Bit rate mode : Constant
Bit rate : 384 kb/s
Channel(s) : 6 channels
Channel layout : L R C LFE Ls Rs
Sampling rate : 48.0 kHz
Frame rate : 31.250 FPS (1536 SPF)
Compression mode : Lossy
Stream size : 312 MiB (2%)
Title : DUB (iTunes)
Language : Russian
Service kind : Complete Main
Default : Yes
Forced : Yes
Audio #2
ID : 3
Format : DTS XLL
Format/Info : Digital Theater Systems
Commercial name : DTS-HD Master Audio
Codec ID : A_DTS
Duration : 1 h 53 min
Bit rate mode : Variable
Bit rate : 2 054 kb/s
Channel(s) : 6 channels
Channel layout : C L R Ls Rs LFE
Sampling rate : 48.0 kHz
Frame rate : 93.750 FPS (512 SPF)
Bit depth : 16 bits
Compression mode : Lossless
Stream size : 1.63 GiB (8%)
Title : DTS-HD MA 5.1
Language : English
Default : No
Forced : No
Text #1
ID : 4
Format : UTF-8
Codec ID : S_TEXT/UTF8
Codec ID/Info : UTF-8 Plain Text
Duration : 1 h 42 min
Bit rate : 9 b/s
Count of elements : 171
Stream size : 6.78 KiB (0%)
Title : Forced
Language : Russian
Default : Yes
Forced : No
Text #2
ID : 5
Format : UTF-8
Codec ID : S_TEXT/UTF8
Codec ID/Info : UTF-8 Plain Text
Duration : 1 h 44 min
Bit rate : 38 b/s
Count of elements : 1021
Stream size : 29.4 KiB (0%)
Title : English-SRT
Language : English
Default : No
Forced : No
Menu
00:00:00.000 : en:Chapter 01
00:17:53.614 : en:Chapter 02
00:32:07.842 : en:Chapter 03
00:51:53.110 : en:Chapter 04
01:13:12.179 : en:Chapter 05
01:34:54.146 : en:Chapter 06

Скриншоты


admin

Post 10-Apr-2021 13:14

[Quote]


Название фильма: Девушка в подвале
Оригинальное название фильма: Girl in the Basement
Год выпуска: 2021
Страна: США
Студия: Big Dreams Entertainment, Lifetime, Swirl Films
Жанр: триллер, криминал
Продолжительность: 01:27:53
Перевод: Любительский (многоголосый) [Синема УС]
Режиссер: Элизабет Рём
В ролях: Джейк Этеридж, Сидней Ковальске, Лиам Пиледжи, Брэкстон Бьеркен, Эмма Майерс, Нина Йонг Браун, Джастис Смит, Анджела Перкинс
О фильме: Большинство подростков ждут восемнадцатилетия, чтобы шагнуть в новую взрослую жизнь, которая, как им кажется, открывает для них множество дверей. Но главная героиня ждет совершеннолетия только по одной причине, чтобы сбежать от отца-тирана, жестко контролирующего каждый ее шаг. Долгожданный день наступил, но вместе подарка она оказалась заперта в подвале. Абсолютная темнота - вот ее будущее на долгие годы....


Без рекламы!
Качество: WEB-DL (1080p)
Видео: MPEG-4 AVC, 7820 Кбит/с, 1920x1080
Аудио 1: AC3, 2 ch, 256 Кбит/с | RUS | Tnx. KinoPub
Аудио 2: E-AC3, 2 ch, 224 Кбит/с | ENG
Субтитры: Английские (SDH)

Скриншоты


Инфо

Общее
Уникальный идентификатор : 101390739849730298610559372313044736832 (0x4C47256D1A2894E09B19CFEEF4C05B40)
Полное имя : C:DownloadsGirl in the Basement_2021_WEB-DL_1080p.mkv
Формат : Matroska
Версия формата : Version 4
Размер файла : 5,10 Гбайт
Продолжительность : 1 ч. 27 м.
Общий поток : 8 303 Кбит/сек
Название фильма : Girl in the Basement_2021_WEB-DL_1080p
Дата кодирования : UTC 2021-04-09 14:38:11
Программа кодирования : mkvmerge v53.0.0 ('Fool's Gold') 64-bit
Библиотека кодирования : libebml v1.4.1 + libmatroska v1.6.2
Видео
Идентификатор : 1
Формат : AVC
Формат/Информация : Advanced Video Codec
Профиль формата : High@L4
Настройки формата : CABAC / 4 Ref Frames
Параметр CABAC формата : Да
Параметр RefFrames формата : 4 кадра
Идентификатор кодека : V_MPEG4/ISO/AVC
Продолжительность : 1 ч. 27 м.
Вид битрейта : Постоянный
Битрейт : 7 820 Кбит/сек
Номинальный битрейт : 10 000 Кбит/сек
Ширина : 1 920 пикселей
Высота : 1 080 пикселей
Соотношение сторон : 16:9
Режим частоты кадров : Постоянный
Частота кадров : 23,976 (24000/1001) кадра/сек
Цветовое пространство : YUV
Субдискретизация насыщенности : 4:2:0
Битовая глубина : 8 бит
Тип развёртки : Прогрессивная
Бит/(Пиксели*Кадры) : 0.157
Размер потока : 4,80 Гбайт (94%)
Язык : English
Default : Да
Forced : Нет
Цветовой диапазон : Limited
Основные цвета : BT.709
Характеристики трансфера : BT.709
Коэффициенты матрицы : BT.709
Аудио #1
Идентификатор : 2
Формат : AC-3
Формат/Информация : Audio Coding 3
Коммерческое название : Dolby Digital
Идентификатор кодека : A_AC3
Продолжительность : 1 ч. 27 м.
Вид битрейта : Постоянный
Битрейт : 256 Кбит/сек
Каналы : 2 канала
Channel layout : L R
Частота : 48,0 КГц
Частота кадров : 31,250 кадров/сек (1536 SPF)
Метод сжатия : С потерями
Размер потока : 161 Мбайт (3%)
Заголовок : (MVO) Синема УС | KinoPub
Язык : Russian
Service kind : Complete Main
Default : Да
Forced : Нет
Аудио #2
Идентификатор : 3
Формат : E-AC-3
Формат/Информация : Enhanced AC-3
Коммерческое название : Dolby Digital Plus
Идентификатор кодека : A_EAC3
Продолжительность : 1 ч. 27 м.
Вид битрейта : Постоянный
Битрейт : 224 Кбит/сек
Каналы : 2 канала
Channel layout : L R
Частота : 48,0 КГц
Частота кадров : 31,250 кадров/сек (1536 SPF)
Метод сжатия : С потерями
Задержка видео : 24 мс.
Размер потока : 141 Мбайт (3%)
Язык : English
Service kind : Complete Main
Default : Нет
Forced : Нет
Текст
Идентификатор : 4
Формат : UTF-8
Идентификатор кодека : S_TEXT/UTF8
Идентификатор кодека/Информация : UTF-8 Plain Text
Продолжительность : 1 ч. 27 м.
Битрейт : 53 бит/сек
Count of elements : 1234
Размер потока : 34,1 Кбайт (0%)
Заголовок : English (SDH)
Язык : English
Default : Нет
Forced : Нет

admin

Post 10-Apr-2021 12:56

[Quote]

Информация о фильме
Название: Поступь хаоса
Оригинальное название: Chaos Walking
Год выхода: 2021
Жанр: Фантастика, приключения
Режиссер: Даг Лайман
В ролях: Том Холланд (II), Мадс Миккельсен, Дэйзи Ридли, Рэй МакКиннон, Демиан Бишир, Ник Джонас, Дэвид Ойелоуо, Синтия Эриво, Курт Саттер, Олунике Аделийи, Оскар Хаенада, Милен Робик, Бетани Энн Линд, Бобби Эрнандес, Харрисон Остерфилд
О фильме:
2257 год. Тодд обнаруживает загадочную девушку Виолу, потерпевшую крушение на его родной планете, где женщины давно исчезли, а все мужчины страдают от вируса — существуют в пространстве бесконечных мыслеобразов, которое называют шумом: рядом с другим человеком совершенно невозможно утаить свои воспоминания и мысли. В такой агрессивной реальности Виоле, чьи чувства остаются скрытыми, не выжить без помощи Тодда. Вместе им предстоит отправиться в опасное путешествие и столкнуться с самыми темными тайнами планеты.

Страна: США, Канада, Гонконг
Студия: Lionsgate, Quadrant Pictures
Продолжительность: 01:48:53
Перевод: Профессиональный многоголосый | HDRezka Studio
Файл
Кодек: x.264
Качество: WEB-DL 1080p | Chaos.Walking.2021.1080p.AMZN.WEB-DL.DDP5.1.x264-CM
Видео: MPEG-4 AVC, 6938 Kбит/с, 1920x800, 23.976 кадр/с
Аудио #1: Русский (АС3, 6 ch, 448 Кбит/с, 48.0 KHz) Профессиональный (многоголосый, закадровый) HDRezka Studio
Аудио #2: Английский (E-АС3, 6 ch, 640 Кбит/с, 48.0 KHz)
Субтитры: Русские (Forced, Full), английские
► Без Рекламы!

MediaInfo

Источник: Chaos.Walking.2021.1080p.AMZN.WEB-DL.DDP5.1.x264-CM
General
Unique ID : 236568943120636828033425280790958933524 (0xB1F98569E08EBBDA871EBD7F684B8614)
Complete name :Chaos.Walking.2021.AMZN.WEB-DL.1080p.mkv
Format : Matroska
Format version : Version 4
File size : 6.11 GiB
Duration : 1 h 48 min
Overall bit rate : 8 028 kb/s
Encoded date : UTC 2021-04-09 18:07:52
Writing application : mkvmerge v7.1.0 ('Good Love') 64bit built on Jul 27 2014 13:06:55
Writing library : libebml v1.3.0 + libmatroska v1.4.1
Video
ID : 1
Format : AVC
Format/Info : Advanced Video Codec
Format profile : High@L4
Format settings : CABAC / 4 Ref Frames
Format settings, CABAC : Yes
Format settings, Reference fra : 4 frames
Codec ID : V_MPEG4/ISO/AVC
Duration : 1 h 48 min
Bit rate mode : Constant
Bit rate : 6 938 kb/s
Nominal bit rate : 10 000 kb/s
Width : 1 920 pixels
Height : 800 pixels
Display aspect ratio : 2.40:1
Frame rate mode : Constant
Frame rate : 23.976 (24000/1001) FPS
Color space : YUV
Chroma subsampling : 4:2:0
Bit depth : 8 bits
Scan type : Progressive
Bits/(Pixel*Frame) : 0.188
Stream size : 5.28 GiB (86%)
Language : English
Default : Yes
Forced : No
Color range : Limited
Color primaries : BT.709
Transfer characteristics : BT.709
Matrix coefficients : BT.709
Audio #1
ID : 2
Format : AC-3
Format/Info : Audio Coding 3
Commercial name : Dolby Digital
Codec ID : A_AC3
Duration : 1 h 48 min
Bit rate mode : Constant
Bit rate : 448 kb/s
Channel(s) : 6 channels
Channel layout : L R C LFE Ls Rs
Sampling rate : 48.0 kHz
Frame rate : 31.250 FPS (1536 SPF)
Compression mode : Lossy
Stream size : 349 MiB (6%)
Title : MVO | HDRezka Studio
Language : Russian
Service kind : Complete Main
Default : Yes
Forced : No
Audio #2
ID : 3
Format : E-AC-3
Format/Info : Enhanced AC-3
Commercial name : Dolby Digital Plus
Codec ID : A_EAC3
Duration : 1 h 48 min
Bit rate mode : Constant
Bit rate : 640 kb/s
Channel(s) : 6 channels
Channel layout : L R C LFE Ls Rs
Sampling rate : 48.0 kHz
Frame rate : 31.250 FPS (1536 SPF)
Compression mode : Lossy
Stream size : 498 MiB (8%)
Language : English
Service kind : Complete Main
Default : No
Forced : No
Text #1
ID : 4
Format : UTF-8
Codec ID : S_TEXT/UTF8
Codec ID/Info : UTF-8 Plain Text
Duration : 1 h 38 min
Bit rate : 1 b/s
Count of elements : 15
Stream size : 1 007 Bytes (0%)
Title : Forced - HDRezka
Language : Russian
Default : Yes
Forced : No
Text #2
ID : 5
Format : UTF-8
Codec ID : S_TEXT/UTF8
Codec ID/Info : UTF-8 Plain Text
Duration : 1 h 38 min
Bit rate : 91 b/s
Count of elements : 1529
Stream size : 66.1 KiB (0%)
Title : Full -[Focs]
Language : Russian
Default : No
Forced : No
Text #3
ID : 6
Format : UTF-8
Codec ID : S_TEXT/UTF8
Codec ID/Info : UTF-8 Plain Text
Duration : 1 h 37 min
Bit rate : 56 b/s
Count of elements : 1504
Stream size : 40.6 KiB (0%)
Language : English
Default : No
Forced : No
Text #4
ID : 7
Format : UTF-8
Codec ID : S_TEXT/UTF8
Codec ID/Info : UTF-8 Plain Text
Duration : 1 h 38 min
Bit rate : 64 b/s
Count of elements : 1784
Stream size : 46.3 KiB (0%)
Title : SDH
Language : English
Default : No
Forced : No

Скриншоты

admin

Post 09-Apr-2021 13:03

[Quote]


Название фильма: Прирожденный гангстер
Оригинальное азние фильма: Original Gangster
Год выпуска: 2020
Страна: Великобритания
Студия: Saints and Savages
Жанр: Криминал
Продолжительность: 01:50:51
Перевод: Любительский (многоголосый) [MUZOBOZ]
Режиссер: Саввас Д. Майкл
В ролях: Стив Гуттенберг, Вэс Блэквуд, Йен Реддингтон, Адам Дикон, Даниэль Кальтаджироне, Шон Кронин, Серхат Метин, Софи Пэрис, Ли Николас Харрис, Алекс Миллс
О фильме: Кастору, осиротевшему в раннем детстве, предстоит найти способ выжить в диком водовороте криминального Лондона. На помощь ему приходит наёмный убийца Майло, который однажды спас парню жизнь.

Без рекламы!
Качество: WEB-DL (1080p)
Видео: MPEG-4 AVC, 10,7 Мбит/с, 1920x800
Аудио 1: AC3, 2 ch, 256 Кбит/с | RUS
Аудио 2: E-AC3, 6 ch, 640 Кбит/с | ENG
Субтитры: Английские (SDH)

Скриншоты


Инфо

Общее
Уникальный идентификатор : 220830058470592753992688993901253156148 (0xA622527D33B1D4FFCBF1000EB8BADD34)
Полное имя : C:DownloadsOriginal.Gangster.2020.WEB-DL (1080p).mkv
Формат : Matroska
Версия формата : Version 4
Размер файла : 8,95 Гбайт
Продолжительность : 1 ч. 50 м.
Общий поток : 11,6 Мбит/сек
Название фильма : Original.Gangster.2020.WEB-DL (1080p)
Дата кодирования : UTC 2021-04-08 14:19:30
Программа кодирования : mkvmerge v53.0.0 ('Fool's Gold') 64-bit
Библиотека кодирования : libebml v1.4.1 + libmatroska v1.6.2
Видео
Идентификатор : 1
Формат : AVC
Формат/Информация : Advanced Video Codec
Профиль формата : High@L4
Настройки формата : CABAC / 4 Ref Frames
Параметр CABAC формата : Да
Параметр RefFrames формата : 4 кадра
Идентификатор кодека : V_MPEG4/ISO/AVC
Продолжительность : 1 ч. 50 м.
Битрейт : 10,7 Мбит/сек
Ширина : 1 920 пикселей
Высота : 800 пикселей
Соотношение сторон : 2,40:1
Режим частоты кадров : Постоянный
Частота кадров : 23,976 (24000/1001) кадра/сек
Цветовое пространство : YUV
Субдискретизация насыщенности : 4:2:0
Битовая глубина : 8 бит
Тип развёртки : Прогрессивная
Бит/(Пиксели*Кадры) : 0.292
Размер потока : 8,26 Гбайт (92%)
Default : Да
Forced : Нет
Цветовой диапазон : Limited
Основные цвета : BT.709
Характеристики трансфера : BT.709
Коэффициенты матрицы : BT.709
Аудио #1
Идентификатор : 2
Формат : AC-3
Формат/Информация : Audio Coding 3
Коммерческое название : Dolby Digital
Идентификатор кодека : A_AC3
Продолжительность : 1 ч. 50 м.
Вид битрейта : Постоянный
Битрейт : 256 Кбит/сек
Каналы : 2 канала
Channel layout : L R
Частота : 48,0 КГц
Частота кадров : 31,250 кадров/сек (1536 SPF)
Метод сжатия : С потерями
Размер потока : 202 Мбайт (2%)
Заголовок : MUZOBOZ | KinoPub
Язык : Russian
Service kind : Complete Main
Default : Да
Forced : Нет
Аудио #2
Идентификатор : 3
Формат : E-AC-3
Формат/Информация : Enhanced AC-3
Коммерческое название : Dolby Digital Plus
Идентификатор кодека : A_EAC3
Продолжительность : 1 ч. 50 м.
Вид битрейта : Постоянный
Битрейт : 640 Кбит/сек
Каналы : 6 каналов
Channel layout : L R C LFE Ls Rs
Частота : 48,0 КГц
Частота кадров : 31,250 кадров/сек (1536 SPF)
Метод сжатия : С потерями
Размер потока : 504 Мбайт (5%)
Заголовок : English
Язык : English
Service kind : Complete Main
Default : Нет
Forced : Нет
Текст
Идентификатор : 4
Формат : UTF-8
Идентификатор кодека : S_TEXT/UTF8
Идентификатор кодека/Информация : UTF-8 Plain Text
Продолжительность : 1 ч. 46 м.
Битрейт : 49 бит/сек
Count of elements : 1175
Размер потока : 38,1 Кбайт (0%)
Заголовок : English (SDH)
Язык : English
Default : Нет
Forced : Нет

admin

Post 09-Apr-2021 12:57

[Quote]

Информация о фильме
Название: Сила Грома
Оригинальное название: Thunder Force
Год выхода: 2021
Жанр: Фантастика, фэнтези, боевик, комедия, приключения
Режиссер: Бен Фэлкоун
В ролях: Мелисса МакКарти, Октавия Спенсер, Пом Клементьефф, Мелисса Лео, Сара Бэйкер, Мелисса Понцио, Тайрел Джексон Уильямс, Брекстон Бьоркен, Марселла Лоури

О фильме: События фильма разворачиваются в мире, населенном суперзлодеями. Женщина-ученая Эмили Стэнтон разрабатывает способ передачи суперспособностей обычным людям. Она случайно превращает свою бывшую лучшую подругу в супергероиню. Девушки получают возможность стать первой в мире командой супергероинь под названием «Сила грома». Их первый серьезный вызов — это суперзлодей Король, который терроризирует Чикаго.
Страна: США
Студия: Marc Platt Productions, NetFlix
Продолжительность: 01:47:14
Перевод: Дублированный | Netflix
Качество: WEB-DL 1080p
Видео: MPEG-4 AVC, 1920x1080, 3109 Kbit/s, 24.000 fps
Аудио #01: 48 kHz, E-AC3, 5.1, 640 Kbps | Дублированный | RUS |
Аудио #02: 48 kHz, AC3, 5.1, 640 Kbps | Дублированный | RUS |
Аудио #03: 48 kHz, E-AC3+Atmos, 5.1, 768 Kbps | Оригинал | ENG |
Субтитры: Русские (Forced, full), украинские (Full), английские

Скриншоты

MI

General
Unique ID : 252946228381361311738965231523665203992 (0xBE4BABEB17307BD9703AB75141BAD318)
Complete name : C:VideoThunder.Force.202.WEB-DL.1080p.seleZen.mkv
Format : Matroska
Format version : Version 4
File size : 3.87 GiB
Duration : 1 h 47 min
Overall bit rate mode : Variable
Overall bit rate : 5 160 kb/s
Movie name : Thunder Force 2021 from seleZen
Encoded date : UTC 2021-04-09 07:07:14
Writing application : mkvmerge v53.0.0 ('Fool's Gold') 64-bit
Writing library : libebml v1.4.1 + libmatroska v1.6.2
Video
ID : 1
Format : AVC
Format/Info : Advanced Video Codec
Format profile : Main@L4
Format settings : CABAC / 3 Ref Frames
Format settings, CABAC : Yes
Format settings, Reference : 3 frames
Codec ID : V_MPEG4/ISO/AVC
Duration : 1 h 47 min
Bit rate mode : Variable
Bit rate : 3 109 kb/s
Nominal bit rate : 3 650 kb/s
Maximum bit rate : 5 475 kb/s
Width : 1 920 pixels
Height : 1 080 pixels
Display aspect ratio : 16:9
Frame rate mode : Constant
Frame rate : 24.000 FPS
Color space : YUV
Chroma subsampling : 4:2:0
Bit depth : 8 bits
Scan type : Progressive
Bits/(Pixel*Frame) : 0.062
Stream size : 2.33 GiB (60%)
Writing library : x264 core 148 r2722 1b0121b
Encoding settings : cabac=1 / ref=3 / deblock=1:0:0 / analyse=0x1:0x111 / me=umh / subme=10 / psy=1 / psy_rd=1.00:0.00 / mixed_ref=1 / me_range=24 / chroma_me=1 / trellis=2 / 8x8dct=0 / cqm=0 / deadzone=21,11 / fast_pskip=1 / chroma_qp_offset=-2 / threads=8 / lookahead_threads=1 / sliced_threads=0 / nr=0 / decimate=1 / interlaced=0 / bluray_compat=0 / stitchable=1 / constrained_intra=0 / bframes=2 / b_pyramid=0 / b_adapt=2 / b_bias=0 / direct=3 / weightb=1 / open_gop=0 / weightp=2 / keyint=250 / keyint_min=24 / scenecut=0 / intra_refresh=0 / rc_lookahead=48 / rc=2pass / mbtree=1 / bitrate=3650 / ratetol=1.0 / qcomp=0.50 / qpmin=6 / qpmax=51 / qpstep=4 / cplxblur=20.0 / qblur=0.5 / vbv_maxrate=5475 / vbv_bufsize=7300 / nal_hrd=vbr / filler=0 / ip_ratio=1.40 / aq=1:1.00
Default : Yes
Forced : No
Audio #1
ID : 2
Format : E-AC-3
Format/Info : Enhanced AC-3
Commercial name : Dolby Digital Plus
Codec ID : A_EAC3
Duration : 1 h 47 min
Bit rate mode : Constant
Bit rate : 640 kb/s
Channel(s) : 6 channels
Channel layout : L R C LFE Ls Rs
Sampling rate : 48.0 kHz
Frame rate : 31.250 FPS (1536 SPF)
Compression mode : Lossy
Stream size : 491 MiB (12%)
Language : Russian
Service kind : Complete Main
Default : Yes
Forced : Yes
Audio #2
ID : 3
Format : AC-3
Format/Info : Audio Coding 3
Commercial name : Dolby Digital
Codec ID : A_AC3
Duration : 1 h 47 min
Bit rate mode : Constant
Bit rate : 640 kb/s
Channel(s) : 6 channels
Channel layout : L R C LFE Ls Rs
Sampling rate : 48.0 kHz
Frame rate : 31.250 FPS (1536 SPF)
Compression mode : Lossy
Stream size : 491 MiB (12%)
Language : Russian
Service kind : Complete Main
Default : No
Forced : No
Audio #3
ID : 4
Format : E-AC-3 JOC
Format/Info : Enhanced AC-3 with Joint Object Coding
Commercial name : Dolby Digital Plus with Dolby Atmos
Codec ID : A_EAC3
Duration : 1 h 47 min
Bit rate mode : Constant
Bit rate : 768 kb/s
Channel(s) : 6 channels
Channel layout : L R C LFE Ls Rs
Sampling rate : 48.0 kHz
Frame rate : 31.250 FPS (1536 SPF)
Compression mode : Lossy
Stream size : 589 MiB (15%)
Title : English
Language : English
Service kind : Complete Main
Default : No
Forced : No
Complexity index : 16
Number of dynamic objects : 15
Bed channel count : 1 channel
Bed channel configuration : LFE
Text #1
ID : 5
Format : UTF-8
Codec ID : S_TEXT/UTF8
Codec ID/Info : UTF-8 Plain Text
Duration : 1 h 45 min
Bit rate : 2 b/s
Count of elements : 44
Stream size : 1.89 KiB (0%)
Language : Russian
Default : Yes
Forced : Yes
Text #2
ID : 6
Format : UTF-8
Codec ID : S_TEXT/UTF8
Codec ID/Info : UTF-8 Plain Text
Duration : 1 h 45 min
Bit rate : 115 b/s
Count of elements : 1599
Stream size : 89.2 KiB (0%)
Title : Russian
Language : Russian
Default : No
Forced : No
Text #3
ID : 7
Format : UTF-8
Codec ID : S_TEXT/UTF8
Codec ID/Info : UTF-8 Plain Text
Duration : 1 h 45 min
Bit rate : 117 b/s
Count of elements : 1704
Stream size : 90.3 KiB (0%)
Title : Ukrainian
Language : Ukrainian
Default : No
Forced : No
Text #4
ID : 8
Format : UTF-8
Codec ID : S_TEXT/UTF8
Codec ID/Info : UTF-8 Plain Text
Duration : 1 h 42 min
Bit rate : 91 b/s
Count of elements : 1967
Stream size : 68.5 KiB (0%)
Title : English [CC]
Language : English
Default : No
Forced : No

admin

Post 09-Apr-2021 12:57

[Quote]

Информация о фильме
Название: Сила Грома
Оригинальное название: Thunder Force
Год выхода: 2021
Жанр: Фантастика, фэнтези, боевик, комедия, приключения
Режиссер: Бен Фэлкоун
В ролях: Мелисса МакКарти, Октавия Спенсер, Пом Клементьефф, Мелисса Лео, Сара Бэйкер, Мелисса Понцио, Тайрел Джексон Уильямс, Брекстон Бьоркен, Марселла Лоури

О фильме: События фильма разворачиваются в мире, населенном суперзлодеями. Женщина-ученая Эмили Стэнтон разрабатывает способ передачи суперспособностей обычным людям. Она случайно превращает свою бывшую лучшую подругу в супергероиню. Девушки получают возможность стать первой в мире командой супергероинь под названием «Сила грома». Их первый серьезный вызов — это суперзлодей Король, который терроризирует Чикаго.
Страна: США
Студия: Marc Platt Productions, NetFlix
Продолжительность: 01:47:14
Перевод: Дублированный | Netflix
Качество: WEB-DL 720p
Видео: MPEG-4 AVC, 1280x720, 2260 Kbit/s, 24.000 fps
Аудио #01: 48 kHz, E-AC3, 5.1, 640 Kbps | Дублированный | RUS |
Аудио #02: 48 kHz, AC3, 5.1, 640 Kbps | Дублированный | RUS |
Аудио #03: 48 kHz, E-AC3, 5.1, 640 Kbps | Дублированный | UKR |
Аудио #04: 48 kHz, E-AC3+Atmos, 5.1, 768 Kbps | Оригинал | ENG |
Субтитры: Русские (Forced, full), украинские (Forced, full), английские

Скриншоты

MI

General
Unique ID : 84388301143917108580889446027616933554 (0x3F7C987A1656B84CC120CB00D20D56B2)
Complete name : F:VideoThunder.Force.202.WEB-DL.720p.seleZen.mkv
Format : Matroska
Format version : Version 4
File size : 3.39 GiB
Duration : 1 h 47 min
Overall bit rate mode : Variable
Overall bit rate : 4 527 kb/s
Movie name : Thunder Force 2021 from seleZen
Encoded date : UTC 2021-04-09 08:29:42
Writing application : mkvmerge v55.0.0 ('Waiting For Space') 64-bit
Writing library : libebml v1.4.2 + libmatroska v1.6.4
Video
ID : 1
Format : AVC
Format/Info : Advanced Video Codec
Format profile : Main@L3.1
Format settings : CABAC / 3 Ref Frames
Format settings, CABAC : Yes
Format settings, Reference : 3 frames
Codec ID : V_MPEG4/ISO/AVC
Duration : 1 h 47 min
Bit rate mode : Variable
Bit rate : 1 836 kb/s
Nominal bit rate : 2 260 kb/s
Maximum bit rate : 3 390 kb/s
Width : 1 280 pixels
Height : 720 pixels
Display aspect ratio : 16:9
Frame rate mode : Constant
Frame rate : 24.000 FPS
Color space : YUV
Chroma subsampling : 4:2:0
Bit depth : 8 bits
Scan type : Progressive
Bits/(Pixel*Frame) : 0.083
Stream size : 1.38 GiB (41%)
Writing library : x264 core 148 r2722 1b0121b
Encoding settings : cabac=1 / ref=3 / deblock=1:0:0 / analyse=0x1:0x111 / me=umh / subme=10 / psy=1 / psy_rd=1.00:0.00 / mixed_ref=1 / me_range=24 / chroma_me=1 / trellis=2 / 8x8dct=0 / cqm=0 / deadzone=21,11 / fast_pskip=1 / chroma_qp_offset=-2 / threads=6 / lookahead_threads=1 / sliced_threads=0 / nr=0 / decimate=1 / interlaced=0 / bluray_compat=0 / stitchable=1 / constrained_intra=0 / bframes=2 / b_pyramid=0 / b_adapt=2 / b_bias=0 / direct=3 / weightb=1 / open_gop=0 / weightp=2 / keyint=250 / keyint_min=24 / scenecut=0 / intra_refresh=0 / rc_lookahead=48 / rc=2pass / mbtree=1 / bitrate=2260 / ratetol=1.0 / qcomp=0.50 / qpmin=6 / qpmax=51 / qpstep=4 / cplxblur=20.0 / qblur=0.5 / vbv_maxrate=3390 / vbv_bufsize=4520 / nal_hrd=vbr / filler=0 / ip_ratio=1.40 / aq=1:1.00
Language : English
Default : Yes
Forced : No
Audio #1
ID : 2
Format : E-AC-3
Format/Info : Enhanced AC-3
Commercial name : Dolby Digital Plus
Codec ID : A_EAC3
Duration : 1 h 47 min
Bit rate mode : Constant
Bit rate : 640 kb/s
Channel(s) : 6 channels
Channel layout : L R C LFE Ls Rs
Sampling rate : 48.0 kHz
Frame rate : 31.250 FPS (1536 SPF)
Compression mode : Lossy
Stream size : 491 MiB (14%)
Title : Dub [Netflix]
Language : Russian
Service kind : Complete Main
Default : Yes
Forced : Yes
Audio #2
ID : 3
Format : AC-3
Format/Info : Audio Coding 3
Commercial name : Dolby Digital
Codec ID : A_AC3
Duration : 1 h 47 min
Bit rate mode : Constant
Bit rate : 640 kb/s
Channel(s) : 6 channels
Channel layout : L R C LFE Ls Rs
Sampling rate : 48.0 kHz
Frame rate : 31.250 FPS (1536 SPF)
Compression mode : Lossy
Stream size : 491 MiB (14%)
Title : Dub [Netflix]
Language : Russian
Service kind : Complete Main
Default : No
Forced : No
Audio #3
ID : 4
Format : E-AC-3
Format/Info : Enhanced AC-3
Commercial name : Dolby Digital Plus
Codec ID : A_EAC3
Duration : 1 h 47 min
Bit rate mode : Constant
Bit rate : 640 kb/s
Channel(s) : 6 channels
Channel layout : L R C LFE Ls Rs
Sampling rate : 48.0 kHz
Frame rate : 31.250 FPS (1536 SPF)
Compression mode : Lossy
Stream size : 491 MiB (14%)
Title : Dub [Netflix]
Language : Ukrainian
Service kind : Complete Main
Default : No
Forced : No
Audio #4
ID : 5
Format : E-AC-3 JOC
Format/Info : Enhanced AC-3 with Joint Object Coding
Commercial name : Dolby Digital Plus with Dolby Atmos
Codec ID : A_EAC3
Duration : 1 h 47 min
Bit rate mode : Constant
Bit rate : 768 kb/s
Channel(s) : 6 channels
Channel layout : L R C LFE Ls Rs
Sampling rate : 48.0 kHz
Frame rate : 31.250 FPS (1536 SPF)
Compression mode : Lossy
Stream size : 589 MiB (17%)
Title : English
Language : English
Service kind : Complete Main
Default : No
Forced : No
Complexity index : 16
Number of dynamic objects : 15
Bed channel count : 1 channel
Bed channel configuration : LFE
Text #1
ID : 6
Format : UTF-8
Codec ID : S_TEXT/UTF8
Codec ID/Info : UTF-8 Plain Text
Duration : 1 h 45 min
Bit rate : 2 b/s
Count of elements : 44
Stream size : 1.89 KiB (0%)
Title : Forced
Language : Russian
Default : Yes
Forced : Yes
Text #2
ID : 7
Format : UTF-8
Codec ID : S_TEXT/UTF8
Codec ID/Info : UTF-8 Plain Text
Duration : 1 h 45 min
Bit rate : 115 b/s
Count of elements : 1599
Stream size : 89.2 KiB (0%)
Title : Full
Language : Russian
Default : No
Forced : No
Text #3
ID : 8
Format : UTF-8
Codec ID : S_TEXT/UTF8
Codec ID/Info : UTF-8 Plain Text
Duration : 1 h 39 min
Bit rate : 2 b/s
Count of elements : 34
Stream size : 1.63 KiB (0%)
Title : Forced
Language : Ukrainian
Default : No
Forced : No
Text #4
ID : 9
Format : UTF-8
Codec ID : S_TEXT/UTF8
Codec ID/Info : UTF-8 Plain Text
Duration : 1 h 45 min
Bit rate : 117 b/s
Count of elements : 1704
Stream size : 90.3 KiB (0%)
Title : Full
Language : Ukrainian
Default : No
Forced : No
Text #5
ID : 10
Format : UTF-8
Codec ID : S_TEXT/UTF8
Codec ID/Info : UTF-8 Plain Text
Duration : 1 h 42 min
Bit rate : 91 b/s
Count of elements : 1967
Stream size : 68.5 KiB (0%)
Language : English
Default : No
Forced : No

admin

Post 07-Apr-2021 13:30

[Quote]

Информация о фильме
Название: Проклятие ведьмы
Оригинальное название: The Reckoning
Год выхода: 2020
Жанр: Ужасы
Режиссер: Нил Маршалл
В ролях: Шарлотта Кирк, Джо Андерсон, Стивен Вэддингтон, Шон Пертуи, Йен Уайт, Эмма Холцер, Кэл Макэнинк, Рик Уорден, Марк Райан, Леон Окенден

О фильме: XVII век. Времена чумы и безжалостной охоты на ведьм. Дьявол протягивает руку помощи девушке, попавшей в заточение Святой инквизиции. Под пытками от нее требуют признаться в сговоре с темными силами. Однако, чем дольше девушка терпит мучения, тем меньше у неё сил сопротивляться предложению Князя тьмы.
Страна: Великобритания
Студия: BondIt, Buffalo 8 Productions, Fourth Culture Films, Moviebar Productions
Продолжительность: 01:50:55
Перевод: Дублированный | iTunes
Качество: BDRip 1080p
Видео: MPEG-4 AVC, 1920x808, 14.0 Mbit/s, 23.976 fps
Аудио #01: 48 kHz, AC3, 5.1, 384 Kbps | iTunes | RUS |
Аудио #02: 48 kHz, AC3, 5.1, 640 Kbps | Оригинал | ENG |
Субтитры: Русские (Full), английские

Скриншоты

MI

General
Unique ID : 168805427024689101812789114183375872794 (0x7EFEBE1F80ADBE3FC216A001D2A7631A)
Complete name : F:VideoThe.Reckoning.2021.BDRip.1080p.seleZen.mkv
Format : Matroska
Format version : Version 4
File size : 11.7 GiB
Duration : 1 h 51 min
Overall bit rate : 15.1 Mb/s
Movie name : The Reckoning 2021 from seleZen
Encoded date : UTC 2021-04-06 21:48:22
Writing application : mkvmerge v55.0.0 ('Waiting For Space') 64-bit
Writing library : libebml v1.4.2 + libmatroska v1.6.4
Video
ID : 1
Format : AVC
Format/Info : Advanced Video Codec
Format profile : High@L4.1
Format settings : CABAC / 5 Ref Frames
Format settings, CABAC : Yes
Format settings, Reference : 5 frames
Codec ID : V_MPEG4/ISO/AVC
Duration : 1 h 50 min
Bit rate : 14.0 Mb/s
Width : 1 920 pixels
Height : 808 pixels
Display aspect ratio : 2.40:1
Frame rate mode : Constant
Frame rate : 23.976 (24000/1001) FPS
Color space : YUV
Chroma subsampling : 4:2:0
Bit depth : 8 bits
Scan type : Progressive
Bits/(Pixel*Frame) : 0.378
Stream size : 10.9 GiB (93%)
Title : MTeam
Writing library : x264 core 157 r2938 2b00a84 TnP@MTeam Mod
Encoding settings : cabac=1 / ref=5 / deblock=1:-3:-3 / analyse=0x3:0x133 / me=umh / subme=10 / psy=1 / psy_rd=1.05:0.00 / mixed_ref=1 / me_range=32 / chroma_me=1 / trellis=2 / 8x8dct=1 / cqm=0 / deadzone=21,11 / fast_pskip=0 / chroma_qp_offset=-2 / threads=12 / lookahead_threads=2 / sliced_threads=0 / nr=0 / decimate=0 / interlaced=0 / bluray_compat=0 / constrained_intra=0 / bframes=8 / b_pyramid=2 / b_adapt=2 / b_bias=0 / direct=3 / weightb=1 / open_gop=0 / weightp=2 / keyint=250 / keyint_min=24 / scenecut=40 / intra_refresh=0 / rc_lookahead=250 / rc=crf / mbtree=0 / crf=16.8 / qcomp=0.60 / qpmin=0 / qpmax=69 / qpstep=4 / vbv_maxrate=62500 / vbv_bufsize=78125 / crf_max=0.0 / nal_hrd=none / filler=0 / ip_ratio=1.30 / pb_ratio=1.20 / aq=3:0.80
Language : English
Default : Yes
Forced : No
Color range : Limited
Color primaries : BT.709
Matrix coefficients : BT.709
Audio #1
ID : 2
Format : AC-3
Format/Info : Audio Coding 3
Commercial name : Dolby Digital
Codec ID : A_AC3
Duration : 1 h 51 min
Bit rate mode : Constant
Bit rate : 384 kb/s
Channel(s) : 6 channels
Channel layout : L R C LFE Ls Rs
Sampling rate : 48.0 kHz
Frame rate : 31.250 FPS (1536 SPF)
Compression mode : Lossy
Stream size : 305 MiB (3%)
Title : iTunes
Language : Russian
Service kind : Complete Main
Default : Yes
Forced : Yes
Audio #2
ID : 3
Format : AC-3
Format/Info : Audio Coding 3
Commercial name : Dolby Digital
Codec ID : A_AC3
Duration : 1 h 50 min
Bit rate mode : Constant
Bit rate : 640 kb/s
Channel(s) : 6 channels
Channel layout : L R C LFE Ls Rs
Sampling rate : 48.0 kHz
Frame rate : 31.250 FPS (1536 SPF)
Compression mode : Lossy
Stream size : 508 MiB (4%)
Title : Original
Language : English
Service kind : Complete Main
Default : No
Forced : No
Text #1
ID : 4
Format : UTF-8
Codec ID : S_TEXT/UTF8
Codec ID/Info : UTF-8 Plain Text
Duration : 1 h 45 min
Bit rate : 70 b/s
Count of elements : 1232
Stream size : 54.5 KiB (0%)
Title : Full
Language : Russian
Default : No
Forced : No
Text #2
ID : 5
Format : UTF-8
Codec ID : S_TEXT/UTF8
Codec ID/Info : UTF-8 Plain Text
Duration : 1 h 40 min
Bit rate : 40 b/s
Count of elements : 1066
Stream size : 29.8 KiB (0%)
Title : Full
Language : English
Default : No
Forced : No
Menu
00:00:00.000 : en:Chapter 01
00:09:22.395 : en:Chapter 02
00:21:25.409 : en:Chapter 03
00:36:21.971 : en:Chapter 04
00:46:47.680 : en:Chapter 05
00:57:44.836 : en:Chapter 06
01:14:35.513 : en:Chapter 07
01:46:29.133 : en:Chapter 08

admin

Post 07-Apr-2021 13:29

[Quote]

Информация о фильме
Название: Проклятие ведьмы
Оригинальное название: The Reckoning
Год выхода: 2020
Жанр: Ужасы
Режиссер: Нил Маршалл
В ролях: Шарлотта Кирк, Джо Андерсон, Стивен Вэддингтон, Шон Пертуи, Йен Уайт, Эмма Холцер, Кэл Макэнинк, Рик Уорден, Марк Райан, Леон Окенден

О фильме: XVII век. Времена чумы и безжалостной охоты на ведьм. Дьявол протягивает руку помощи девушке, попавшей в заточение Святой инквизиции. Под пытками от нее требуют признаться в сговоре с темными силами. Однако, чем дольше девушка терпит мучения, тем меньше у неё сил сопротивляться предложению Князя тьмы.
Страна: Великобритания
Студия: BondIt, Buffalo 8 Productions, Fourth Culture Films, Moviebar Productions
Продолжительность: 01:50:55
Перевод: Дублированный | iTunes
Качество: BDRip 720p
Видео: MPEG-4 AVC, 1280x540, 3997 Kbit/s, 23.976 fps
Аудио #01: 48 kHz, AC3, 5.1, 384 Kbps | iTunes | RUS |
Аудио #02: 48 kHz, AC3, 5.1, 640 Kbps | Оригинал | ENG |
Субтитры: Русские (Full), английские

Скриншоты

MI

General
Unique ID : 207097145378219192618421310317766497871 (0x9BCD759925E2C6A804FEB5391115D64F)
Complete name : F:VideoThe.Reckoning.2021.BDRip.720p.seleZen.mkv
Format : Matroska
Format version : Version 4
File size : 3.89 GiB
Duration : 1 h 51 min
Overall bit rate : 5 020 kb/s
Movie name : The Reckoning 2021 from seleZen
Encoded date : UTC 2021-04-06 23:43:48
Writing application : mkvmerge v55.0.0 ('Waiting For Space') 64-bit
Writing library : libebml v1.4.2 + libmatroska v1.6.4
Video
ID : 1
Format : AVC
Format/Info : Advanced Video Codec
Format profile : High@L4.1
Format settings : CABAC / 12 Ref Frames
Format settings, CABAC : Yes
Format settings, Reference : 12 frames
Codec ID : V_MPEG4/ISO/AVC
Duration : 1 h 50 min
Bit rate : 3 997 kb/s
Width : 1 280 pixels
Height : 540 pixels
Display aspect ratio : 2.40:1
Frame rate mode : Constant
Frame rate : 23.976 (24000/1001) FPS
Color space : YUV
Chroma subsampling : 4:2:0
Bit depth : 8 bits
Scan type : Progressive
Bits/(Pixel*Frame) : 0.241
Stream size : 3.10 GiB (80%)
Title : MTeam
Writing library : x264 core 157 r2938 2b00a84 TnP@MTeam Mod
Encoding settings : cabac=1 / ref=12 / deblock=1:-3:-3 / analyse=0x3:0x133 / me=umh / subme=10 / psy=1 / psy_rd=1.05:0.00 / mixed_ref=1 / me_range=32 / chroma_me=1 / trellis=2 / 8x8dct=1 / cqm=0 / deadzone=21,11 / fast_pskip=0 / chroma_qp_offset=-2 / threads=12 / lookahead_threads=2 / sliced_threads=0 / nr=0 / decimate=0 / interlaced=0 / bluray_compat=0 / constrained_intra=0 / bframes=8 / b_pyramid=2 / b_adapt=2 / b_bias=0 / direct=3 / weightb=1 / open_gop=0 / weightp=2 / keyint=250 / keyint_min=24 / scenecut=40 / intra_refresh=0 / rc_lookahead=250 / rc=crf / mbtree=0 / crf=16.8 / qcomp=0.60 / qpmin=0 / qpmax=69 / qpstep=4 / vbv_maxrate=62500 / vbv_bufsize=78125 / crf_max=0.0 / nal_hrd=none / filler=0 / ip_ratio=1.30 / pb_ratio=1.20 / aq=3:0.80
Language : English
Default : Yes
Forced : No
Color range : Limited
Color primaries : BT.709
Matrix coefficients : BT.709
Audio #1
ID : 2
Format : AC-3
Format/Info : Audio Coding 3
Commercial name : Dolby Digital
Codec ID : A_AC3
Duration : 1 h 51 min
Bit rate mode : Constant
Bit rate : 384 kb/s
Channel(s) : 6 channels
Channel layout : L R C LFE Ls Rs
Sampling rate : 48.0 kHz
Frame rate : 31.250 FPS (1536 SPF)
Compression mode : Lossy
Stream size : 305 MiB (8%)
Title : iTunes
Language : Russian
Service kind : Complete Main
Default : Yes
Forced : Yes
Audio #2
ID : 3
Format : AC-3
Format/Info : Audio Coding 3
Commercial name : Dolby Digital
Codec ID : A_AC3
Duration : 1 h 50 min
Bit rate mode : Constant
Bit rate : 640 kb/s
Channel(s) : 6 channels
Channel layout : L R C LFE Ls Rs
Sampling rate : 48.0 kHz
Frame rate : 31.250 FPS (1536 SPF)
Compression mode : Lossy
Stream size : 508 MiB (13%)
Title : Original
Language : English
Service kind : Complete Main
Default : No
Forced : No
Text #1
ID : 4
Format : UTF-8
Codec ID : S_TEXT/UTF8
Codec ID/Info : UTF-8 Plain Text
Duration : 1 h 45 min
Bit rate : 70 b/s
Count of elements : 1232
Stream size : 54.5 KiB (0%)
Title : Full
Language : Russian
Default : No
Forced : No
Text #2
ID : 5
Format : UTF-8
Codec ID : S_TEXT/UTF8
Codec ID/Info : UTF-8 Plain Text
Duration : 1 h 40 min
Bit rate : 40 b/s
Count of elements : 1066
Stream size : 29.8 KiB (0%)
Title : Full
Language : English
Default : No
Forced : No
Menu
00:00:00.000 : en:Chapter 01
00:09:22.395 : en:Chapter 02
00:21:25.409 : en:Chapter 03
00:36:21.971 : en:Chapter 04
00:46:47.680 : en:Chapter 05
00:57:44.836 : en:Chapter 06
01:14:35.513 : en:Chapter 07
01:46:29.133 : en:Chapter 08

admin

Post 07-Apr-2021 13:18

[Quote]

Информация о фильме
Название: Реинкарнация: Пришествие дьявола
Оригинальное название: Anything for Jackson
Год выхода: 2020
Жанр: Ужасы
Режиссер: Джастин Дж. Дик
В ролях: Шейла Маккарти, Джулиан Ричингс, Константина Мантелос, Джош Круддас, Янник Биссон, Ланетт Уэр, Клер Столлери, Скотт Квальейру, Дэкстон Уилльям Ланд, Кейтлин Либ
О фильме: Пожилая пара похищает беременную женщину и запирает её в загородном доме. Чтобы вернуть к жизни погибшего внука, они совершают над ней сатанинский ритуал, пытаясь поместить его душу в ещё нерождённого ребёнка. Но поскольку в колдовстве они совершенно не разбираются, их дом начинают заполонять беспокойные духи, среди которых есть и крайне зловредные.

Выпущено: Канада / Vortex Productions
Продолжительность: 01:37:23
Озвучивание: Дублированное | iTunes
Файл
Формат: MKV
Качество: WEB-DL 720p
Видео: MPEG-4 AVC, 4031 Kb/s, 1280x544
Аудио #1: Russian: 48 kHz, AC3 Dolby Digital, 3/2 (L, C, R, l, r) + LFE ch, ~384 Kbps | DUB | iTunes
Аудио #2: English: 48 kHz, Enhanced AC3 Dolby Digital, 3/2 (L, C, R, l, r) + LFE ch, ~640 Kbps | Original
Субтитры: English
Дополнительно: Нет

MediaInfo:

Complete name: Reinkarnatsiya.Prishestvie.dyavola.2020.WEB-DL.720p.ELEKTRI4KA.UNIONGANG.mkv
Format: Matroska
Format version: Version 4
File size: 3.44 GiB
Duration: 1 h 37 min
Overall bit rate: 5 057 kb/s
Movie name: Reinkarnatsiya.Prishestvie.dyavola.2020.WEB-DL.720p.ELEKTRI4KA.UNIONGANG
Encoded date: UTC 2021-04-05 12:03:18
Writing application: mkvmerge v8.3.0 ('Over the Horizon') 64bit
Writing library: libebml v1.3.1 + libmatroska v1.4.2
Video
ID: 1
Format: AVC
Format/Info: Advanced Video Codec
Format profile: High@L3.1
Format settings: CABAC / 4 Ref Frames
Format settings, CABAC: Yes
Format settings, Reference frames: 4 frames
Codec ID: V_MPEG4/ISO/AVC
Duration: 1 h 37 min
Bit rate mode: Constant
Bit rate: 4 031 kb/s
Nominal bit rate: 6 000 kb/s
Width: 1 280 pixels
Height: 544 pixels
Display aspect ratio: 2.35:1
Original display aspect ratio: 2.35:1
Frame rate mode: Constant
Frame rate: 24.000 FPS
Color space: YUV
Chroma subsampling: 4:2:0
Bit depth: 8 bits
Scan type: Progressive
Bits/(Pixel*Frame): 0.241
Stream size: 2.74 GiB (80%)
Default: Yes
Forced: No
Color range: Limited
Color primaries: BT.709
Transfer characteristics: BT.709
Matrix coefficients: BT.709
Audio #1
ID: 2
Format: AC-3
Format/Info: Audio Coding 3
Commercial name: Dolby Digital
Codec ID: A_AC3
Duration: 1 h 37 min
Bit rate mode: Constant
Bit rate: 384 kb/s
Channel(s): 6 channels
Channel layout: L R C LFE Ls Rs
Sampling rate: 48.0 kHz
Frame rate: 31.250 FPS (1536 SPF)
Compression mode: Lossy
Stream size: 267 MiB (8%)
Title: DUB (iTunes)
Language: Russian
Service kind: Complete Main
Default: Yes
Forced: Yes
Audio #2
ID: 3
Format: E-AC-3
Format/Info: Enhanced AC-3
Commercial name: Dolby Digital Plus
Codec ID: A_EAC3
Duration: 1 h 37 min
Bit rate mode: Constant
Bit rate: 640 kb/s
Channel(s): 6 channels
Channel layout: L R C LFE Ls Rs
Sampling rate: 48.0 kHz
Frame rate: 31.250 FPS (1536 SPF)
Compression mode: Lossy
Stream size: 446 MiB (13%)
Title: Original
Language: English
Service kind: Complete Main
Default: No
Forced: No
Text #1
ID: 4
Format: UTF-8
Codec ID: S_TEXT/UTF8
Codec ID/Info: UTF-8 Plain Text
Duration: 1 h 37 min
Bit rate: 45 b/s
Count of elements: 1287
Stream size: 32.2 KiB (0%)
Title: Full
Language: English
Default: No
Forced: No
Text #2
ID: 5
Format: UTF-8
Codec ID: S_TEXT/UTF8
Codec ID/Info: UTF-8 Plain Text
Duration: 1 h 37 min
Bit rate: 52 b/s
Count of elements: 1542
Stream size: 37.5 KiB (0%)
Title: SDH
Language: English
Default: No
Forced: No

Скриншоты

admin

Post 07-Apr-2021 13:18

[Quote]

Информация о фильме
Название: Реинкарнация: Пришествие дьявола
Оригинальное название: Anything for Jackson
Год выхода: 2020
Жанр: Ужасы
Режиссер: Джастин Дж. Дик
В ролях: Шейла Маккарти, Джулиан Ричингс, Константина Мантелос, Джош Круддас, Янник Биссон, Ланетт Уэр, Клер Столлери, Скотт Квальейру, Дэкстон Уилльям Ланд, Кейтлин Либ

О фильме: Пожилая пара похищает беременную женщину и запирает её в загородном доме. Чтобы вернуть к жизни погибшего внука, они совершают над ней сатанинский ритуал, пытаясь поместить его душу в ещё нерождённого ребёнка. Но поскольку в колдовстве они совершенно не разбираются, их дом начинают заполонять беспокойные духи, среди которых есть и крайне зловредные.
Страна: Канада
Студия: Vortex Productions
Продолжительность: 01:37:23
Перевод: Дублированный | iTunes
Качество: WEB-DL 1080p
Видео: MPEG-4 AVC, 1920x816, 9311 Kbit/s, 24.000 fps
Аудио #01: 48 kHz, AC3, 5.1, 384 Kbps | Дублированный | RUS |
Аудио #02: 48 kHz, E-AC3, 5.1, 640 Kbps | Оригинал | ENG |
Субтитры: Английские

Скриншоты

MI

General
Unique ID : 338954812352188211986042422592116896314 (0xFF0052819E5F98B3A9275CD0DE9C323A)
Complete name : F:VideoAnything.for.Jackson.2020.WEB-DL.1080p.seleZen.mkv
Format : Matroska
Format version : Version 4
File size : 7.03 GiB
Duration : 1 h 37 min
Overall bit rate : 10.3 Mb/s
Movie name : Anything for Jackson 2020 from seleZen
Encoded date : UTC 2021-04-05 03:59:56
Writing application : mkvmerge v55.0.0 ('Waiting For Space') 64-bit
Writing library : libebml v1.4.2 + libmatroska v1.6.4
Video
ID : 1
Format : AVC
Format/Info : Advanced Video Codec
Format profile : High@L4
Format settings : CABAC / 4 Ref Frames
Format settings, CABAC : Yes
Format settings, Reference : 4 frames
Codec ID : V_MPEG4/ISO/AVC
Duration : 1 h 37 min
Bit rate mode : Constant
Bit rate : 9 311 kb/s
Nominal bit rate : 10 000 kb/s
Width : 1 920 pixels
Height : 816 pixels
Display aspect ratio : 2.35:1
Frame rate mode : Constant
Frame rate : 24.000 FPS
Color space : YUV
Chroma subsampling : 4:2:0
Bit depth : 8 bits
Scan type : Progressive
Bits/(Pixel*Frame) : 0.248
Stream size : 6.33 GiB (90%)
Language : English
Default : Yes
Forced : No
Color range : Limited
Color primaries : BT.709
Transfer characteristics : BT.709
Matrix coefficients : BT.709
Audio #1
ID : 2
Format : AC-3
Format/Info : Audio Coding 3
Commercial name : Dolby Digital
Codec ID : A_AC3
Duration : 1 h 37 min
Bit rate mode : Constant
Bit rate : 384 kb/s
Channel(s) : 6 channels
Channel layout : L R C LFE Ls Rs
Sampling rate : 48.0 kHz
Frame rate : 31.250 FPS (1536 SPF)
Compression mode : Lossy
Stream size : 267 MiB (4%)
Title : iTunes
Language : Russian
Service kind : Complete Main
Default : Yes
Forced : Yes
Audio #2
ID : 3
Format : E-AC-3
Format/Info : Enhanced AC-3
Commercial name : Dolby Digital Plus
Codec ID : A_EAC3
Duration : 1 h 37 min
Bit rate mode : Constant
Bit rate : 640 kb/s
Channel(s) : 6 channels
Channel layout : L R C LFE Ls Rs
Sampling rate : 48.0 kHz
Frame rate : 31.250 FPS (1536 SPF)
Compression mode : Lossy
Stream size : 446 MiB (6%)
Title : Original
Language : English
Service kind : Complete Main
Default : No
Forced : No
Text #1
ID : 4
Format : UTF-8
Codec ID : S_TEXT/UTF8
Codec ID/Info : UTF-8 Plain Text
Duration : 1 h 37 min
Bit rate : 45 b/s
Count of elements : 1287
Stream size : 32.2 KiB (0%)
Title : Full
Language : English
Default : No
Forced : No
Text #2
ID : 5
Format : UTF-8
Codec ID : S_TEXT/UTF8
Codec ID/Info : UTF-8 Plain Text
Duration : 1 h 37 min
Bit rate : 52 b/s
Count of elements : 1542
Stream size : 37.5 KiB (0%)
Title : SDH
Language : English
Default : No
Forced : No
 

Current time is: 15-Apr 01:18

All times are UTC + 3