Search found 145 matches

Author Message

admin

Post 16-Apr-2021 21:27

[Quote]

Информация о фильме
Название: Понаехали
Год выхода: 2020
Жанр: Комедия, приключения
Режиссер: Султан Хажироко
В ролях: Семён Стругачев, Елена Бирюкова, Артём Башенин, Светлана Егорова, Анатолий Дзиваев, Эльдар Иразиев, Халил Мусаев, Хаджимурад Набиев, Омар Алибутаев, Грант Палагаев
О фильме: Алексей никогда не знал отца, но однажды в порванном кармане старого пиджака он обнаруживает его фото, и узнает что тот живет на Кавказе. И вместо запланированной поездки в Испанию семья Алексея оказывается на кавказских просторах. Отпуск и поиск отца становятся настоящим приключением для Алексея и его близких — смешным, нелепым, иногда немного опасным, и точно незабываемым.

Выпущено: Россия / Сторм Синема, Стриж & CoMedia
Продолжительность: 01:20:35
Озвучивание: Оригинальное | iTunes
Файл
Формат: MKV
Качество: WEB-DL 1080p
Видео: MPEG-4 AVC, 4825 Kb/s, 1920x804
Аудио: Russian: 48 kHz, AC3 Dolby Digital, 3/2 (L, C, R, l, r) + LFE ch, ~384 Kbps
Субтитры: Нет
Дополнительно: Сохранены оригинальные чаптеры.

MediaInfo:

Complete name: Ponaehali.2020.WEB-DL.1080p.ELEKTRI4KA.UNIONGANG.mkv
Format: Matroska
Format version: Version 4
File size: 2.93 GiB
Duration: 1 h 20 min
Overall bit rate: 5 211 kb/s
Movie name: Ponaehali.2020.WEB-DL.1080p.ELEKTRI4KA.UNIONGANG.
Encoded date: UTC 2021-04-15 15:55:41
Writing application: mkvmerge v8.3.0 ('Over the Horizon') 64bit
Writing library: libebml v1.3.1 + libmatroska v1.4.2
Video
ID: 1
Format: AVC
Format/Info: Advanced Video Codec
Format profile: High@L4
Format settings: CABAC / 5 Ref Frames
Format settings, CABAC: Yes
Format settings, Reference frames: 5 frames
Codec ID: V_MPEG4/ISO/AVC
Duration: 1 h 20 min
Bit rate: 4 825 kb/s
Width: 1 920 pixels
Height: 804 pixels
Display aspect ratio: 2.40:1
Frame rate mode: Constant
Frame rate: 25.000 FPS
Color space: YUV
Chroma subsampling: 4:2:0
Bit depth: 8 bits
Scan type: Progressive
Bits/(Pixel*Frame): 0.125
Stream size: 2.72 GiB (93%)
Language: English
Default: Yes
Forced: No
Color range: Limited
Color primaries: BT.709
Transfer characteristics: BT.709
Matrix coefficients: BT.709
Audio
ID: 2
Format: AC-3
Format/Info: Audio Coding 3
Commercial name: Dolby Digital
Codec ID: A_AC3
Duration: 1 h 20 min
Bit rate mode: Constant
Bit rate: 384 kb/s
Channel(s): 6 channels
Channel layout: L R C LFE Ls Rs
Sampling rate: 48.0 kHz
Frame rate: 31.250 FPS (1536 SPF)
Compression mode: Lossy
Stream size: 221 MiB (7%)
Title: Original (iTunes)
Language: Russian
Service kind: Complete Main
Default: Yes
Forced: No
Menu
00:00:00.000: en:Глава 1
00:02:41.560: en:Глава 2
00:11:17.400: en:Глава 3
00:18:23.760: en:Глава 4
00:27:01.439: en:Глава 5
00:32:52.399: en:Глава 6
00:40:29.639: en:Глава 7
00:44:45.119: en:Глава 8
00:51:52.679: en:Глава 9
00:58:28.399: en:Глава 10
01:03:51.719: en:Глава 11
01:10:13.319: en:Глава 12
01:15:30.839: en:Глава 13

Скриншоты

admin

Post 15-Apr-2021 21:40

[Quote]

Информация о фильме
Название: Спасите Колю!
Год выхода: 2020
Жанр: Комедия
Режиссер: Дмитрий Губарев
В ролях: Дмитрий Нагиев, Анна Родоная, Иван Злобин, Кузьма Сапрыкин, Иван Писоцкий, Алексей Золотовицкий, Галина Польских, Нонна Гришаева, Юлия Франц, Владимир Сычев
О фильме:
У студентки Маши Матушкиной все в жизни могло быть прекрасно, если бы не одна большая проблема: вырастивший её в одиночку отец командует военкоматом. Из-за этого ни один парень возле Маши надолго не задерживается — один за другим они уезжают проходить армейскую службу по призыву в самые дальние уголки России. И хотя Маша искренне любит своего упрямого папу, окончательное столкновение характеров неизбежно. И так получается, что случится эта эпическая битва в день юбилея уважаемого военкома.

Выпущено: Россия / Мотор Фильм Студия
Продолжительность: 01:34:59
Озвучивание: Оригинальное | IVI
Файл
Формат: MKV
Качество: WEBRip 1080p
Видео: MPEG-4 AVC, 5120 Kb/s, 1920x804
Аудио #1: Russian: 48 kHz, AC3 Dolby Digital, 3/2 (L, C, R, l, r) + LFE ch, ~384 Kbps | IVI
Аудио #2: Russian: 48 kHz, Advanced Audio Codec, 3/2 (L, C, R, l, r) + LFE ch, ~512 Kbps | IVI
Субтитры: Нет

MediaInfo:

Complete name :Spasite.Kolyu.2020.WEB-DL.1080p.ELEKTRI4KA.UNIONGANG.mkv
Format : Matroska
Format version : Version 4
File size : 3.99 GiB
Duration : 1 h 34 min
Overall bit rate : 6 013 kb/s
Movie name : Spasite.Kolyu.2020.WEB-DL.1080p.ELEKTRI4KA.UNIONGANG.
Encoded date : UTC 2021-04-14 22:02:53
Writing application : mkvmerge v8.3.0 ('Over the Horizon') 64bit
Writing library : libebml v1.3.1 + libmatroska v1.4.2
Video
ID : 1
Format : AVC
Format/Info : Advanced Video Codec
Format profile : High@L4
Format settings : CABAC / 4 Ref Frames
Format settings, CABAC : Yes
Format settings, Reference frames : 4 frames
Codec ID : V_MPEG4/ISO/AVC
Duration : 1 h 34 min
Bit rate : 5 120 kb/s
Width : 1 920 pixels
Height : 804 pixels
Display aspect ratio : 2.40:1
Frame rate mode : Constant
Frame rate : 25.000 FPS
Color space : YUV
Chroma subsampling : 4:2:0
Bit depth : 8 bits
Scan type : Progressive
Bits/(Pixel*Frame) : 0.133
Stream size : 3.39 GiB (85%)
Writing library : x264 core 148
Encoding settings : cabac=1 / ref=3 / deblock=1:0:0 / analyse=0x3:0x113 / me=hex / subme=7 / psy=1 / psy_rd=1.00:0.00 / mixed_ref=1 / me_range=16 / chroma_me=1 / trellis=1 / 8x8dct=1 / cqm=0 / deadzone=21,11 / fast_pskip=1 / chroma_qp_offset=-2 / threads=25 / lookahead_threads=4 / sliced_threads=0 / nr=0 / decimate=1 / interlaced=0 / bluray_compat=0 / constrained_intra=0 / bframes=6 / b_pyramid=2 / b_adapt=1 / b_bias=0 / direct=1 / weightb=1 / open_gop=0 / weightp=2 / keyint=50 / keyint_min=26 / scenecut=0 / intra_refresh=0 / rc_lookahead=40 / rc=2pass / mbtree=1 / bitrate=5120 / ratetol=1.0 / qcomp=0.60 / qpmin=0 / qpmax=69 / qpstep=4 / cplxblur=20.0 / qblur=0.5 / vbv_maxrate=7680 / vbv_bufsize=20480 / nal_hrd=none / filler=0 / ip_ratio=1.40 / aq=1:1.00
Default : Yes
Forced : No
Audio #1
ID : 2
Format : AC-3
Format/Info : Audio Coding 3
Commercial name : Dolby Digital
Codec ID : A_AC3
Duration : 1 h 34 min
Bit rate mode : Constant
Bit rate : 384 kb/s
Channel(s) : 6 channels
Channel layout : L R C LFE Ls Rs
Sampling rate : 48.0 kHz
Frame rate : 31.250 FPS (1536 SPF)
Compression mode : Lossy
Delay relative to video : -43 ms
Stream size : 261 MiB (6%)
Title : Original AC3 (IVI)
Language : Russian
Service kind : Complete Main
Default : Yes
Forced : Yes
Audio #2
ID : 3
Format : AAC LC
Format/Info : Advanced Audio Codec Low Complexity
Codec ID : A_AAC-2
Duration : 1 h 34 min
Bit rate : 512 kb/s
Channel(s) : 6 channels
Channel layout : C L R Ls Rs LFE
Sampling rate : 48.0 kHz
Frame rate : 46.875 FPS (1024 SPF)
Compression mode : Lossy
Delay relative to video : -43 ms
Stream size : 348 MiB (9%)
Title : Original AAC (IVI)
Language : Russian
Default : No
Forced : No

Скриншоты



admin

Post 10-Apr-2021 13:10

[Quote]

Информация о фильме
Название: Бывшая
Год выхода: 2021
Жанр: Ужасы, триллер
Режиссер: Евгений Пузыревский
В ролях: Константин Белошапка, Вера Панфилова, Сергей Двойников, Екатерина Шумакова, Елена Морозова, Владимир Селезнёв
О фильме:
История о том, как соцсети и мессенджеры меняют жизнь современного человека. Прошло несколько лет с тех пор, как 16-летний подросток опубликовал в общем чате фото своей девушки в надежде похвалиться перед друзьями. Теперь у него счастливая взрослая жизнь: работа, друзья, невеста Катя, которая вот-вот станет его женой. Но интернет заставляет вспомнить подростковую влюбленность, после чего с будущей женой молодого человека происходит цепь необъяснимых мистических событий. Девушка получает таинственные послания из прошлого своего жениха. Из-за них ее жизнь превращается в кошмар.

Страна: Россия
Студия: Planeta Inform Communiction Group
Продолжительность: 01:27:32
Язык: Русский
Примечание: Без рекламы
Файл
Формат: MKV
Качество: WEBRip 720p
Видео: MPEG-4 AVC, 2569 Кбит/с, 1280х536
Звук: AC3, 6 ch, 384 Кбит/с
Субтитры: Отсутствуют

Скриншоты

admin

Post 10-Apr-2021 13:05

[Quote]

Информация о фильме
Название: Родные
Год выхода: 2021
Жанр: Комедия, драма
Режиссер: Илья Аксенов
В ролях: Сергей Бурунов, Ирина Пегова, Семён Трескунов, Монеточка, Катерина Беккер, Анна Уколова, Никита Павленко, Сергей Шакуров, Павел Ворожцов, Дмитрий Русаков
О фильме:
Однажды утром отец семейства решает исполнить мечту всей жизни: отправиться с родными на Грушинский фестиваль и выступить там со своей песней. Семья вынуждена смириться с желанием отца-самодура и пуститься в автопутешествие через всю Россию. В пути их ждут приключения, различные испытания, проверка отношений на прочность и важная встреча, которую отец ждал двадцать лет.

Страна: Россия
Студия: Hype Film
Продолжительность: 01:37:49
Язык: Русский
Файл
Кодек: MPEG-4 AVC
Качество: WEBRip 1080p
Видео: MPEG-4 AVC, 5000 Кбит/с, 1920x800
Звук: AC3, 2 ch, 192 Кбит/с
Реклама, любого вида, отсутствует.

Скриншоты


admin

Post 10-Apr-2021 13:05

[Quote]

Информация о фильме
Название: Родные
Год выхода: 2021
Жанр: Комедия, драма
Режиссер: Илья Аксенов
В ролях: Сергей Бурунов, Ирина Пегова, Семён Трескунов, Монеточка, Катерина Беккер, Анна Уколова, Никита Павленко, Сергей Шакуров, Павел Ворожцов, Дмитрий Русаков
О фильме:
Однажды утром отец семейства решает исполнить мечту всей жизни: отправиться с родными на Грушинский фестиваль и выступить там со своей песней. Семья вынуждена смириться с желанием отца-самодура и пуститься в автопутешествие через всю Россию. В пути их ждут приключения, различные испытания, проверка отношений на прочность и важная встреча, которую отец ждал двадцать лет.

Страна: Россия
Студия: Hype Film
Продолжительность: 01:37:49
Язык: Русский
Файл
Кодек: MPEG-4 AVC
Качество: WEBRip 720p
Видео: MPEG-4 AVC, 3100 Кбит/с, 1280x528
Звук: AC3, 2 ch, 192 Кбит/с
Реклама, любого вида, отсутствует.

Скриншоты

admin

Post 09-Apr-2021 13:10

[Quote]

Информация о фильме
Название: Русский рейд
Год выхода: 2019
Жанр: Боевик, криминал
Режиссер: Денис Крючков
В ролях: Иван Котик, Александр Красовский, Илья Антоненко, Владимир Минеев, Никита Кологривый, Софья Озерова, Кирилл Сарычев, Дмитрий Кривочуров, Андрей Семенов, Алексей Максименков, Сергей Подольный, Константин Игнатьев, Владимир Боровиков, Хельга Филиппова, Артём Мельничук, Сергей Легостаев
О фильме:
Рейдеры подготовили идеальный план по захвату завода: инсайдеры, подробные чертежи территории, завязки на высшем уровне, компромат на собственников, хакерская поддержка. На их стороне внезапность и прекрасно подготовленная команда головорезов. Но захват оборачивается кровавой ловушкой, ведь банду нападающих ведет человек со своим представлением о целях рейда. Его приоритет - не завод и не деньги, для него главное – справедливость и месть!

Страна: Россия
Студия: Радрагон
Продолжительность: 01:43:15
Озвучивание: Оригинальное | Лицензия
Файл
Кодек: x.264
Качество: BDRip 1080p
Видео: MPEG-4 AVC, 9341 Kбит/с, 1920x800, 24.000 кадр/с
Аудио #1: Русский (АС3, 6 ch, 640 Кбит/с, 48.0 KHz)
Аудио #2: Русский (DTS-HD MA, 6 ch, 2461 Кбит/с, 48.0 KHz)
Субтитры: Aнглийские

MediaInfo

Источник: Russkiy.Reyd.2020.1080p.BluRay.x264-RUSTED
General
Unique ID : 181844453948548434822179355557947278064 (0x88CDF7C8D203205AA7929A3FEA4882F0)
Complete name : Russkiy.Reyd.2019.BDRip.1080p.x264.mkv
Format : Matroska
Format version : Version 4
File size : 8.98 GiB
Duration : 1 h 43 min
Overall bit rate mode : Variable
Overall bit rate : 12.5 Mb/s
Encoded date : UTC 2021-04-08 07:42:20
Writing application : mkvmerge v7.1.0 ('Good Love') 64bit built on Jul 27 2014 13:06:55
Writing library : libebml v1.3.0 + libmatroska v1.4.1
Video
ID : 1
Format : AVC
Format/Info : Advanced Video Codec
Format profile : High@L4.1
Format settings : CABAC / 5 Ref Frames
Format settings, CABAC : Yes
Format settings, Reference fra : 5 frames
Codec ID : V_MPEG4/ISO/AVC
Duration : 1 h 43 min
Bit rate : 9 341 kb/s
Width : 1 920 pixels
Height : 800 pixels
Display aspect ratio : 2.40:1
Frame rate mode : Constant
Frame rate : 24.000 FPS
Color space : YUV
Chroma subsampling : 4:2:0
Bit depth : 8 bits
Scan type : Progressive
Bits/(Pixel*Frame) : 0.253
Stream size : 6.74 GiB (75%)
Writing library : x264 core 161 r3048 b86ae3c
Encoding settings : cabac=1 / ref=5 / deblock=1:-3:-3 / analyse=0x3:0x133 / me=umh / subme=9 / psy=1 / psy_rd=1.00:0.00 / mixed_ref=1 / me_range=16 / chroma_me=1 / trellis=2 / 8x8dct=1 / cqm=0 / deadzone=21,11 / fast_pskip=0 / chroma_qp_offset=-2 / threads=24 / lookahead_threads=2 / sliced_threads=0 / nr=0 / decimate=0 / interlaced=0 / bluray_compat=0 / constrained_intra=0 / bframes=3 / b_pyramid=2 / b_adapt=2 / b_bias=0 / direct=3 / weightb=1 / open_gop=0 / weightp=2 / keyint=250 / keyint_min=24 / scenecut=40 / intra_refresh=0 / rc=crf / mbtree=0 / crf=17.0 / qcomp=0.60 / qpmin=0 / qpmax=69 / qpstep=4 / ip_ratio=1.40 / pb_ratio=1.30 / aq=3:0.70
Language : Russian
Default : Yes
Forced : No
Color range : Limited
Matrix coefficients : BT.709
Audio #1
ID : 2
Format : AC-3
Format/Info : Audio Coding 3
Commercial name : Dolby Digital
Codec ID : A_AC3
Duration : 1 h 43 min
Bit rate mode : Constant
Bit rate : 640 kb/s
Channel(s) : 6 channels
Channel layout : L R C LFE Ls Rs
Sampling rate : 48.0 kHz
Frame rate : 31.250 FPS (1536 SPF)
Compression mode : Lossy
Stream size : 473 MiB (5%)
Language : Russian
Service kind : Complete Main
Default : Yes
Forced : No
Audio #2
ID : 3
Format : DTS XLL
Format/Info : Digital Theater Systems
Commercial name : DTS-HD Master Audio
Codec ID : A_DTS
Duration : 1 h 43 min
Bit rate mode : Variable
Bit rate : 2 461 kb/s
Channel(s) : 6 channels
Channel layout : C L R Ls Rs LFE
Sampling rate : 48.0 kHz
Frame rate : 93.750 FPS (512 SPF)
Bit depth : 16 bits
Compression mode : Lossless
Stream size : 1.78 GiB (20%)
Language : Russian
Default : No
Forced : No
Text #1
ID : 4
Format : UTF-8
Codec ID : S_TEXT/UTF8
Codec ID/Info : UTF-8 Plain Text
Duration : 1 h 36 min
Bit rate : 34 b/s
Count of elements : 860
Stream size : 24.5 KiB (0%)
Title : English (SRT)
Language : English
Default : No
Forced : No
Text #2
ID : 5
Format : PGS
Muxing mode : zlib
Codec ID : S_HDMV/PGS
Codec ID/Info : Picture based subtitle format used on BDs/HD-DVDs
Duration : 1 h 36 min
Bit rate : 9 679 b/s
Count of elements : 1484
Stream size : 6.66 MiB (0%)
Title : English
Language : English
Default : No
Forced : No
Menu
00:00:00.000 : ru:Chapter 01
00:09:10.167 : ru:Chapter 02
00:18:28.083 : ru:Chapter 03
00:29:22.292 : ru:Chapter 04
00:37:34.792 : ru:Chapter 05
00:45:55.292 : ru:Chapter 06
01:01:05.917 : ru:Chapter 07
01:10:19.917 : ru:Chapter 08
01:23:56.250 : ru:Chapter 09
01:37:38.917 : ru:Chapter 10

Скриншоты

admin

Post 09-Apr-2021 12:24

[Quote]

Информация о фильме
Название: Гуляй, Вася! Свидание на Бали
Год выхода: 2020
Жанр: Комедия
Режиссер: Роман Каримов
В ролях: Любовь Аксёнова, Роман Курцын, Борис Дергачев, Вера Панфилова, Вера Кинчева, Сергей Аброскин, Святослав Королев, Владимир Карпук, Ефим Петрунин, Софья Райзман, Сергей Савичев, Виктория Буцких, Анжелика Катышева, Евгений Пилипенко, Роман Смирнов, Даниил Чуп, Артем Костюнёв, Сергей Анненков, Юрий Мячин, Евгений Любарский, Светлана Вишнякова, Алёна Ким
О фильме:
Паше опять выпала великолепная возможность изменить жене с красивой Васей. Максу выпала возможность уничтожить Митю и вернуть Настю. Все герои сойдутся на острове Бали, где их ждут погони, бои без правил и невероятные приключения.

Страна: Россия
Студия: PLAN 9
Продолжительность: 01:49:52
Язык: Русский
Примечание: Без рекламы
Файл
Формат: MKV
Качество: WEB-DL 1080p
Видео: MPEG-4 AVC, 5146 Кбит/с, 1920х804
Звук: E-AC3, 6 ch, 320 Кбит/с
Субтитры: Отсутствуют
Семпл

Скриншоты

MI

General
Unique ID : 247234162444462130212909218776531953847 (0xB9FF9152FFFCEF54ACA63936105D68B7)
Complete name : Gulyay.Vasya.Svidanie.na.Bali.2021.1080p.KP.WEB-DL.DDP5.1.H.264-EniaHD.mkv
Format : Matroska
Format version : Version 4
File size : 4.20 GiB
Duration : 1 h 49 min
Overall bit rate : 5 468 kb/s
Writing application : mkvmerge v56.0.0 ('Strasbourg / St. Denis') 64-bit
Writing library : libebml v1.4.2 + libmatroska v1.6.4
Video
ID : 1
Format : AVC
Format/Info : Advanced Video Codec
Format profile : High@L4
Format settings : CABAC / 5 Ref Frames
Format settings, CABAC : Yes
Format settings, Reference frames : 5 frames
Codec ID : V_MPEG4/ISO/AVC
Duration : 1 h 49 min
Bit rate : 5 146 kb/s
Nominal bit rate : 6 000 kb/s
Width : 1 920 pixels
Height : 804 pixels
Display aspect ratio : 2.40:1
Frame rate mode : Constant
Frame rate : 24.000 FPS
Color space : YUV
Chroma subsampling : 4:2:0
Bit depth : 8 bits
Scan type : Progressive
Bits/(Pixel*Frame) : 0.139
Stream size : 3.95 GiB (94%)
Writing library : x264 core 157 r2969 d4099dd
Encoding settings : cabac=1 / ref=5 / deblock=1:0:0 / analyse=0x3:0x133 / me=umh / subme=10 / psy=1 / psy_rd=1.00:0.00 / mixed_ref=1 / me_range=24 / chroma_me=1 / trellis=2 / 8x8dct=1 / cqm=0 / deadzone=21,11 / fast_pskip=1 / chroma_qp_offset=-2 / threads=25 / lookahead_threads=4 / sliced_threads=0 / nr=0 / decimate=1 / interlaced=0 / bluray_compat=0 / stitchable=1 / constrained_intra=0 / bframes=8 / b_pyramid=2 / b_adapt=2 / b_bias=0 / direct=3 / weightb=1 / open_gop=0 / weightp=2 / keyint=192 / keyint_min=96 / scenecut=40 / intra_refresh=0 / rc_lookahead=60 / rc=2pass / mbtree=1 / bitrate=6000 / ratetol=1.0 / qcomp=0.60 / qpmin=0 / qpmax=69 / qpstep=4 / cplxblur=20.0 / qblur=0.5 / vbv_maxrate=6600 / vbv_bufsize=1100 / nal_hrd=none / filler=0 / ip_ratio=1.40 / aq=1:1.00
Default : Yes
Forced : No
Audio
ID : 2
Format : E-AC-3
Format/Info : Enhanced AC-3
Commercial name : Dolby Digital Plus
Codec ID : A_EAC3
Duration : 1 h 49 min
Bit rate mode : Constant
Bit rate : 320 kb/s
Channel(s) : 6 channels
Channel layout : L R C LFE Ls Rs
Sampling rate : 48.0 kHz
Frame rate : 31.250 FPS (1536 SPF)
Compression mode : Lossy
Stream size : 251 MiB (6%)
Language : Russian
Service kind : Complete Main
Default : Yes
Forced : No

admin

Post 08-Apr-2021 12:25

[Quote]

Название: Белый снег
Год выхода: 2021
Жанр: биография, спорт, драма
Режиссер: Николай Хомерики
В ролях: Ольга Лерман, Фёдор Добронравов, Надежда Маркина, Анна Уколова, Александр Устюгов
О фильме:
Фильм повествует о том, как маленькая девочка Лена из Магадана, преодолев все испытания, достигла высочайших успехов в спорте, а также о реальных событиях, произошедших в 1997 году на чемпионате мира по лыжным видам спорта в Норвегии, когда впервые в истории лыжных гонок российская лыжница Елена Вяльбе завоевала пять золотых медалей из пяти возможных.
Страна: Россия
Продолжительность: 02:06:54

Файл
Формат: MKV
Кодек: H.264
Качество: WEBRip 1080p
Видео: MPEG-4 AVC, 1920х800 (2.40:1), ~ 4500 kbps, 25 fps, 0.122 bit/pixel
Звук: AAC, 48.0 kHz, 2 ch, 192 Kbps

Скриншоты

admin

Post 02-Apr-2021 12:31

[Quote]

Информация о фильме
Название: Я свободен
Год выхода: 2019
Жанр: Драма
Режиссер: Илья Северов
В ролях: Глеб Калюжный, Ангелина Загребина, Лидия Емельяненко, Евгений Ковылин, Григорий Верник, Анастасия Крупнова, Давид Мелконян, Алексей Булатов, Сергей Чабанчук, Арсений Орлов, Петр Савченков, Андрей Фомин, Ирина Горячева, Эдуард Безродный, Валерий Александрин, Кирилл Ильин, Сабрин Фитини
О фильме:
Семнадцатилетний Артем приезжает в лагерь на берегу моря между сменами, чтобы спрятаться от проблем и тяжелых воспоминаний прошлого. Но вместо желанного одиночества молчаливого героя встречают странные обитатели лагеря, с которыми он вынужден общаться. Вереница случайных (или совсем неслучайных?) событий должна либо сломать, либо излечить героя.

Страна: Россия
Студия: Киностудия им. М. Горького
Продолжительность: 01:30:59
Язык: Русский
Примечание: Без рекламы
Файл
Формат: MKV
Качество: WEBRip 1080p
Видео: MPEG-4 AVC, 6480 Кбит/с, 1920х1080
Звук: AAC, 2 ch, 256 Кбит/с
Субтитры: Отсутствуют
Семпл

Скриншоты

MI

General
Unique ID : 26088826467331891876054357072622986845 (0x13A0867435F53C413DCC1B23B8C9265D)
Complete name : Ya.svoboden.2019.1080p.START.WEB-DL.AAC2.0.H.264-EniaHD.mkv
Format : Matroska
Format version : Version 4
File size : 4.24 GiB
Duration : 1 h 30 min
Overall bit rate : 6 680 kb/s
Writing application : mkvmerge v55.0.0 ('Waiting For Space') 64-bit
Writing library : libebml v1.4.2 + libmatroska v1.6.4
Video
ID : 1
Format : AVC
Format/Info : Advanced Video Codec
Format profile : High@L4
Format settings : CABAC / 4 Ref Frames
Format settings, CABAC : Yes
Format settings, Reference frames : 4 frames
Codec ID : V_MPEG4/ISO/AVC
Duration : 1 h 30 min
Bit rate : 6 480 kb/s
Width : 1 920 pixels
Height : 1 080 pixels
Display aspect ratio : 16:9
Frame rate mode : Constant
Frame rate : 25.000 FPS
Color space : YUV
Chroma subsampling : 4:2:0
Bit depth : 8 bits
Scan type : Progressive
Bits/(Pixel*Frame) : 0.125
Stream size : 4.08 GiB (96%)
Writing library : x264 core 152
Encoding settings : cabac=1 / ref=2 / deblock=1:0:0 / analyse=0x3:0x113 / me=hex / subme=6 / psy=1 / psy_rd=1.00:0.00 / mixed_ref=1 / me_range=16 / chroma_me=1 / trellis=1 / 8x8dct=1 / cqm=0 / deadzone=21,11 / fast_pskip=1 / chroma_qp_offset=-2 / threads=12 / lookahead_threads=2 / sliced_threads=0 / nr=0 / decimate=1 / interlaced=0 / bluray_compat=0 / constrained_intra=0 / bframes=3 / b_pyramid=2 / b_adapt=1 / b_bias=0 / direct=1 / weightb=1 / open_gop=0 / weightp=1 / keyint=250 / keyint_min=25 / scenecut=40 / intra_refresh=0 / rc_lookahead=30 / rc=abr / mbtree=1 / bitrate=6480 / ratetol=1.0 / qcomp=0.60 / qpmin=0 / qpmax=69 / qpstep=4 / vbv_maxrate=7776 / vbv_bufsize=15552 / nal_hrd=none / filler=0 / ip_ratio=1.40 / aq=1:1.00
Default : Yes
Forced : No
Color range : Limited
Color primaries : BT.709
Transfer characteristics : BT.709
Matrix coefficients : BT.709
Audio
ID : 2
Format : AAC LC
Format/Info : Advanced Audio Codec Low Complexity
Codec ID : A_AAC-2
Duration : 1 h 30 min
Bit rate : 254 kb/s
Channel(s) : 2 channels
Channel layout : L R
Sampling rate : 48.0 kHz
Frame rate : 46.875 FPS (1024 SPF)
Compression mode : Lossy
Stream size : 165 MiB (4%)
Language : Russian
Default : Yes
Forced : No

admin

Post 01-Apr-2021 12:27

[Quote]

Оригинальное название: Конёк-Горбунок
Год выпуска: 2021
Жанр: Приключения, детский, семейный, фэнтези, комедия
Выпущено: Россия, Телеканал «РОССИЯ 1», Кинокомпания CTB
Режиссер: Олег Погодин
В ролях: Антон Шагин, Павел Деревянко, Михаил Ефремов, Паулина Андреева, Ян Цапник, Олег Тактаров, Татьяна Захарова, Владимир Дикун, Виталий Копнин, Екатерина Байгозина, Алина Недобитко, Юрий Жаравин, Павел Стонт, Андрей Феськов, Виталия Корниенко
О фильме: Иван - не царевич, не богатырь, не красавец, а старшие братья и вовсе его дураком считают. Но всё меняется, когда у Ивана появляется друг и верный помощник - Конёк-Горбунок. Пусть он ростом невелик, зато умный и смелый. С таким другом никакой враг не страшен. Ну, почти никакой. С таким помощником и ничего невозможного нет. Ну, почти, нет. Ивану с Коньком предстоит проверить свою дружбу на прочность, столкнуться с коварным противником, преодолеть невероятные испытания и встретить такую любовь, ради которой стоит рискнуть всем. Ну, почти всем.

Качество: WEB-DL (1080p)
Видео: MPEG-4 AVC, 1920х1036, ~ 5224 Кбит/с
Аудио: AAC, 2 ch, 192 Кбит/с
Продолжительность: 01:51:12
Язык: Русский

Релиз

Источник - КиноПоиск HD (чистый видеоряд)

Интересно

Съемки ленты проходили в самом большом в России съемочном павильоне под Санкт-Петербургом (его площадь более 7000 кв.м.). Здесь были построены отдельные декорации и условные объекты зеленого или синего цветов, которые впоследствии достраивались и воссоздавались с помощью компьютерной графики.

Скриншоты


admin

Post 26-Mar-2021 07:27

[Quote]

Информация о фильме
Название: Пугало
Год выхода: 2020
Жанр: Драма
Режиссер: Дмитрий Давыдов
В ролях: Валентина Романова-Чыскыырай, Анатолий Стручков, Артур Захаров, Анилена Гурьева
О фильме:
Она — знахарка и отшельница. Ее ненавидят взрослые и боятся дети, но если случилась беда, она — единственный шанс на спасение. Для нее этот дар — проклятие, но мрачная тайна, сокрытая в прошлом, заставляет ее помогать людям снова и снова.

Выпущено: Россия / Bonfire Production
Продолжительность: 01:12:00
Озвучивание: Профессиональное (многоголосое, закадровое) | iTunes
Язык: Русский
Файл
Формат: MKV
Качество: WEB-DL 1080p
Видео: MPEG-4 AVC, 4561 Kb/s, 1920х804
Аудио: Russian: 48 kHz, AC3 Dolby Digital, 3/2 (L, C, R, l, r) + LFE ch, ~384 Kbps
Субтитры: Russian (Full)
Дополнительно: Сохранены оригинальные чаптеры.

MediaInfo:

Complete name : Pugalo.2020.WEB-DL.1080p.ELEKTRI4KA.UNIONGANG.mkv
Format : Matroska
Format version : Version 4
File size : 2.49 GiB
Duration : 1 h 12 min
Overall bit rate : 4 947 kb/s
Movie name : Pugalo.2020.WEB-DL.1080p.ELEKTRI4KA.UNIONGANG
Encoded date : UTC 2021-03-25 13:53:17
Writing application : mkvmerge v8.3.0 ('Over the Horizon') 64bit
Writing library : libebml v1.3.1 + libmatroska v1.4.2
Video
ID : 1
Format : AVC
Format/Info : Advanced Video Codec
Format profile : High@L4
Format settings : CABAC / 5 Ref Frames
Format settings, CABAC : Yes
Format settings, Reference frames : 5 frames
Codec ID : V_MPEG4/ISO/AVC
Duration : 1 h 11 min
Bit rate : 4 561 kb/s
Width : 1 920 pixels
Height : 804 pixels
Display aspect ratio : 2.40:1
Frame rate mode : Constant
Frame rate : 24.000 FPS
Color space : YUV
Chroma subsampling : 4:2:0
Bit depth : 8 bits
Scan type : Progressive
Bits/(Pixel*Frame) : 0.123
Stream size : 2.29 GiB (92%)
Language : English
Default : Yes
Forced : No
Color range : Limited
Color primaries : BT.709
Transfer characteristics : BT.709
Matrix coefficients : BT.709
Audio
ID : 2
Format : AC-3
Format/Info : Audio Coding 3
Commercial name : Dolby Digital
Codec ID : A_AC3
Duration : 1 h 12 min
Bit rate mode : Constant
Bit rate : 384 kb/s
Channel(s) : 6 channels
Channel layout : L R C LFE Ls Rs
Sampling rate : 48.0 kHz
Frame rate : 31.250 FPS (1536 SPF)
Compression mode : Lossy
Stream size : 198 MiB (8%)
Title : Original (iTunes)
Language : Russian
Service kind : Complete Main
Default : Yes
Forced : No
Text
ID : 3
Format : UTF-8
Codec ID : S_TEXT/UTF8
Codec ID/Info : UTF-8 Plain Text
Duration : 1 h 4 min
Bit rate : 34 b/s
Count of elements : 334
Stream size : 16.3 KiB (0%)
Title : Full
Language : Russian
Default : No
Forced : No
Menu
00:00:00.000 : en:Глава 1
00:08:45.958 : en:Глава 2
00:16:36.874 : en:Глава 3
00:24:43.707 : en:Глава 4
00:31:26.998 : en:Глава 5
00:37:10.998 : en:Глава 6
00:44:27.081 : en:Глава 7
00:51:15.997 : en:Глава 8
00:57:04.913 : en:Глава 9
01:03:41.454 : en:Глава 10

Скриншоты

admin

Post 25-Mar-2021 06:40

[Quote]

Информация о фильме
Название: Love
Год выхода: 2020
Жанр: Комедия, мелодрама
Режиссер: Игорь Твердохлебов
В ролях: Сергей Светлаков, Тимур Батрутдинов, Ян Цапник, Камиль Ларин, Анатолий Белый, Мария Миронова,Ксения Собчак, Елена Валюшкина, Юрий Стоянов,Екатерина Варнава
О фильме:
Лучшее место, где можно провести праздник 14 февраля. Вот и в этот раз двери отеля открыты для всех, кто хочет, чтобы День всех влюблённых стал особенным, мечтает снова поверить в любовь или хотя бы в этот день не оказаться в одиночестве.Бывшие однокурсники встречаются в ресторане в честь 40-летия выпуска и старые чувства вспыхивают с новой силой. Ревнивый мужчина пытается проникнуть во все номера на этаже, чтобы найти пропавшую со связи жену. Частный детектив и его привлекательная клиентка устраивают шпионское шоу с прослушкой, чтобы вывести на чистую воду мужа-подлеца.Горничная-иммигрантка из Узбекистана выбирает между любовью к своему молодому парню и деньгами от его мамы, выданными за ее немедленное бегство домой. А жизнь скромного студента, мечтающего стать мужчиной всего за один час, никогда не будет прежней после встречи с самой болтливой ночной бабочкой города…

Выпущено: Россия / Свердловск
Продолжительность: 01:31:08
Озвучивание: Оригинальное | IVI
Файл
Формат: MKV
Качество: WEBRip 1080p
Видео: MPEG-4 AVC, 5120 Kb/s, 1920x858
Аудио #1: Russian: 48 kHz, AC3 Dolby Digital, 3/2 (L, C, R, l, r) + LFE ch, ~384 Kbps | IVI
Аудио #2: Russian: 48 kHz, Advanced Audio Codec, 3/2 (L, C, R, l, r) + LFE ch, ~512 Kbps | IVI
Субтитры: Нет
Дополнительно: Нет

MediaInfo:

Complete name : Love.2020.WEBRip.1080p.ELEKTRI4KA.UNIONGANG.mkv
Format : Matroska
Format version : Version 4
File size : 3.83 GiB
Duration : 1 h 31 min
Overall bit rate : 6 011 kb/s
Movie name : Love.2020.WEBRip.1080p.ELEKTRI4KA.UNIONGANG
Encoded date : UTC 2021-03-24 21:55:57
Writing application : mkvmerge v8.3.0 ('Over the Horizon') 64bit
Writing library : libebml v1.3.1 + libmatroska v1.4.2
Video
ID : 1
Format : AVC
Format/Info : Advanced Video Codec
Format profile : High@L4
Format settings : CABAC / 4 Ref Frames
Format settings, CABAC : Yes
Format settings, Reference frames : 4 frames
Codec ID : V_MPEG4/ISO/AVC
Duration : 1 h 31 min
Bit rate : 5 120 kb/s
Width : 1 920 pixels
Height : 858 pixels
Display aspect ratio : 2.25:1
Frame rate mode : Constant
Frame rate : 24.000 FPS
Color space : YUV
Chroma subsampling : 4:2:0
Bit depth : 8 bits
Scan type : Progressive
Bits/(Pixel*Frame) : 0.130
Stream size : 3.25 GiB (85%)
Writing library : x264 core 148
Encoding settings : cabac=1 / ref=3 / deblock=1:0:0 / analyse=0x3:0x113 / me=hex / subme=7 / psy=1 / psy_rd=1.00:0.00 / mixed_ref=1 / me_range=16 / chroma_me=1 / trellis=1 / 8x8dct=1 / cqm=0 / deadzone=21,11 / fast_pskip=1 / chroma_qp_offset=-2 / threads=27 / lookahead_threads=4 / sliced_threads=0 / nr=0 / decimate=1 / interlaced=0 / bluray_compat=0 / constrained_intra=0 / bframes=6 / b_pyramid=2 / b_adapt=1 / b_bias=0 / direct=1 / weightb=1 / open_gop=0 / weightp=2 / keyint=48 / keyint_min=25 / scenecut=0 / intra_refresh=0 / rc_lookahead=40 / rc=2pass / mbtree=1 / bitrate=5120 / ratetol=1.0 / qcomp=0.60 / qpmin=0 / qpmax=69 / qpstep=4 / cplxblur=20.0 / qblur=0.5 / vbv_maxrate=7680 / vbv_bufsize=20480 / nal_hrd=none / filler=0 / ip_ratio=1.40 / aq=1:1.00
Default : Yes
Forced : No
Audio #1
ID : 2
Format : AC-3
Format/Info : Audio Coding 3
Commercial name : Dolby Digital
Codec ID : A_AC3
Duration : 1 h 31 min
Bit rate mode : Constant
Bit rate : 384 kb/s
Channel(s) : 6 channels
Channel layout : L R C LFE Ls Rs
Sampling rate : 48.0 kHz
Frame rate : 31.250 FPS (1536 SPF)
Compression mode : Lossy
Delay relative to video : -43 ms
Stream size : 250 MiB (6%)
Title : AC3 (IVI)
Language : Russian
Service kind : Complete Main
Default : Yes
Forced : No
Audio #2
ID : 3
Format : AAC LC
Format/Info : Advanced Audio Codec Low Complexity
Codec ID : A_AAC-2
Duration : 1 h 31 min
Bit rate : 512 kb/s
Channel(s) : 6 channels
Channel layout : C L R Ls Rs LFE
Sampling rate : 48.0 kHz
Frame rate : 46.875 FPS (1024 SPF)
Compression mode : Lossy
Delay relative to video : -43 ms
Stream size : 334 MiB (9%)
Title : AAC (IVI)
Language : Russian
Default : No
Forced : No

Скриншоты


admin

Post 19-Mar-2021 05:36

[Quote]

Информация о фильме
Название: Приворот. Черное венчание
Год выхода: 2021
Жанр: Ужасы, триллер, мелодрама
Режиссер: Святослав Подгаевский
В ролях: Яна Енжаева, Константин Белошапка, Илья Ермолов, Варвара Бородина, Игорь Хрипунов, Сабина Ахмедова, Кристина Маранды, Лариса Домаскина, Даниэла Богатырева, Никита Юранов
О фильме:
Женю бросает мужчина, которого она любит больше жизни. Не в силах смириться девушка решается на отчаянный шаг: цыганка помогает ей провести ритуал черного венчания и сделать самый сильный приворот на любовь. И Кирилл возвращается! Им еще никогда не было так хорошо вместе, влюбленные не могут оторваться друг от друга. Но с каждым днем страсть Кирилла все больше походит на пугающую одержимость - он контролирует каждый шаг девушки и не готов ни с кем ее делить: «Ты только моя, а я твой». На что Жене придется пойти, чтобы отменить черное венчание и спасти любимого от необратимого превращения в чудовище? Ведь пока приворот действует, даже смерть не разлучит их.

Страна: Россия
Студия: Централ Партнершип, Iney Productions, QS Films
Продолжительность: 01:28:55
Язык: Русский
Примечание: Без рекламы
Файл
Формат: MKV
Качество: WEBRip 1080p
Видео: MPEG-4 AVC, 4370 Кбит/с, 1920x800
Звук: AC3, 2 ch, 192 Кбит/с
Субтитры: Отсутствуют

Скриншоты

MI

Complete name : Privorot.Chernoe.venchanie.2020.WEB-DL.1080p.ELEKTRI4KA.UNIONGANG.mkv
Format : Matroska
Format version : Version 4
File size : 2.83 GiB
Duration : 1 h 28 min
Overall bit rate mode : Variable
Overall bit rate : 4 564 kb/s
Movie name : Privorot.Chernoe.venchanie.2020.WEB-DL.1080p.ELEKTRI4KA.UNIONGANG.
Encoded date : UTC 2021-03-17 22:46:08
Writing application : mkvmerge v8.3.0 ('Over the Horizon') 64bit
Writing library : libebml v1.3.1 + libmatroska v1.4.2
Video
ID : 1
Format : AVC
Format/Info : Advanced Video Codec
Format profile : High@L4
Format settings : CABAC / 1 Ref Frames
Format settings, CABAC : Yes
Format settings, Reference frames : 1 frame
Format settings, GOP : M=1, N=50
Codec ID : V_MPEG4/ISO/AVC
Duration : 1 h 28 min
Bit rate mode : Variable
Bit rate : 4 370 kb/s
Maximum bit rate : 4 500 kb/s
Width : 1 920 pixels
Height : 800 pixels
Display aspect ratio : 2.40:1
Frame rate mode : Constant
Frame rate : 25.000 FPS
Color space : YUV
Chroma subsampling : 4:2:0
Bit depth : 8 bits
Scan type : Progressive
Bits/(Pixel*Frame) : 0.114
Stream size : 2.71 GiB (96%)
Default : Yes
Forced : No
Audio
ID : 2
Format : AC-3
Format/Info : Audio Coding 3
Commercial name : Dolby Digital
Codec ID : A_AC3
Duration : 1 h 28 min
Bit rate mode : Constant
Bit rate : 192 kb/s
Channel(s) : 2 channels
Channel layout : L R
Sampling rate : 44.1 kHz
Frame rate : 28.711 FPS (1536 SPF)
Compression mode : Lossy
Stream size : 122 MiB (4%)
Title : Original
Language : Russian
Service kind : Complete Main
Default : Yes
Forced : No

admin

Post 18-Mar-2021 05:14

[Quote]

Информация о фильме
Название: Батя
Год выхода: 2020
Жанр: Комедия
Страна: Россия
Перевод: Не требуется
Продолжительность: 01:16:21
Режиссер: Дмитрий Ефимович
В ролях: Владимир Вдовиченков, Андрей Андреев, Елена Лядова, Стас Старовойтов, Надежда Михалкова, Диана Енакаева, Вера Тарасова, Михаил Орлов, Севастьян Бугаев, Дмитрий Журавлев и др.
О фильме: История о путешествии взрослого героя к своему Бате, суровому русскому мужику, который стал отцом на заре девяностых и воспитывал своего сына так, как это делали все советские люди.

Файл
Качество: WEB-DL 1080p
Видео: MPEG-4 AVC, 1920x804, 4548 kbps, 24,000 fps
Звук: русский, AC3, 5.1 ch, 48 kHz, 384 kbps
Субтитры: нет

MI

Общее
Уникальный идентификатор : 194891049638474920785623812998352989210 (0x929EA69D6580352F8EAFEE24CFBDEC1A)
Полное имя : C:UtorrentBatyaWEBDL1080p.mkv
Формат : Matroska
Версия формата : Version 4 / Version 2
Размер файла : 2,63 Гбайт
Продолжительность : 1 ч. 16 м.
Общий поток : 4934 Кбит/сек
Дата кодирования : UTC 2021-03-17 18:11:30
Программа кодирования : mkvmerge v9.5.0 ('Quiet Fire') 64bit
Библиотека кодирования : libebml v1.3.4 + libmatroska v1.4.5
Видео
Идентификатор : 1
Формат : AVC
Формат/Информация : Advanced Video Codec
Профиль формата : High@L4
Настройки формата : CABAC / 5 Ref Frames
Параметр CABAC формата : Да
Параметр RefFrames формата : 5 кадров
Идентификатор кодека : V_MPEG4/ISO/AVC
Продолжительность : 1 ч. 16 м.
Битрейт : 4548 Кбит/сек
Ширина : 1920 пикселей
Высота : 804 пикселя
Соотношение сторон : 2,40:1
Режим частоты кадров : Постоянный
Частота кадров : 24,000 кадра/сек
Цветовое пространство : YUV
Субдискретизация насыщенности : 4:2:0
Битовая глубина : 8 бит
Тип развёртки : Прогрессивная
Бит/(Пиксели*Кадры) : 0.123
Размер потока : 2,43 Гбайт (92%)
Язык : Russian
Default : Да
Forced : Нет
Цветовой диапазон : Limited
Основные цвета : BT.709
Характеристики трансфера : BT.709
Коэффициенты матрицы : BT.709
Аудио
Идентификатор : 2
Формат : AC-3
Формат/Информация : Audio Coding 3
Параметр Endianness формата : Big
Идентификатор кодека : A_AC3
Продолжительность : 1 ч. 16 м.
Вид битрейта : Постоянный
Битрейт : 384 Кбит/сек
Каналы : 6 каналов
Расположение каналов : Front: L C R, Side: L R, LFE
Частота : 48,0 КГц
Частота кадров : 31,250 кадров/сек (1536 SPF)
Битовая глубина : 16 бит
Метод сжатия : С потерями
Размер потока : 210 Мбайт (8%)
Язык : Russian
Default : Да
Forced : Нет
Меню
00:00:00.000 : en:Глава 1
00:02:30.875 : en:Глава 2
00:09:11.290 : en:Глава 3
00:16:42.498 : en:Глава 4
00:21:34.373 : en:Глава 5
00:26:42.663 : en:Глава 6
00:33:42.413 : en:Глава 7
00:39:35.246 : en:Глава 8
00:49:09.704 : en:Глава 9
00:52:45.745 : en:Глава 10
00:58:05.661 : en:Глава 11
01:04:12.494 : en:Глава 12
01:11:45.034 : en:Глава 13

Скриншоты


admin

Post 17-Mar-2021 04:53

[Quote]

«Не бойся скорости, не бойся себя настоящего»
Информация о фильме
Название: На скорости
Год выхода: 2020
Жанр: Мелодрама, комедия
Режиссер: Павел Игнатов
В ролях: Владимир Стеклов, Денис Нурулин, Таша Цветкова, Кирилл Каганович, Евгений Овчинников, Веста Буркот
О фильме:
Любовь к машинам, скорости и жажда адреналина у столичного подростка Артёма в крови от знаменитого деда, опытного гонщика в прошлом, который живет на юге страны. Именно у него предстоит провести это лето главному герою и встретить там свою первую любовь. Чтобы завоевать сердце девушки, Артёму придётся столкнуться с чередой неприятностей и даже поучаствовать в гонках со своим соперником, местным мажором, показав, чего он стоит — побороться за девушку своей мечты и найти себя настоящего.


Страна: Россия
Студия: КиноПроГрупп
Продолжительность: 01:34:54
Перевод: Не требуется | IVI
Файл
Качество: WEBRip 1080p
Формат: MKV
Кодек: MPEG-4 AVC
Видео: 1920x806 (2.40:1), 24 fps, MPEG-4 AVC, 5120 Кbps avg, 0.138 bit/pixel
Аудио: AAC-LC, 48 kHz, 6 ch, ~512.00 kbps avg | русский | IVI
Субтитры: Отсутствуют

Инфо-файл

Общее
Уникальный идентификатор : 167620046861437895117511834762798447124 (0x7E1A725E67A366ED76C78C1DB3603A14)
Полное имя : C:UsersValera Na.skorosti.2020.1080p.WEBRip.MegaPeer.mkv
Формат : Matroska
Версия формата : Version 4
Размер файла : 3,72 Гбайт
Продолжительность : 1 ч. 34 м.
Общий поток : 5 612 Кбит/сек
Дата кодирования : UTC 2021-03-16 03:00:44
Программа кодирования : mkvmerge v47.0.0 ('Black Flag') 64-bit
Библиотека кодирования : libebml v1.3.10 + libmatroska v1.5.2
Видео
Идентификатор : 1
Формат : AVC
Формат/Информация : Advanced Video Codec
Профиль формата : High@L4
Настройки формата : CABAC / 4 Ref Frames
Параметр CABAC формата : Да
Параметр RefFrames формата : 4 кадра
Параметр GOP формата : M=7, N=48
Идентификатор кодека : V_MPEG4/ISO/AVC
Продолжительность : 1 ч. 34 м.
Битрейт : 5 120 Кбит/сек
Ширина : 1 920 пикселей
Высота : 806 пикселей
Соотношение сторон : 2,40:1
Режим частоты кадров : Постоянный
Частота кадров : 24,000 кадра/сек
Цветовое пространство : YUV
Субдискретизация насыщенности : 4:2:0
Битовая глубина : 8 бит
Тип развёртки : Прогрессивная
Бит/(Пиксели*Кадры) : 0.138
Размер потока : 3,38 Гбайт (91%)
Библиотека кодирования : x264 core 148
Настройки программы : cabac=1 / ref=3 / deblock=1:0:0 / analyse=0x3:0x113 / me=hex / subme=7 / psy=1 / psy_rd=1.00:0.00 / mixed_ref=1 / me_range=16 / chroma_me=1 / trellis=1 / 8x8dct=1 / cqm=0 / deadzone=21,11 / fast_pskip=1 / chroma_qp_offset=-2 / threads=25 / lookahead_threads=4 / sliced_threads=0 / nr=0 / decimate=1 / interlaced=0 / bluray_compat=0 / constrained_intra=0 / bframes=6 / b_pyramid=2 / b_adapt=1 / b_bias=0 / direct=1 / weightb=1 / open_gop=0 / weightp=2 / keyint=48 / keyint_min=25 / scenecut=0 / intra_refresh=0 / rc_lookahead=40 / rc=2pass / mbtree=1 / bitrate=5120 / ratetol=1.0 / qcomp=0.60 / qpmin=0 / qpmax=69 / qpstep=4 / cplxblur=20.0 / qblur=0.5 / vbv_maxrate=7680 / vbv_bufsize=20480 / nal_hrd=none / filler=0 / ip_ratio=1.40 / aq=1:1.00
Default : Да
Forced : Нет
Аудио
Идентификатор : 2
Формат : AAC LC
Формат/Информация : Advanced Audio Codec Low Complexity
Идентификатор кодека : A_AAC-2
Продолжительность : 1 ч. 34 м.
Битрейт : 512 Кбит/сек
Каналы : 6 каналов
Channel layout : C L R Ls Rs LFE
Частота : 48,0 КГц
Частота кадров : 46,875 кадров/сек (1024 SPF)
Метод сжатия : С потерями
Задержка видео : -43 мс.
Размер потока : 348 Мбайт (9%)
Default : Да
Forced : Нет

Скриншоты

 

Current time is: 20-Apr 18:42

All times are UTC + 3